<?xml version="1.0" standalone="no"?>
<!DOCTYPE svg PUBLIC "-//W3C//DTD SVG 1.1//EN" "http://www.w3.org/Graphics/SVG/1.1/DTD/svg11.dtd" >
<svg>
<metadata>
Created by FontForge 20090914 at Fri Mar 31 17:21:50 2017
 By www-data
Copyright 2014 Pria Ravichandran (pria.ravichandran@gmail.com)
</metadata>
<defs>
<font id="Catamaran-ExtraBold" horiz-adv-x="588" >
  <font-face 
    font-family="Catamaran ExtraBold"
    font-weight="800"
    font-stretch="normal"
    units-per-em="1000"
    panose-1="0 0 9 0 0 0 0 0 0 0"
    ascent="770"
    descent="-230"
    x-height="484"
    cap-height="680"
    bbox="-623.999 -390.003 2648 1320"
    underline-thickness="50"
    underline-position="-75"
    unicode-range="U+000D-U+FB02"
  />
<missing-glyph horiz-adv-x="697" 
d="M602 0v696h-508v-696h508zM240 112v471h215v-471h-215z" />
    <glyph glyph-name=".notdef" horiz-adv-x="697" 
d="M602 0v696h-508v-696h508zM240 112v471h215v-471h-215z" />
    <glyph glyph-name="uni0000" horiz-adv-x="0" 
 />
    <glyph glyph-name="uni0000" horiz-adv-x="0" 
 />
    <glyph glyph-name="nonmarkingreturn" unicode="&#xd;" horiz-adv-x="0" 
 />
    <glyph glyph-name="space" unicode=" " horiz-adv-x="222" 
 />
    <glyph glyph-name="exclam" unicode="!" horiz-adv-x="225" 
d="M192 708h-159l18 -462l124 -44zM54 141c-16 -16 -24 -35.667 -24 -59c0 -22.667 8 -42 24 -58s35.667 -24 59 -24s42.833 8 58.5 24s23.5 35.333 23.5 58c0 23.333 -7.83301 43 -23.5 59s-35.167 24 -58.5 24s-43 -8 -59 -24z" />
    <glyph glyph-name="quotedbl" unicode="&#x22;" horiz-adv-x="424" 
d="M54.5 716c-16.333 -17.333 -24.501 -36.3301 -24.501 -56.9971c0 -16.667 5.16699 -32.334 15.5 -47.001s21.5 -24 33.5 -28c-5.33301 -22.667 -25 -46.334 -59 -71.001l32 -71c41.333 19.333 75.833 48.166 103.5 86.499s41.5 76.833 41.5 115.5
c0 28.667 -8.16699 52.167 -24.5 70.5s-36.166 27.5 -59.499 27.5c-22.667 0 -42.167 -8.66699 -58.5 -26zM252.499 716.003c-16.333 -17.333 -24.502 -36.3359 -24.502 -57.0029c0 -16.667 5 -32.334 15 -47.001s21.333 -24 34 -28
c-3.33301 -13.333 -10.166 -25.666 -20.499 -36.999s-23.5 -22.666 -39.5 -33.999l33 -71c40.667 18.667 74.834 47.334 102.501 86.001s41.5 77.334 41.5 116.001c0 28.667 -8 52.167 -24 70.5s-35.667 27.5 -59 27.5c-22.667 0 -42.167 -8.66699 -58.5 -26z" />
    <glyph glyph-name="numbersign" unicode="#" horiz-adv-x="616" 
d="M292 417l24 100l-130 1l-24 -101h-132l11 -115h93l-21 -95h-83l11 -115h44l-22 -102l128 -5l25 107h108l-23 -102l129 -5l24 107h132l-10 115h-94l21 95h83l-10 115h-45l23 100l-131 1l-24 -101h-107zM244 207l21 95h107l-22 -95h-106z" />
    <glyph glyph-name="dollar" unicode="$" horiz-adv-x="537" 
d="M472 641l-47.9951 -114c-32 13.333 -58.333 22.666 -79 27.999s-43 8 -67 8c-24.667 0 -44.834 -5.16699 -60.501 -15.5s-23.5 -24.5 -23.5 -42.5c0 -14.667 6.5 -27.5 19.5 -38.5s33.833 -24.167 62.5 -39.5c10.667 -4.66699 21.667 -10.667 33 -18
c48 -28 84.667 -50.833 110 -68.5s47.666 -40 66.999 -67s29 -57.833 29 -92.5c0 -37.333 -10.333 -70.5 -31 -99.5s-50.334 -51.833 -89.001 -68.5v-138h-104v114c-17.333 -1.33301 -30.333 -2 -39 -2h-14v-110h-103v128c-42.667 12.667 -74.334 25.334 -95.001 38.001
l45 122c21.333 -11.333 47.833 -21.833 79.5 -31.5s59.834 -14.5 84.501 -14.5c33.333 0 59 5.83301 77 17.5s27 27.167 27 46.5c0 12.667 -6.83301 24.334 -20.5 35.001s-35.834 25 -66.501 43c-6.66699 3.33301 -16.667 9 -30 17c-45.333 27.333 -80.833 50 -106.5 68
s-48.334 40.667 -68.001 68s-29.5 58 -29.5 92c0.666992 37.333 11.5 70.666 32.5 99.999s50.5 51.666 88.5 66.999v118l103 12v-109h20c14 0 24.333 -0.333008 31 -1v98l104 12v-134c20.667 -7.33301 41 -16.666 61 -27.999z" />
    <glyph glyph-name="percent" unicode="%" horiz-adv-x="953" 
d="M406 -2l-160 2l298 708l160 -2zM249 407.5c-15.333 -7.66699 -31.332 -11.498 -47.999 -11.498c-32.667 0 -62.334 12.333 -89.001 37c-27.333 25.333 -41 54 -41 86c0 29.333 11 59.333 33 90c22.667 30.667 52 46 88 46c32 0 60.333 -12 85 -36
c28.667 -24.667 43 -54.334 43 -89.001c0 -29.333 -10.667 -59 -32 -89c-10.667 -14.667 -23.667 -25.834 -39 -33.501zM200.501 521.002c1.66699 1.33301 2.49902 2.66602 2.49902 3.99902c0 2 -2.66699 4.33301 -8 7c0 -0.666992 -0.833008 -1.66699 -2.5 -3
s-2.5 -2.66602 -2.5 -3.99902c0 -2.66699 1 -4.5 3 -5.5s3.33301 -1.5 4 -1.5c0.666992 0.666992 1.83398 1.66699 3.50098 3zM882 180.002c0 -28.667 -10.667 -58 -32 -88c-10.667 -14.667 -23.667 -25.834 -39 -33.501s-31.666 -11.5 -48.999 -11.5
c-32 0 -61.333 12 -88 36c-27.333 26.667 -41 55.667 -41 87c0 28.667 11 58.334 33 89.001c10.667 15.333 23.667 27 39 35s31.666 12 48.999 12c30 0 58 -12 84 -36c29.333 -25.333 44 -55.333 44 -90zM762 171.502c1.33301 1.66699 2 3.16602 2 4.49902
c0 2 -2.33301 4 -7 6c0 -0.666992 -0.833008 -1.5 -2.5 -2.5s-2.5 -2.16699 -2.5 -3.5c0 -2.66699 1 -4.66699 3 -6s3.33301 -2 4 -2c0.666992 0.666992 1.66699 1.83398 3 3.50098z" />
    <glyph glyph-name="ampersand" unicode="&#x26;" horiz-adv-x="686" 
d="M415 681.5c-33.333 9.66699 -68.0029 14.5029 -104.003 14.5029c-42 0 -79.667 -9 -113 -27s-59.166 -42 -77.499 -72s-27.5 -62.667 -27.5 -98c0 -36 10 -69.333 30 -100c-27.333 -24 -49.333 -52.333 -66 -85s-25 -65.334 -25 -98.001c0 -50 12 -92.5 36 -127.5
s56.5 -61.333 97.5 -79s86.833 -26.834 137.5 -27.501c36.667 0 71.334 6 104.001 18s62.334 28.667 89.001 50l75 -67l93 115l-78 66c29.333 60.667 46.333 122 51 184l-139 56c-4.66699 -50 -15 -95.667 -31 -137l-144 128c-26.667 24 -45.667 43.667 -57 59
s-17 30.666 -17 45.999c0 18 6.66699 33.333 20 46s31.666 19 54.999 19c43.333 0 88.333 -13 135 -39l47 114c-27.333 18 -57.666 31.833 -90.999 41.5zM304.997 116.003c-32.667 0 -59.167 9 -79.5 27s-30.5 43.333 -30.5 76c1.33301 28.667 10.333 54 27 76l167 -150
c-26 -19.333 -54 -29 -84 -29z" />
    <glyph glyph-name="quotesingle" unicode="'" horiz-adv-x="227" 
d="M54.5 716c-16.333 -17.333 -24.501 -36.3301 -24.501 -56.9971c0 -16.667 5.16699 -32.334 15.5 -47.001s21.5 -24 33.5 -28c-5.33301 -22.667 -25 -46.334 -59 -71.001l32 -71c41.333 19.333 75.833 48.166 103.5 86.499s41.5 76.833 41.5 115.5
c0 28.667 -8.16699 52.167 -24.5 70.5s-36.166 27.5 -59.499 27.5c-22.667 0 -42.167 -8.66699 -58.5 -26z" />
    <glyph glyph-name="parenleft" unicode="(" horiz-adv-x="340" 
d="M234 148c-21.333 64.667 -31.999 122.665 -31.999 173.998c0 49.333 10.667 105.333 32 168s46.666 114.334 75.999 155.001l-133 37c-42 -60 -73.667 -119.5 -95 -178.5s-32 -119.833 -32 -182.5c0 -64.667 11 -127.5 33 -188.5s53.333 -118.167 94 -171.5l132 38
c-28.667 34.667 -53.667 84.334 -75 149.001z" />
    <glyph glyph-name="parenright" unicode=")" horiz-adv-x="340" 
d="M105.5 495.5c21 -65 31.5 -123.167 31.5 -174.5c0 -49.333 -10.667 -105.5 -32 -168.5s-46.333 -114.5 -75 -154.5l132 -37c42 60 73.833 119.5 95.5 178.5s32.5 119.833 32.5 182.5c0 64 -11.167 126.5 -33.5 187.5s-53.5 118.5 -93.5 172.5l-132 -38
c28.667 -34 53.5 -83.5 74.5 -148.5z" />
    <glyph glyph-name="asterisk" unicode="*" horiz-adv-x="406" 
d="M141 677l-99 25l-32 -110l97 -19l-70 -94l98 -68l68 96l69 -96l97 68l-70 94l97 19l-32 110l-98 -25l-1 98h-123z" />
    <glyph glyph-name="plus" unicode="+" horiz-adv-x="561" 
d="M356 530l-146 2v-197h-180l10 -122h170v-205l146 -6v211h175l-10 122h-165v195z" />
    <glyph glyph-name="comma" unicode="," horiz-adv-x="227" 
d="M55 121c-16 -17.333 -24.002 -36.667 -24.002 -58c0 -16.667 5 -32.334 15 -47.001s21.333 -24 34 -28c-3.33301 -13.333 -10 -25.5 -20 -36.5s-23.333 -22.5 -40 -34.5l33 -71c40.667 18.667 74.834 47.5 102.501 86.5s41.5 77.5 41.5 115.5
c0 28.667 -8.16699 52.334 -24.5 71.001s-36.166 28 -59.499 28c-22.667 0 -42 -8.66699 -58 -26z" />
    <glyph glyph-name="hyphen" unicode="-" horiz-adv-x="342" 
d="M41 212h271l-10 123h-272z" />
    <glyph glyph-name="period" unicode="." horiz-adv-x="225" 
d="M171.5 24c15.667 16 23.5 35.333 23.5 58c0 23.333 -7.83301 43 -23.5 59s-35.167 24 -58.5 24s-43 -8 -59 -24s-24 -35.667 -24 -59c0 -22.667 8 -42 24 -58s35.667 -24 59 -24s42.833 8 58.5 24z" />
    <glyph glyph-name="slash" unicode="/" horiz-adv-x="480" 
d="M171 -2l299 708l-162 2l-298 -708z" />
    <glyph glyph-name="zero" unicode="0" horiz-adv-x="643" 
d="M60.5 131c25.667 -45.333 61.334 -80.834 107.001 -106.501s96.834 -38.5 153.501 -38.5c57.333 0 108.666 12.833 153.999 38.5s80.833 61.334 106.5 107.001s38.5 97.167 38.5 154.5c0 56 -12.833 106.333 -38.5 151s-61.167 79.5 -106.5 104.5s-96.333 37.5 -153 37.5
c-57.333 0 -108.833 -12.667 -154.5 -38s-81.334 -60.5 -107.001 -105.5s-38.5 -95.5 -38.5 -151.5c0 -56.667 12.833 -107.667 38.5 -153zM217.5 403.999c27 30.667 61.499 45.999 103.499 45.999c28 0 53.167 -7.16699 75.5 -21.5s39.666 -34.166 51.999 -59.499
s18.5 -54 18.5 -86c0 -31.333 -6.16699 -59.833 -18.5 -85.5s-29.666 -45.667 -51.999 -60s-47.166 -21.5 -74.499 -21.5c-28 0 -53 7.33301 -75 22s-39.167 35 -51.5 61s-18.5 55.333 -18.5 88c0 47.333 13.5 86.333 40.5 117z" />
    <glyph glyph-name="one" unicode="1" horiz-adv-x="404" 
d="M237 566l-227 -99l60 -122l115 47v-392h157v566h-105z" />
    <glyph glyph-name="two" unicode="2" horiz-adv-x="492" 
d="M38 527l23 -126c23.333 13.333 49.333 25.166 78 35.499s56.334 15.5 83.001 15.5c29.333 0 52.5 -5.33301 69.5 -16s25.5 -26 25.5 -46c0 -18 -8 -36.5 -24 -55.5s-40.333 -42.167 -73 -69.5l-195 -168v-97h447l-12 121h-217l68 57c50.667 42.667 87 80.334 109 113.001
s33 70 33 112c0 56 -19.833 99.333 -59.5 130s-93.834 46 -162.501 46c-70.667 0 -135 -17.333 -193 -52z" />
    <glyph glyph-name="three" unicode="3" horiz-adv-x="510" 
d="M20 507l74 -104.999c50 33.333 96.333 50 139 50c26.667 0 47.334 -5.5 62.001 -16.5s22 -24.833 22 -41.5c0 -20.667 -10.167 -37.167 -30.5 -49.5s-47.5 -18.5 -81.5 -18.5h-74l16 -123h73c35.333 0 62.333 -7 81 -21s28 -33.667 28 -59
c0 -22 -9.33301 -39.833 -28 -53.5s-41.667 -20.5 -69 -20.5c-26 0 -50.5 3.66699 -73.5 11s-48.5 19.666 -76.5 36.999l-82 -104c35.333 -21.333 73.666 -38.333 114.999 -51s80 -19 116 -19c50 0 94 8.5 132 25.5s67.5 40.5 88.5 70.5s31.5 64 31.5 102
c0 33.333 -9.16699 64.333 -27.5 93s-38.833 48 -61.5 58c19.333 10 37.166 27.833 53.499 53.5s24.5 51.5 24.5 77.5c0 33.333 -9.16699 63.333 -27.5 90s-44.666 47.667 -78.999 63s-74.833 23 -121.5 23c-84 0 -158.667 -24 -224 -72z" />
    <glyph glyph-name="four" unicode="4" horiz-adv-x="586" 
d="M464 571h-117l-337 -394l19 -121h278v-122h157v122h91l11 126h-102v389zM188 182l119 147v-147h-119z" />
    <glyph glyph-name="five" unicode="5" horiz-adv-x="523" 
d="M230.5 224c13 9.33301 28.499 13.9971 46.499 13.9971c24 0 43.667 -8 59 -24s23 -37 23 -63c0 -29.333 -10 -52.666 -30 -69.999s-45.333 -26 -76 -26c-26 0 -50.333 3.66699 -73 11s-49.334 19.333 -80.001 36l-78 -110c32.667 -20.667 69.834 -37.5 111.501 -50.5
s80.5 -19.5 116.5 -19.5c50.667 0 94.834 9.66699 132.501 29s66.667 46.333 87 81s30.5 74.334 30.5 119.001c0 38.667 -8.16699 74.334 -24.5 107.001s-40.833 58.834 -73.5 78.501s-71.667 29.5 -117 29.5c-26 0 -48.667 -5.33301 -68 -16l3 92h232l16 124h-380l-18 -373
h134c4.66699 11.333 13.5 21.666 26.5 30.999z" />
    <glyph glyph-name="six" unicode="6" horiz-adv-x="556" 
d="M420 373.5c35.333 -17.667 63.001 -42.165 83.001 -73.498s30 -66.333 30 -105c0 -40.667 -9.66699 -76.667 -29 -108s-46.833 -55.833 -82.5 -73.5s-76.834 -26.5 -123.501 -26.5c-53.333 0 -101 10.667 -143 32s-74.667 52 -98 92s-35 87 -35 141
c0 83.333 22.833 152.666 68.5 207.999s100.834 96.666 165.501 123.999s128.667 44 192 50l18 -138c-58.667 -12 -108.334 -25.833 -149.001 -41.5s-73.667 -39.5 -99 -71.5c26.667 11.333 54 17 82 17c44.667 0 84.667 -8.83301 120 -26.5zM354.501 139.002
c17 16.667 25.501 37.001 25.501 61.001c0 25.333 -8.83301 46.666 -26.5 63.999s-39.834 26 -66.501 26c-37.333 0 -73.333 -12.667 -108 -38c1.33301 -44 12.333 -78 33 -102s48 -36 82 -36c23.333 0 43.5 8.33301 60.5 25z" />
    <glyph glyph-name="seven" unicode="7" horiz-adv-x="496" 
d="M440 566h-430l17 -124h278l-183 -474l152 -41l202 577z" />
    <glyph glyph-name="eight" unicode="8" horiz-adv-x="544" 
d="M156 619.5c-34.667 -15.667 -61.667 -37.168 -81 -64.501s-29 -58.333 -29 -93c0 -24 6.83301 -47 20.5 -69s31.5 -39.333 53.5 -52c-26.667 -13.333 -49.667 -34.166 -69 -62.499s-29 -57.5 -29 -87.5c0 -40 10.167 -75.333 30.5 -106s49.5 -54.667 87.5 -72
s82.333 -26 133 -26s94.667 8.83301 132 26.5s66 42 86 73s30 65.833 30 104.5c0 30 -9.5 59 -28.5 87s-41.833 48.667 -68.5 62c22 13.333 39.833 31 53.5 53s20.5 45 20.5 69c0 34.667 -9.83301 65.667 -29.5 93s-46.5 48.833 -80.5 64.5s-72.333 23.5 -115 23.5
c-43.333 0 -82.333 -7.83301 -117 -23.5zM324 497.499c13.333 -11.667 20 -25.1641 20 -40.4971c0 -18 -6.16699 -33.333 -18.5 -46s-29.833 -20.667 -52.5 -24c-23.333 3.33301 -41.333 11.166 -54 23.499s-19 27.166 -19 44.499c0 15.333 6.66699 29.166 20 41.499
s30.333 18.5 51 18.5c22 0 39.667 -5.83301 53 -17.5zM343 251.502c17.333 -17.667 26 -36.8311 26 -57.498c0 -22 -10 -40.833 -30 -56.5s-42.333 -23.5 -67 -23.5c-25.333 0 -47.666 7.66699 -66.999 23s-29 34.333 -29 57c0 21.333 8.5 40.666 25.5 57.999
s40.833 28.333 71.5 33c29.333 -4.66699 52.666 -15.834 69.999 -33.501z" />
    <glyph glyph-name="nine" unicode="9" horiz-adv-x="556" 
d="M400.5 547c41.667 -21.333 74.167 -52.002 97.5 -92.002s35 -87 35 -141c0 -83.333 -22.833 -152.666 -68.5 -207.999s-100.834 -96.666 -165.501 -123.999s-128.667 -44 -192 -50l-18 138c58.667 12 108.334 25.833 149.001 41.5s73.667 39.5 99 71.5
c-26.667 -11.333 -54 -17 -82 -17c-44 0 -83.833 9 -119.5 27s-63.5 42.5 -83.5 73.5s-30 65.833 -30 104.5c0 40.667 9.83301 76.667 29.5 108s47.167 55.833 82.5 73.5s76.333 26.5 123 26.5c54 0 101.833 -10.667 143.5 -32zM202 301.998
c18 -17.333 40.332 -26.001 66.999 -26.001c36 0 71.667 12.333 107 37c-1.33301 44.667 -12.166 79 -32.499 103s-47.5 36 -81.5 36c-24 0 -44.5 -8.33301 -61.5 -25s-25.5 -37 -25.5 -61c0 -25.333 9 -46.666 27 -63.999z" />
    <glyph glyph-name="colon" unicode=":" horiz-adv-x="225" 
d="M171.5 334c15.667 16 23.5 35.333 23.5 58c0 23.333 -8 43 -24 59s-35.333 24 -58 24s-42.167 -8 -58.5 -24s-24.5 -35.667 -24.5 -59c0 -22.667 8 -42 24 -58s35.667 -24 59 -24s42.833 8 58.5 24zM171.5 24c15.667 16 23.5 35.333 23.5 58
c0 23.333 -7.83301 43 -23.5 59s-35.167 24 -58.5 24s-43 -8 -59 -24s-24 -35.667 -24 -59c0 -22.667 8 -42 24 -58s35.667 -24 59 -24s42.833 8 58.5 24z" />
    <glyph glyph-name="semicolon" unicode=";" horiz-adv-x="228" 
d="M56.5 450.5c-16.333 -16.333 -24.5 -35.833 -24.5 -58.5s8.16699 -42 24.5 -58s36.166 -24 59.499 -24s42.833 8 58.5 24s23.5 35.333 23.5 58c0 23.333 -8 43 -24 59s-35.333 24 -58 24c-23.333 0 -43.166 -8.16699 -59.499 -24.5zM55.5 139
c-16.333 -17.333 -24.5029 -36.3359 -24.5029 -57.0029c0 -16.667 5 -32.5 15 -47.5s21.333 -24.167 34 -27.5c-3.33301 -13.333 -10.166 -25.666 -20.499 -36.999s-23.5 -22.666 -39.5 -33.999l33 -72c40.667 18.667 74.834 47.5 102.501 86.5s41.5 77.5 41.5 115.5
c0 28.667 -8.16699 52.334 -24.5 71.001s-36.166 28 -59.499 28c-22 0 -41.167 -8.66699 -57.5 -26z" />
    <glyph glyph-name="less" unicode="&#x3c;" horiz-adv-x="365" 
d="M345 355l-28 133l-287 -204v-70l287 -206l28 134l-151 107z" />
    <glyph glyph-name="equal" unicode="=" horiz-adv-x="530" 
d="M41 302h459l-10 115h-460zM41 92h459l-10 115h-460z" />
    <glyph glyph-name="greater" unicode="&#x3e;" horiz-adv-x="365" 
d="M20 354l151 -106l-151 -107l28 -133l287 205v70l-287 205z" />
    <glyph glyph-name="question" unicode="?" horiz-adv-x="451" 
d="M10 647l19.999 -133c34 20.667 65.5 35.667 94.5 45s53.833 14 74.5 14c20 0 36.333 -5.16699 49 -15.5s19 -24.166 19 -41.499c0 -22 -14.5 -44.333 -43.5 -67s-66.833 -41.334 -113.5 -56.001l8 -162l118 -39l14 126c54.667 22.667 96.834 51.5 126.501 86.5
s44.5 71.833 44.5 110.5c0 56 -19.5 101 -58.5 135s-92.5 51 -160.5 51s-132 -18 -192 -54zM108.999 141c-16 -16 -24 -35.667 -24 -59c0 -22.667 8 -42 24 -58s35.667 -24 59 -24s43 7.83301 59 23.5s24 35.167 24 58.5s-8 43 -24 59s-35.667 24 -59 24s-43 -8 -59 -24z
" />
    <glyph glyph-name="at" unicode="@" horiz-adv-x="789" 
d="M450 439c-39.333 0 -77.0029 -7.66797 -113.003 -23.001s-65.333 -39 -88 -71s-34 -71.667 -34 -119c0 -51.333 15.333 -92.166 46 -122.499s76.334 -45.5 137.001 -45.5c28 0 55 7.33301 81 22c20 -16 45 -24 75 -24c36.667 0 71.334 9.83301 104.001 29.5
s58.834 48.5 78.501 86.5s29.5 83.333 29.5 136c0 56.667 -14.833 108.667 -44.5 156s-70.334 84.666 -122.001 111.999s-109.167 41 -172.5 41c-81.333 0 -152.666 -17.667 -213.999 -53s-108.5 -82.333 -141.5 -141s-49.5 -122.334 -49.5 -191.001
c0 -68 17 -127.5 51 -178.5s78.833 -90 134.5 -117s115.167 -40.5 178.5 -40.5c40 0 77 3 111 9s68.667 18 104 36l-38 100c-22.667 -10 -50 -17.333 -82 -22s-60.333 -7 -85 -7c-42.667 0 -82 8.5 -118 25.5s-64.667 41.833 -86 74.5s-32 71.334 -32 116.001
c0 52.667 12.167 99.334 36.5 140.001s57 72.167 98 94.5s85.833 33.5 134.5 33.5c43.333 0 80.833 -8.5 112.5 -25.5s55.667 -40.167 72 -69.5s24.5 -62 24.5 -98c0 -24.667 -4.16699 -46.5 -12.5 -65.5s-18.333 -33.833 -30 -44.5s-22.167 -16 -31.5 -16
c-4 0 -7.33301 1.83301 -10 5.5s-4 8.5 -4 14.5l23 189l-38 53h-85zM416.497 191.499c-5.66699 -7 -12.501 -10.5 -20.501 -10.5c-17.333 0 -30.166 4.83301 -38.499 14.5s-12.5 21.167 -12.5 34.5c0 30 9 54.333 27 73s41.333 28 70 28l-15 -114
c-1.33301 -10 -4.83301 -18.5 -10.5 -25.5z" />
    <glyph glyph-name="A" unicode="A" horiz-adv-x="685" 
d="M166 0l53 147h247l55 -157l154 18l-258 672h-147l-260 -680h156zM340 482l80 -211h-157z" />
    <glyph glyph-name="B" unicode="B" horiz-adv-x="637" 
d="M541 50.5c49.333 33.667 73.999 84.168 73.999 151.501c0 35.333 -8.83301 66.666 -26.5 93.999s-41.5 50.333 -71.5 69c45.333 40 68 80.667 68 122c0 65.333 -23.167 113.833 -69.5 145.5s-107.166 47.5 -182.499 47.5h-251v-680h268c78 -0 141.667 16.833 191 50.5z
M421.999 481.001c0 -22.667 -10.833 -39.667 -32.5 -51s-49.5 -17 -83.5 -17h-68v141h82c68 0 102 -24.333 102 -73zM425.499 265.501c18.333 -15 27.501 -35.832 27.501 -62.499c0 -24.667 -9.66699 -43.834 -29 -57.501s-45 -20.5 -77 -20.5h-109v163h113
c31.333 0 56.166 -7.5 74.499 -22.5z" />
    <glyph glyph-name="C" unicode="C" horiz-adv-x="580" 
d="M468 680c-35.333 8.66699 -67.6689 12.999 -97.002 12.999c-66 0 -124.667 -15.167 -176 -45.5s-91.333 -72.5 -120 -126.5s-43 -115.333 -43 -184c0 -67.333 13.333 -127.5 40 -180.5s65.5 -94.5 116.5 -124.5s111.833 -45 182.5 -45c32 0 66.5 4.16699 103.5 12.5
s68.167 19.833 93.5 34.5l-59 116c-45.333 -22.667 -91.666 -34 -138.999 -34c-33.333 0 -63.333 9.5 -90 28.5s-47.667 45.333 -63 79s-23 71.834 -23 114.501c0 44.667 8 84.167 24 118.5s37.5 60.833 64.5 79.5s56.167 28 87.5 28c24.667 0 45.834 -2 63.501 -6
s44.5 -11.667 80.5 -23l47 108c-26.667 16 -57.667 28.333 -93 37z" />
    <glyph glyph-name="D" unicode="D" horiz-adv-x="715" 
d="M533 42c48 28 85 67.833 111 119.5s39 112.5 39 182.5c0 66 -12 124.167 -36 174.5s-59.833 89.833 -107.5 118.5s-105.5 43 -173.5 43h-284v-680h282c64.667 0 121 14 169 42zM481 497c26.667 -37.333 40 -88.333 40 -153c0 -73.333 -14.667 -128 -44 -164
s-69.333 -54 -120 -54h-119v427h126c51.333 0 90.333 -18.667 117 -56z" />
    <glyph glyph-name="E" unicode="E" horiz-adv-x="590" 
d="M238 122v159h235l-19 123h-216v153h292l-19 123h-429v-680h488l-19 122h-313z" />
    <glyph glyph-name="F" unicode="F" horiz-adv-x="534" 
d="M238 557h276l-18 122h-414v-679h156v272h229l-18 123h-211v162z" />
    <glyph glyph-name="G" unicode="G" horiz-adv-x="648" 
d="M465 124c-30.667 -5.33301 -57.666 -7.99902 -80.999 -7.99902c-34.667 0 -66.334 8.5 -95.001 25.5s-51.667 42.167 -69 75.5s-26 73.666 -26 120.999c0 48 9.5 89.167 28.5 123.5s44 60 75 77s63.833 25.5 98.5 25.5c25.333 0 48.666 -2.16699 69.999 -6.5
s49.333 -11.833 84 -22.5l47 108c-26 16 -58.667 28.333 -98 37s-74.333 13 -105 13c-67.333 0 -128.666 -14.833 -183.999 -44.5s-98.833 -71.5 -130.5 -125.5s-47.5 -116 -47.5 -186c0 -69.333 14.333 -130.333 43 -183s69.5 -93.667 122.5 -123s114.833 -44 185.5 -44
c39.333 0 79.833 4.5 121.5 13.5s75.5 21.167 101.5 36.5v345h-257l-13 -117h129v-141z" />
    <glyph glyph-name="H" unicode="H" horiz-adv-x="730" 
d="M491 680v-279h-253v285l-156 -6v-680h156v277h253v-277h156v680h-156z" />
    <glyph glyph-name="I" unicode="I" horiz-adv-x="321" 
d="M82 680v-680h156v680h-156z" />
    <glyph glyph-name="J" unicode="J" horiz-adv-x="320" 
d="M85.5 71.5c-3.66699 -10.333 -11.333 -20 -23 -29s-29.167 -17.833 -52.5 -26.5l63 -120c44.667 14.667 79.5 29.667 104.5 45s43 33.5 54 54.5s16.5 47.833 16.5 80.5v604h-157v-568c0 -16.667 -1.83301 -30.167 -5.5 -40.5z" />
    <glyph glyph-name="K" unicode="K" horiz-adv-x="695" 
d="M239 208v-208h-157v680h157v-260l284 275l119 -88l-233 -230l276 -377h-197l-189 268z" />
    <glyph glyph-name="L" unicode="L" horiz-adv-x="561" 
d="M238 680h-156v-680h469l-18 122h-295v558z" />
    <glyph glyph-name="M" unicode="M" horiz-adv-x="785" 
d="M545 0h157v680h-100l-198 -286l-218 286h-104v-680h156v371l136 -171l62 9l109 151v-360z" />
    <glyph glyph-name="N" unicode="N" horiz-adv-x="759" 
d="M526 0h150v680h-156v-411l-288 411h-150v-680h156v406z" />
    <glyph glyph-name="O" unicode="O" horiz-adv-x="750" 
d="M197 648c-52 -30.667 -92.5 -72.999 -121.5 -126.999s-43.5 -115.333 -43.5 -184c0 -65.333 13.833 -124.666 41.5 -177.999s67.334 -95.5 119.001 -126.5s112.5 -46.5 182.5 -46.5c66.667 0.666992 126 16.167 178 46.5s92.5 72.5 121.5 126.5s43.5 115.667 43.5 185
c0 65.333 -13.667 124.666 -41 177.999s-66.833 95.5 -118.5 126.5s-112.834 46.5 -183.501 46.5c-66.667 -0.666992 -126 -16.334 -178 -47.001zM219 456.501c16.667 34.333 38.832 60.833 66.499 79.5s58.167 28 91.5 28c36 0 67.5 -9.5 94.5 -28.5
s47.833 -45.167 62.5 -78.5s22 -71 22 -113c0 -49.333 -8 -91 -24 -125s-37.833 -59.5 -65.5 -76.5s-58.5 -25.5 -92.5 -25.5c-55.333 0 -99.166 20.5 -131.499 61.5s-48.5 94.167 -48.5 159.5c0 44.667 8.33301 84.167 25 118.5z" />
    <glyph glyph-name="P" unicode="P" horiz-adv-x="630" 
d="M324 217c50.667 0 97.498 8.49902 140.498 25.499s77.5 42.833 103.5 77.5s39 77.334 39 128.001c0 51.333 -12.167 94.333 -36.5 129s-57.166 60.5 -98.499 77.5s-87.666 25.5 -138.999 25.5h-251v-680h156v217h86zM413.498 525.999
c20.333 -18.667 30.5 -46.001 30.5 -82.001c-0.666992 -31.333 -11.5 -56.166 -32.5 -74.499s-48.167 -27.5 -81.5 -27.5h-92v212h90c36.667 0 65.167 -9.33301 85.5 -28z" />
    <glyph glyph-name="Q" unicode="Q" horiz-adv-x="750" 
d="M697.5 211.5c-13.667 -41 -33.5 -76.833 -59.5 -107.5l63 -66l-95 -82l-68 68c-48.667 -24.667 -103 -37.334 -163 -38.001c-70 0 -130.833 15.5 -182.5 46.5s-91.334 73.167 -119.001 126.5s-41.5 112.666 -41.5 177.999c0 68.667 14.5 130 43.5 184
s69.5 96.333 121.5 127s111.333 46.334 178 47.001c70.667 0 131.834 -15.5 183.501 -46.5s91.167 -73.167 118.5 -126.5s41 -112.666 41 -177.999c0 -47.333 -6.83301 -91.5 -20.5 -132.5zM434 127l-82.998 82l105 85l75 -78c16.667 35.333 25 78 25 128
c0 42 -7.33301 79.667 -22 113s-35.5 59.5 -62.5 78.5s-58.5 28.5 -94.5 28.5c-33.333 0 -63.833 -9.33301 -91.5 -28s-49.834 -45.167 -66.501 -79.5s-25 -73.833 -25 -118.5c0 -65.333 16.167 -118.5 48.5 -159.5s76.166 -61.5 131.499 -61.5c22 0 42 3.33301 60 10z" />
    <glyph glyph-name="R" unicode="R" horiz-adv-x="672" 
d="M238 0v236h122l127 -236h175l-159 280c32 18 57.333 42.333 76 73s28 66 28 106c0 73.333 -25.667 128.5 -77 165.5s-117 55.5 -197 55.5h-251v-680h156zM414 530c20 -16 30 -40.667 30 -74c0 -30 -10.5 -53.5 -31.5 -70.5s-48.5 -25.5 -82.5 -25.5h-92v194h90
c37.333 0 66 -8 86 -24z" />
    <glyph glyph-name="S" unicode="S" horiz-adv-x="537" 
d="M140.5 4c43 -11.333 80.165 -17 111.498 -17c54 0 100.833 8.33301 140.5 25s70 39.667 91 69s31.5 62.666 31.5 99.999c0 34.667 -9.66699 65.5 -29 92.5s-41.666 49.333 -66.999 67s-62 40.5 -110 68.5c-11.333 7.33301 -22.333 13.333 -33 18
c-28.667 15.333 -49.5 28.5 -62.5 39.5s-19.5 23.833 -19.5 38.5c0 18 7.83301 32.167 23.5 42.5s35.834 15.5 60.501 15.5c24 0 46.333 -2.66699 67 -8s47 -14.666 79 -27.999l48 114c-26.667 16 -57.667 28.833 -93 38.5s-69.666 14.5 -102.999 14.5
c-49.333 0 -92.333 -8.16699 -129 -24.5s-64.834 -38.666 -84.501 -66.999s-29.834 -60.5 -30.501 -96.5c0 -34 9.83301 -64.667 29.5 -92s42.334 -50 68.001 -68s61.167 -40.667 106.5 -68c13.333 -8 23.333 -13.667 30 -17c30.667 -18 52.834 -32.333 66.501 -43
s20.5 -22.334 20.5 -35.001c0 -19.333 -9 -34.833 -27 -46.5s-43.667 -17.5 -77 -17.5c-24.667 0 -52.834 4.83301 -84.501 14.5s-58.167 20.167 -79.5 31.5l-45 -122c24 -14.667 57.5 -27.667 100.5 -39z" />
    <glyph glyph-name="T" unicode="T" horiz-adv-x="605" 
d="M10 557h203v-557h157v557h225l-19 123h-566v-123z" />
    <glyph glyph-name="U" unicode="U" horiz-adv-x="730" 
d="M73 254c0 -54 12.001 -101 36.001 -141s58.167 -71 102.5 -93s95.5 -33 153.5 -33s109.167 11 153.5 33s78.666 53 102.999 93s36.5 87 36.5 141v426h-157v-417c0 -47.333 -12.333 -83.5 -37 -108.5s-57.667 -37.5 -99 -37.5s-74.333 12.333 -99 37s-37 61 -37 109v417
h-157z" />
    <glyph glyph-name="V" unicode="V" horiz-adv-x="685" 
d="M269 0h147l259 680h-155l-175 -482l-180 492l-155 -18z" />
    <glyph glyph-name="W" unicode="W" horiz-adv-x="963" 
d="M607 0l-125 461l-121 -461h-147l-204 672l155 18l125 -492l115 482h156l122 -482l114 482h156l-200 -680h-146z" />
    <glyph glyph-name="X" unicode="X" horiz-adv-x="677" 
d="M475 0h185l-226 342l232 338h-181l-141 -216l-163 239l-155 -51l221 -311l-237 -341h175l153 220z" />
    <glyph glyph-name="Y" unicode="Y" horiz-adv-x="631" 
d="M621 680h-162l-153 -264l-145 278l-151 -43l219 -384v-267h156v263z" />
    <glyph glyph-name="Z" unicode="Z" horiz-adv-x="581" 
d="M564 564l-17 116h-506l16 -123h323l-368 -442l18 -115h537l-16 122h-363z" />
    <glyph glyph-name="bracketleft" unicode="[" horiz-adv-x="421" 
d="M393 35h-137v538h137l18 123h-311v-783h311z" />
    <glyph glyph-name="backslash" unicode="\" horiz-adv-x="480" 
d="M10 708l299 -710l161 2l-298 710z" />
    <glyph glyph-name="bracketright" unicode="]" horiz-adv-x="421" 
d="M27 573h137v-538h-137l-17 -122h311v783h-311z" />
    <glyph glyph-name="asciicircum" unicode="^" horiz-adv-x="465" 
d="M455 142l-166 265h-112l-167 -265h156l68 113l67 -113h154z" />
    <glyph glyph-name="underscore" unicode="_" horiz-adv-x="449" 
d="M41 0h378l-10 122h-379z" />
    <glyph glyph-name="grave" unicode="`" horiz-adv-x="236" 
d="M167 770h-157l105 -182l111 24z" />
    <glyph glyph-name="a" unicode="a" horiz-adv-x="506" 
d="M164 357c24.667 6 46.668 9 66.001 9c20.667 0 37.167 -5.83301 49.5 -17.5s19.166 -28.167 20.499 -49.5h-76c-58 0 -103.667 -12.333 -137 -37s-50 -61.667 -50 -111c0 -50 15 -89.5 45 -118.5s74.333 -43.5 133 -43.5c43.333 0 83 20.667 119 62l37 -51h87v309
c0 37.333 -8.5 70.5 -25.5 99.5s-41.167 51.5 -72.5 67.5s-67.333 24 -108 24c-30.667 0 -65.334 -4.5 -104.001 -13.5s-69 -19.5 -91 -31.5l42 -120c18.667 8.66699 40.334 16 65.001 22zM184.501 190c10.333 10 23.832 15 40.499 15h76v-59
c-27.333 -25.333 -55.666 -38 -84.999 -38c-14 0 -25.333 4.33301 -34 13s-13 19 -13 31c0 15.333 5.16699 28 15.5 38z" />
    <glyph glyph-name="b" unicode="b" horiz-adv-x="569" 
d="M479.5 434c44.333 -44 66.501 -106.332 66.501 -186.999s-22.5 -143.834 -67.5 -189.501s-106.5 -68.5 -184.5 -68.5c-42 0 -83.333 14.333 -124 43l-28 -32h-80v695l156 11v-223c26 11.333 53.333 17 82 17c75.333 0 135.166 -22 179.499 -66zM358.001 150.501
c18 24.333 27.001 56.167 27.001 95.5c0 40 -9 71.333 -27 94s-43 34 -75 34c-20.667 0 -42.334 -7.66699 -65.001 -23v-216c23.333 -14 46.333 -21 69 -21c29.333 0 53 12.167 71 36.5z" />
    <glyph glyph-name="c" unicode="c" horiz-adv-x="464" 
d="M369 488c-31.333 8 -59.6689 12.001 -85.002 12.001c-52 0 -97.833 -10.5 -137.5 -31.5s-70.334 -51 -92.001 -90s-32.5 -84.5 -32.5 -136.5s10.833 -97.167 32.5 -135.5s52.334 -67.5 92.001 -87.5s85.5 -30 137.5 -30c26.667 0 55.5 3.66699 86.5 11s57.833 20 80.5 38
l-44 110c-22 -10.667 -41.667 -18.334 -59 -23.001s-35.333 -7 -54 -7c-31.333 0 -57.5 11.333 -78.5 34s-31.5 52.667 -31.5 90s10.5 68 31.5 92s47.167 36 78.5 36c19.333 0 37.333 -2.16699 54 -6.5s36.334 -11.833 59.001 -22.5l44 109
c-23.333 17.333 -50.666 30 -81.999 38z" />
    <glyph glyph-name="d" unicode="d" horiz-adv-x="578" 
d="M515 0l-80 -0.000976562l-29 39c-20 -15.333 -41.667 -27.5 -65 -36.5s-47.333 -13.5 -72 -13.5c-75.333 0 -135.333 22 -180 66s-67 106.333 -67 187s22.667 143.834 68 189.501s107 68.5 185 68.5c27.333 0 55 -6.66699 83 -20v215l157 11v-706zM211 148.499
c18 -23 43 -34.5 75 -34.5c22 0 46 9.33301 72 28v207c-24 16.667 -49.333 25 -76 25c-29.333 0 -53 -12 -71 -36s-27 -55.667 -27 -95c0 -40 9 -71.5 27 -94.5z" />
    <glyph glyph-name="e" unicode="e" horiz-adv-x="524" 
d="M476.5 375c-17 38 -42.501 68.333 -76.501 91s-75.667 34 -125 34s-93.166 -10.5 -131.499 -31.5s-68.166 -51 -89.499 -90s-32 -84.5 -32 -136.5c0 -79.333 25.5 -141.333 76.5 -186s120.833 -67 209.5 -67c39.333 0 75.5 5 108.5 15s60.833 23.333 83.5 40l-44 109
c-45.333 -25.333 -91 -38 -137 -38c-70.667 0 -113.334 28.333 -128.001 85h311v47c0 47.333 -8.5 90 -25.5 128zM215.499 348.5c15 15 33.5 22.5 55.5 22.5c23.333 0 41.833 -7.5 55.5 -22.5s22.5 -34.833 26.5 -59.5h-164c2.66699 24.667 11.5 44.5 26.5 59.5z" />
    <glyph glyph-name="f" unicode="f" horiz-adv-x="413" 
d="M89 0h155.999v352h142l-29 122h-113v22c0 23.333 5.33301 41.833 16 55.5s25.667 20.5 45 20.5c20.667 0 41.334 -5.33301 62.001 -16l45 109c-12 10 -29.5 18.833 -52.5 26.5s-44.167 11.5 -63.5 11.5c-60.667 0 -110.5 -16.667 -149.5 -50s-58.5 -79.333 -58.5 -138
v-41h-78v-122h78v-352z" />
    <glyph glyph-name="g" unicode="g" horiz-adv-x="574" 
d="M515 -19c0 -42.667 -10.832 -80.001 -32.499 -112.001s-52.334 -56.5 -92.001 -73.5s-85.5 -25.5 -137.5 -25.5c-26.667 0 -62 5 -106 15s-79 23.667 -105 41l47 110c54 -26.667 105.667 -40 155 -40c34 0 61.5 7.83301 82.5 23.5s31.5 36.5 31.5 62.5v27
c-30 -13.333 -59.667 -20 -89 -20c-75.333 0 -135.333 22 -180 66s-67 106.333 -67 187s22.667 143.834 68 189.501s107 68.5 185 68.5c22.667 0 45.667 -4.5 69 -13.5s45 -21.833 65 -38.5l26 36h80v-503zM358.001 141.999v207c-24 16.667 -49.333 25 -76 25
c-29.333 0 -53 -12 -71 -36s-27 -55.667 -27 -95c0 -40 9 -71.5 27 -94.5s43 -34.5 75 -34.5c22 0 46 9.33301 72 28z" />
    <glyph glyph-name="h" unicode="h" horiz-adv-x="598" 
d="M549 309v-309h-156v297c0 23.333 -5.16699 41.833 -15.5 55.5s-25.5 20.5 -45.5 20.5c-28 0 -66 -14 -114 -42v-331h-156v695l156 11v-252c26 14 52.833 25.333 80.5 34s54.167 13 79.5 13c114 0 171 -64 171 -192z" />
    <glyph glyph-name="i" unicode="i" horiz-adv-x="261" 
d="M191.5 577.5c17 17 25.5 37.167 25.5 60.5c0 24 -8.5 44.5 -25.5 61.5s-37.5 25.5 -61.5 25.5c-23.333 0 -43.5 -8.5 -60.5 -25.5s-25.5 -37.5 -25.5 -61.5c0 -23.333 8.5 -43.5 25.5 -60.5s37.167 -25.5 60.5 -25.5c24 0 44.5 8.5 61.5 25.5zM52 485v-485h157v485h-157z
" />
    <glyph glyph-name="j" unicode="j" horiz-adv-x="282" 
d="M86 577.5c-17.333 17 -26 37.167 -26 60.5c0 24 8.5 44.5 25.5 61.5s37.167 25.5 60.5 25.5c24 0 44.5 -8.5 61.5 -25.5s25.5 -37.5 25.5 -61.5c0 -23.333 -8.5 -43.5 -25.5 -60.5s-37.5 -25.5 -61.5 -25.5c-22.667 0 -42.667 8.5 -60 25.5zM210 -88.5
c-10 -22.333 -27.332 -41.834 -51.999 -58.501s-59.334 -32.334 -104.001 -47.001l-62 115c22.667 8 39.5 16.833 50.5 26.5s18 20.334 21 32.001s4.5 26.834 4.5 45.501v460h157v-489c0 -34 -5 -62.167 -15 -84.5z" />
    <glyph glyph-name="k" unicode="k" horiz-adv-x="542" 
d="M261 193l109 -193h172l-170 282l132 108l-91 109l-195 -172v379l-156 -11v-695h156v157z" />
    <glyph glyph-name="l" unicode="l" horiz-adv-x="281" 
d="M62 695v-695h156v706z" />
    <glyph glyph-name="m" unicode="m" horiz-adv-x="889" 
d="M802 453.5c25.333 -31.667 38 -76.832 38 -135.499v-318h-156v297c0 24.667 -3.83301 43.5 -11.5 56.5s-21.834 19.5 -42.501 19.5c-14 0 -29.667 -3.83301 -47 -11.5s-36.666 -17.834 -57.999 -30.501v-13v-318h-156v297c0 24.667 -3.83301 43.5 -11.5 56.5
s-21.834 19.5 -42.501 19.5c-14 0 -29.833 -3.83301 -47.5 -11.5s-37.167 -17.834 -58.5 -30.501v-331h-157v485h97l27 -51c29.333 20 60.333 36.167 93 48.5s63.334 18.5 92.001 18.5c65.333 0 111 -21 137 -63c28.667 18.667 58.667 33.834 90 45.501s61 17.5 89 17.5
c58 0 99.667 -15.833 125 -47.5z" />
    <glyph glyph-name="n" unicode="n" 
d="M323 373c20 0 34.999 -6.83203 44.999 -20.499s15 -32.167 15 -55.5v-297h157v309c0 59.333 -13.5 106.166 -40.5 140.499s-70.5 51.5 -130.5 51.5c-30.667 0 -63.167 -6.16699 -97.5 -18.5s-66.166 -28.5 -95.499 -48.5l-27 51h-97v-485h157v331c48 28 86 42 114 42z
" />
    <glyph glyph-name="o" unicode="o" horiz-adv-x="579" 
d="M522.5 107c-23 -38 -54.832 -67.168 -95.499 -87.501s-87 -30.5 -139 -30.5c-52.667 0 -99 9.83301 -139 29.5s-71.167 48.667 -93.5 87s-33.5 84.5 -33.5 138.5c0 52 11.5 97.333 34.5 136s54.667 68.334 95 89.001s86.5 31 138.5 31
c52.667 0 99.167 -10.167 139.5 -30.5s71.666 -49.833 93.999 -88.5s33.5 -85 33.5 -139c0 -52 -11.5 -97 -34.5 -135zM366.001 151.999c19.333 22.667 29 52.667 29 90s-9.5 68 -28.5 92s-44.167 36 -75.5 36c-32.667 0 -58.667 -11.5 -78 -34.5s-29 -53.5 -29 -91.5
s9.5 -68.5 28.5 -91.5s44.5 -34.5 76.5 -34.5s57.667 11.333 77 34z" />
    <glyph glyph-name="p" unicode="p" horiz-adv-x="565" 
d="M475.5 434c44.333 -44 66.501 -106.332 66.501 -186.999s-22.5 -143.834 -67.5 -189.501s-106.5 -68.5 -184.5 -68.5c-24 0 -49.333 5.33301 -76 16v-214l-156 -10v703h79l27 -30c42 30.667 86 46 132 46c75.333 0 135.166 -22 179.499 -66zM354.001 150.501
c18 24.333 27.001 56.167 27.001 95.5c0 40 -9 71.333 -27 94s-43 34 -75 34c-20.667 0 -42.334 -7.66699 -65.001 -23v-216c23.333 -14 46.333 -21 69 -21c29.333 0 53 12.167 71 36.5z" />
    <glyph glyph-name="q" unicode="q" horiz-adv-x="574" 
d="M515 -208l-157 -11.001v228c-30 -13.333 -59.667 -20 -89 -20c-75.333 0 -135.333 22 -180 66s-67 106.333 -67 187s22.667 143.834 68 189.501s107 68.5 185 68.5c22.667 0 45.5 -4.5 68.5 -13.5s44.167 -21.5 63.5 -37.5l28 35h80v-692zM358 141.999v207
c-24 16.667 -49.333 25 -76 25c-29.333 0 -53 -12 -71 -36s-27 -55.667 -27 -95c0 -40 9 -71.5 27 -94.5s43 -34.5 75 -34.5c22 0 46 9.33301 72 28z" />
    <glyph glyph-name="r" unicode="r" horiz-adv-x="381" 
d="M290.5 340.5c30.333 13 57.168 19.5 80.501 19.5l-31 125c-24.667 0 -52.334 -7.16699 -83.001 -21.5s-57.667 -30.5 -81 -48.5l-44 69h-80v-484h157v290c24 20.667 51.167 37.5 81.5 50.5z" />
    <glyph glyph-name="s" unicode="s" horiz-adv-x="437" 
d="M115 2c38 -8.66699 70.332 -12.999 96.999 -12.999c66 0 116.167 13.667 150.5 41s51.5 66 51.5 116c0 69.333 -55.667 123.333 -167 162c-42 14.667 -63 27.334 -63 38.001c0 9.33301 5 17 15 23s22.667 9 38 9c36 0 77.333 -10.333 124 -31l45 102
c-23.333 17.333 -51.833 30.166 -85.5 38.499s-63.167 12.5 -88.5 12.5c-62.667 0 -112 -13.833 -148 -41.5s-54 -65.5 -54 -113.5c0 -38 15.667 -69.333 47 -94s71.333 -45.334 120 -62.001c20.667 -6.66699 36.834 -14 48.501 -22s17.5 -16.333 17.5 -25
c0 -10 -6.16699 -17.833 -18.5 -23.5s-26.5 -8.5 -42.5 -8.5c-17.333 0 -38.5 3.16699 -63.5 9.5s-47.833 14.5 -68.5 24.5l-46 -102c22.667 -18 53 -31.333 91 -40z" />
    <glyph glyph-name="t" unicode="t" horiz-adv-x="419" 
d="M236 621l-155.997 -23.999v-123h-70v-122h70v-183c0 -58.667 19.667 -104 59 -136s89.666 -48 150.999 -48c20 0 41.667 3.66699 65 11s40.666 15.666 51.999 24.999l-45 109c-20.667 -10.667 -41.334 -16 -62.001 -16c-20 0 -35.667 7 -47 21s-17 32.333 -17 55v162h136
l-28 122h-108v147z" />
    <glyph glyph-name="u" unicode="u" 
d="M266 111c-20.667 0 -36.001 6.83301 -46.001 20.5s-15 32.5 -15 56.5v296h-157v-308c0 -59.333 13.5 -106.333 40.5 -141s70.833 -52 131.5 -52c30.667 0 62.834 6.33301 96.501 19s65.5 28.667 95.5 48l37 -51h87v485h-157v-330c-45.333 -28.667 -83 -43 -113 -43z" />
    <glyph glyph-name="v" unicode="v" horiz-adv-x="536" 
d="M367 485l-100 -284l-104 302l-148 -43l178 -460h142l191 485h-159z" />
    <glyph glyph-name="w" unicode="w" horiz-adv-x="765" 
d="M596 485l-66 -278l-73 278h-158l-68 -278l-73 296l-148 -43l147 -460h138l81 274l83 -274h138l158 485h-159z" />
    <glyph glyph-name="x" unicode="x" horiz-adv-x="534" 
d="M342 0h174l-157 230l165 255h-172l-87 -136l-97 151l-149 -39l152 -217l-161 -244h175l80 125z" />
    <glyph glyph-name="y" unicode="y" horiz-adv-x="533" 
d="M126 -55c-21.333 -12.667 -49.333 -26.333 -84 -41l53 -124c47.333 10.667 90.833 30.5 130.5 59.5s67.167 62.5 82.5 100.5l215 545h-160l-99 -284l-106 302l-148 -43l171 -439l-14 -33c-6 -16 -19.667 -30.333 -41 -43z" />
    <glyph glyph-name="z" unicode="z" horiz-adv-x="448" 
d="M48 360h182l-220 -278l20 -82h407l-13 124h-220l219 273l-8 88h-387z" />
    <glyph glyph-name="braceleft" unicode="{" horiz-adv-x="322" 
d="M257 390c0 13.333 -1.5 24.498 -4.5 33.498s-7.5 18.833 -13.5 29.5c-6 9.33301 -10.333 17.833 -13 25.5s-4 17.167 -4 28.5c0 8.66699 3.16699 16 9.5 22s15.833 9 28.5 9h39l13 121h-86c-48 0 -83.667 -11.167 -107 -33.5s-35 -53.166 -35 -92.499
c0 -20 6.66699 -46.667 20 -80c8.66699 -24.667 13 -41.334 13 -50.001c0 -12 -4.16699 -21.833 -12.5 -29.5s-18.166 -11.5 -29.499 -11.5h-45v-106h45c11.333 0 21.166 -3.83301 29.499 -11.5s12.5 -17.5 12.5 -29.5s-5 -31 -15 -57c-12 -32 -18 -56 -18 -72
c0 -39.333 11.667 -70.166 35 -92.499s59 -33.5 107 -33.5h86l-13 121h-39c-12.667 0 -22.167 3 -28.5 9s-9.5 13.333 -9.5 22c0 11.333 1.33301 20.666 4 27.999s7 17 13 29c6 10.667 10.5 20.334 13.5 29.001s4.5 19 4.5 31c0 32 -11.667 59 -35 81
c23.333 18.667 35 45.334 35 80.001z" />
    <glyph glyph-name="bar" unicode="|" horiz-adv-x="321" 
d="M238 -13v713l-156 13v-713z" />
    <glyph glyph-name="braceright" unicode="}" horiz-adv-x="321" 
d="M64 229c0 -12 1.5 -22.3271 4.5 -30.9941s7.5 -18.334 13.5 -29.001c6 -12 10.333 -21.667 13 -29s4 -16.666 4 -27.999c0 -8.66699 -3.16699 -16 -9.5 -22s-15.833 -9 -28.5 -9h-39l-13 -121h86c48 0 83.667 11.167 107 33.5s35 53.166 35 92.499
c0 12.667 -2.66699 27.167 -8 43.5l-10 30.5c-10 26 -15 44.333 -15 55c0 12 4.16699 21.833 12.5 29.5s18.166 11.5 29.499 11.5h45v106h-45c-11.333 0 -21.166 3.83301 -29.499 11.5s-12.5 17.5 -12.5 29.5c0 7.33301 2.16699 17 6.5 29s6.83301 19.333 7.5 22
c6.66699 18.667 11.5 33.667 14.5 45s4.5 22.666 4.5 33.999c0 39.333 -11.667 70.166 -35 92.499s-59 33.5 -107 33.5h-86l13 -121h39c12.667 0 22.167 -3 28.5 -9s9.5 -13.333 9.5 -22c0 -12 -1.5 -22 -4.5 -30s-7.16699 -16.667 -12.5 -26
c-6 -10.667 -10.5 -20.334 -13.5 -29.001s-4.5 -19.334 -4.5 -32.001c0 -34.667 11.667 -61.334 35 -80.001c-23.333 -22 -35 -49 -35 -81z" />
    <glyph glyph-name="asciitilde" unicode="~" horiz-adv-x="523" 
d="M171 204c7.33301 8.66699 15.332 12.999 23.999 12.999c14.667 0 27.5 -1.33301 38.5 -4s24.833 -6.66699 41.5 -12s31.334 -9.5 44.001 -12.5s27 -4.5 43 -4.5c41.333 0 73.5 16.5 96.5 49.5s34.5 79.833 34.5 140.5h-121c-0.666992 -12 -4.33398 -22.333 -11.001 -31
s-14.667 -13 -24 -13c-13.333 0 -25.666 1.33301 -36.999 4s-24.333 6.33398 -39 11.001c-19.333 6 -34.833 10.333 -46.5 13s-25.5 4 -41.5 4c-43.333 0 -78 -16.5 -104 -49.5s-39 -79.167 -39 -138.5h130c0 11.333 3.66699 21.333 11 30z" />
    <glyph glyph-name="uni00A0" unicode="&#xa0;" horiz-adv-x="228" 
 />
    <glyph glyph-name="exclamdown" unicode="&#xa1;" horiz-adv-x="225" 
d="M171 567c16 16 24 35.667 24 59s-8 42.833 -24 58.5s-35.667 23.5 -59 23.5c-22.667 0 -42 -8 -58 -24s-24 -35.333 -24 -58c0 -23.333 8 -43 24 -59s35.333 -24 58 -24c23.333 0 43 8 59 24zM32 0h159l-17 462l-124 44z" />
    <glyph glyph-name="cent" unicode="&#xa2;" horiz-adv-x="464" 
d="M361 -2l0.000976562 -118h-141v115c-61.333 11.333 -109.666 38.5 -144.999 81.5s-53 98.167 -53 165.5s17.667 123.166 53 167.499s83.333 72.5 144 84.5v114l141 13v-131c35.333 -8 65.666 -21.333 90.999 -40l-44 -109c-22.667 10.667 -42.334 18.167 -59.001 22.5
s-34.667 6.5 -54 6.5c-31.333 0 -57.5 -12 -78.5 -36s-31.5 -54.667 -31.5 -92s10.5 -67.333 31.5 -90s47.167 -34 78.5 -34c18.667 0 36.667 2.33301 54 7s37 12.334 59 23.001l44 -110c-22.667 -18 -52.667 -31.333 -90 -40z" />
    <glyph glyph-name="sterling" unicode="&#xa3;" horiz-adv-x="514" 
d="M486 122h-220.999c8 18 12 42 12 72v85h156l-30 122h-126v77c0 23.333 5.66699 41.833 17 55.5s28 20.5 50 20.5c8.66699 0 18.667 -1.33301 30 -4s22 -6.66699 32 -12l45 108c-11.333 10 -28.666 18.833 -51.999 26.5s-45 11.5 -65 11.5
c-62.667 0 -113.834 -16.5 -153.501 -49.5s-59.5 -78.833 -59.5 -137.5v-96h-79v-122h79v-81c0 -24 -5.83301 -42.5 -17.5 -55.5s-31.834 -19.833 -60.501 -20.5l10 -122h451z" />
    <glyph glyph-name="currency" unicode="&#xa4;" horiz-adv-x="758" 
d="M647 248c-1.33301 46 -11.666 86.999 -30.999 122.999l106 106l-103 110l-109 -112c-40 20 -83.333 30 -130 30s-90.667 -10.333 -132 -31l-106 110l-112 -107l114 -109c-20 -38 -30 -79 -30 -123s9.66699 -84.667 29 -122l-107 -107l103 -110l109 113
c39.333 -19.333 83.666 -29.666 132.999 -30.999c48 1.33301 91 11.333 129 30l106 -110l112 108l-113 106c20 35.333 30.667 77.333 32 126zM457.5 167.499c-21 -21.667 -46.835 -32.5 -77.502 -32.5c-30 0.666992 -55.5 11.667 -76.5 33s-31.833 47.333 -32.5 78
c0.666992 30.667 11.334 56.667 32.001 78s46 32.333 76 33c30 0 55.833 -10.667 77.5 -32s32.834 -47.333 33.501 -78c-0.666992 -31.333 -11.5 -57.833 -32.5 -79.5z" />
    <glyph glyph-name="yen" unicode="&#xa5;" horiz-adv-x="631" 
d="M385 162h149l10 -106h-159v-56h-156v56h-132l-10 106h142v47h-132l-10 106h115l-192 336l151 43l145 -278l153 264h162l-207 -365h120l10 -106h-159v-47z" />
    <glyph glyph-name="brokenbar" unicode="&#xa6;" horiz-adv-x="321" 
d="M238 400v300l-156 13v-300zM238 -13v300l-156 13v-300z" />
    <glyph glyph-name="section" unicode="&#xa7;" horiz-adv-x="657" 
d="M602.5 166.5c-21 -29 -50.8291 -51.501 -89.4961 -67.501c1.33301 -9.33301 2 -17.333 2 -24c0 -37.333 -10.5 -70.666 -31.5 -99.999s-51.333 -52.333 -91 -69s-86.5 -25 -140.5 -25c-31.333 0 -68.5 5.66699 -111.5 17s-76.5 24.333 -100.5 39l45 122
c21.333 -11.333 47.833 -21.833 79.5 -31.5s59.834 -14.5 84.501 -14.5c33.333 0 59 5.83301 77 17.5s27 27.167 27 46.5c0 12.667 -6.83301 24.334 -20.5 35.001s-35.834 25 -66.501 43c-6.66699 3.33301 -16.667 9 -30 17c-45.333 27.333 -80.833 50 -106.5 68
s-48.334 40.667 -68.001 68s-29.5 58 -29.5 92c0.666992 37.333 11.667 70.5 33 99.5s51 50.833 89 65.5c-1.33301 12 -2 20.667 -2 26c0 36 9.83301 68.333 29.5 97s47.834 51.167 84.501 67.5s79.667 24.5 129 24.5c33.333 0 67.666 -5 102.999 -15s66.666 -23 93.999 -39
l-49 -113c-34 13.333 -61 22.666 -81 27.999s-41.667 8 -65 8c-24.667 0 -44.834 -5.33301 -60.501 -16s-23.5 -25 -23.5 -43c0 -14 6.33301 -26.167 19 -36.5s33.334 -23.5 62.001 -39.5l35 -20c47.333 -27.333 83.666 -49.833 108.999 -67.5s47.666 -40 66.999 -67
s29 -58.167 29 -93.5c0 -37.333 -10.5 -70.5 -31.5 -99.5zM384.504 257.999c19.667 -12 37.833 -25 54.5 -39c10.667 5.33301 19 12.333 25 21s9 18 9 28c0 12.667 -7 24.5 -21 35.5s-36 24.833 -66 41.5l-31 18l-75 46c-18 11.333 -35 24.333 -51 39
c-23.333 -10.667 -35 -27 -35 -49c0 -14.667 6.5 -27.5 19.5 -38.5s33.833 -24.167 62.5 -39.5c11.333 -5.33301 22.333 -11.333 33 -18z" />
    <glyph glyph-name="dieresis" unicode="&#xa8;" horiz-adv-x="370" 
d="M137 624c14 14 21 31.667 21 53c0 20 -7 37.333 -21 52s-31.333 22 -52 22s-38.334 -7.33301 -53.001 -22s-22 -32 -22 -52c0 -20.667 7.33301 -38.167 22 -52.5s32.334 -21.5 53.001 -21.5s38 7 52 21zM338.5 624c14.333 14 21.5 31.667 21.5 53
c0 20 -7.16699 37.333 -21.5 52s-32.166 22 -53.499 22c-19.333 0 -36.5 -7.33301 -51.5 -22s-22.5 -32 -22.5 -52c0 -20.667 7.33301 -38.167 22 -52.5s32 -21.5 52 -21.5c21.333 0 39.166 7 53.499 21z" />
    <glyph glyph-name="copyright" unicode="&#xa9;" horiz-adv-x="824" 
d="M753.5 529c-32.333 58 -78.166 103.833 -137.499 137.5s-127.333 50.5 -204 50.5s-144.5 -16.833 -203.5 -50.5s-104.833 -79.5 -137.5 -137.5s-49 -122.333 -49 -193c0 -70 16.333 -134 49 -192s78.5 -103.833 137.5 -137.5s126.833 -50.5 203.5 -50.5
s144.667 16.833 204 50.5s105.166 79.5 137.499 137.5s48.5 122 48.5 192c0 70.667 -16.167 135 -48.5 193zM166.5 481c23 42.667 55.667 76.333 98 101s91.5 37 147.5 37c58 0 108 -12.167 150 -36.5s74 -57.833 96 -100.5s33 -91 33 -145
c0 -53.333 -11.5 -101.333 -34.5 -144s-55.5 -76.167 -97.5 -100.5s-91 -36.5 -147 -36.5s-105.167 12.167 -147.5 36.5s-75 58 -98 101s-34.5 90.833 -34.5 143.5c0 53.333 11.5 101.333 34.5 144zM503 118.999c27.333 6.66699 51 18.001 71 34.001l-40 103
c-19.333 -10 -36.333 -17 -51 -21s-30.334 -6 -47.001 -6c-26.667 0 -48.5 9.5 -65.5 28.5s-25.5 45.167 -25.5 78.5c0 34 8.5 60.833 25.5 80.5s38.833 29.5 65.5 29.5c17.333 0 33 -2 47 -6s31 -11 51 -21l40 104c-21.333 15.333 -45.666 26.5 -72.999 33.5
s-52 10.5 -74 10.5c-44.667 0 -84.5 -9.5 -119.5 -28.5s-62.333 -45.833 -82 -80.5s-29.5 -75.334 -29.5 -122.001c0 -70.667 20.833 -126.167 62.5 -166.5s97.834 -60.5 168.501 -60.5c23.333 0 48.666 3.33301 75.999 10z" />
    <glyph glyph-name="ordfeminine" unicode="&#xaa;" horiz-adv-x="337" 
d="M111.5 589.5c17 4.33301 31.498 6.5 43.498 6.5c20.667 0 34.334 -8.66699 41.001 -26h-44c-39.333 0 -70.833 -9.5 -94.5 -28.5s-35.5 -45.5 -35.5 -79.5s10.5 -61.167 31.5 -81.5s51.833 -30.5 92.5 -30.5c16.667 0 33.334 3.16699 50.001 9.5s30.667 14.5 42 24.5
l23 -27h54v213c0 40.667 -12.5 72.834 -37.5 96.501s-60.5 35.5 -106.5 35.5c-23.333 0 -47.333 -3 -72 -9s-45.667 -13.333 -63 -22l30 -96c13.333 5.33301 28.5 10.166 45.5 14.499zM137.498 481c5 3.33301 11.5 5.00098 19.5 5.00098h44v-16c-12.667 -12 -29 -18 -49 -18
c-7.33301 0 -12.833 1.5 -16.5 4.5s-5.5 6.83301 -5.5 11.5c0 5.33301 2.5 9.66602 7.5 12.999z" />
    <glyph glyph-name="guillemotleft" unicode="&#xab;" horiz-adv-x="411" 
d="M217 174l-76 72l76 71l-29 98l-158 -146v-46l158 -145zM391 174l-75 72l75 71l-27 98l-159 -146v-46l159 -145z" />
    <glyph glyph-name="logicalnot" unicode="&#xac;" horiz-adv-x="534" 
d="M21 292h344v-175l139 -6v246l-13 58h-481z" />
    <glyph glyph-name="softhyphen" unicode="&#xad;" horiz-adv-x="120" 
 />
    <glyph glyph-name="registered" unicode="&#xae;" horiz-adv-x="728" 
d="M663 654.5c-28 51.667 -67.833 92.334 -119.5 122.001s-111.834 44.5 -180.501 44.5c-68 0 -127.833 -14.833 -179.5 -44.5s-91.5 -70.334 -119.5 -122.001s-42 -109.5 -42 -173.5c0 -62.667 14 -119.667 42 -171s67.833 -91.833 119.5 -121.5s111.5 -44.5 179.5 -44.5
c68.667 0 128.834 14.833 180.501 44.5s91.5 70.167 119.5 121.5s42 108.333 42 171c0 64 -14 121.833 -42 173.5zM146.5 611.5c19.667 37.667 48.167 67.167 85.5 88.5s81 32 131 32c50.667 0 94.667 -10.667 132 -32s66 -50.833 86 -88.5s30 -80.834 30 -129.501
c0 -47.333 -10 -89.833 -30 -127.5s-48.833 -67.5 -86.5 -89.5s-81.5 -33 -131.5 -33s-93.667 10.833 -131 32.5s-65.833 51.5 -85.5 89.5s-29.5 80.667 -29.5 128c0 48.667 9.83301 91.834 29.5 129.501zM504 491.5c11.333 17 17 36.5 17 58.5c0 38.667 -14.5 68 -43.5 88
s-64.833 30 -107.5 30h-149v-366h98v127h45l53 -127h111l-69 148c18.667 10.667 33.667 24.5 45 41.5zM399.5 580.5c10.333 -5.66699 15.501 -16.5 15.501 -32.5c0 -28 -21 -42 -63 -42h-33v83h33c21.333 0 37.166 -2.83301 47.499 -8.5z" />
    <glyph glyph-name="macron" unicode="&#xaf;" horiz-adv-x="296" 
d="M276 736h-266v-123h276z" />
    <glyph glyph-name="degree" unicode="&#xb0;" horiz-adv-x="277" 
d="M75 705.5c-20 -11 -35.832 -26.002 -47.499 -45.002s-17.5 -39.5 -17.5 -61.5c0 -34.667 12.667 -63.667 38 -87s55.666 -35 90.999 -35c22.667 0 43.834 5.33301 63.501 16s35.334 25.334 47.001 44.001s17.5 39.334 17.5 62.001c0 22 -5.83301 42.5 -17.5 61.5
s-27.334 34 -47.001 45s-40.834 16.5 -63.501 16.5s-44 -5.5 -64 -16.5zM162.501 573.998c-6.33301 -6.66699 -13.833 -10 -22.5 -10s-16.334 3.66699 -23.001 11s-10 15.333 -10 24c0 8 3.33301 15.333 10 22s14.334 10 23.001 10s16.167 -3.5 22.5 -10.5
s9.5 -15.167 9.5 -24.5c0 -8 -3.16699 -15.333 -9.5 -22z" />
    <glyph glyph-name="plusminus" unicode="&#xb1;" horiz-adv-x="508" 
d="M321 551l-130 1v-151h-160l11 -106h149v-144l130 -6v150h157l-10 106h-147v150zM41 0h436l-7 107h-439z" />
    <glyph glyph-name="twosuperior" unicode="&#xb2;" horiz-adv-x="378" 
d="M90.5 757.5c-26.333 -9 -51.835 -20.835 -76.502 -35.502l51 -87c20.667 10.667 39.334 18.667 56.001 24s33.334 8 50.001 8c16 0 28.667 -3.33301 38 -10s14 -14.667 14 -24c-0.666992 -16.667 -5.66699 -32.667 -15 -48s-24.333 -31.666 -45 -48.999l-133 -113v-86
h328l-13 99h-139l38 31c36 30.667 61.667 59.334 77 86.001s23 55.667 23 87c0 22 -6 43 -18 63s-30.5 36.333 -55.5 49s-55.833 19 -92.5 19c-32 0 -61.167 -4.5 -87.5 -13.5z" />
    <glyph glyph-name="threesuperior" unicode="&#xb3;" horiz-adv-x="390" 
d="M16 716l55.999 -87.0039c16.667 12.667 32.5 22.167 47.5 28.5s30.833 9.5 47.5 9.5c18 0 31.833 -3 41.5 -9s14.5 -14.667 14.5 -26c0 -13.333 -5.5 -24.666 -16.5 -33.999s-28.833 -14 -53.5 -14h-55l12 -99h54c20.667 0 37 -4.83301 49 -14.5s18 -23.5 18 -41.5
c0 -13.333 -6 -24.5 -18 -33.5s-27.333 -13.5 -46 -13.5c-17.333 0 -33.833 2.83301 -49.5 8.5s-34.167 14.834 -55.5 27.501l-62 -87c24.667 -16.667 52.5 -29.5 83.5 -38.5s60.833 -13.5 89.5 -13.5c37.333 0 70.333 6.33301 99 19s50.834 30.334 66.501 53.001
s23.5 48.334 23.5 77.001c0 24.667 -6.83301 47.667 -20.5 69s-29.167 36 -46.5 44c14.667 6 28.167 19 40.5 39s18.5 39.333 18.5 58c0 39.333 -15.167 71.333 -45.5 96s-72.166 37 -125.499 37c-60.667 0 -116.334 -18.333 -167.001 -55z" />
    <glyph glyph-name="acute" unicode="&#xb4;" horiz-adv-x="236" 
d="M69 770l-59 -158l111 -24l105 182h-157z" />
    <glyph glyph-name="mu" unicode="&#xb5;" horiz-adv-x="598" 
d="M546 -1h-96.999l-27 51c-30 -19.333 -61.833 -35.333 -95.5 -48s-65.834 -19 -96.501 -19h-15v-192l-157 -10v703h157v-296c0 -24 5 -42.833 15 -56.5s25.333 -20.5 46 -20.5c30 0 67.667 14.333 113 43v330h157v-485z" />
    <glyph glyph-name="paragraph" unicode="&#xb6;" horiz-adv-x="983" 
d="M687 557l-0.000976562 -557.001h157v557h116v123h-656c-83.333 0 -151.166 -18.833 -203.499 -56.5s-78.5 -95.5 -78.5 -173.5c0 -52 13.333 -95.667 40 -131s62.167 -61.666 106.5 -78.999s93.5 -26 147.5 -26h24v-214h157v557h190z" />
    <glyph glyph-name="periodcentered" unicode="&#xb7;" horiz-adv-x="225" 
d="M171.5 204c15.667 16 23.5 35.667 23.5 59s-7.83301 42.833 -23.5 58.5s-35.167 23.5 -58.5 23.5s-43 -8 -59 -24s-24 -35.333 -24 -58c0 -23.333 8 -43 24 -59s35.667 -24 59 -24s42.833 8 58.5 24z" />
    <glyph glyph-name="cedilla" unicode="&#xb8;" horiz-adv-x="259" 
d="M111.5 -98.5c17 -7 25.499 -16.167 25.499 -27.5c0 -6 -3.16699 -10.5 -9.5 -13.5s-14.166 -4.5 -23.499 -4.5c-14 0 -34 6 -60 18l-34 -81c13.333 -10 30.166 -18.333 50.499 -25s38.833 -10 55.5 -10c36.667 0 68 9.83301 94 29.5s39 47.167 39 82.5
c0 18.667 -6.16699 37.5 -18.5 56.5s-29.166 32.167 -50.499 39.5l19 47h-109l-40 -98c24 -2 44.5 -6.5 61.5 -13.5z" />
    <glyph glyph-name="onesuperior" unicode="&#xb9;" horiz-adv-x="323" 
d="M176 764l-166 -76l40 -100l83 37v-288h127v427h-84z" />
    <glyph glyph-name="ordmasculine" unicode="&#xba;" horiz-adv-x="394" 
d="M69 654.5c-31.333 -31.667 -47.002 -74.499 -47.002 -128.499c0 -54.667 14.833 -97.667 44.5 -129s71.167 -47 124.5 -47c54.667 0 98.334 15.667 131.001 47s49 73.666 49 126.999c0 54.667 -15.333 98 -46 130s-73.667 48 -129 48
c-53.333 0 -95.666 -15.833 -126.999 -47.5zM235.498 576.501c7.66699 -12.333 11.5 -30.166 11.5 -53.499c0 -45.333 -17.667 -68 -53 -68c-16.667 0 -28.667 5.83301 -36 17.5s-11 29.5 -11 53.5c0 23.333 4.5 40.666 13.5 51.999s21.5 17 37.5 17
c17.333 0 29.833 -6.16699 37.5 -18.5z" />
    <glyph glyph-name="guillemotright" unicode="&#xbb;" horiz-adv-x="412" 
d="M20 318l75 -72l-75 -71l28 -97l158 145v47l-158 145zM196 318l75 -72l-75 -71l27 -97l159 145v47l-159 145z" />
    <glyph glyph-name="onequarter" unicode="&#xbc;" horiz-adv-x="953" 
d="M10 688l40 -100l83 37v-288h127v427h-84zM798 700h-155l-591 -834h154zM848 26v298h-93l-258 -302l14 -100h207v-88h130v88h76l9 104h-85zM718 117v-91h-77z" />
    <glyph glyph-name="onehalf" unicode="&#xbd;" horiz-adv-x="954" 
d="M176 764l-166 -76l40 -100l83 37v-288h127v427h-84zM206 -134l592 834h-155l-591 -834h154zM665.5 311.5c-26.333 -9 -51.499 -21.1699 -75.499 -36.5029l51 -87c20 10.667 38.5 18.834 55.5 24.501s33.833 8.5 50.5 8.5c15.333 0 27.666 -3.83301 36.999 -11.5
s14 -16.5 14 -26.5c0 -16.667 -4.66699 -32 -14 -46s-24.666 -30 -45.999 -48l-132 -112v-86h328l-13 98h-139l38 32c35.333 30.667 60.666 59.334 75.999 86.001s23 55.334 23 86.001c0 22 -5.83301 43 -17.5 63s-30 36.5 -55 49.5s-56.167 19.5 -93.5 19.5
c-32 0 -61.167 -4.5 -87.5 -13.5z" />
    <glyph glyph-name="threequarters" unicode="&#xbe;" horiz-adv-x="948" 
d="M16 716l55.999 -87.0039c16.667 12.667 32.5 22.167 47.5 28.5s30.833 9.5 47.5 9.5c18 0 31.833 -3 41.5 -9s14.5 -14.667 14.5 -26c0 -13.333 -5.5 -24.666 -16.5 -33.999s-28.833 -14 -53.5 -14h-55l12 -99h54c20.667 0 37 -4.83301 49 -14.5s18 -23.5 18 -41.5
c0 -13.333 -6 -24.5 -18 -33.5s-27.333 -13.5 -46 -13.5c-17.333 0 -33.833 2.83301 -49.5 8.5s-34.167 14.834 -55.5 27.501l-62 -87c24.667 -16.667 52.5 -29.5 83.5 -38.5s60.833 -13.5 89.5 -13.5c37.333 0 70.333 6.33301 99 19s50.834 30.334 66.501 53.001
s23.5 48.334 23.5 77.001c0 24.667 -6.83301 47.667 -20.5 69s-29.167 36 -46.5 44c14.667 6 28.167 19 40.5 39s18.5 39.333 18.5 58c0 39.333 -15.167 71.333 -45.5 96s-72.166 37 -125.499 37c-60.667 0 -116.334 -18.333 -167.001 -55zM230.999 -134.004l592 834h-154
l-591 -834h153zM491.999 21.9961l15 -100h207v-88h130v88h75l9 104h-84v298h-94zM713.999 25.9961h-78l78 91v-91z" />
    <glyph glyph-name="questiondown" unicode="&#xbf;" horiz-adv-x="451" 
d="M341.5 523c16.333 16 24.5 35.667 24.5 59c0 22.667 -8.16699 42 -24.5 58s-36.166 24 -59.499 24c-22.667 0 -42 -7.83301 -58 -23.5s-24 -35.167 -24 -58.5s7.83301 -43 23.5 -59s35.167 -24 58.5 -24s43.166 8 59.499 24zM441 17l-19.999 133.002
c-63.333 -39.333 -120 -59 -170 -59c-19.333 0 -35.333 5.16699 -48 15.5s-19 24.166 -19 41.499c0 22 14.5 44.333 43.5 67s66.833 41.667 113.5 57l-8 162l-118 38l-14 -125c-54.667 -24 -96.834 -53.333 -126.501 -88s-44.5 -71.334 -44.5 -110.001
c0 -56 19.5 -101 58.5 -135s92.167 -51 159.5 -51c68.667 0 133 18 193 54z" />
    <glyph glyph-name="Agrave" unicode="&#xc0;" horiz-adv-x="685" 
d="M166 0l53 147h247l55 -157l154 18l-258 672h-147l-260 -680h156zM340 482l80 -211h-157zM356 918h-157l105 -182l111 23z" />
    <glyph glyph-name="Aacute" unicode="&#xc1;" horiz-adv-x="685" 
d="M166 0l53 147h247l55 -157l154 18l-258 672h-147l-260 -680h156zM340 482l80 -211h-157zM323 918l-59 -159l111 -23l105 182h-157z" />
    <glyph glyph-name="Acircumflex" unicode="&#xc2;" horiz-adv-x="685" 
d="M166 0l53 147h247l55 -157l154 18l-258 672h-147l-260 -680h156zM340 482l80 -211h-157zM549 757l-163 164h-90l-163 -164l151 -18l59 63l59 -63z" />
    <glyph glyph-name="Atilde" unicode="&#xc3;" horiz-adv-x="685" 
d="M166 0l53 147h247l55 -157l154 18l-258 672h-147l-260 -680h156zM340 482l80 -211h-157zM402.5 865.5c-5 -6.33301 -10.8311 -9.50293 -17.498 -9.50293c-10 0 -18.5 1.33301 -25.5 4s-15.167 6.66699 -24.5 12c-10 6 -19 10.5 -27 13.5s-17.667 4.5 -29 4.5
c-32.667 0 -60.334 -11.167 -83.001 -33.5s-34 -57.833 -34 -106.5h106c0 6.66699 2.66699 13.334 8 20.001s11 10 17 10c10.667 0 19.5 -1.33301 26.5 -4s14.5 -7 22.5 -13c9.33301 -6 17.666 -10.5 24.999 -13.5s17 -4.5 29 -4.5c32.667 0 60 11.333 82 34
s33 58.334 33 107.001h-101c0 -7.33301 -2.5 -14.166 -7.5 -20.499z" />
    <glyph glyph-name="Adieresis" unicode="&#xc4;" horiz-adv-x="685" 
d="M166 0l53 147h247l55 -157l154 18l-258 672h-147l-260 -680h156zM340 482l80 -211h-157zM296 774c14 14 21 31.667 21 53c0 20 -7 37.333 -21 52s-31.333 22 -52 22s-38.334 -7.33301 -53.001 -22s-22 -32 -22 -52c0 -20.667 7.33301 -38.167 22 -52.5
s32.334 -21.5 53.001 -21.5s38 7 52 21zM497.5 774c14.333 14 21.5 31.667 21.5 53c0 20 -7.16699 37.333 -21.5 52s-32.166 22 -53.499 22c-19.333 0 -36.5 -7.33301 -51.5 -22s-22.5 -32 -22.5 -52c0 -20.667 7.33301 -38.167 22 -52.5s32 -21.5 52 -21.5
c21.333 0 39.166 7 53.499 21z" />
    <glyph glyph-name="Aring" unicode="&#xc5;" horiz-adv-x="685" 
d="M166 0l53 147h247l55 -157l154 18l-258 672h-147l-260 -680h156zM340 482l80 -211h-157zM261 928c-22.667 -21.333 -34 -47 -34 -77c0 -30.667 11.167 -56.167 33.5 -76.5s49.5 -30.5 81.5 -30.5c31.333 0 58.333 10.167 81 30.5s34 45.833 34 76.5
c0 30 -11.5 55.667 -34.5 77s-49.833 32 -80.5 32c-31.333 0 -58.333 -10.667 -81 -32zM318.5 826.5c-7 7 -10.5 15.165 -10.5 24.498c0 8.66699 3.5 16.334 10.5 23.001s15.167 10 24.5 10s17.333 -3.16699 24 -9.5s10 -14.166 10 -23.499s-3.33301 -17.5 -10 -24.5
s-14.667 -10.5 -24 -10.5s-17.5 3.5 -24.5 10.5z" />
    <glyph glyph-name="AE" unicode="&#xc6;" horiz-adv-x="975" 
d="M468 144v-144h487l-19 122h-311v159h234l-19 123h-215v153h290l-18 123h-436l-456 -669l150 -23l101 156h212zM342 268l126 182v-182h-126z" />
    <glyph glyph-name="Ccedilla" unicode="&#xc7;" horiz-adv-x="580" 
d="M463.5 -73.5c12.333 -19 18.502 -37.8301 18.502 -56.4971c0 -35.333 -13 -62.833 -39 -82.5s-57.333 -29.5 -94 -29.5c-16.667 0 -35.167 3.33301 -55.5 10s-37.166 15 -50.499 25l34 81c26 -12 46 -18 60 -18c9.33301 0 17.166 1.5 23.499 4.5s9.5 7.5 9.5 13.5
c0 11.333 -8.5 20.5 -25.5 27.5s-37.5 11.5 -61.5 13.5l31 76c-59.333 8 -110.166 27.667 -152.499 59s-74.5 71.666 -96.5 120.999s-33 104.666 -33 165.999c0 68.667 14.333 130 43 184s68.667 96.167 120 126.5s110 45.5 176 45.5c29.333 0 61.666 -4.33301 96.999 -13
s66.333 -21 93 -37l-47 -108c-36 11.333 -62.833 19 -80.5 23s-38.834 6 -63.501 6c-31.333 0 -60.5 -9.33301 -87.5 -28s-48.5 -45.167 -64.5 -79.5s-24 -73.833 -24 -118.5c0 -42.667 7.66699 -80.834 23 -114.501s36.333 -60 63 -79s56.667 -28.5 90 -28.5
c47.333 0 93.666 11.333 138.999 34l59 -116c-37.333 -21.333 -85.666 -36 -144.999 -44l-10 -24c21.333 -7.33301 38.166 -20.5 50.499 -39.5z" />
    <glyph glyph-name="Egrave" unicode="&#xc8;" horiz-adv-x="590" 
d="M238 122v159h235l-19 123h-216v153h292l-19 123h-429v-680h488l-19 122h-313zM331 918h-157l105 -182l111 23z" />
    <glyph glyph-name="Eacute" unicode="&#xc9;" horiz-adv-x="590" 
d="M238 122v159h235l-19 123h-216v153h292l-19 123h-429v-680h488l-19 122h-313zM299 918l-59 -159l111 -23l105 182h-157z" />
    <glyph glyph-name="Ecircumflex" unicode="&#xca;" horiz-adv-x="590" 
d="M238 122v159h235l-19 123h-216v153h292l-19 123h-429v-680h488l-19 122h-313zM524 757l-163 164h-90l-163 -164l151 -18l59 63l59 -63z" />
    <glyph glyph-name="Edieresis" unicode="&#xcb;" horiz-adv-x="590" 
d="M238 122v159h235l-19 123h-216v153h292l-19 123h-429v-680h488l-19 122h-313zM272 774c14 14 21 31.667 21 53c0 20 -7 37.333 -21 52s-31.333 22 -52 22s-38.334 -7.33301 -53.001 -22s-22 -32 -22 -52c0 -20.667 7.33301 -38.167 22 -52.5s32.334 -21.5 53.001 -21.5
s38 7 52 21zM473.5 774c14.333 14 21.5 31.667 21.5 53c0 20 -7.16699 37.333 -21.5 52s-32.166 22 -53.499 22c-19.333 0 -36.5 -7.33301 -51.5 -22s-22.5 -32 -22.5 -52c0 -20.667 7.33301 -38.167 22 -52.5s32 -21.5 52 -21.5c21.333 0 39.166 7 53.499 21z" />
    <glyph glyph-name="Igrave" unicode="&#xcc;" horiz-adv-x="321" 
d="M82 680v-680h156v680h-156zM176 918h-157l105 -182l111 23z" />
    <glyph glyph-name="Iacute" unicode="&#xcd;" horiz-adv-x="321" 
d="M82 680v-680h156v680h-156zM143 918l-59 -159l111 -23l105 182h-157z" />
    <glyph glyph-name="Icircumflex" unicode="&#xce;" horiz-adv-x="321" 
d="M82 680v-680h156v680h-156zM369 757l-163 164h-90l-163 -164l151 -18l59 63l59 -63z" />
    <glyph glyph-name="Idieresis" unicode="&#xcf;" horiz-adv-x="321" 
d="M82 680v-680h156v680h-156zM116 774c14 14 21 31.667 21 53c0 20 -7 37.333 -21 52s-31.333 22 -52 22s-38.334 -7.33301 -53.001 -22s-22 -32 -22 -52c0 -20.667 7.33301 -38.167 22 -52.5s32.334 -21.5 53.001 -21.5s38 7 52 21zM317.5 774
c14.333 14 21.5 31.667 21.5 53c0 20 -7.16699 37.333 -21.5 52s-32.166 22 -53.499 22c-19.333 0 -36.5 -7.33301 -51.5 -22s-22.5 -32 -22.5 -52c0 -20.667 7.33301 -38.167 22 -52.5s32 -21.5 52 -21.5c21.333 0 39.166 7 53.499 21z" />
    <glyph glyph-name="Eth" unicode="&#xd0;" horiz-adv-x="715" 
d="M539.5 637c47.667 -28.667 83.5 -68.167 107.5 -118.5s36 -108.5 36 -174.5c0 -70 -13 -130.833 -39 -182.5s-63 -91.5 -111 -119.5s-104.333 -42 -169 -42h-282v280h-59l-14 123h73v277h284c68 0 125.833 -14.333 173.5 -43zM477 180c29.333 36 44 90.667 44 164
c0 64.667 -13.333 115.667 -40 153s-65.667 56 -117 56h-126v-150h90l13 -123h-103v-154h119c50.667 0 90.667 18 120 54z" />
    <glyph glyph-name="Ntilde" unicode="&#xd1;" horiz-adv-x="759" 
d="M526 0h150v680h-156v-411l-288 411h-150v-680h156v406zM438.5 865.5c-5 -6.33301 -10.8311 -9.50293 -17.498 -9.50293c-10 0 -18.5 1.33301 -25.5 4s-15.167 6.66699 -24.5 12c-10 6 -19 10.5 -27 13.5s-17.667 4.5 -29 4.5c-32.667 0 -60.334 -11.167 -83.001 -33.5
s-34 -57.833 -34 -106.5h106c0 6.66699 2.66699 13.334 8 20.001s11 10 17 10c10.667 0 19.5 -1.33301 26.5 -4s14.5 -7 22.5 -13c9.33301 -6 17.666 -10.5 24.999 -13.5s17 -4.5 29 -4.5c32.667 0 60 11.333 82 34s33 58.334 33 107.001h-101
c0 -7.33301 -2.5 -14.166 -7.5 -20.499z" />
    <glyph glyph-name="Ograve" unicode="&#xd2;" horiz-adv-x="750" 
d="M197 648c-52 -30.667 -92.5 -72.999 -121.5 -126.999s-43.5 -115.333 -43.5 -184c0 -65.333 13.833 -124.666 41.5 -177.999s67.334 -95.5 119.001 -126.5s112.5 -46.5 182.5 -46.5c66.667 0.666992 126 16.167 178 46.5s92.5 72.5 121.5 126.5s43.5 115.667 43.5 185
c0 65.333 -13.667 124.666 -41 177.999s-66.833 95.5 -118.5 126.5s-112.834 46.5 -183.501 46.5c-66.667 -0.666992 -126 -16.334 -178 -47.001zM219 456.501c16.667 34.333 38.832 60.833 66.499 79.5s58.167 28 91.5 28c36 0 67.5 -9.5 94.5 -28.5
s47.833 -45.167 62.5 -78.5s22 -71 22 -113c0 -49.333 -8 -91 -24 -125s-37.833 -59.5 -65.5 -76.5s-58.5 -25.5 -92.5 -25.5c-55.333 0 -99.166 20.5 -131.499 61.5s-48.5 94.167 -48.5 159.5c0 44.667 8.33301 84.167 25 118.5zM385.998 918.001h-157l105 -182l111 23z
" />
    <glyph glyph-name="Oacute" unicode="&#xd3;" horiz-adv-x="750" 
d="M197 648c-52 -30.667 -92.5 -72.999 -121.5 -126.999s-43.5 -115.333 -43.5 -184c0 -65.333 13.833 -124.666 41.5 -177.999s67.334 -95.5 119.001 -126.5s112.5 -46.5 182.5 -46.5c66.667 0.666992 126 16.167 178 46.5s92.5 72.5 121.5 126.5s43.5 115.667 43.5 185
c0 65.333 -13.667 124.666 -41 177.999s-66.833 95.5 -118.5 126.5s-112.834 46.5 -183.501 46.5c-66.667 -0.666992 -126 -16.334 -178 -47.001zM219 456.501c16.667 34.333 38.832 60.833 66.499 79.5s58.167 28 91.5 28c36 0 67.5 -9.5 94.5 -28.5
s47.833 -45.167 62.5 -78.5s22 -71 22 -113c0 -49.333 -8 -91 -24 -125s-37.833 -59.5 -65.5 -76.5s-58.5 -25.5 -92.5 -25.5c-55.333 0 -99.166 20.5 -131.499 61.5s-48.5 94.167 -48.5 159.5c0 44.667 8.33301 84.167 25 118.5zM353.998 918.001l-59 -159l111 -23l105 182
h-157z" />
    <glyph glyph-name="Ocircumflex" unicode="&#xd4;" horiz-adv-x="750" 
d="M197 648c-52 -30.667 -92.5 -72.999 -121.5 -126.999s-43.5 -115.333 -43.5 -184c0 -65.333 13.833 -124.666 41.5 -177.999s67.334 -95.5 119.001 -126.5s112.5 -46.5 182.5 -46.5c66.667 0.666992 126 16.167 178 46.5s92.5 72.5 121.5 126.5s43.5 115.667 43.5 185
c0 65.333 -13.667 124.666 -41 177.999s-66.833 95.5 -118.5 126.5s-112.834 46.5 -183.501 46.5c-66.667 -0.666992 -126 -16.334 -178 -47.001zM219 456.501c16.667 34.333 38.832 60.833 66.499 79.5s58.167 28 91.5 28c36 0 67.5 -9.5 94.5 -28.5
s47.833 -45.167 62.5 -78.5s22 -71 22 -113c0 -49.333 -8 -91 -24 -125s-37.833 -59.5 -65.5 -76.5s-58.5 -25.5 -92.5 -25.5c-55.333 0 -99.166 20.5 -131.499 61.5s-48.5 94.167 -48.5 159.5c0 44.667 8.33301 84.167 25 118.5zM579.998 757.001l-163 164h-90l-163 -164
l151 -18l59 63l59 -63z" />
    <glyph glyph-name="Otilde" unicode="&#xd5;" horiz-adv-x="750" 
d="M197 648c-52 -30.667 -92.5 -72.999 -121.5 -126.999s-43.5 -115.333 -43.5 -184c0 -65.333 13.833 -124.666 41.5 -177.999s67.334 -95.5 119.001 -126.5s112.5 -46.5 182.5 -46.5c66.667 0.666992 126 16.167 178 46.5s92.5 72.5 121.5 126.5s43.5 115.667 43.5 185
c0 65.333 -13.667 124.666 -41 177.999s-66.833 95.5 -118.5 126.5s-112.834 46.5 -183.501 46.5c-66.667 -0.666992 -126 -16.334 -178 -47.001zM219 456.501c16.667 34.333 38.832 60.833 66.499 79.5s58.167 28 91.5 28c36 0 67.5 -9.5 94.5 -28.5
s47.833 -45.167 62.5 -78.5s22 -71 22 -113c0 -49.333 -8 -91 -24 -125s-37.833 -59.5 -65.5 -76.5s-58.5 -25.5 -92.5 -25.5c-55.333 0 -99.166 20.5 -131.499 61.5s-48.5 94.167 -48.5 159.5c0 44.667 8.33301 84.167 25 118.5zM433.498 865.501
c-5 -6.33301 -10.8311 -9.50293 -17.498 -9.50293c-10 0 -18.5 1.33301 -25.5 4s-15.167 6.66699 -24.5 12c-10 6 -19 10.5 -27 13.5s-17.667 4.5 -29 4.5c-32.667 0 -60.334 -11.167 -83.001 -33.5s-34 -57.833 -34 -106.5h106c0 6.66699 2.66699 13.334 8 20.001
s11 10 17 10c10.667 0 19.5 -1.33301 26.5 -4s14.5 -7 22.5 -13c9.33301 -6 17.666 -10.5 24.999 -13.5s17 -4.5 29 -4.5c32.667 0 60 11.333 82 34s33 58.334 33 107.001h-101c0 -7.33301 -2.5 -14.166 -7.5 -20.499z" />
    <glyph glyph-name="Odieresis" unicode="&#xd6;" horiz-adv-x="750" 
d="M197 648c-52 -30.667 -92.5 -72.999 -121.5 -126.999s-43.5 -115.333 -43.5 -184c0 -65.333 13.833 -124.666 41.5 -177.999s67.334 -95.5 119.001 -126.5s112.5 -46.5 182.5 -46.5c66.667 0.666992 126 16.167 178 46.5s92.5 72.5 121.5 126.5s43.5 115.667 43.5 185
c0 65.333 -13.667 124.666 -41 177.999s-66.833 95.5 -118.5 126.5s-112.834 46.5 -183.501 46.5c-66.667 -0.666992 -126 -16.334 -178 -47.001zM219 456.501c16.667 34.333 38.832 60.833 66.499 79.5s58.167 28 91.5 28c36 0 67.5 -9.5 94.5 -28.5
s47.833 -45.167 62.5 -78.5s22 -71 22 -113c0 -49.333 -8 -91 -24 -125s-37.833 -59.5 -65.5 -76.5s-58.5 -25.5 -92.5 -25.5c-55.333 0 -99.166 20.5 -131.499 61.5s-48.5 94.167 -48.5 159.5c0 44.667 8.33301 84.167 25 118.5zM326.998 774.001c14 14 21 31.667 21 53
c0 20 -7 37.333 -21 52s-31.333 22 -52 22s-38.334 -7.33301 -53.001 -22s-22 -32 -22 -52c0 -20.667 7.33301 -38.167 22 -52.5s32.334 -21.5 53.001 -21.5s38 7 52 21zM528.498 774.001c14.333 14 21.5 31.667 21.5 53c0 20 -7.16699 37.333 -21.5 52
s-32.166 22 -53.499 22c-19.333 0 -36.5 -7.33301 -51.5 -22s-22.5 -32 -22.5 -52c0 -20.667 7.33301 -38.167 22 -52.5s32 -21.5 52 -21.5c21.333 0 39.166 7 53.499 21z" />
    <glyph glyph-name="multiply" unicode="&#xd7;" 
d="M384 29l-91 121l-103 -121h-160l192 231l-175 224h157l91 -121l103 121h160l-192 -231l176 -224h-158z" />
    <glyph glyph-name="Oslash" unicode="&#xd8;" horiz-adv-x="750" 
d="M558.5 648.5c51.667 -31 91.167 -73.168 118.5 -126.501s41 -112.666 41 -177.999c0 -69.333 -14.5 -131 -43.5 -185s-69.5 -96.167 -121.5 -126.5s-111.333 -45.833 -178 -46.5c-70 0 -130.833 15.5 -182.5 46.5s-91.334 73.167 -119.001 126.5
s-41.5 112.666 -41.5 177.999c0 68.667 14.5 130 43.5 184s69.5 96.333 121.5 127s111.333 46.334 178 47.001c70.667 0 131.834 -15.5 183.501 -46.5zM285.5 535.999c-27.667 -18.667 -49.833 -45.167 -66.5 -79.5s-25 -73.833 -25 -118.5c0 -66.667 16.333 -120 49 -160
l160 384c-12 1.33301 -20.667 2 -26 2c-33.333 0 -63.833 -9.33301 -91.5 -28zM466.501 142.499c27.667 17 49.5 42.5 65.5 76.5s24 75.667 24 125c0 61.333 -14 111 -42 149l-159 -375c4 -0.666992 10.333 -1 19 -1c34 0 64.833 8.5 92.5 25.5z" />
    <glyph glyph-name="Ugrave" unicode="&#xd9;" horiz-adv-x="730" 
d="M73 254c0 -54 12.001 -101 36.001 -141s58.167 -71 102.5 -93s95.5 -33 153.5 -33s109.167 11 153.5 33s78.666 53 102.999 93s36.5 87 36.5 141v426h-157v-417c0 -47.333 -12.333 -83.5 -37 -108.5s-57.667 -37.5 -99 -37.5s-74.333 12.333 -99 37s-37 61 -37 109v417
h-157zM377.001 918h-157l105 -182l111 23z" />
    <glyph glyph-name="Uacute" unicode="&#xda;" horiz-adv-x="730" 
d="M73 254c0 -54 12.001 -101 36.001 -141s58.167 -71 102.5 -93s95.5 -33 153.5 -33s109.167 11 153.5 33s78.666 53 102.999 93s36.5 87 36.5 141v426h-157v-417c0 -47.333 -12.333 -83.5 -37 -108.5s-57.667 -37.5 -99 -37.5s-74.333 12.333 -99 37s-37 61 -37 109v417
h-157zM345.001 918l-59 -159l111 -23l105 182h-157z" />
    <glyph glyph-name="Ucircumflex" unicode="&#xdb;" horiz-adv-x="730" 
d="M73 254c0 -54 12.001 -101 36.001 -141s58.167 -71 102.5 -93s95.5 -33 153.5 -33s109.167 11 153.5 33s78.666 53 102.999 93s36.5 87 36.5 141v426h-157v-417c0 -47.333 -12.333 -83.5 -37 -108.5s-57.667 -37.5 -99 -37.5s-74.333 12.333 -99 37s-37 61 -37 109v417
h-157zM570.001 757l-163 164h-90l-163 -164l151 -18l59 63l59 -63z" />
    <glyph glyph-name="Udieresis" unicode="&#xdc;" horiz-adv-x="730" 
d="M73 254c0 -54 12.001 -101 36.001 -141s58.167 -71 102.5 -93s95.5 -33 153.5 -33s109.167 11 153.5 33s78.666 53 102.999 93s36.5 87 36.5 141v426h-157v-417c0 -47.333 -12.333 -83.5 -37 -108.5s-57.667 -37.5 -99 -37.5s-74.333 12.333 -99 37s-37 61 -37 109v417
h-157zM317.001 774c14 14 21 31.667 21 53c0 20 -7 37.333 -21 52s-31.333 22 -52 22s-38.334 -7.33301 -53.001 -22s-22 -32 -22 -52c0 -20.667 7.33301 -38.167 22 -52.5s32.334 -21.5 53.001 -21.5s38 7 52 21zM518.501 774c14.333 14 21.5 31.667 21.5 53
c0 20 -7.16699 37.333 -21.5 52s-32.166 22 -53.499 22c-19.333 0 -36.5 -7.33301 -51.5 -22s-22.5 -32 -22.5 -52c0 -20.667 7.33301 -38.167 22 -52.5s32 -21.5 52 -21.5c21.333 0 39.166 7 53.499 21z" />
    <glyph glyph-name="Yacute" unicode="&#xdd;" horiz-adv-x="631" 
d="M621 680h-162l-153 -264l-145 278l-151 -43l219 -384v-267h156v263zM286 918l-59 -159l111 -23l105 182h-157z" />
    <glyph glyph-name="Thorn" unicode="&#xde;" horiz-adv-x="637" 
d="M472 574.5c41.333 -17 74.168 -42.832 98.501 -77.499s36.5 -77.667 36.5 -129c0 -50.667 -13 -93.334 -39 -128.001s-60.5 -60.5 -103.5 -77.5s-89.833 -25.5 -140.5 -25.5h-86v-137h-156v680h156v-80h95c51.333 0 97.666 -8.5 138.999 -25.5zM411.502 289.501
c21 18.333 31.833 43.167 32.5 74.5c0 36 -10.167 63.333 -30.5 82s-48.833 28 -85.5 28h-90v-212h92c33.333 0 60.5 9.16699 81.5 27.5z" />
    <glyph glyph-name="germandbls" unicode="&#xdf;" horiz-adv-x="643" 
d="M218 464c0 32 9.83203 57.4971 29.499 76.4971s43.167 28.5 70.5 28.5s50 -7.16699 68 -21.5s27 -32.833 27 -55.5c0 -22 -9.66699 -41.167 -29 -57.5s-43.666 -24.5 -72.999 -24.5h-31v-118h87c23.333 0 43.333 -7.83301 60 -23.5s25 -36.167 25 -61.5
c0 -23.333 -9.16699 -42.333 -27.5 -57s-40.5 -22 -66.5 -22h-83v-128h96c48 0 90.333 8 127 24s65 39 85 69s30 65 30 105c0 38 -11.5 73.333 -34.5 106s-49.833 54 -80.5 64c22.667 12.667 40.667 32.167 54 58.5s20 52.5 20 78.5c0 40.667 -11.167 75.834 -33.5 105.501
s-53.166 52.334 -92.499 68.001s-84 23.5 -134 23.5c-50.667 0 -94.834 -10.167 -132.501 -30.5s-66.667 -48.666 -87 -84.999s-30.5 -77.833 -30.5 -124.5v-462h156v464z" />
    <glyph glyph-name="agrave" unicode="&#xe0;" horiz-adv-x="506" 
d="M164 357c24.667 6 46.668 9 66.001 9c20.667 0 37.167 -5.83301 49.5 -17.5s19.166 -28.167 20.499 -49.5h-76c-58 0 -103.667 -12.333 -137 -37s-50 -61.667 -50 -111c0 -50 15 -89.5 45 -118.5s74.333 -43.5 133 -43.5c43.333 0 83 20.667 119 62l37 -51h87v309
c0 37.333 -8.5 70.5 -25.5 99.5s-41.167 51.5 -72.5 67.5s-67.333 24 -108 24c-30.667 0 -65.334 -4.5 -104.001 -13.5s-69 -19.5 -91 -31.5l42 -120c18.667 8.66699 40.334 16 65.001 22zM184.501 190c10.333 10 23.832 15 40.499 15h76v-59
c-27.333 -25.333 -55.666 -38 -84.999 -38c-14 0 -25.333 4.33301 -34 13s-13 19 -13 31c0 15.333 5.16699 28 15.5 38zM279 770h-157l105 -182l111 24z" />
    <glyph glyph-name="aacute" unicode="&#xe1;" horiz-adv-x="506" 
d="M164 357c24.667 6 46.668 9 66.001 9c20.667 0 37.167 -5.83301 49.5 -17.5s19.166 -28.167 20.499 -49.5h-76c-58 0 -103.667 -12.333 -137 -37s-50 -61.667 -50 -111c0 -50 15 -89.5 45 -118.5s74.333 -43.5 133 -43.5c43.333 0 83 20.667 119 62l37 -51h87v309
c0 37.333 -8.5 70.5 -25.5 99.5s-41.167 51.5 -72.5 67.5s-67.333 24 -108 24c-30.667 0 -65.334 -4.5 -104.001 -13.5s-69 -19.5 -91 -31.5l42 -120c18.667 8.66699 40.334 16 65.001 22zM184.501 190c10.333 10 23.832 15 40.499 15h76v-59
c-27.333 -25.333 -55.666 -38 -84.999 -38c-14 0 -25.333 4.33301 -34 13s-13 19 -13 31c0 15.333 5.16699 28 15.5 38zM230 770l-59 -158l111 -24l105 182h-157z" />
    <glyph glyph-name="acircumflex" unicode="&#xe2;" horiz-adv-x="506" 
d="M164 357c24.667 6 46.668 9 66.001 9c20.667 0 37.167 -5.83301 49.5 -17.5s19.166 -28.167 20.499 -49.5h-76c-58 0 -103.667 -12.333 -137 -37s-50 -61.667 -50 -111c0 -50 15 -89.5 45 -118.5s74.333 -43.5 133 -43.5c43.333 0 83 20.667 119 62l37 -51h87v309
c0 37.333 -8.5 70.5 -25.5 99.5s-41.167 51.5 -72.5 67.5s-67.333 24 -108 24c-30.667 0 -65.334 -4.5 -104.001 -13.5s-69 -19.5 -91 -31.5l42 -120c18.667 8.66699 40.334 16 65.001 22zM184.501 190c10.333 10 23.832 15 40.499 15h76v-59
c-27.333 -25.333 -55.666 -38 -84.999 -38c-14 0 -25.333 4.33301 -34 13s-13 19 -13 31c0 15.333 5.16699 28 15.5 38zM461 607l-163 163h-90l-163 -163l151 -19l59 64l59 -64z" />
    <glyph glyph-name="atilde" unicode="&#xe3;" horiz-adv-x="506" 
d="M164 357c24.667 6 46.668 9 66.001 9c20.667 0 37.167 -5.83301 49.5 -17.5s19.166 -28.167 20.499 -49.5h-76c-58 0 -103.667 -12.333 -137 -37s-50 -61.667 -50 -111c0 -50 15 -89.5 45 -118.5s74.333 -43.5 133 -43.5c43.333 0 83 20.667 119 62l37 -51h87v309
c0 37.333 -8.5 70.5 -25.5 99.5s-41.167 51.5 -72.5 67.5s-67.333 24 -108 24c-30.667 0 -65.334 -4.5 -104.001 -13.5s-69 -19.5 -91 -31.5l42 -120c18.667 8.66699 40.334 16 65.001 22zM184.501 190c10.333 10 23.832 15 40.499 15h76v-59
c-27.333 -25.333 -55.666 -38 -84.999 -38c-14 0 -25.333 4.33301 -34 13s-13 19 -13 31c0 15.333 5.16699 28 15.5 38zM315.5 715.5c-5 -6.33301 -10.8311 -9.50293 -17.498 -9.50293c-10 0 -18.5 1.33301 -25.5 4s-15.167 6.66699 -24.5 12c-10 6 -19 10.5 -27 13.5
s-17.667 4.5 -29 4.5c-32.667 0 -60.334 -11.167 -83.001 -33.5s-34 -57.833 -34 -106.5h106c0 6.66699 2.66699 13.334 8 20.001s11 10 17 10c10.667 0 19.5 -1.33301 26.5 -4s14.5 -7 22.5 -13c9.33301 -6 17.666 -10.5 24.999 -13.5s17 -4.5 29 -4.5
c32.667 0 60 11.333 82 34s33 58.334 33 107.001h-101c0 -7.33301 -2.5 -14.166 -7.5 -20.499z" />
    <glyph glyph-name="adieresis" unicode="&#xe4;" horiz-adv-x="506" 
d="M164 357c24.667 6 46.668 9 66.001 9c20.667 0 37.167 -5.83301 49.5 -17.5s19.166 -28.167 20.499 -49.5h-76c-58 0 -103.667 -12.333 -137 -37s-50 -61.667 -50 -111c0 -50 15 -89.5 45 -118.5s74.333 -43.5 133 -43.5c43.333 0 83 20.667 119 62l37 -51h87v309
c0 37.333 -8.5 70.5 -25.5 99.5s-41.167 51.5 -72.5 67.5s-67.333 24 -108 24c-30.667 0 -65.334 -4.5 -104.001 -13.5s-69 -19.5 -91 -31.5l42 -120c18.667 8.66699 40.334 16 65.001 22zM184.501 190c10.333 10 23.832 15 40.499 15h76v-59
c-27.333 -25.333 -55.666 -38 -84.999 -38c-14 0 -25.333 4.33301 -34 13s-13 19 -13 31c0 15.333 5.16699 28 15.5 38zM202 624c14 14 21 31.667 21 53c0 20 -7 37.333 -21 52s-31.333 22 -52 22s-38.334 -7.33301 -53.001 -22s-22 -32 -22 -52
c0 -20.667 7.33301 -38.167 22 -52.5s32.334 -21.5 53.001 -21.5s38 7 52 21zM403.5 624c14.333 14 21.5 31.667 21.5 53c0 20 -7.16699 37.333 -21.5 52s-32.166 22 -53.499 22c-19.333 0 -36.5 -7.33301 -51.5 -22s-22.5 -32 -22.5 -52
c0 -20.667 7.33301 -38.167 22 -52.5s32 -21.5 52 -21.5c21.333 0 39.166 7 53.499 21z" />
    <glyph glyph-name="aring" unicode="&#xe5;" horiz-adv-x="506" 
d="M164 357c24.667 6 46.668 9 66.001 9c20.667 0 37.167 -5.83301 49.5 -17.5s19.166 -28.167 20.499 -49.5h-76c-58 0 -103.667 -12.333 -137 -37s-50 -61.667 -50 -111c0 -50 15 -89.5 45 -118.5s74.333 -43.5 133 -43.5c43.333 0 83 20.667 119 62l37 -51h87v309
c0 37.333 -8.5 70.5 -25.5 99.5s-41.167 51.5 -72.5 67.5s-67.333 24 -108 24c-30.667 0 -65.334 -4.5 -104.001 -13.5s-69 -19.5 -91 -31.5l42 -120c18.667 8.66699 40.334 16 65.001 22zM184.501 190c10.333 10 23.832 15 40.499 15h76v-59
c-27.333 -25.333 -55.666 -38 -84.999 -38c-14 0 -25.333 4.33301 -34 13s-13 19 -13 31c0 15.333 5.16699 28 15.5 38zM172 778c-22.667 -21.333 -34 -47 -34 -77c0 -30.667 11.167 -56.167 33.5 -76.5s49.5 -30.5 81.5 -30.5c31.333 0 58.333 10.167 81 30.5
s34 45.833 34 76.5c0 30 -11.5 55.667 -34.5 77s-49.833 32 -80.5 32c-31.333 0 -58.333 -10.667 -81 -32zM229.5 676.5c-7 7 -10.5 15.165 -10.5 24.498c0 8.66699 3.5 16.334 10.5 23.001s15.167 10 24.5 10s17.333 -3.16699 24 -9.5s10 -14.166 10 -23.499
s-3.33301 -17.5 -10 -24.5s-14.667 -10.5 -24 -10.5s-17.5 3.5 -24.5 10.5z" />
    <glyph glyph-name="ae" unicode="&#xe6;" horiz-adv-x="803" 
d="M470 200c13.333 -56.667 55.6641 -85 126.997 -85c26.667 0 50.834 3.33301 72.501 10s43.167 16 64.5 28l45 -109c-22 -16.667 -49.667 -30 -83 -40s-69.666 -15 -108.999 -15c-89.333 0 -159 22 -209 66c-21.333 -20 -44.333 -36 -69 -48s-56 -18 -94 -18
c-58.667 0 -103 14.5 -133 43.5s-45 68.5 -45 118.5c0 49.333 16.667 86.333 50 111s79 37 137 37h76c-1.33301 21.333 -8.16602 37.833 -20.499 49.5s-28.833 17.5 -49.5 17.5c-19.333 0 -41.333 -3 -66 -9s-46.334 -13.333 -65.001 -22l-42 120c22 12 52.333 22.5 91 31.5
s73.334 13.5 104.001 13.5c60 0 108 -16 144 -48c43.333 32 96 48 158 48c49.333 0 91 -11.333 125 -34s59.333 -53 76 -91s25 -80.667 25 -128v-47h-310zM605.498 348c-13.667 15.333 -32.167 23 -55.5 23c-22 0 -40.667 -7.5 -56 -22.5s-24 -34.833 -26 -59.5h163
c-3.33301 24 -11.833 43.667 -25.5 59zM181.998 121c8.66699 -8.66699 20 -13 34 -13c22.667 0 41.5 3.5 56.5 10.5s29.5 17.167 43.5 30.5c-6.66699 19.333 -11 38 -13 56h-78c-17.333 0 -31 -5 -41 -15s-15 -22.667 -15 -38c0 -12 4.33301 -22.333 13 -31z" />
    <glyph glyph-name="ccedilla" unicode="&#xe7;" horiz-adv-x="464" 
d="M330 -8l-10.9971 -26.001c21.333 -7.33301 38.166 -20.5 50.499 -39.5s18.5 -37.833 18.5 -56.5c0 -35.333 -13 -62.833 -39 -82.5s-57.333 -29.5 -94 -29.5c-16.667 0 -35.167 3.33301 -55.5 10s-37.166 15 -50.499 25l34 81c26 -12 46 -18 60 -18
c9.33301 0 17.166 1.5 23.499 4.5s9.5 7.5 9.5 13.5c0 11.333 -8.5 20.5 -25.5 27.5s-37.5 11.5 -61.5 13.5l32 79c-61.333 12 -109.833 39.5 -145.5 82.5s-53.5 98.167 -53.5 165.5c0 52 10.833 97.5 32.5 136.5s52.334 69 92.001 90s85.5 31.5 137.5 31.5
c25.333 0 53.666 -4 84.999 -12s58.666 -20.667 81.999 -38l-44 -109c-22.667 10.667 -42.334 18.167 -59.001 22.5s-34.667 6.5 -54 6.5c-31.333 0 -57.5 -12 -78.5 -36s-31.5 -54.667 -31.5 -92s10.5 -67.333 31.5 -90s47.167 -34 78.5 -34c18.667 0 36.667 2.33301 54 7
s37 12.334 59 23.001l44 -110c-30 -24 -70.333 -39.333 -121 -46z" />
    <glyph glyph-name="egrave" unicode="&#xe8;" horiz-adv-x="524" 
d="M476.5 375c-17 38 -42.501 68.333 -76.501 91s-75.667 34 -125 34s-93.166 -10.5 -131.499 -31.5s-68.166 -51 -89.499 -90s-32 -84.5 -32 -136.5c0 -79.333 25.5 -141.333 76.5 -186s120.833 -67 209.5 -67c39.333 0 75.5 5 108.5 15s60.833 23.333 83.5 40l-44 109
c-45.333 -25.333 -91 -38 -137 -38c-70.667 0 -113.334 28.333 -128.001 85h311v47c0 47.333 -8.5 90 -25.5 128zM215.499 348.5c15 15 33.5 22.5 55.5 22.5c23.333 0 41.833 -7.5 55.5 -22.5s22.5 -34.833 26.5 -59.5h-164c2.66699 24.667 11.5 44.5 26.5 59.5z
M294.999 770h-157l105 -182l111 24z" />
    <glyph glyph-name="eacute" unicode="&#xe9;" horiz-adv-x="524" 
d="M476.5 375c-17 38 -42.501 68.333 -76.501 91s-75.667 34 -125 34s-93.166 -10.5 -131.499 -31.5s-68.166 -51 -89.499 -90s-32 -84.5 -32 -136.5c0 -79.333 25.5 -141.333 76.5 -186s120.833 -67 209.5 -67c39.333 0 75.5 5 108.5 15s60.833 23.333 83.5 40l-44 109
c-45.333 -25.333 -91 -38 -137 -38c-70.667 0 -113.334 28.333 -128.001 85h311v47c0 47.333 -8.5 90 -25.5 128zM215.499 348.5c15 15 33.5 22.5 55.5 22.5c23.333 0 41.833 -7.5 55.5 -22.5s22.5 -34.833 26.5 -59.5h-164c2.66699 24.667 11.5 44.5 26.5 59.5z
M246.999 770l-59 -158l111 -24l105 182h-157z" />
    <glyph glyph-name="ecircumflex" unicode="&#xea;" horiz-adv-x="524" 
d="M476.5 375c-17 38 -42.501 68.333 -76.501 91s-75.667 34 -125 34s-93.166 -10.5 -131.499 -31.5s-68.166 -51 -89.499 -90s-32 -84.5 -32 -136.5c0 -79.333 25.5 -141.333 76.5 -186s120.833 -67 209.5 -67c39.333 0 75.5 5 108.5 15s60.833 23.333 83.5 40l-44 109
c-45.333 -25.333 -91 -38 -137 -38c-70.667 0 -113.334 28.333 -128.001 85h311v47c0 47.333 -8.5 90 -25.5 128zM215.499 348.5c15 15 33.5 22.5 55.5 22.5c23.333 0 41.833 -7.5 55.5 -22.5s22.5 -34.833 26.5 -59.5h-164c2.66699 24.667 11.5 44.5 26.5 59.5z
M477.999 607l-163 163h-90l-163 -163l151 -19l59 64l59 -64z" />
    <glyph glyph-name="edieresis" unicode="&#xeb;" horiz-adv-x="524" 
d="M476.5 375c-17 38 -42.501 68.333 -76.501 91s-75.667 34 -125 34s-93.166 -10.5 -131.499 -31.5s-68.166 -51 -89.499 -90s-32 -84.5 -32 -136.5c0 -79.333 25.5 -141.333 76.5 -186s120.833 -67 209.5 -67c39.333 0 75.5 5 108.5 15s60.833 23.333 83.5 40l-44 109
c-45.333 -25.333 -91 -38 -137 -38c-70.667 0 -113.334 28.333 -128.001 85h311v47c0 47.333 -8.5 90 -25.5 128zM215.499 348.5c15 15 33.5 22.5 55.5 22.5c23.333 0 41.833 -7.5 55.5 -22.5s22.5 -34.833 26.5 -59.5h-164c2.66699 24.667 11.5 44.5 26.5 59.5z
M218.999 624c14 14 21 31.667 21 53c0 20 -7 37.333 -21 52s-31.333 22 -52 22s-38.334 -7.33301 -53.001 -22s-22 -32 -22 -52c0 -20.667 7.33301 -38.167 22 -52.5s32.334 -21.5 53.001 -21.5s38 7 52 21zM420.499 624c14.333 14 21.5 31.667 21.5 53
c0 20 -7.16699 37.333 -21.5 52s-32.166 22 -53.499 22c-19.333 0 -36.5 -7.33301 -51.5 -22s-22.5 -32 -22.5 -52c0 -20.667 7.33301 -38.167 22 -52.5s32 -21.5 52 -21.5c21.333 0 39.166 7 53.499 21z" />
    <glyph glyph-name="igrave" unicode="&#xec;" horiz-adv-x="261" 
d="M52 485v-485h157v485h-157zM152 770h-157l105 -182l111 24z" />
    <glyph glyph-name="iacute" unicode="&#xed;" horiz-adv-x="261" 
d="M52 485v-485h157v485h-157zM104 770l-59 -158l111 -24l105 182h-157z" />
    <glyph glyph-name="icircumflex" unicode="&#xee;" horiz-adv-x="261" 
d="M52 485v-485h157v485h-157zM335 607l-163 163h-90l-163 -163l151 -19l59 64l59 -64z" />
    <glyph glyph-name="idieresis" unicode="&#xef;" horiz-adv-x="261" 
d="M52 485v-485h157v485h-157zM76 624c14 14 21 31.667 21 53c0 20 -7 37.333 -21 52s-31.333 22 -52 22s-38.334 -7.33301 -53.001 -22s-22 -32 -22 -52c0 -20.667 7.33301 -38.167 22 -52.5s32.334 -21.5 53.001 -21.5s38 7 52 21zM277.5 624
c14.333 14 21.5 31.667 21.5 53c0 20 -7.16699 37.333 -21.5 52s-32.166 22 -53.499 22c-19.333 0 -36.5 -7.33301 -51.5 -22s-22.5 -32 -22.5 -52c0 -20.667 7.33301 -38.167 22 -52.5s32 -21.5 52 -21.5c21.333 0 39.166 7 53.499 21z" />
    <glyph glyph-name="eth" unicode="&#xf0;" horiz-adv-x="579" 
d="M509 448c32 -61.333 47.998 -123.333 47.998 -186c0 -56 -11 -104.5 -33 -145.5s-53 -72.5 -93 -94.5s-86 -33 -138 -33c-52.667 0 -99.5 9.83301 -140.5 29.5s-73 48.667 -96 87s-34.5 84.5 -34.5 138.5c0 51.333 11.167 96.5 33.5 135.5s52.833 68.833 91.5 89.5
s81.334 31 128.001 31c9.33301 0 16.333 -0.333008 21 -1c-15.333 17.333 -32.666 33.666 -51.999 48.999l-138 -69l-51 100l76 38c-18.667 9.33301 -43 19 -73 29l56 104c54 -13.333 106.333 -34.333 157 -63l119 60l52 -100l-66 -33
c56.667 -49.333 101 -104.666 133 -165.999zM365.998 152c19.333 22.667 29 52.667 29 90c0 38 -5 74 -15 108c-27.333 13.333 -57 20 -89 20c-32.667 0 -58.667 -11.5 -78 -34.5s-29 -53.5 -29 -91.5s9.5 -68.5 28.5 -91.5s44.5 -34.5 76.5 -34.5s57.667 11.333 77 34z" />
    <glyph glyph-name="ntilde" unicode="&#xf1;" 
d="M323 373c20 0 34.999 -6.83203 44.999 -20.499s15 -32.167 15 -55.5v-297h157v309c0 59.333 -13.5 106.166 -40.5 140.499s-70.5 51.5 -130.5 51.5c-30.667 0 -63.167 -6.16699 -97.5 -18.5s-66.166 -28.5 -95.499 -48.5l-27 51h-97v-485h157v331c48 28 86 42 114 42z
M383.499 715.501c-5 -6.33301 -10.8311 -9.50293 -17.498 -9.50293c-10 0 -18.5 1.33301 -25.5 4s-15.167 6.66699 -24.5 12c-10 6 -19 10.5 -27 13.5s-17.667 4.5 -29 4.5c-32.667 0 -60.334 -11.167 -83.001 -33.5s-34 -57.833 -34 -106.5h106
c0 6.66699 2.66699 13.334 8 20.001s11 10 17 10c10.667 0 19.5 -1.33301 26.5 -4s14.5 -7 22.5 -13c9.33301 -6 17.666 -10.5 24.999 -13.5s17 -4.5 29 -4.5c32.667 0 60 11.333 82 34s33 58.334 33 107.001h-101c0 -7.33301 -2.5 -14.166 -7.5 -20.499z" />
    <glyph glyph-name="ograve" unicode="&#xf2;" horiz-adv-x="579" 
d="M522.5 107c-23 -38 -54.832 -67.168 -95.499 -87.501s-87 -30.5 -139 -30.5c-52.667 0 -99 9.83301 -139 29.5s-71.167 48.667 -93.5 87s-33.5 84.5 -33.5 138.5c0 52 11.5 97.333 34.5 136s54.667 68.334 95 89.001s86.5 31 138.5 31
c52.667 0 99.167 -10.167 139.5 -30.5s71.666 -49.833 93.999 -88.5s33.5 -85 33.5 -139c0 -52 -11.5 -97 -34.5 -135zM366.001 151.999c19.333 22.667 29 52.667 29 90s-9.5 68 -28.5 92s-44.167 36 -75.5 36c-32.667 0 -58.667 -11.5 -78 -34.5s-29 -53.5 -29 -91.5
s9.5 -68.5 28.5 -91.5s44.5 -34.5 76.5 -34.5s57.667 11.333 77 34zM310.001 769.999h-157l105 -182l111 24z" />
    <glyph glyph-name="oacute" unicode="&#xf3;" horiz-adv-x="579" 
d="M522.5 107c-23 -38 -54.832 -67.168 -95.499 -87.501s-87 -30.5 -139 -30.5c-52.667 0 -99 9.83301 -139 29.5s-71.167 48.667 -93.5 87s-33.5 84.5 -33.5 138.5c0 52 11.5 97.333 34.5 136s54.667 68.334 95 89.001s86.5 31 138.5 31
c52.667 0 99.167 -10.167 139.5 -30.5s71.666 -49.833 93.999 -88.5s33.5 -85 33.5 -139c0 -52 -11.5 -97 -34.5 -135zM366.001 151.999c19.333 22.667 29 52.667 29 90s-9.5 68 -28.5 92s-44.167 36 -75.5 36c-32.667 0 -58.667 -11.5 -78 -34.5s-29 -53.5 -29 -91.5
s9.5 -68.5 28.5 -91.5s44.5 -34.5 76.5 -34.5s57.667 11.333 77 34zM262.001 769.999l-59 -158l111 -24l105 182h-157z" />
    <glyph glyph-name="ocircumflex" unicode="&#xf4;" horiz-adv-x="579" 
d="M522.5 107c-23 -38 -54.832 -67.168 -95.499 -87.501s-87 -30.5 -139 -30.5c-52.667 0 -99 9.83301 -139 29.5s-71.167 48.667 -93.5 87s-33.5 84.5 -33.5 138.5c0 52 11.5 97.333 34.5 136s54.667 68.334 95 89.001s86.5 31 138.5 31
c52.667 0 99.167 -10.167 139.5 -30.5s71.666 -49.833 93.999 -88.5s33.5 -85 33.5 -139c0 -52 -11.5 -97 -34.5 -135zM366.001 151.999c19.333 22.667 29 52.667 29 90s-9.5 68 -28.5 92s-44.167 36 -75.5 36c-32.667 0 -58.667 -11.5 -78 -34.5s-29 -53.5 -29 -91.5
s9.5 -68.5 28.5 -91.5s44.5 -34.5 76.5 -34.5s57.667 11.333 77 34zM492.001 606.999l-163 163h-90l-163 -163l151 -19l59 64l59 -64z" />
    <glyph glyph-name="otilde" unicode="&#xf5;" horiz-adv-x="579" 
d="M522.5 107c-23 -38 -54.832 -67.168 -95.499 -87.501s-87 -30.5 -139 -30.5c-52.667 0 -99 9.83301 -139 29.5s-71.167 48.667 -93.5 87s-33.5 84.5 -33.5 138.5c0 52 11.5 97.333 34.5 136s54.667 68.334 95 89.001s86.5 31 138.5 31
c52.667 0 99.167 -10.167 139.5 -30.5s71.666 -49.833 93.999 -88.5s33.5 -85 33.5 -139c0 -52 -11.5 -97 -34.5 -135zM366.001 151.999c19.333 22.667 29 52.667 29 90s-9.5 68 -28.5 92s-44.167 36 -75.5 36c-32.667 0 -58.667 -11.5 -78 -34.5s-29 -53.5 -29 -91.5
s9.5 -68.5 28.5 -91.5s44.5 -34.5 76.5 -34.5s57.667 11.333 77 34zM346.501 715.499c-5 -6.33301 -10.8311 -9.50293 -17.498 -9.50293c-10 0 -18.5 1.33301 -25.5 4s-15.167 6.66699 -24.5 12c-10 6 -19 10.5 -27 13.5s-17.667 4.5 -29 4.5
c-32.667 0 -60.334 -11.167 -83.001 -33.5s-34 -57.833 -34 -106.5h106c0 6.66699 2.66699 13.334 8 20.001s11 10 17 10c10.667 0 19.5 -1.33301 26.5 -4s14.5 -7 22.5 -13c9.33301 -6 17.666 -10.5 24.999 -13.5s17 -4.5 29 -4.5c32.667 0 60 11.333 82 34
s33 58.334 33 107.001h-101c0 -7.33301 -2.5 -14.166 -7.5 -20.499z" />
    <glyph glyph-name="odieresis" unicode="&#xf6;" horiz-adv-x="579" 
d="M522.5 107c-23 -38 -54.832 -67.168 -95.499 -87.501s-87 -30.5 -139 -30.5c-52.667 0 -99 9.83301 -139 29.5s-71.167 48.667 -93.5 87s-33.5 84.5 -33.5 138.5c0 52 11.5 97.333 34.5 136s54.667 68.334 95 89.001s86.5 31 138.5 31
c52.667 0 99.167 -10.167 139.5 -30.5s71.666 -49.833 93.999 -88.5s33.5 -85 33.5 -139c0 -52 -11.5 -97 -34.5 -135zM366.001 151.999c19.333 22.667 29 52.667 29 90s-9.5 68 -28.5 92s-44.167 36 -75.5 36c-32.667 0 -58.667 -11.5 -78 -34.5s-29 -53.5 -29 -91.5
s9.5 -68.5 28.5 -91.5s44.5 -34.5 76.5 -34.5s57.667 11.333 77 34zM233.001 623.999c14 14 21 31.667 21 53c0 20 -7 37.333 -21 52s-31.333 22 -52 22s-38.334 -7.33301 -53.001 -22s-22 -32 -22 -52c0 -20.667 7.33301 -38.167 22 -52.5s32.334 -21.5 53.001 -21.5
s38 7 52 21zM434.501 623.999c14.333 14 21.5 31.667 21.5 53c0 20 -7.16699 37.333 -21.5 52s-32.166 22 -53.499 22c-19.333 0 -36.5 -7.33301 -51.5 -22s-22.5 -32 -22.5 -52c0 -20.667 7.33301 -38.167 22 -52.5s32 -21.5 52 -21.5c21.333 0 39.166 7 53.499 21z" />
    <glyph glyph-name="divide" unicode="&#xf7;" horiz-adv-x="511" 
d="M246 448c0 -5.33301 3 -8 9 -8c2 0 3.83301 0.666992 5.5 2s2.5 3.33301 2.5 6c0 6 -2.66699 9 -8 9c-6 0 -9 -3 -9 -9zM40 215h441l-11 118h-440zM246 96c0 -5.33301 3 -8 9 -8c2 0 3.83301 0.666992 5.5 2s2.5 3.33301 2.5 6c0 6 -2.66699 9 -8 9c-6 0 -9 -3 -9 -9z
" />
    <glyph glyph-name="oslash" unicode="&#xf8;" horiz-adv-x="579" 
d="M429.5 469.5c40.333 -20.333 71.667 -49.834 94 -88.501s33.5 -85 33.5 -139c0 -52 -11.5 -97 -34.5 -135s-54.833 -67.167 -95.5 -87.5s-87 -30.5 -139 -30.5c-52.667 0 -99 9.83301 -139 29.5s-71.167 48.667 -93.5 87s-33.5 84.5 -33.5 138.5
c0 52 11.5 97.333 34.5 136s54.667 68.334 95 89.001s86.5 31 138.5 31c52.667 0 99.167 -10.167 139.5 -30.5zM213.001 335.499c-19.333 -23 -29 -53.5 -29 -91.5c0 -24.667 4.33301 -46.667 13 -66l108 191c-3.33301 0.666992 -8 1 -14 1
c-32.667 0 -58.667 -11.5 -78 -34.5zM366.001 151.999c19.333 22.667 29 52.666 29 89.999c0 22.667 -3.66699 43.334 -11 62.001l-108 -185l13 -1c32 0 57.667 11.333 77 34z" />
    <glyph glyph-name="ugrave" unicode="&#xf9;" 
d="M266 111c-20.667 0 -36.001 6.83301 -46.001 20.5s-15 32.5 -15 56.5v296h-157v-308c0 -59.333 13.5 -106.333 40.5 -141s70.833 -52 131.5 -52c30.667 0 62.834 6.33301 96.501 19s65.5 28.667 95.5 48l37 -51h87v485h-157v-330c-45.333 -28.667 -83 -43 -113 -43z
M316.999 770h-157l105 -182l111 24z" />
    <glyph glyph-name="uacute" unicode="&#xfa;" 
d="M266 111c-20.667 0 -36.001 6.83301 -46.001 20.5s-15 32.5 -15 56.5v296h-157v-308c0 -59.333 13.5 -106.333 40.5 -141s70.833 -52 131.5 -52c30.667 0 62.834 6.33301 96.501 19s65.5 28.667 95.5 48l37 -51h87v485h-157v-330c-45.333 -28.667 -83 -43 -113 -43z
M268.999 770l-59 -158l111 -24l105 182h-157z" />
    <glyph glyph-name="ucircumflex" unicode="&#xfb;" 
d="M266 111c-20.667 0 -36.001 6.83301 -46.001 20.5s-15 32.5 -15 56.5v296h-157v-308c0 -59.333 13.5 -106.333 40.5 -141s70.833 -52 131.5 -52c30.667 0 62.834 6.33301 96.501 19s65.5 28.667 95.5 48l37 -51h87v485h-157v-330c-45.333 -28.667 -83 -43 -113 -43z
M498.999 607l-163 163h-90l-163 -163l151 -19l59 64l59 -64z" />
    <glyph glyph-name="udieresis" unicode="&#xfc;" 
d="M266 111c-20.667 0 -36.001 6.83301 -46.001 20.5s-15 32.5 -15 56.5v296h-157v-308c0 -59.333 13.5 -106.333 40.5 -141s70.833 -52 131.5 -52c30.667 0 62.834 6.33301 96.501 19s65.5 28.667 95.5 48l37 -51h87v485h-157v-330c-45.333 -28.667 -83 -43 -113 -43z
M239.999 624c14 14 21 31.667 21 53c0 20 -7 37.333 -21 52s-31.333 22 -52 22s-38.334 -7.33301 -53.001 -22s-22 -32 -22 -52c0 -20.667 7.33301 -38.167 22 -52.5s32.334 -21.5 53.001 -21.5s38 7 52 21zM441.499 624c14.333 14 21.5 31.667 21.5 53
c0 20 -7.16699 37.333 -21.5 52s-32.166 22 -53.499 22c-19.333 0 -36.5 -7.33301 -51.5 -22s-22.5 -32 -22.5 -52c0 -20.667 7.33301 -38.167 22 -52.5s32 -21.5 52 -21.5c21.333 0 39.166 7 53.499 21z" />
    <glyph glyph-name="yacute" unicode="&#xfd;" horiz-adv-x="533" 
d="M126 -55c-21.333 -12.667 -49.333 -26.333 -84 -41l53 -124c47.333 10.667 90.833 30.5 130.5 59.5s67.167 62.5 82.5 100.5l215 545h-160l-99 -284l-106 302l-148 -43l171 -439l-14 -33c-6 -16 -19.667 -30.333 -41 -43zM235 770.001l-59 -158l111 -24l105 182h-157z
" />
    <glyph glyph-name="thorn" unicode="&#xfe;" horiz-adv-x="565" 
d="M475.5 434c44.333 -44 66.5 -106.332 66.5 -186.999s-22.5 -143.834 -67.5 -189.501s-106.5 -68.5 -184.5 -68.5c-21.333 0 -46.666 6.33301 -75.999 19v-217l-156 -10v914l156 11v-226c28.667 13.333 56 20 82 20c75.333 0 135.166 -22 179.499 -66zM354 150.501
c18 24.333 27 56.167 27 95.5c0 40 -9 71.333 -27 94s-43 34 -75 34c-21.333 0 -43 -7 -65 -21v-218c22.667 -14 45.667 -21 69 -21c29.333 0 53 12.167 71 36.5z" />
    <glyph glyph-name="ydieresis" unicode="&#xff;" horiz-adv-x="533" 
d="M126 -55c-21.333 -12.667 -49.333 -26.333 -84 -41l53 -124c47.333 10.667 90.833 30.5 130.5 59.5s67.167 62.5 82.5 100.5l215 545h-160l-99 -284l-106 302l-148 -43l171 -439l-14 -33c-6 -16 -19.667 -30.333 -41 -43zM207 624.001c14 14 21 31.667 21 53
c0 20 -7 37.333 -21 52s-31.333 22 -52 22s-38.334 -7.33301 -53.001 -22s-22 -32 -22 -52c0 -20.667 7.33301 -38.167 22 -52.5s32.334 -21.5 53.001 -21.5s38 7 52 21zM408.5 624.001c14.333 14 21.5 31.667 21.5 53c0 20 -7.16699 37.333 -21.5 52s-32.166 22 -53.499 22
c-19.333 0 -36.5 -7.33301 -51.5 -22s-22.5 -32 -22.5 -52c0 -20.667 7.33301 -38.167 22 -52.5s32 -21.5 52 -21.5c21.333 0 39.166 7 53.499 21z" />
    <glyph glyph-name="Amacron" unicode="&#x100;" horiz-adv-x="685" 
d="M166 0l53 147h247l55 -157l154 18l-258 672h-147l-260 -680h156zM340 482l80 -211h-157zM468 886h-266v-123h276z" />
    <glyph glyph-name="amacron" unicode="&#x101;" horiz-adv-x="506" 
d="M164 357c24.667 6 46.668 9 66.001 9c20.667 0 37.167 -5.83301 49.5 -17.5s19.166 -28.167 20.499 -49.5h-76c-58 0 -103.667 -12.333 -137 -37s-50 -61.667 -50 -111c0 -50 15 -89.5 45 -118.5s74.333 -43.5 133 -43.5c43.333 0 83 20.667 119 62l37 -51h87v309
c0 37.333 -8.5 70.5 -25.5 99.5s-41.167 51.5 -72.5 67.5s-67.333 24 -108 24c-30.667 0 -65.334 -4.5 -104.001 -13.5s-69 -19.5 -91 -31.5l42 -120c18.667 8.66699 40.334 16 65.001 22zM184.501 190c10.333 10 23.832 15 40.499 15h76v-59
c-27.333 -25.333 -55.666 -38 -84.999 -38c-14 0 -25.333 4.33301 -34 13s-13 19 -13 31c0 15.333 5.16699 28 15.5 38zM379 736h-266v-123h276z" />
    <glyph glyph-name="Abreve" unicode="&#x102;" horiz-adv-x="685" 
d="M166 0l53 147h247l55 -157l154 18l-258 672h-147l-260 -680h156zM340 482l80 -211h-157zM384.5 870.5c-9.66699 -12.333 -23.167 -18.5 -40.5 -18.5c-18 0 -31.667 6.16699 -41 18.5s-14 27.5 -14 45.5h-109c0 -51.333 14.5 -93.5 43.5 -126.5
s69.167 -49.833 120.5 -50.5c50.667 0.666992 90.667 17.5 120 50.5s44 75.167 44 126.5h-109c0 -18 -4.83301 -33.167 -14.5 -45.5z" />
    <glyph glyph-name="abreve" unicode="&#x103;" horiz-adv-x="506" 
d="M164 357c24.667 6 46.668 9 66.001 9c20.667 0 37.167 -5.83301 49.5 -17.5s19.166 -28.167 20.499 -49.5h-76c-58 0 -103.667 -12.333 -137 -37s-50 -61.667 -50 -111c0 -50 15 -89.5 45 -118.5s74.333 -43.5 133 -43.5c43.333 0 83 20.667 119 62l37 -51h87v309
c0 37.333 -8.5 70.5 -25.5 99.5s-41.167 51.5 -72.5 67.5s-67.333 24 -108 24c-30.667 0 -65.334 -4.5 -104.001 -13.5s-69 -19.5 -91 -31.5l42 -120c18.667 8.66699 40.334 16 65.001 22zM184.501 190c10.333 10 23.832 15 40.499 15h76v-59
c-27.333 -25.333 -55.666 -38 -84.999 -38c-14 0 -25.333 4.33301 -34 13s-13 19 -13 31c0 15.333 5.16699 28 15.5 38zM297.5 720c-9.66699 -12 -23.167 -18 -40.5 -18c-18 0 -31.667 6 -41 18s-14 27 -14 45h-109c0 -51.333 14.5 -93.5 43.5 -126.5
s69.167 -49.833 120.5 -50.5c50.667 0.666992 90.667 17.5 120 50.5s44 75.167 44 126.5h-109c0 -18 -4.83301 -33 -14.5 -45z" />
    <glyph glyph-name="Aogonek" unicode="&#x104;" horiz-adv-x="685" 
d="M704.5 -213.5c-19.667 -7 -40.832 -10.499 -63.499 -10.499c-40 0 -72 12.833 -96 38.5s-36 56.5 -36 92.5c0 10.667 2.33301 24 7 40s10 30.667 16 44l-11 -1l-55 157h-247l-53 -147h-156l260 680h147l258 -672l-26 -3h21
c-8.66699 -9.33301 -17.167 -22.833 -25.5 -40.5s-12.5 -32.834 -12.5 -45.501c0 -8 2.66699 -15 8 -21s12.666 -9 21.999 -9c14 0 28.333 6.33301 43 19l49 -92c-13.333 -12.667 -29.833 -22.5 -49.5 -29.5zM340.002 482.001l-77 -211h157z" />
    <glyph glyph-name="aogonek" unicode="&#x105;" horiz-adv-x="506" 
d="M520.5 -213.5c-19.667 -7 -40.833 -10.499 -63.5 -10.499c-40 0 -72 12.833 -96 38.5s-36 56.5 -36 92.5c0 12.667 3.33301 29.167 10 49.5s13.667 36.5 21 48.5h11l-33 46c-36 -41.333 -75.667 -62 -119 -62c-58.667 0 -103 14.5 -133 43.5s-45 68.5 -45 118.5
c0 49.333 16.667 86.333 50 111s79 37 137 37h76c-1.33301 21.333 -8.16602 37.833 -20.499 49.5s-28.833 17.5 -49.5 17.5c-19.333 0 -41.333 -3 -66 -9s-46.334 -13.333 -65.001 -22l-42 120c22 12 52.333 22.5 91 31.5s73.334 13.5 104.001 13.5
c40.667 0 76.667 -8 108 -24s55.5 -38.5 72.5 -67.5s25.5 -62.167 25.5 -99.5v-304h28c-8.66699 -9.33301 -17.167 -22.833 -25.5 -40.5s-12.5 -32.834 -12.5 -45.501c0 -8 2.66699 -15 8 -21s12.666 -9 21.999 -9c14 0 28.333 6.33301 43 19l49 -92
c-13.333 -12.667 -29.833 -22.5 -49.5 -29.5zM225.001 205.001c-16.667 0 -30.166 -5 -40.499 -15s-15.5 -22.667 -15.5 -38c0 -12 4.33301 -22.333 13 -31s20 -13 34 -13c29.333 0 57.666 12.667 84.999 38v59h-76z" />
    <glyph glyph-name="Cacute" unicode="&#x106;" horiz-adv-x="580" 
d="M468 680c-35.333 8.66699 -67.6689 12.999 -97.002 12.999c-66 0 -124.667 -15.167 -176 -45.5s-91.333 -72.5 -120 -126.5s-43 -115.333 -43 -184c0 -67.333 13.333 -127.5 40 -180.5s65.5 -94.5 116.5 -124.5s111.833 -45 182.5 -45c32 0 66.5 4.16699 103.5 12.5
s68.167 19.833 93.5 34.5l-59 116c-45.333 -22.667 -91.666 -34 -138.999 -34c-33.333 0 -63.333 9.5 -90 28.5s-47.667 45.333 -63 79s-23 71.834 -23 114.501c0 44.667 8 84.167 24 118.5s37.5 60.833 64.5 79.5s56.167 28 87.5 28c24.667 0 45.834 -2 63.501 -6
s44.5 -11.667 80.5 -23l47 108c-26.667 16 -57.667 28.333 -93 37zM350.997 917.999l-59 -159l111 -23l105 182h-157z" />
    <glyph glyph-name="cacute" unicode="&#x107;" horiz-adv-x="464" 
d="M369 488c-31.333 8 -59.6689 12.001 -85.002 12.001c-52 0 -97.833 -10.5 -137.5 -31.5s-70.334 -51 -92.001 -90s-32.5 -84.5 -32.5 -136.5s10.833 -97.167 32.5 -135.5s52.334 -67.5 92.001 -87.5s85.5 -30 137.5 -30c26.667 0 55.5 3.66699 86.5 11s57.833 20 80.5 38
l-44 110c-22 -10.667 -41.667 -18.334 -59 -23.001s-35.333 -7 -54 -7c-31.333 0 -57.5 11.333 -78.5 34s-31.5 52.667 -31.5 90s10.5 68 31.5 92s47.167 36 78.5 36c19.333 0 37.333 -2.16699 54 -6.5s36.334 -11.833 59.001 -22.5l44 109
c-23.333 17.333 -50.666 30 -81.999 38zM232.997 770.001l-59 -158l111 -24l105 182h-157z" />
    <glyph glyph-name="Ccaron" unicode="&#x10c;" horiz-adv-x="580" 
d="M468 680c-35.333 8.66699 -67.6689 12.999 -97.002 12.999c-66 0 -124.667 -15.167 -176 -45.5s-91.333 -72.5 -120 -126.5s-43 -115.333 -43 -184c0 -67.333 13.333 -127.5 40 -180.5s65.5 -94.5 116.5 -124.5s111.833 -45 182.5 -45c32 0 66.5 4.16699 103.5 12.5
s68.167 19.833 93.5 34.5l-59 116c-45.333 -22.667 -91.666 -34 -138.999 -34c-33.333 0 -63.333 9.5 -90 28.5s-47.667 45.333 -63 79s-23 71.834 -23 114.501c0 44.667 8 84.167 24 118.5s37.5 60.833 64.5 79.5s56.167 28 87.5 28c24.667 0 45.834 -2 63.501 -6
s44.5 -11.667 80.5 -23l47 108c-26.667 16 -57.667 28.333 -93 37zM162.997 902.999l163 -164h90l163 164l-147 18l-59 -64l-59 64z" />
    <glyph glyph-name="ccaron" unicode="&#x10d;" horiz-adv-x="464" 
d="M369 488c-31.333 8 -59.6689 12.001 -85.002 12.001c-52 0 -97.833 -10.5 -137.5 -31.5s-70.334 -51 -92.001 -90s-32.5 -84.5 -32.5 -136.5s10.833 -97.167 32.5 -135.5s52.334 -67.5 92.001 -87.5s85.5 -30 137.5 -30c26.667 0 55.5 3.66699 86.5 11s57.833 20 80.5 38
l-44 110c-22 -10.667 -41.667 -18.334 -59 -23.001s-35.333 -7 -54 -7c-31.333 0 -57.5 11.333 -78.5 34s-31.5 52.667 -31.5 90s10.5 68 31.5 92s47.167 36 78.5 36c19.333 0 37.333 -2.16699 54 -6.5s36.334 -11.833 59.001 -22.5l44 109
c-23.333 17.333 -50.666 30 -81.999 38zM52.9971 752.001l163 -164h90l163 164l-147 18l-59 -63l-59 63z" />
    <glyph glyph-name="Dcaron" unicode="&#x10e;" horiz-adv-x="715" 
d="M533 42c48 28 85 67.833 111 119.5s39 112.5 39 182.5c0 66 -12 124.167 -36 174.5s-59.833 89.833 -107.5 118.5s-105.5 43 -173.5 43h-284v-680h282c64.667 0 121 14 169 42zM481 497c26.667 -37.333 40 -88.333 40 -153c0 -73.333 -14.667 -128 -44 -164
s-69.333 -54 -120 -54h-119v427h126c51.333 0 90.333 -18.667 117 -56zM135 903l163 -164h90l163 164l-147 18l-59 -64l-59 64z" />
    <glyph glyph-name="dcaron" unicode="&#x10f;" horiz-adv-x="782" 
d="M727.5 714.5c16.333 -18.333 24.501 -41.8359 24.501 -70.5029c0 -38.667 -13.833 -77.167 -41.5 -115.5s-62.167 -67.166 -103.5 -86.499l-32 71c34 24.667 53.667 48.334 59 71.001c-12 4 -23.167 13.333 -33.5 28s-15.5 30.334 -15.5 47.001
c0 20.667 8.16699 39.667 24.5 57s35.833 26 58.5 26c23.333 0 43.166 -9.16699 59.499 -27.5zM515.001 705.997v-706.001h-80l-29 39c-20 -15.333 -41.667 -27.5 -65 -36.5s-47.333 -13.5 -72 -13.5c-75.333 0 -135.333 22 -180 66s-67 106.333 -67 187
s22.667 143.834 68 189.501s107 68.5 185 68.5c27.333 0 55 -6.66699 83 -20v215zM211.001 148.496c18 -23 43 -34.5 75 -34.5c22 0 46 9.33301 72 28v207c-24 16.667 -49.333 25 -76 25c-29.333 0 -53 -12 -71 -36s-27 -55.667 -27 -95c0 -40 9 -71.5 27 -94.5z" />
    <glyph glyph-name="Dcroat" unicode="&#x110;" horiz-adv-x="715" 
d="M539.5 637c47.667 -28.667 83.5 -68.167 107.5 -118.5s36 -108.5 36 -174.5c0 -70 -13 -130.833 -39 -182.5s-63 -91.5 -111 -119.5s-104.333 -42 -169 -42h-282v280h-59l-14 123h73v277h284c68 0 125.833 -14.333 173.5 -43zM477 180c29.333 36 44 90.667 44 164
c0 64.667 -13.333 115.667 -40 153s-65.667 56 -117 56h-126v-150h90l13 -123h-103v-154h119c50.667 0 90.667 18 120 54z" />
    <glyph glyph-name="dcroat" unicode="&#x111;" horiz-adv-x="578" 
d="M515 548l-0.000976562 -548.002h-80l-30 40c-20.667 -15.333 -43.5 -27.666 -68.5 -36.999s-47.5 -14 -67.5 -14c-75.333 0 -135.333 22 -180 66s-67 106.333 -67 187s22.667 143.834 68 189.501s107 68.5 185 68.5c24.667 0 52.334 -7.66699 83.001 -23v71h-74l-14 104
h88v43l157 11v-54h51l14 -104h-65zM210.999 148.498c18 -23 43 -34.5 75 -34.5c22 0 46 9.33301 72 28v207c-24 16.667 -49.333 25 -76 25c-29.333 0 -53 -12 -71 -36s-27 -55.667 -27 -95c0 -40 9 -71.5 27 -94.5z" />
    <glyph glyph-name="Emacron" unicode="&#x112;" horiz-adv-x="590" 
d="M238 122v159h235l-19 123h-216v153h292l-19 123h-429v-680h488l-19 122h-313zM443 886h-266v-123h276z" />
    <glyph glyph-name="emacron" unicode="&#x113;" horiz-adv-x="524" 
d="M476.5 375c-17 38 -42.501 68.333 -76.501 91s-75.667 34 -125 34s-93.166 -10.5 -131.499 -31.5s-68.166 -51 -89.499 -90s-32 -84.5 -32 -136.5c0 -79.333 25.5 -141.333 76.5 -186s120.833 -67 209.5 -67c39.333 0 75.5 5 108.5 15s60.833 23.333 83.5 40l-44 109
c-45.333 -25.333 -91 -38 -137 -38c-70.667 0 -113.334 28.333 -128.001 85h311v47c0 47.333 -8.5 90 -25.5 128zM215.499 348.5c15 15 33.5 22.5 55.5 22.5c23.333 0 41.833 -7.5 55.5 -22.5s22.5 -34.833 26.5 -59.5h-164c2.66699 24.667 11.5 44.5 26.5 59.5z
M395.999 736h-266v-123h276z" />
    <glyph glyph-name="Edotaccent" unicode="&#x116;" horiz-adv-x="590" 
d="M238 122v159h235l-19 123h-216v153h292l-19 123h-429v-680h488l-19 122h-313zM378 768c15.333 16 23 35.667 23 59s-7.66699 43 -23 59s-34.666 24 -57.999 24c-22.667 0 -42.167 -8 -58.5 -24s-24.5 -35.667 -24.5 -59s8 -43 24 -59s35.667 -24 59 -24
s42.666 8 57.999 24z" />
    <glyph glyph-name="edotaccent" unicode="&#x117;" horiz-adv-x="524" 
d="M476.5 375c-17 38 -42.501 68.333 -76.501 91s-75.667 34 -125 34s-93.166 -10.5 -131.499 -31.5s-68.166 -51 -89.499 -90s-32 -84.5 -32 -136.5c0 -79.333 25.5 -141.333 76.5 -186s120.833 -67 209.5 -67c39.333 0 75.5 5 108.5 15s60.833 23.333 83.5 40l-44 109
c-45.333 -25.333 -91 -38 -137 -38c-70.667 0 -113.334 28.333 -128.001 85h311v47c0 47.333 -8.5 90 -25.5 128zM215.499 348.5c15 15 33.5 22.5 55.5 22.5c23.333 0 41.833 -7.5 55.5 -22.5s22.5 -34.833 26.5 -59.5h-164c2.66699 24.667 11.5 44.5 26.5 59.5z
M332.999 618c15.333 16 23 35.667 23 59s-7.66699 43 -23 59s-34.666 24 -57.999 24c-22.667 0 -42.167 -8 -58.5 -24s-24.5 -35.667 -24.5 -59s8 -43 24 -59s35.667 -24 59 -24s42.666 8 57.999 24z" />
    <glyph glyph-name="Eogonek" unicode="&#x118;" horiz-adv-x="590" 
d="M531.5 -213.5c-19.667 -7 -40.832 -10.501 -63.499 -10.501c-40 0 -72 12.833 -96 38.5s-36 56.5 -36 92.5c0 12 2.83301 27.333 8.5 46s12.167 34.334 19.5 47.001h-282v680h429l19 -123h-292v-153h216l19 -123h-235v-159h313l19 -122h-77
c-8.66699 -10 -16.5 -23 -23.5 -39s-10.5 -30 -10.5 -42c0 -8 2.66699 -15 8 -21s12.666 -9 21.999 -9c14 0 28.333 6.33301 43 19l49 -92c-13.333 -12.667 -29.833 -22.5 -49.5 -29.5z" />
    <glyph glyph-name="eogonek" unicode="&#x119;" horiz-adv-x="524" 
d="M463 -213.5c-20 -7 -40.998 -10.5 -62.998 -10.5c-40 0 -72 12.833 -96 38.5s-36 56.5 -36 92.5c0 10.667 2.16699 23.834 6.5 39.501s9.5 29.834 15.5 42.501c-83.333 3.33301 -148.833 27.166 -196.5 71.499s-71.5 104.833 -71.5 181.5c0 52 10.667 97.5 32 136.5
s51.166 69 89.499 90s82.166 31.5 131.499 31.5s91 -11.333 125 -34s59.5 -53 76.5 -91s25.5 -80.667 25.5 -128v-47h-311c14.667 -56.667 57.334 -85 128.001 -85c46 0 91.667 12.667 137 38l44 -109c-23.333 -16.667 -50 -29.667 -80 -39h9
c-8.66699 -9.33301 -17.167 -22.833 -25.5 -40.5s-12.5 -32.834 -12.5 -45.501c0 -8 2.66699 -15 8 -21s12.666 -9 21.999 -9c14 0 28.333 6.33301 43 19l49 -92c-13.333 -12.667 -30 -22.5 -50 -29.5zM215.502 348.5c-15 -15 -23.833 -34.833 -26.5 -59.5h164
c-4 24.667 -12.833 44.5 -26.5 59.5s-32.167 22.5 -55.5 22.5c-22 0 -40.5 -7.5 -55.5 -22.5z" />
    <glyph glyph-name="Ecaron" unicode="&#x11a;" horiz-adv-x="590" 
d="M238 122v159h235l-19 123h-216v153h292l-19 123h-429v-680h488l-19 122h-313zM110 903l163 -164h90l163 164l-147 18l-59 -64l-59 64z" />
    <glyph glyph-name="ecaron" unicode="&#x11b;" horiz-adv-x="524" 
d="M476.5 375c-17 38 -42.501 68.333 -76.501 91s-75.667 34 -125 34s-93.166 -10.5 -131.499 -31.5s-68.166 -51 -89.499 -90s-32 -84.5 -32 -136.5c0 -79.333 25.5 -141.333 76.5 -186s120.833 -67 209.5 -67c39.333 0 75.5 5 108.5 15s60.833 23.333 83.5 40l-44 109
c-45.333 -25.333 -91 -38 -137 -38c-70.667 0 -113.334 28.333 -128.001 85h311v47c0 47.333 -8.5 90 -25.5 128zM215.499 348.5c15 15 33.5 22.5 55.5 22.5c23.333 0 41.833 -7.5 55.5 -22.5s22.5 -34.833 26.5 -59.5h-164c2.66699 24.667 11.5 44.5 26.5 59.5zM66.999 752
l163 -164h90l163 164l-147 18l-59 -63l-59 63z" />
    <glyph glyph-name="Gbreve" unicode="&#x11e;" horiz-adv-x="648" 
d="M465 124c-30.667 -5.33301 -57.666 -7.99902 -80.999 -7.99902c-34.667 0 -66.334 8.5 -95.001 25.5s-51.667 42.167 -69 75.5s-26 73.666 -26 120.999c0 48 9.5 89.167 28.5 123.5s44 60 75 77s63.833 25.5 98.5 25.5c25.333 0 48.666 -2.16699 69.999 -6.5
s49.333 -11.833 84 -22.5l47 108c-26 16 -58.667 28.333 -98 37s-74.333 13 -105 13c-67.333 0 -128.666 -14.833 -183.999 -44.5s-98.833 -71.5 -130.5 -125.5s-47.5 -116 -47.5 -186c0 -69.333 14.333 -130.333 43 -183s69.5 -93.667 122.5 -123s114.833 -44 185.5 -44
c39.333 0 79.833 4.5 121.5 13.5s75.5 21.167 101.5 36.5v345h-257l-13 -117h129v-141zM433.501 870.501c-9.66699 -12.333 -23.167 -18.5 -40.5 -18.5c-18 0 -31.667 6.16699 -41 18.5s-14 27.5 -14 45.5h-109c0 -51.333 14.5 -93.5 43.5 -126.5
s69.167 -49.833 120.5 -50.5c50.667 0.666992 90.667 17.5 120 50.5s44 75.167 44 126.5h-109c0 -18 -4.83301 -33.167 -14.5 -45.5z" />
    <glyph glyph-name="gbreve" unicode="&#x11f;" horiz-adv-x="574" 
d="M515 -19c0 -42.667 -10.832 -80.001 -32.499 -112.001s-52.334 -56.5 -92.001 -73.5s-85.5 -25.5 -137.5 -25.5c-26.667 0 -62 5 -106 15s-79 23.667 -105 41l47 110c54 -26.667 105.667 -40 155 -40c34 0 61.5 7.83301 82.5 23.5s31.5 36.5 31.5 62.5v27
c-30 -13.333 -59.667 -20 -89 -20c-75.333 0 -135.333 22 -180 66s-67 106.333 -67 187s22.667 143.834 68 189.501s107 68.5 185 68.5c22.667 0 45.667 -4.5 69 -13.5s45 -21.833 65 -38.5l26 36h80v-503zM358.001 141.999v207c-24 16.667 -49.333 25 -76 25
c-29.333 0 -53 -12 -71 -36s-27 -55.667 -27 -95c0 -40 9 -71.5 27 -94.5s43 -34.5 75 -34.5c22 0 46 9.33301 72 28zM309.501 719.999c-9.66699 -12 -23.167 -18 -40.5 -18c-18 0 -31.667 6 -41 18s-14 27 -14 45h-109c0 -51.333 14.5 -93.5 43.5 -126.5
s69.167 -49.833 120.5 -50.5c50.667 0.666992 90.667 17.5 120 50.5s44 75.167 44 126.5h-109c0 -18 -4.83301 -33 -14.5 -45z" />
    <glyph glyph-name="Gcommaaccent" unicode="&#x122;" horiz-adv-x="648" 
d="M465 124c-30.667 -5.33301 -57.666 -7.99902 -80.999 -7.99902c-34.667 0 -66.334 8.5 -95.001 25.5s-51.667 42.167 -69 75.5s-26 73.666 -26 120.999c0 48 9.5 89.167 28.5 123.5s44 60 75 77s63.833 25.5 98.5 25.5c25.333 0 48.666 -2.16699 69.999 -6.5
s49.333 -11.833 84 -22.5l47 108c-26 16 -58.667 28.333 -98 37s-74.333 13 -105 13c-67.333 0 -128.666 -14.833 -183.999 -44.5s-98.833 -71.5 -130.5 -125.5s-47.5 -116 -47.5 -186c0 -69.333 14.333 -130.333 43 -183s69.5 -93.667 122.5 -123s114.833 -44 185.5 -44
c39.333 0 79.833 4.5 121.5 13.5s75.5 21.167 101.5 36.5v345h-257l-13 -117h129v-141zM327.501 -46.999c-16.333 -17.333 -24.501 -36.332 -24.501 -56.999c0 -16.667 5 -32.5 15 -47.5s21.333 -24.167 34 -27.5c-3.33301 -10.667 -10.166 -21 -20.499 -31
s-20.833 -17.667 -31.5 -23l32 -70c38.667 16.667 71.167 42 97.5 76s39.5 69.667 39.5 107c0 29.333 -8 53.166 -24 71.499s-35.667 27.5 -59 27.5c-22.667 0 -42.167 -8.66699 -58.5 -26z" />
    <glyph glyph-name="gcommaaccent" unicode="&#x123;" horiz-adv-x="574" 
d="M212 568.5c-16 18.333 -24 42.168 -24 71.501c0 36.667 13.167 72.167 39.5 106.5s58.833 59.833 97.5 76.5l32 -71c-10 -4.66699 -20.333 -12 -31 -22s-17.667 -20.333 -21 -31c12 -4 23.333 -13.333 34 -28s16 -30.334 16 -47.001
c0 -20.667 -8.16699 -39.667 -24.5 -57s-35.833 -26 -58.5 -26c-24 0 -44 9.16699 -60 27.5zM515 -18.998c0 -42.667 -10.8311 -80.001 -32.498 -112.001s-52.334 -56.5 -92.001 -73.5s-85.5 -25.5 -137.5 -25.5c-26.667 0 -62 5 -106 15s-79 23.667 -105 41l47 110
c54 -26.667 105.667 -40 155 -40c34 0 61.5 7.83301 82.5 23.5s31.5 36.5 31.5 62.5v30c-32.667 -15.333 -62.334 -23 -89.001 -23c-75.333 0 -135.333 22 -180 66s-67 106.333 -67 187s22.667 143.834 68 189.501s107 68.5 185 68.5c18 0 39.333 -4.83301 64 -14.5
s47.667 -22.5 69 -38.5l27 37h80v-503zM358.002 142.001v207c-24 16.667 -49.333 25 -76 25c-29.333 0 -53 -12 -71 -36s-27 -55.667 -27 -95c0 -40 9 -71.5 27 -94.5s43 -34.5 75 -34.5c22 0 46 9.33301 72 28z" />
    <glyph glyph-name="Imacron" unicode="&#x12a;" horiz-adv-x="321" 
d="M82 680v-680h156v680h-156zM288 886h-266v-123h276z" />
    <glyph glyph-name="imacron" unicode="&#x12b;" horiz-adv-x="261" 
d="M52 485v-485h157v485h-157zM253 736h-266v-123h276z" />
    <glyph glyph-name="Iogonek" unicode="&#x12e;" horiz-adv-x="321" 
d="M257.5 -213.5c-19.667 -7 -40.832 -10.501 -63.499 -10.501c-40 0 -72 12.833 -96 38.5s-36 56.5 -36 92.5c0 12 2.83301 27.333 8.5 46s12.167 34.334 19.5 47.001h-8v680h156v-680h-19c-8.66699 -10 -16.5 -23 -23.5 -39s-10.5 -30 -10.5 -42c0 -8 2.66699 -15 8 -21
s12.666 -9 21.999 -9c14 0 28.333 6.33301 43 19l49 -92c-13.333 -12.667 -29.833 -22.5 -49.5 -29.5z" />
    <glyph glyph-name="iogonek" unicode="&#x12f;" horiz-adv-x="261" 
d="M73 618c-16 16 -24 35.667 -24 59s8.16699 43 24.5 59s35.833 24 58.5 24c23.333 0 42.666 -8 57.999 -24s23 -35.667 23 -59s-7.66699 -43 -23 -59s-34.666 -24 -57.999 -24s-43 8 -59 24zM205.5 -213.5c-19.667 -7 -40.832 -10.5 -63.499 -10.5
c-40 0 -72 12.833 -96 38.5s-36 56.5 -36 92.5c0 12.667 3.33301 29.167 10 49.5s13.667 36.5 21 48.5h11v480h157v-485h-42c-8.66699 -10 -16.5 -23 -23.5 -39s-10.5 -30 -10.5 -42c0 -8 2.66699 -15 8 -21s12.666 -9 21.999 -9c14 0 28.333 6.33301 43 19l49 -92
c-13.333 -12.667 -29.833 -22.5 -49.5 -29.5z" />
    <glyph glyph-name="Idotaccent" unicode="&#x130;" horiz-adv-x="321" 
d="M82 680v-680h156v680h-156zM222 768c15.333 16 23 35.667 23 59s-7.66699 43 -23 59s-34.666 24 -57.999 24c-22.667 0 -42.167 -8 -58.5 -24s-24.5 -35.667 -24.5 -59s8 -43 24 -59s35.667 -24 59 -24s42.666 8 57.999 24z" />
    <glyph glyph-name="dotlessi" unicode="&#x131;" horiz-adv-x="261" 
d="M52 485v-485h157v485h-157z" />
    <glyph glyph-name="Kcommaaccent" unicode="&#x136;" horiz-adv-x="695" 
d="M239 208v-208h-157v680h157v-260l284 275l119 -88l-233 -230l276 -377h-197l-189 268zM309.5 -47c-16.333 -17.333 -24.501 -36.332 -24.501 -56.999c0 -16.667 5 -32.5 15 -47.5s21.333 -24.167 34 -27.5c-3.33301 -10.667 -10.166 -21 -20.499 -31
s-20.833 -17.667 -31.5 -23l32 -70c38.667 16.667 71.167 42 97.5 76s39.5 69.667 39.5 107c0 29.333 -8 53.166 -24 71.499s-35.667 27.5 -59 27.5c-22.667 0 -42.167 -8.66699 -58.5 -26z" />
    <glyph glyph-name="kcommaaccent" unicode="&#x137;" horiz-adv-x="542" 
d="M261 193l109 -193h172l-170 282l132 108l-91 109l-195 -172v379l-156 -11v-695h156v157zM235.5 -47c-16.333 -17.333 -24.501 -36.332 -24.501 -56.999c0 -16.667 5 -32.5 15 -47.5s21.333 -24.167 34 -27.5c-3.33301 -10.667 -10.166 -21 -20.499 -31
s-20.833 -17.667 -31.5 -23l32 -70c38.667 16.667 71.167 42 97.5 76s39.5 69.667 39.5 107c0 29.333 -8 53.166 -24 71.499s-35.667 27.5 -59 27.5c-22.667 0 -42.167 -8.66699 -58.5 -26z" />
    <glyph glyph-name="Lacute" unicode="&#x139;" horiz-adv-x="561" 
d="M238 680h-156v-680h469l-18 122h-295v558zM249 918l-59 -159l111 -23l105 182h-157z" />
    <glyph glyph-name="lacute" unicode="&#x13a;" horiz-adv-x="281" 
d="M144 918l-59 -159l112 -23l105 182h-158zM62 684v-684h156v696z" />
    <glyph glyph-name="Lcommaaccent" unicode="&#x13b;" horiz-adv-x="561" 
d="M238 680h-156v-680h469l-18 122h-295v558zM294.5 -47c-16.333 -17.333 -24.501 -36.332 -24.501 -56.999c0 -16.667 5 -32.5 15 -47.5s21.333 -24.167 34 -27.5c-3.33301 -10.667 -10.166 -21 -20.499 -31s-20.833 -17.667 -31.5 -23l32 -70
c38.667 16.667 71.167 42 97.5 76s39.5 69.667 39.5 107c0 29.333 -8 53.166 -24 71.499s-35.667 27.5 -59 27.5c-22.667 0 -42.167 -8.66699 -58.5 -26z" />
    <glyph glyph-name="lcommaaccent" unicode="&#x13c;" horiz-adv-x="281" 
d="M62 695v-695h156v706zM90.5 -47c-16.333 -17.333 -24.501 -36.332 -24.501 -56.999c0 -16.667 5 -32.5 15 -47.5s21.333 -24.167 34 -27.5c-3.33301 -10.667 -10.166 -21 -20.499 -31s-20.833 -17.667 -31.5 -23l32 -70c38.667 16.667 71.167 42 97.5 76
s39.5 69.667 39.5 107c0 29.333 -8 53.166 -24 71.499s-35.667 27.5 -59 27.5c-22.667 0 -42.167 -8.66699 -58.5 -26z" />
    <glyph glyph-name="Lcaron" unicode="&#x13d;" horiz-adv-x="561" 
d="M238 680h-156v-680h469l-18 122h-295v558zM390.5 716c-16.333 -17.333 -24.501 -36.3301 -24.501 -56.9971c0 -16.667 5.16699 -32.334 15.5 -47.001s21.5 -24 33.5 -28c-5.33301 -22.667 -25 -46.334 -59 -71.001l32 -71c41.333 19.333 75.833 48.166 103.5 86.499
s41.5 76.833 41.5 115.5c0 28.667 -8.16699 52.167 -24.5 70.5s-36.166 27.5 -59.499 27.5c-22.667 0 -42.167 -8.66699 -58.5 -26z" />
    <glyph glyph-name="lcaron" unicode="&#x13e;" horiz-adv-x="484" 
d="M311.5 716c-16.333 -17.333 -24.5 -36.3301 -24.5 -56.9971c0 -16.667 5.16699 -32.334 15.5 -47.001s21.5 -24 33.5 -28c-5.33301 -22.667 -25 -46.334 -59 -71.001l32 -71c41.333 19.333 75.833 48.166 103.5 86.499s41.5 76.833 41.5 115.5
c0 28.667 -8.16699 52.167 -24.5 70.5s-36.5 27.5 -60.5 27.5c-22 0 -41.167 -8.66699 -57.5 -26zM62 695.003v-695h156v706z" />
    <glyph glyph-name="Lslash" unicode="&#x141;" horiz-adv-x="567" 
d="M55 176l-53 115l80 55v334h156v-230l120 81l61 -113l-181 -120v-176h295l18 -122h-469v195z" />
    <glyph glyph-name="lslash" unicode="&#x142;" horiz-adv-x="376" 
d="M264 706l-156 -11v-310l-108 -79l45 -125l63 45v-226h156v339l112 81l-46 125l-66 -48v209z" />
    <glyph glyph-name="Nacute" unicode="&#x143;" horiz-adv-x="759" 
d="M526 0h150v680h-156v-411l-288 411h-150v-680h156v406zM359 918l-59 -159l111 -23l105 182h-157z" />
    <glyph glyph-name="nacute" unicode="&#x144;" 
d="M323 373c20 0 34.999 -6.83203 44.999 -20.499s15 -32.167 15 -55.5v-297h157v309c0 59.333 -13.5 106.166 -40.5 140.499s-70.5 51.5 -130.5 51.5c-30.667 0 -63.167 -6.16699 -97.5 -18.5s-66.166 -28.5 -95.499 -48.5l-27 51h-97v-485h157v331c48 28 86 42 114 42z
M298.999 770.001l-59 -158l111 -24l105 182h-157z" />
    <glyph glyph-name="Ncommaaccent" unicode="&#x145;" horiz-adv-x="759" 
d="M526 0h150v680h-156v-411l-288 411h-150v-680h156v406zM331.5 -47c-16.333 -17.333 -24.501 -36.332 -24.501 -56.999c0 -16.667 5 -32.5 15 -47.5s21.333 -24.167 34 -27.5c-3.33301 -10.667 -10.166 -21 -20.499 -31s-20.833 -17.667 -31.5 -23l32 -70
c38.667 16.667 71.167 42 97.5 76s39.5 69.667 39.5 107c0 29.333 -8 53.166 -24 71.499s-35.667 27.5 -59 27.5c-22.667 0 -42.167 -8.66699 -58.5 -26z" />
    <glyph glyph-name="ncommaaccent" unicode="&#x146;" 
d="M323 373c20 0 34.999 -6.83203 44.999 -20.499s15 -32.167 15 -55.5v-297h157v309c0 59.333 -13.5 106.166 -40.5 140.499s-70.5 51.5 -130.5 51.5c-30.667 0 -63.167 -6.16699 -97.5 -18.5s-66.166 -28.5 -95.499 -48.5l-27 51h-97v-485h157v331c48 28 86 42 114 42z
M241.499 -46.999c-16.333 -17.333 -24.501 -36.332 -24.501 -56.999c0 -16.667 5 -32.5 15 -47.5s21.333 -24.167 34 -27.5c-3.33301 -10.667 -10.166 -21 -20.499 -31s-20.833 -17.667 -31.5 -23l32 -70c38.667 16.667 71.167 42 97.5 76s39.5 69.667 39.5 107
c0 29.333 -8 53.166 -24 71.499s-35.667 27.5 -59 27.5c-22.667 0 -42.167 -8.66699 -58.5 -26z" />
    <glyph glyph-name="Ncaron" unicode="&#x147;" horiz-adv-x="759" 
d="M526 0h150v680h-156v-411l-288 411h-150v-680h156v406zM171 903l163 -164h90l163 164l-147 18l-59 -64l-59 64z" />
    <glyph glyph-name="ncaron" unicode="&#x148;" 
d="M323 373c20 0 34.999 -6.83203 44.999 -20.499s15 -32.167 15 -55.5v-297h157v309c0 59.333 -13.5 106.166 -40.5 140.499s-70.5 51.5 -130.5 51.5c-30.667 0 -63.167 -6.16699 -97.5 -18.5s-66.166 -28.5 -95.499 -48.5l-27 51h-97v-485h157v331c48 28 86 42 114 42z
M118.999 752.001l163 -164h90l163 164l-147 18l-59 -63l-59 63z" />
    <glyph glyph-name="Omacron" unicode="&#x14c;" horiz-adv-x="750" 
d="M197 648c-52 -30.667 -92.5 -72.999 -121.5 -126.999s-43.5 -115.333 -43.5 -184c0 -65.333 13.833 -124.666 41.5 -177.999s67.334 -95.5 119.001 -126.5s112.5 -46.5 182.5 -46.5c66.667 0.666992 126 16.167 178 46.5s92.5 72.5 121.5 126.5s43.5 115.667 43.5 185
c0 65.333 -13.667 124.666 -41 177.999s-66.833 95.5 -118.5 126.5s-112.834 46.5 -183.501 46.5c-66.667 -0.666992 -126 -16.334 -178 -47.001zM219 456.501c16.667 34.333 38.832 60.833 66.499 79.5s58.167 28 91.5 28c36 0 67.5 -9.5 94.5 -28.5
s47.833 -45.167 62.5 -78.5s22 -71 22 -113c0 -49.333 -8 -91 -24 -125s-37.833 -59.5 -65.5 -76.5s-58.5 -25.5 -92.5 -25.5c-55.333 0 -99.166 20.5 -131.499 61.5s-48.5 94.167 -48.5 159.5c0 44.667 8.33301 84.167 25 118.5zM498.998 886.001h-266v-123h276z" />
    <glyph glyph-name="omacron" unicode="&#x14d;" horiz-adv-x="579" 
d="M522.5 107c-23 -38 -54.832 -67.168 -95.499 -87.501s-87 -30.5 -139 -30.5c-52.667 0 -99 9.83301 -139 29.5s-71.167 48.667 -93.5 87s-33.5 84.5 -33.5 138.5c0 52 11.5 97.333 34.5 136s54.667 68.334 95 89.001s86.5 31 138.5 31
c52.667 0 99.167 -10.167 139.5 -30.5s71.666 -49.833 93.999 -88.5s33.5 -85 33.5 -139c0 -52 -11.5 -97 -34.5 -135zM366.001 151.999c19.333 22.667 29 52.667 29 90s-9.5 68 -28.5 92s-44.167 36 -75.5 36c-32.667 0 -58.667 -11.5 -78 -34.5s-29 -53.5 -29 -91.5
s9.5 -68.5 28.5 -91.5s44.5 -34.5 76.5 -34.5s57.667 11.333 77 34zM410.001 735.999h-266v-123h276z" />
    <glyph glyph-name="Ohungarumlaut" unicode="&#x150;" horiz-adv-x="750" 
d="M197 648c-52 -30.667 -92.5 -72.999 -121.5 -126.999s-43.5 -115.333 -43.5 -184c0 -65.333 13.833 -124.666 41.5 -177.999s67.334 -95.5 119.001 -126.5s112.5 -46.5 182.5 -46.5c66.667 0.666992 126 16.167 178 46.5s92.5 72.5 121.5 126.5s43.5 115.667 43.5 185
c0 65.333 -13.667 124.666 -41 177.999s-66.833 95.5 -118.5 126.5s-112.834 46.5 -183.501 46.5c-66.667 -0.666992 -126 -16.334 -178 -47.001zM219 456.501c16.667 34.333 38.832 60.833 66.499 79.5s58.167 28 91.5 28c36 0 67.5 -9.5 94.5 -28.5
s47.833 -45.167 62.5 -78.5s22 -71 22 -113c0 -49.333 -8 -91 -24 -125s-37.833 -59.5 -65.5 -76.5s-58.5 -25.5 -92.5 -25.5c-55.333 0 -99.166 20.5 -131.499 61.5s-48.5 94.167 -48.5 159.5c0 44.667 8.33301 84.167 25 118.5zM408.998 741.001l-3 -5l-112 23l59 159h185
l-105 -182z" />
    <glyph glyph-name="ohungarumlaut" unicode="&#x151;" horiz-adv-x="579" 
d="M522.5 107c-23 -38 -54.832 -67.168 -95.499 -87.501s-87 -30.5 -139 -30.5c-52.667 0 -99 9.83301 -139 29.5s-71.167 48.667 -93.5 87s-33.5 84.5 -33.5 138.5c0 52 11.5 97.333 34.5 136s54.667 68.334 95 89.001s86.5 31 138.5 31
c52.667 0 99.167 -10.167 139.5 -30.5s71.666 -49.833 93.999 -88.5s33.5 -85 33.5 -139c0 -52 -11.5 -97 -34.5 -135zM366.001 151.999c19.333 22.667 29 52.667 29 90s-9.5 68 -28.5 92s-44.167 36 -75.5 36c-32.667 0 -58.667 -11.5 -78 -34.5s-29 -53.5 -29 -91.5
s9.5 -68.5 28.5 -91.5s44.5 -34.5 76.5 -34.5s57.667 11.333 77 34zM323.001 592.999l-3 -5l-112 24l59 158h185l-105 -182z" />
    <glyph glyph-name="OE" unicode="&#x152;" horiz-adv-x="1009" 
d="M502 7c-44 -13.333 -87.667 -20 -131 -20c-70.667 0 -131.5 15 -182.5 45s-89.833 71.5 -116.5 124.5s-40 113.167 -40 180.5c0 68.667 14.333 130 43 184s68.667 96.167 120 126.5s110 45.5 176 45.5c44 0 87.667 -7.66699 131 -23v10h429l19 -123h-292v-153h216
l19 -123h-235v-159h312l19 -122h-487v7zM502 147v392.001c-31.333 10 -55.333 16.667 -72 20s-36.667 5 -60 5c-31.333 0 -60.5 -9.33301 -87.5 -28s-48.5 -45.167 -64.5 -79.5s-24 -73.833 -24 -118.5c0 -42.667 7.66699 -80.834 23 -114.501s36.333 -60 63 -79
s56.667 -28.5 90 -28.5c45.333 0 89.333 10.333 132 31z" />
    <glyph glyph-name="oe" unicode="&#x153;" horiz-adv-x="849" 
d="M516 200c13.333 -56.667 55.998 -85 127.998 -85c46 0 91.667 12.667 137 38l44 -109c-22 -16.667 -49.667 -30 -83 -40s-69.666 -15 -108.999 -15c-75.333 0 -136.666 15.667 -183.999 47c-22.667 -16.667 -49.334 -28.667 -80.001 -36s-59 -11 -85 -11
c-52 0 -97.833 10 -137.5 30s-70.334 49.167 -92.001 87.5s-32.5 83.5 -32.5 135.5s10.833 97.5 32.5 136.5s52.334 69 92.001 90s85.5 31.5 137.5 31.5c24.667 0 52 -3.66699 82 -11s56.333 -19 79 -35c42.667 30.667 94.334 46 155.001 46c49.333 0 91 -11.333 125 -34
s59.5 -53 76.5 -91s25.5 -80.667 25.5 -128v-47h-311zM650.998 348.5c-14 15 -32.333 22.5 -55 22.5c-22 0 -40.5 -7.5 -55.5 -22.5s-23.833 -34.833 -26.5 -59.5h164c-4 24.667 -13 44.5 -27 59.5zM215.498 152c21 -22.667 47.167 -34 78.5 -34c25.333 0 50 4.33301 74 13
c-14 32 -21 69 -21 111s7.33301 80.333 22 115c-24 8.66699 -49 13 -75 13c-31.333 0 -57.5 -12 -78.5 -36s-31.5 -54.667 -31.5 -92s10.5 -67.333 31.5 -90z" />
    <glyph glyph-name="Racute" unicode="&#x154;" horiz-adv-x="672" 
d="M238 0v236h122l127 -236h175l-159 280c32 18 57.333 42.333 76 73s28 66 28 106c0 73.333 -25.667 128.5 -77 165.5s-117 55.5 -197 55.5h-251v-680h156zM414 530c20 -16 30 -40.667 30 -74c0 -30 -10.5 -53.5 -31.5 -70.5s-48.5 -25.5 -82.5 -25.5h-92v194h90
c37.333 0 66 -8 86 -24zM309 918l-59 -159l111 -23l105 182h-157z" />
    <glyph glyph-name="racute" unicode="&#x155;" horiz-adv-x="381" 
d="M290.5 340.5c30.333 13 57.168 19.5 80.501 19.5l-31 125c-24.667 0 -52.334 -7.16699 -83.001 -21.5s-57.667 -30.5 -81 -48.5l-44 69h-80v-484h157v290c24 20.667 51.167 37.5 81.5 50.5zM174.002 770l-59 -158l111 -24l105 182h-157z" />
    <glyph glyph-name="Rcommaaccent" unicode="&#x156;" horiz-adv-x="672" 
d="M238 0v236h122l127 -236h175l-159 280c32 18 57.333 42.333 76 73s28 66 28 106c0 73.333 -25.667 128.5 -77 165.5s-117 55.5 -197 55.5h-251v-680h156zM414 530c20 -16 30 -40.667 30 -74c0 -30 -10.5 -53.5 -31.5 -70.5s-48.5 -25.5 -82.5 -25.5h-92v194h90
c37.333 0 66 -8 86 -24zM308.5 -47c-16.333 -17.333 -24.501 -36.332 -24.501 -56.999c0 -16.667 5 -32.5 15 -47.5s21.333 -24.167 34 -27.5c-3.33301 -10.667 -10.166 -21 -20.499 -31s-20.833 -17.667 -31.5 -23l32 -70c38.667 16.667 71.167 42 97.5 76
s39.5 69.667 39.5 107c0 29.333 -8 53.166 -24 71.499s-35.667 27.5 -59 27.5c-22.667 0 -42.167 -8.66699 -58.5 -26z" />
    <glyph glyph-name="rcommaaccent" unicode="&#x157;" horiz-adv-x="381" 
d="M290.5 340.5c30.333 13 57.168 19.5 80.501 19.5l-31 125c-24.667 0 -52.334 -7.16699 -83.001 -21.5s-57.667 -30.5 -81 -48.5l-44 69h-80v-484h157v290c24 20.667 51.167 37.5 81.5 50.5zM73.502 -47c-16.333 -17.333 -24.501 -36.332 -24.501 -56.999
c0 -16.667 5 -32.5 15 -47.5s21.333 -24.167 34 -27.5c-3.33301 -10.667 -10.166 -21 -20.499 -31s-20.833 -17.667 -31.5 -23l32 -70c38.667 16.667 71.167 42 97.5 76s39.5 69.667 39.5 107c0 29.333 -8 53.166 -24 71.499s-35.667 27.5 -59 27.5
c-22.667 0 -42.167 -8.66699 -58.5 -26z" />
    <glyph glyph-name="Rcaron" unicode="&#x158;" horiz-adv-x="672" 
d="M238 0v236h122l127 -236h175l-159 280c32 18 57.333 42.333 76 73s28 66 28 106c0 73.333 -25.667 128.5 -77 165.5s-117 55.5 -197 55.5h-251v-680h156zM414 530c20 -16 30 -40.667 30 -74c0 -30 -10.5 -53.5 -31.5 -70.5s-48.5 -25.5 -82.5 -25.5h-92v194h90
c37.333 0 66 -8 86 -24zM121 903l163 -164h90l163 164l-147 18l-59 -64l-59 64z" />
    <glyph glyph-name="rcaron" unicode="&#x159;" horiz-adv-x="381" 
d="M290.5 340.5c30.333 13 57.168 19.5 80.501 19.5l-31 125c-24.667 0 -52.334 -7.16699 -83.001 -21.5s-57.667 -30.5 -81 -48.5l-44 69h-80v-484h157v290c24 20.667 51.167 37.5 81.5 50.5zM-5.99805 752l163 -164h90l163 164l-147 18l-59 -63l-59 63z" />
    <glyph glyph-name="Sacute" unicode="&#x15a;" horiz-adv-x="537" 
d="M140.5 4c43 -11.333 80.165 -17 111.498 -17c54 0 100.833 8.33301 140.5 25s70 39.667 91 69s31.5 62.666 31.5 99.999c0 34.667 -9.66699 65.5 -29 92.5s-41.666 49.333 -66.999 67s-62 40.5 -110 68.5c-11.333 7.33301 -22.333 13.333 -33 18
c-28.667 15.333 -49.5 28.5 -62.5 39.5s-19.5 23.833 -19.5 38.5c0 18 7.83301 32.167 23.5 42.5s35.834 15.5 60.501 15.5c24 0 46.333 -2.66699 67 -8s47 -14.666 79 -27.999l48 114c-26.667 16 -57.667 28.833 -93 38.5s-69.666 14.5 -102.999 14.5
c-49.333 0 -92.333 -8.16699 -129 -24.5s-64.834 -38.666 -84.501 -66.999s-29.834 -60.5 -30.501 -96.5c0 -34 9.83301 -64.667 29.5 -92s42.334 -50 68.001 -68s61.167 -40.667 106.5 -68c13.333 -8 23.333 -13.667 30 -17c30.667 -18 52.834 -32.333 66.501 -43
s20.5 -22.334 20.5 -35.001c0 -19.333 -9 -34.833 -27 -46.5s-43.667 -17.5 -77 -17.5c-24.667 0 -52.834 4.83301 -84.501 14.5s-58.167 20.167 -79.5 31.5l-45 -122c24 -14.667 57.5 -27.667 100.5 -39zM255.998 918l-59 -159l111 -23l105 182h-157z" />
    <glyph glyph-name="sacute" unicode="&#x15b;" horiz-adv-x="437" 
d="M115 2c38 -8.66699 70.332 -12.999 96.999 -12.999c66 0 116.167 13.667 150.5 41s51.5 66 51.5 116c0 69.333 -55.667 123.333 -167 162c-42 14.667 -63 27.334 -63 38.001c0 9.33301 5 17 15 23s22.667 9 38 9c36 0 77.333 -10.333 124 -31l45 102
c-23.333 17.333 -51.833 30.166 -85.5 38.499s-63.167 12.5 -88.5 12.5c-62.667 0 -112 -13.833 -148 -41.5s-54 -65.5 -54 -113.5c0 -38 15.667 -69.333 47 -94s71.333 -45.334 120 -62.001c20.667 -6.66699 36.834 -14 48.501 -22s17.5 -16.333 17.5 -25
c0 -10 -6.16699 -17.833 -18.5 -23.5s-26.5 -8.5 -42.5 -8.5c-17.333 0 -38.5 3.16699 -63.5 9.5s-47.833 14.5 -68.5 24.5l-46 -102c22.667 -18 53 -31.333 91 -40zM204.999 770.001l-59 -158l111 -24l105 182h-157z" />
    <glyph glyph-name="Scedilla" unicode="&#x15e;" horiz-adv-x="537" 
d="M459 53c-37.333 -34.667 -88.9971 -55.665 -154.997 -62.998l-10 -24c21.333 -7.33301 38.166 -20.5 50.499 -39.5s18.5 -37.833 18.5 -56.5c0 -35.333 -13 -62.833 -39 -82.5s-57.333 -29.5 -94 -29.5c-16.667 0 -35.167 3.33301 -55.5 10s-37.166 15 -50.499 25l34 81
c26 -12 46 -18 60 -18c9.33301 0 17.166 1.5 23.499 4.5s9.5 7.5 9.5 13.5c0 11.333 -8.5 20.5 -25.5 27.5s-37.5 11.5 -61.5 13.5l32 77c-28.667 4.66699 -57.5 11.667 -86.5 21s-52.167 19.333 -69.5 30l45 122c21.333 -11.333 47.833 -21.833 79.5 -31.5
s59.834 -14.5 84.501 -14.5c33.333 0 59 5.83301 77 17.5s27 27.167 27 46.5c0 12.667 -6.83301 24.334 -20.5 35.001s-35.834 25 -66.501 43c-6.66699 3.33301 -16.667 9 -30 17c-45.333 27.333 -80.833 50 -106.5 68s-48.334 40.667 -68.001 68s-29.5 58 -29.5 92
c0.666992 36 10.834 68.167 30.501 96.5s47.834 50.666 84.501 66.999s79.667 24.5 129 24.5c33.333 0 67.666 -4.83301 102.999 -14.5s66.333 -22.5 93 -38.5l-48 -114c-32 13.333 -58.333 22.666 -79 27.999s-43 8 -67 8c-24.667 0 -44.834 -5.16699 -60.501 -15.5
s-23.5 -24.5 -23.5 -42.5c0 -14.667 6.5 -27.5 19.5 -38.5s33.833 -24.167 62.5 -39.5c10.667 -4.66699 21.667 -10.667 33 -18c48 -28 84.667 -50.833 110 -68.5s47.666 -40 66.999 -67s29 -57.833 29 -92.5c0 -50.667 -18.667 -93.334 -56 -128.001z" />
    <glyph glyph-name="scedilla" unicode="&#x15f;" horiz-adv-x="437" 
d="M376.5 42.5c-25 -26.333 -61.8311 -42.834 -110.498 -49.501l-11 -27c21.333 -7.33301 38.166 -20.5 50.499 -39.5s18.5 -37.833 18.5 -56.5c0 -35.333 -13 -62.833 -39 -82.5s-57.333 -29.5 -94 -29.5c-16.667 0 -35.167 3.33301 -55.5 10s-37.166 15 -50.499 25l34 81
c26 -12 46 -18 60 -18c9.33301 0 17.166 1.5 23.499 4.5s9.5 7.5 9.5 13.5c0 11.333 -8.5 20.5 -25.5 27.5s-37.5 11.5 -61.5 13.5l32 79c-60.667 9.33301 -105 25.333 -133 48l46 102c20.667 -10 43.5 -18.167 68.5 -24.5s46.167 -9.5 63.5 -9.5
c16 0 30.167 2.83301 42.5 8.5s18.5 13.5 18.5 23.5c0 8.66699 -5.83301 17 -17.5 25s-27.834 15.333 -48.501 22c-48.667 16.667 -88.667 37.334 -120 62.001s-47 56 -47 94c0 48 18 85.833 54 113.5s85.333 41.5 148 41.5c25.333 0 54.833 -4.16699 88.5 -12.5
s62.167 -21.166 85.5 -38.499l-45 -102c-46.667 20.667 -88 31 -124 31c-15.333 0 -28 -3 -38 -9s-15 -13.667 -15 -23c0 -10.667 21 -23.334 63 -38.001c111.333 -38.667 167 -92.667 167 -162c0 -42.667 -12.5 -77.167 -37.5 -103.5z" />
    <glyph glyph-name="Scaron" unicode="&#x160;" horiz-adv-x="537" 
d="M140.5 4c43 -11.333 80.165 -17 111.498 -17c54 0 100.833 8.33301 140.5 25s70 39.667 91 69s31.5 62.666 31.5 99.999c0 34.667 -9.66699 65.5 -29 92.5s-41.666 49.333 -66.999 67s-62 40.5 -110 68.5c-11.333 7.33301 -22.333 13.333 -33 18
c-28.667 15.333 -49.5 28.5 -62.5 39.5s-19.5 23.833 -19.5 38.5c0 18 7.83301 32.167 23.5 42.5s35.834 15.5 60.501 15.5c24 0 46.333 -2.66699 67 -8s47 -14.666 79 -27.999l48 114c-26.667 16 -57.667 28.833 -93 38.5s-69.666 14.5 -102.999 14.5
c-49.333 0 -92.333 -8.16699 -129 -24.5s-64.834 -38.666 -84.501 -66.999s-29.834 -60.5 -30.501 -96.5c0 -34 9.83301 -64.667 29.5 -92s42.334 -50 68.001 -68s61.167 -40.667 106.5 -68c13.333 -8 23.333 -13.667 30 -17c30.667 -18 52.834 -32.333 66.501 -43
s20.5 -22.334 20.5 -35.001c0 -19.333 -9 -34.833 -27 -46.5s-43.667 -17.5 -77 -17.5c-24.667 0 -52.834 4.83301 -84.501 14.5s-58.167 20.167 -79.5 31.5l-45 -122c24 -14.667 57.5 -27.667 100.5 -39zM67.998 903l163 -164h90l163 164l-147 18l-59 -64l-59 64z" />
    <glyph glyph-name="scaron" unicode="&#x161;" horiz-adv-x="437" 
d="M115 2c38 -8.66699 70.332 -12.999 96.999 -12.999c66 0 116.167 13.667 150.5 41s51.5 66 51.5 116c0 69.333 -55.667 123.333 -167 162c-42 14.667 -63 27.334 -63 38.001c0 9.33301 5 17 15 23s22.667 9 38 9c36 0 77.333 -10.333 124 -31l45 102
c-23.333 17.333 -51.833 30.166 -85.5 38.499s-63.167 12.5 -88.5 12.5c-62.667 0 -112 -13.833 -148 -41.5s-54 -65.5 -54 -113.5c0 -38 15.667 -69.333 47 -94s71.333 -45.334 120 -62.001c20.667 -6.66699 36.834 -14 48.501 -22s17.5 -16.333 17.5 -25
c0 -10 -6.16699 -17.833 -18.5 -23.5s-26.5 -8.5 -42.5 -8.5c-17.333 0 -38.5 3.16699 -63.5 9.5s-47.833 14.5 -68.5 24.5l-46 -102c22.667 -18 53 -31.333 91 -40zM24.999 752.001l163 -164h90l163 164l-147 18l-59 -63l-59 63z" />
    <glyph glyph-name="Tcedilla" unicode="&#x162;" horiz-adv-x="605" 
d="M387.5 -73.5c12.333 -19 18.501 -37.833 18.501 -56.5c0 -35.333 -13 -62.833 -39 -82.5s-57.333 -29.5 -94 -29.5c-16.667 0 -35.167 3.33301 -55.5 10s-37.166 15 -50.499 25l34 81c26 -12 46 -18 60 -18c9.33301 0 17.166 1.5 23.499 4.5s9.5 7.5 9.5 13.5
c0 11.333 -8.5 20.5 -25.5 27.5s-37.5 11.5 -61.5 13.5l35 85h-29v557h-203v123h566l19 -123h-225v-557h-19l-14 -34c21.333 -7.33301 38.166 -20.5 50.499 -39.5z" />
    <glyph glyph-name="tcedilla" unicode="&#x163;" horiz-adv-x="419" 
d="M341.5 -73.5c12.333 -19 18.5 -37.834 18.5 -56.501c0 -35.333 -13 -62.833 -39 -82.5s-57.333 -29.5 -94 -29.5c-16.667 0 -35.167 3.33301 -55.5 10s-37.166 15 -50.499 25l34 81c26 -12 46 -18 60 -18c9.33301 0 17.166 1.5 23.499 4.5s9.5 7.5 9.5 13.5
c0 11.333 -8.5 20.5 -25.5 27.5s-37.5 11.5 -61.5 13.5l35 86c-36 12.667 -64.333 33.334 -85 62.001s-31 64 -31 106v183h-70v122h70v123l156 24v-147h108l28 -122h-136v-162c0 -22.667 5.66699 -41 17 -55s27 -21 47 -21c20.667 0 41.334 5.33301 62.001 16l45 -109
c-10.667 -8.66699 -26.5 -16.5 -47.5 -23.5s-41.167 -11.167 -60.5 -12.5l-8 -19c21.333 -7.33301 38.166 -20.5 50.499 -39.5z" />
    <glyph glyph-name="Tcaron" unicode="&#x164;" horiz-adv-x="605" 
d="M10 557h203v-557h157v557h225l-19 123h-566v-123zM87 903l163 -164h90l163 164l-147 18l-59 -64l-59 64z" />
    <glyph glyph-name="tcaron" unicode="&#x165;" horiz-adv-x="596" 
d="M424.5 716c-16.333 -17.333 -24.502 -36.334 -24.502 -57.001c0 -16.667 5 -32.334 15 -47.001s21.333 -24 34 -28c-3.33301 -13.333 -10 -25.5 -20 -36.5s-23 -22.5 -39 -34.5l32 -71c40.667 18.667 74.834 47.334 102.501 86.001s41.5 77.334 41.5 116.001
c0 28.667 -8.16699 52.167 -24.5 70.5s-36.166 27.5 -59.499 27.5c-22 0 -41.167 -8.66699 -57.5 -26zM235.998 620.999l-155.997 -23.999v-123h-70v-122h70v-183c0 -58.667 19.667 -104 59 -136s89.666 -48 150.999 -48c20 0 41.667 3.66699 65 11
s40.666 15.666 51.999 24.999l-45 109c-20.667 -10.667 -41.334 -16 -62.001 -16c-20 0 -35.667 7 -47 21s-17 32.333 -17 55v162h136l-28 122h-108v147z" />
    <glyph glyph-name="Umacron" unicode="&#x16a;" horiz-adv-x="730" 
d="M73 254c0 -54 12.001 -101 36.001 -141s58.167 -71 102.5 -93s95.5 -33 153.5 -33s109.167 11 153.5 33s78.666 53 102.999 93s36.5 87 36.5 141v426h-157v-417c0 -47.333 -12.333 -83.5 -37 -108.5s-57.667 -37.5 -99 -37.5s-74.333 12.333 -99 37s-37 61 -37 109v417
h-157zM489.001 886h-266v-123h276z" />
    <glyph glyph-name="umacron" unicode="&#x16b;" 
d="M266 111c-20.667 0 -36.001 6.83301 -46.001 20.5s-15 32.5 -15 56.5v296h-157v-308c0 -59.333 13.5 -106.333 40.5 -141s70.833 -52 131.5 -52c30.667 0 62.834 6.33301 96.501 19s65.5 28.667 95.5 48l37 -51h87v485h-157v-330c-45.333 -28.667 -83 -43 -113 -43z
M416.999 736h-266v-123h276z" />
    <glyph glyph-name="Uring" unicode="&#x16e;" horiz-adv-x="730" 
d="M73 254c0 -54 12.001 -101 36.001 -141s58.167 -71 102.5 -93s95.5 -33 153.5 -33s109.167 11 153.5 33s78.666 53 102.999 93s36.5 87 36.5 141v426h-157v-417c0 -47.333 -12.333 -83.5 -37 -108.5s-57.667 -37.5 -99 -37.5s-74.333 12.333 -99 37s-37 61 -37 109v417
h-157zM282.001 928c-22.667 -21.333 -34 -47 -34 -77c0 -30.667 11.167 -56.167 33.5 -76.5s49.5 -30.5 81.5 -30.5c31.333 0 58.333 10.167 81 30.5s34 45.833 34 76.5c0 30 -11.5 55.667 -34.5 77s-49.833 32 -80.5 32c-31.333 0 -58.333 -10.667 -81 -32zM339.501 826.5
c-7 7 -10.5 15.165 -10.5 24.498c0 8.66699 3.5 16.334 10.5 23.001s15.167 10 24.5 10s17.333 -3.16699 24 -9.5s10 -14.166 10 -23.499s-3.33301 -17.5 -10 -24.5s-14.667 -10.5 -24 -10.5s-17.5 3.5 -24.5 10.5z" />
    <glyph glyph-name="uring" unicode="&#x16f;" 
d="M266 111c-20.667 0 -36.001 6.83301 -46.001 20.5s-15 32.5 -15 56.5v296h-157v-308c0 -59.333 13.5 -106.333 40.5 -141s70.833 -52 131.5 -52c30.667 0 62.834 6.33301 96.501 19s65.5 28.667 95.5 48l37 -51h87v485h-157v-330c-45.333 -28.667 -83 -43 -113 -43z
M209.999 778c-22.667 -21.333 -34 -47 -34 -77c0 -30.667 11.167 -56.167 33.5 -76.5s49.5 -30.5 81.5 -30.5c31.333 0 58.333 10.167 81 30.5s34 45.833 34 76.5c0 30 -11.5 55.667 -34.5 77s-49.833 32 -80.5 32c-31.333 0 -58.333 -10.667 -81 -32zM267.499 676.5
c-7 7 -10.5 15.165 -10.5 24.498c0 8.66699 3.5 16.334 10.5 23.001s15.167 10 24.5 10s17.333 -3.16699 24 -9.5s10 -14.166 10 -23.499s-3.33301 -17.5 -10 -24.5s-14.667 -10.5 -24 -10.5s-17.5 3.5 -24.5 10.5z" />
    <glyph glyph-name="Uhungarumlaut" unicode="&#x170;" horiz-adv-x="730" 
d="M73 254c0 -54 12.001 -101 36.001 -141s58.167 -71 102.5 -93s95.5 -33 153.5 -33s109.167 11 153.5 33s78.666 53 102.999 93s36.5 87 36.5 141v426h-157v-417c0 -47.333 -12.333 -83.5 -37 -108.5s-57.667 -37.5 -99 -37.5s-74.333 12.333 -99 37s-37 61 -37 109v417
h-157zM400.001 741l-3 -5l-112 23l59 159h185l-105 -182z" />
    <glyph glyph-name="uhungarumlaut" unicode="&#x171;" 
d="M266 111c-20.667 0 -36.001 6.83301 -46.001 20.5s-15 32.5 -15 56.5v296h-157v-308c0 -59.333 13.5 -106.333 40.5 -141s70.833 -52 131.5 -52c30.667 0 62.834 6.33301 96.501 19s65.5 28.667 95.5 48l37 -51h87v485h-157v-330c-45.333 -28.667 -83 -43 -113 -43z
M329.999 593l-3 -5l-112 24l59 158h185l-105 -182z" />
    <glyph glyph-name="Uogonek" unicode="&#x172;" horiz-adv-x="730" 
d="M658 254c0 -71.333 -21.167 -130.169 -63.5 -176.502s-99.5 -75.166 -171.5 -86.499c-7.33301 -11.333 -13.666 -23.666 -18.999 -36.999s-8 -25 -8 -35c0 -8 2.66699 -15 8 -21s12.666 -9 21.999 -9c14 0 28.333 6.33301 43 19l49 -92
c-13.333 -12.667 -29.833 -22.5 -49.5 -29.5s-40.834 -10.5 -63.501 -10.5c-40 0 -72 12.833 -96 38.5s-36 56.5 -36 92.5c0 10.667 2.33301 24.334 7 41.001s10.334 31.667 17.001 45c-69.333 11.333 -124 40.166 -164 86.499s-60 104.5 -60 174.5l-1 426h157v-417
c0 -48 12.333 -84.333 37 -109s57.667 -37 99 -37s74.333 12.5 99 37.5s37 61.167 37 108.5v417h157v-426z" />
    <glyph glyph-name="uogonek" unicode="&#x173;" 
d="M591.5 -213.5c-19.667 -7 -40.8311 -10.499 -63.498 -10.499c-40 0 -72 12.833 -96 38.5s-36 56.5 -36 92.5c0 12.667 3.33301 29.167 10 49.5s13.667 36.5 21 48.5h18l-33 45c-30 -19.333 -61.833 -35.333 -95.5 -48s-65.834 -19 -96.501 -19
c-60.667 0 -104.5 17.333 -131.5 52s-40.5 81.667 -40.5 141v308h157v-296c0 -24 5 -42.833 15 -56.5s25.333 -20.5 46 -20.5c30 0 67.667 14.333 113 43v330h157v-479h21c-8.66699 -9.33301 -17.167 -22.833 -25.5 -40.5s-12.5 -32.834 -12.5 -45.501
c0 -8 2.66699 -15 8 -21s12.666 -9 21.999 -9c14 0 28.333 6.33301 43 19l49 -92c-13.333 -12.667 -29.833 -22.5 -49.5 -29.5z" />
    <glyph glyph-name="Ydieresis" unicode="&#x178;" horiz-adv-x="631" 
d="M621 680h-162l-153 -264l-145 278l-151 -43l219 -384v-267h156v263zM258 774c14 14 21 31.667 21 53c0 20 -7 37.333 -21 52s-31.333 22 -52 22s-38.334 -7.33301 -53.001 -22s-22 -32 -22 -52c0 -20.667 7.33301 -38.167 22 -52.5s32.334 -21.5 53.001 -21.5s38 7 52 21
zM459.5 774c14.333 14 21.5 31.667 21.5 53c0 20 -7.16699 37.333 -21.5 52s-32.166 22 -53.499 22c-19.333 0 -36.5 -7.33301 -51.5 -22s-22.5 -32 -22.5 -52c0 -20.667 7.33301 -38.167 22 -52.5s32 -21.5 52 -21.5c21.333 0 39.166 7 53.499 21z" />
    <glyph glyph-name="Zacute" unicode="&#x179;" horiz-adv-x="581" 
d="M564 564l-17 116h-506l16 -123h323l-368 -442l18 -115h537l-16 122h-363zM265 918l-59 -159l111 -23l105 182h-157z" />
    <glyph glyph-name="zacute" unicode="&#x17a;" horiz-adv-x="448" 
d="M48 360h182l-220 -278l20 -82h407l-13 124h-220l219 273l-8 88h-387zM192 770l-59 -158l111 -24l105 182h-157z" />
    <glyph glyph-name="Zdotaccent" unicode="&#x17b;" horiz-adv-x="581" 
d="M564 564l-17 116h-506l16 -123h323l-368 -442l18 -115h537l-16 122h-363zM344 768c15.333 16 23 35.667 23 59s-7.66699 43 -23 59s-34.666 24 -57.999 24c-22.667 0 -42.167 -8 -58.5 -24s-24.5 -35.667 -24.5 -59s8 -43 24 -59s35.667 -24 59 -24s42.666 8 57.999 24z
" />
    <glyph glyph-name="zdotaccent" unicode="&#x17c;" horiz-adv-x="448" 
d="M48 360h182l-220 -278l20 -82h407l-13 124h-220l219 273l-8 88h-387zM277 618c15.333 16 23 35.667 23 59s-7.66699 43 -23 59s-34.666 24 -57.999 24c-22.667 0 -42.167 -8 -58.5 -24s-24.5 -35.667 -24.5 -59s8 -43 24 -59s35.667 -24 59 -24s42.666 8 57.999 24z" />
    <glyph glyph-name="Zcaron" unicode="&#x17d;" horiz-adv-x="581" 
d="M564 564l-17 116h-506l16 -123h323l-368 -442l18 -115h537l-16 122h-363zM77 903l163 -164h90l163 164l-147 18l-59 -64l-59 64z" />
    <glyph glyph-name="zcaron" unicode="&#x17e;" horiz-adv-x="448" 
d="M48 360h182l-220 -278l20 -82h407l-13 124h-220l219 273l-8 88h-387zM12 752l163 -164h90l163 164l-147 18l-59 -63l-59 63z" />
    <glyph glyph-name="florin" unicode="&#x192;" horiz-adv-x="502" 
d="M173 345l-0.00195312 -262c0 -23.333 -5.66699 -41.833 -17 -55.5s-27.666 -20.5 -48.999 -20.5c-18.667 0 -39.334 5.33301 -62.001 16l-45 -109c12 -9.33301 29.5 -17.833 52.5 -25.5s44.167 -11.5 63.5 -11.5c62.667 0 113.834 16.5 153.501 49.5
s59.5 78.833 59.5 137.5v281h142l-28 122h-114v29c0 23.333 5.66699 41.833 17 55.5s27.666 20.5 48.999 20.5c20.667 0 41.334 -5.33301 62.001 -16l45 109c-11.333 10 -28.666 18.833 -51.999 26.5s-44.666 11.5 -63.999 11.5c-62.667 0 -113.834 -16.667 -153.501 -50
s-59.5 -79.333 -59.5 -138v-48h-78v-122h78z" />
    <glyph glyph-name="Scommaaccent" unicode="&#x218;" horiz-adv-x="537" 
d="M140.5 4c43 -11.333 80.165 -17 111.498 -17c54 0 100.833 8.33301 140.5 25s70 39.667 91 69s31.5 62.666 31.5 99.999c0 34.667 -9.66699 65.5 -29 92.5s-41.666 49.333 -66.999 67s-62 40.5 -110 68.5c-11.333 7.33301 -22.333 13.333 -33 18
c-28.667 15.333 -49.5 28.5 -62.5 39.5s-19.5 23.833 -19.5 38.5c0 18 7.83301 32.167 23.5 42.5s35.834 15.5 60.501 15.5c24 0 46.333 -2.66699 67 -8s47 -14.666 79 -27.999l48 114c-26.667 16 -57.667 28.833 -93 38.5s-69.666 14.5 -102.999 14.5
c-49.333 0 -92.333 -8.16699 -129 -24.5s-64.834 -38.666 -84.501 -66.999s-29.834 -60.5 -30.501 -96.5c0 -34 9.83301 -64.667 29.5 -92s42.334 -50 68.001 -68s61.167 -40.667 106.5 -68c13.333 -8 23.333 -13.667 30 -17c30.667 -18 52.834 -32.333 66.501 -43
s20.5 -22.334 20.5 -35.001c0 -19.333 -9 -34.833 -27 -46.5s-43.667 -17.5 -77 -17.5c-24.667 0 -52.834 4.83301 -84.501 14.5s-58.167 20.167 -79.5 31.5l-45 -122c24 -14.667 57.5 -27.667 100.5 -39zM195.498 -47c-16.333 -17.333 -24.501 -36.332 -24.501 -56.999
c0 -16.667 5 -32.5 15 -47.5s21.333 -24.167 34 -27.5c-3.33301 -10.667 -10.166 -21 -20.499 -31s-20.833 -17.667 -31.5 -23l32 -70c38.667 16.667 71.167 42 97.5 76s39.5 69.667 39.5 107c0 29.333 -8 53.166 -24 71.499s-35.667 27.5 -59 27.5
c-22.667 0 -42.167 -8.66699 -58.5 -26z" />
    <glyph glyph-name="scommaaccent" unicode="&#x219;" horiz-adv-x="437" 
d="M115 2c38 -8.66699 70.332 -12.999 96.999 -12.999c66 0 116.167 13.667 150.5 41s51.5 66 51.5 116c0 69.333 -55.667 123.333 -167 162c-42 14.667 -63 27.334 -63 38.001c0 9.33301 5 17 15 23s22.667 9 38 9c36 0 77.333 -10.333 124 -31l45 102
c-23.333 17.333 -51.833 30.166 -85.5 38.499s-63.167 12.5 -88.5 12.5c-62.667 0 -112 -13.833 -148 -41.5s-54 -65.5 -54 -113.5c0 -38 15.667 -69.333 47 -94s71.333 -45.334 120 -62.001c20.667 -6.66699 36.834 -14 48.501 -22s17.5 -16.333 17.5 -25
c0 -10 -6.16699 -17.833 -18.5 -23.5s-26.5 -8.5 -42.5 -8.5c-17.333 0 -38.5 3.16699 -63.5 9.5s-47.833 14.5 -68.5 24.5l-46 -102c22.667 -18 53 -31.333 91 -40zM156.499 -46.999c-16.333 -17.333 -24.501 -36.332 -24.501 -56.999c0 -16.667 5 -32.5 15 -47.5
s21.333 -24.167 34 -27.5c-3.33301 -10.667 -10.166 -21 -20.499 -31s-20.833 -17.667 -31.5 -23l32 -70c38.667 16.667 71.167 42 97.5 76s39.5 69.667 39.5 107c0 29.333 -8 53.166 -24 71.499s-35.667 27.5 -59 27.5c-22.667 0 -42.167 -8.66699 -58.5 -26z" />
    <glyph glyph-name="Tcommaaccent" unicode="&#x21a;" horiz-adv-x="605" 
d="M10 557h203v-557h157v557h225l-19 123h-566v-123zM238.5 -47c-16.333 -17.333 -24.501 -36.332 -24.501 -56.999c0 -16.667 5 -32.5 15 -47.5s21.333 -24.167 34 -27.5c-3.33301 -10.667 -10.166 -21 -20.499 -31s-20.833 -17.667 -31.5 -23l32 -70
c38.667 16.667 71.167 42 97.5 76s39.5 69.667 39.5 107c0 29.333 -8 53.166 -24 71.499s-35.667 27.5 -59 27.5c-22.667 0 -42.167 -8.66699 -58.5 -26z" />
    <glyph glyph-name="tcommaaccent" unicode="&#x21b;" horiz-adv-x="419" 
d="M236 621l-155.997 -23.999v-123h-70v-122h70v-183c0 -58.667 19.667 -104 59 -136s89.666 -48 150.999 -48c20 0 41.667 3.66699 65 11s40.666 15.666 51.999 24.999l-45 109c-20.667 -10.667 -41.334 -16 -62.001 -16c-20 0 -35.667 7 -47 21s-17 32.333 -17 55v162h136
l-28 122h-108v147zM192.503 -46.999c-16.333 -17.333 -24.501 -36.332 -24.501 -56.999c0 -16.667 5 -32.5 15 -47.5s21.333 -24.167 34 -27.5c-3.33301 -10.667 -10.166 -21 -20.499 -31s-20.833 -17.667 -31.5 -23l32 -70c38.667 16.667 71.167 42 97.5 76
s39.5 69.667 39.5 107c0 29.333 -8 53.166 -24 71.499s-35.667 27.5 -59 27.5c-22.667 0 -42.167 -8.66699 -58.5 -26z" />
    <glyph glyph-name="circumflex" unicode="&#x2c6;" horiz-adv-x="436" 
d="M426 607l-163 163h-90l-163 -163l151 -19l59 64l59 -64z" />
    <glyph glyph-name="caron" unicode="&#x2c7;" horiz-adv-x="436" 
d="M10 752l163 -164h90l163 164l-147 18l-59 -63l-59 63z" />
    <glyph glyph-name="uni02C9" unicode="&#x2c9;" horiz-adv-x="296" 
d="M276 736h-266v-123h276z" />
    <glyph glyph-name="breve" unicode="&#x2d8;" horiz-adv-x="348" 
d="M214.5 720c-9.66699 -12 -23.167 -18 -40.5 -18c-18 0 -31.667 6 -41 18s-14 27 -14 45h-109c0 -51.333 14.5 -93.5 43.5 -126.5s69.167 -49.833 120.5 -50.5c50.667 0.666992 90.667 17.5 120 50.5s44 75.167 44 126.5h-109c0 -18 -4.83301 -33 -14.5 -45z" />
    <glyph glyph-name="dotaccent" unicode="&#x2d9;" horiz-adv-x="184" 
d="M151 618c15.333 16 23 35.667 23 59s-7.66699 43 -23 59s-34.666 24 -57.999 24c-22.667 0 -42.167 -8 -58.5 -24s-24.5 -35.667 -24.5 -59s8 -43 24 -59s35.667 -24 59 -24s42.666 8 57.999 24z" />
    <glyph glyph-name="ring" unicode="&#x2da;" horiz-adv-x="250" 
d="M44 778c-22.667 -21.333 -34 -47 -34 -77c0 -30.667 11.167 -56.167 33.5 -76.5s49.5 -30.5 81.5 -30.5c31.333 0 58.333 10.167 81 30.5s34 45.833 34 76.5c0 30 -11.5 55.667 -34.5 77s-49.833 32 -80.5 32c-31.333 0 -58.333 -10.667 -81 -32zM101.5 676.5
c-7 7 -10.5 15.165 -10.5 24.498c0 8.66699 3.5 16.334 10.5 23.001s15.167 10 24.5 10s17.333 -3.16699 24 -9.5s10 -14.166 10 -23.499s-3.33301 -17.5 -10 -24.5s-14.667 -10.5 -24 -10.5s-17.5 3.5 -24.5 10.5z" />
    <glyph glyph-name="ogonek" unicode="&#x2db;" horiz-adv-x="265" 
d="M20 -43.5c-6.66699 -20.333 -10.002 -36.834 -10.002 -49.501c0 -36 12 -66.833 36 -92.5s56 -38.5 96 -38.5c22.667 0 43.834 3.5 63.501 10.5s36.167 16.833 49.5 29.5l-49 92c-14.667 -12.667 -29 -19 -43 -19c-9.33301 0 -16.666 3 -21.999 9s-8 13 -8 21
c0 12.667 4.16699 27.834 12.5 45.501s16.833 31.167 25.5 40.5h-130c-7.33301 -12 -14.333 -28.167 -21 -48.5z" />
    <glyph glyph-name="tilde" unicode="&#x2dc;" horiz-adv-x="369" 
d="M250.5 715.5c-5 -6.33301 -10.8311 -9.50293 -17.498 -9.50293c-10 0 -18.5 1.33301 -25.5 4s-15.167 6.66699 -24.5 12c-10 6 -19 10.5 -27 13.5s-17.667 4.5 -29 4.5c-32.667 0 -60.334 -11.167 -83.001 -33.5s-34 -57.833 -34 -106.5h106
c0 6.66699 2.66699 13.334 8 20.001s11 10 17 10c10.667 0 19.5 -1.33301 26.5 -4s14.5 -7 22.5 -13c9.33301 -6 17.666 -10.5 24.999 -13.5s17 -4.5 29 -4.5c32.667 0 60 11.333 82 34s33 58.334 33 107.001h-101c0 -7.33301 -2.5 -14.166 -7.5 -20.499z" />
    <glyph glyph-name="hungarumlaut" unicode="&#x2dd;" horiz-adv-x="460" 
d="M223 593l-3 -5l-112 24l59 158h185l-105 -182z" />
    <glyph glyph-name="pi" unicode="&#x3c0;" horiz-adv-x="691" 
d="M422 363v-363h156v363h103v122h-671v-122h102v-363h156v363h154z" />
    <glyph glyph-name="tm_Anusvara" unicode="&#xb82;" horiz-adv-x="0" 
d="M70.5 656c21.667 12 38.667 28.167 51 48.5s18.5 42.5 18.5 66.5c0 25.333 -6.16699 48.333 -18.5 69s-29.333 37 -51 49s-45.167 18 -70.5 18s-48.666 -6 -69.999 -18s-38.166 -28.333 -50.499 -49s-18.5 -43.667 -18.5 -69c0 -24 6.16699 -46.167 18.5 -66.5
s29.166 -36.5 50.499 -48.5s44.666 -18 69.999 -18s48.833 6 70.5 18zM-28 744c-7.33301 7.33301 -11 16.666 -11 27.999c0 12 3.66699 21.667 11 29s16.666 11 27.999 11c12 0 21.833 -3.66699 29.5 -11s11.5 -17 11.5 -29c0 -11.333 -4 -20.666 -12 -27.999
s-17.667 -11 -29 -11s-20.666 3.66699 -27.999 11z" />
    <glyph glyph-name="tm_Visarga" unicode="&#xb83;" horiz-adv-x="718" 
d="M288.5 289.5c-21 11.667 -37.667 27.667 -50 48s-18.5 42.833 -18.5 67.5s6.16699 47.5 18.5 68.5s29 37.5 50 49.5s44.167 18 69.5 18s48.833 -6 70.5 -18s38.834 -28.5 51.501 -49.5s19 -43.833 19 -68.5s-6.33301 -47.167 -19 -67.5s-29.834 -36.333 -51.501 -48
s-45.167 -17.5 -70.5 -17.5s-48.5 5.83301 -69.5 17.5zM330.5 434.5c-7.66699 -7.66699 -11.5 -17.167 -11.5 -28.5s3.83301 -20.833 11.5 -28.5s17.167 -11.5 28.5 -11.5s20.833 3.83301 28.5 11.5s11.5 17.167 11.5 28.5s-3.83301 20.833 -11.5 28.5
s-17.167 11.5 -28.5 11.5s-20.833 -3.83301 -28.5 -11.5zM566.5 177c9 -16 13.5 -35.0039 13.5 -57.0039c0 -21.333 -4.5 -40.166 -13.5 -56.499s-19.167 -24.5 -30.5 -24.5c-12 0 -23 10.667 -33 32c-10 -25.333 -26.833 -45.833 -50.5 -61.5s-50.167 -23.5 -79.5 -23.5
c-34.667 0 -64.667 10.667 -90 32s-40.666 48.333 -45.999 81c-3.33301 -21.333 -10 -38.666 -20 -51.999s-22 -20 -36 -20c-16 0 -29.333 9 -40 27s-16 40.333 -16 67s5.33301 48.834 16 66.501s24 26.5 40 26.5c14 0 26 -6.66699 36 -20s16.667 -30.666 20 -51.999
c5.33301 32.667 20.666 59.667 45.999 81s55.333 32 90 32c29.333 0 55.833 -7.83301 79.5 -23.5s40.5 -36.167 50.5 -61.5c10 20.667 21 31 33 31c11.333 0 21.5 -8 30.5 -24zM372.5 91.9961c7.66699 7.33301 11.5 17 11.5 29c0 11.333 -3.83301 20.666 -11.5 27.999
s-17.167 11 -28.5 11s-20.666 -3.66699 -27.999 -11s-11 -16.666 -11 -27.999c0 -12 3.66699 -21.667 11 -29s16.666 -11 27.999 -11s20.833 3.66699 28.5 11z" />
    <glyph glyph-name="tm_A" unicode="&#xb85;" horiz-adv-x="1117" 
d="M1032 -126l-140.998 0.000976562v172h-190c-34.667 -58.667 -85.5 -105 -152.5 -139s-145.833 -51 -236.5 -51c-56.667 0 -106.834 7.33301 -150.501 22s-77.334 35.167 -101.001 61.5s-35.5 55.833 -35.5 88.5c0 39.333 13.667 70.5 41 93.5s68 34.5 122 34.5h406
c4.66699 19.333 7 42 7 68c0 56.667 -14.5 102.5 -43.5 137.5s-67.167 53.167 -114.5 54.5c22.667 -22.667 34 -51.334 34 -86.001c-0.666992 -40 -14.5 -73.167 -41.5 -99.5s-60.833 -39.5 -101.5 -39.5c-44 0 -80.333 13.333 -109 40s-43 60.334 -43 101.001
c0 38 11 72.167 33 102.5s52.5 54 91.5 71s82.833 25.5 131.5 25.5c58.667 0 111.667 -13.333 159 -40s84.333 -63.334 111 -110.001s40 -99 40 -157c0 -23.333 -2 -46 -6 -68h149v357h141v-639zM359.502 302.001c7 7.33301 10.501 16.333 10.501 27
s-3.5 19.334 -10.5 26.001s-15.833 10 -26.5 10c-11.333 0 -20.833 -3.33301 -28.5 -10s-11.5 -15.334 -11.5 -26.001c0 -11.333 3.66699 -20.5 11 -27.5s16.666 -10.5 27.999 -10.5s20.5 3.66699 27.5 11zM536.003 46.001h-340c-21.333 0 -32 -7.33301 -32 -22
c0 -14 13.167 -26 39.5 -36s62.5 -15 108.5 -15c99.333 0 174 24.333 224 73z" />
    <glyph glyph-name="tm_Aa" unicode="&#xb86;" horiz-adv-x="1320" 
d="M1224 91.5c28 -16.333 49.335 -38.6689 64.002 -67.002s22 -60.166 22 -95.499c0 -58.667 -18.167 -111.167 -54.5 -157.5s-86.833 -82.666 -151.5 -108.999s-138.667 -39.5 -222 -39.5c-54.667 0 -102 7.5 -142 22.5s-70.333 35.5 -91 61.5s-31 55.333 -31 88
c0 41.333 16 75.333 48 102s75 40 129 40h21v-110h-21c-12 0 -22 -3.16699 -30 -9.5s-12 -14.833 -12 -25.5c0 -14.667 11 -27 33 -37s52.333 -15 91 -15c89.333 0 159.333 16.5 210 49.5s76 78.5 76 136.5c0 20.667 -5.5 37.834 -16.5 51.501s-25.5 20.5 -43.5 20.5
c-21.333 0 -38.5 -6.66699 -51.5 -20s-19.5 -30.333 -19.5 -51v-53h-141v172h-190c-34.667 -58.667 -85.5 -105 -152.5 -139s-145.833 -51 -236.5 -51c-56.667 0 -106.834 7.33301 -150.501 22s-77.334 35.167 -101.001 61.5s-35.5 55.833 -35.5 88.5
c0 39.333 13.667 70.5 41 93.5s68 34.5 122 34.5h406c4.66699 19.333 7 42 7 68c0 56.667 -14.5 102.5 -43.5 137.5s-67.167 53.167 -114.5 54.5c22.667 -22.667 34 -51.334 34 -86.001c-0.666992 -40 -14.5 -73.167 -41.5 -99.5s-60.833 -39.5 -101.5 -39.5
c-44 0 -80.333 13.333 -109 40s-43 60.334 -43 101.001c0 38 11 72.167 33 102.5s52.5 54 91.5 71s82.833 25.5 131.5 25.5c58.667 0 111.667 -13.333 159 -40s84.333 -63.334 111 -110.001s40 -99 40 -157c0 -23.333 -2 -46 -6 -68h149v357h141v-420
c29.333 15.333 60.333 23 93 23c38 0 71 -8.16699 99 -24.5zM359.502 301.997c7 7.33301 10.501 16.333 10.501 27s-3.5 19.334 -10.5 26.001s-15.833 10 -26.5 10c-11.333 0 -20.833 -3.33301 -28.5 -10s-11.5 -15.334 -11.5 -26.001c0 -11.333 3.66699 -20.5 11 -27.5
s16.666 -10.5 27.999 -10.5s20.5 3.66699 27.5 11zM536.003 45.9971h-340c-21.333 0 -32 -7.33301 -32 -22c0 -14 13.167 -26 39.5 -36s62.5 -15 108.5 -15c99.333 0 174 24.333 224 73z" />
    <glyph glyph-name="tm_I" unicode="&#xb87;" horiz-adv-x="1114" 
d="M811 664c70 -31.333 124.331 -74.833 162.998 -130.5s58 -118.5 58 -188.5v-492l-141 -1v490c0 49.333 -13.167 93 -39.5 131s-63.666 67.667 -111.999 89s-104.833 32 -169.5 32c-73.333 0 -135.5 -11 -186.5 -33s-89.333 -52.833 -115 -92.5s-38.5 -85.5 -38.5 -137.5
c0 -66 16 -129 48 -189c58 12.667 118.667 19 182 19c52.667 0 101.667 -5 147 -15c24.667 49.333 37 102.666 37 159.999c0 32 -8.83301 57.833 -26.5 77.5s-42.5 30.5 -74.5 32.5c22.667 -22.667 34 -51.334 34 -86.001c-0.666992 -40 -14.667 -73.167 -42 -99.5
s-61.333 -39.5 -102 -39.5c-44 0 -80.333 13.333 -109 40s-43 60.334 -43 101.001c0 38 10.667 72.167 32 102.5s51.166 54 89.499 71s81.833 25.5 130.5 25.5c50.667 0 94.834 -9.66699 132.501 -29s66.667 -46 87 -80s30.5 -72.667 30.5 -116c0 -72 -17.333 -140 -52 -204
c40 -20.667 71 -45.667 93 -75s33 -61.333 33 -96c0 -38.667 -15.5 -69.834 -46.5 -93.501s-71.5 -35.5 -121.5 -35.5c-85.333 0 -168.666 15.667 -249.999 47c-78 -31.333 -160.667 -47 -248 -47c-50.667 0 -91.5 11.833 -122.5 35.5s-46.5 54.834 -46.5 93.501
c0 32.667 10.833 63 32.5 91s52.5 52.333 92.5 73c-40.667 72.667 -61 151.334 -61 236.001c0 73.333 19.5 138.833 58.5 196.5s95 102.667 168 135s158.833 48.5 257.5 48.5c90.667 0 171 -15.667 241 -47zM465.498 294.5c9 9 13.5 20.5 13.5 34.5
c0 13.333 -4.5 24.333 -13.5 33s-20.167 13 -33.5 13c-14.667 0 -26.667 -4.33301 -36 -13s-14 -19.667 -14 -33c0 -14 4.66699 -25.5 14 -34.5s21 -13.5 35 -13.5s25.5 4.5 34.5 13.5zM349.998 45c29.333 -29.333 60.333 -53.667 93 -73c38 22.667 70 48 96 76
c-28 3.33301 -54 5 -78 5c-38 0 -75 -2.66699 -111 -8zM665.998 6.99902c-28 -32 -59.668 -60.667 -95.001 -86c32.667 -7.33301 64.334 -11 95.001 -11c13.333 0 24.5 2.83301 33.5 8.5s13.5 12.5 13.5 20.5c0 25.333 -15.667 48 -47 68zM306.997 -80.001
c-33.333 23.333 -64 50.667 -92 82c-32.667 -18.667 -49 -39.667 -49 -63c0 -8 4.33301 -14.833 13 -20.5s20 -8.5 34 -8.5c34 0 65.333 3.33301 94 10z" />
    <glyph glyph-name="tm_Ii" unicode="&#xb88;" horiz-adv-x="874" 
d="M223 403v-403h-141v513h766l16 -111h-245v-402h-141v403h-255zM409.5 144.5c15.667 15 23.5 34.5 23.5 58.5s-7.83301 43.833 -23.5 59.5s-35.5 23.5 -59.5 23.5s-43.667 -7.83301 -59 -23.5s-23 -35.5 -23 -59.5s7.66699 -43.5 23 -58.5s35 -22.5 59 -22.5
s43.833 7.5 59.5 22.5zM805 144.5c15.333 15 23 34.5 23 58.5s-7.66699 43.833 -23 59.5s-35.333 23.5 -60 23.5c-23.333 0 -42.666 -7.83301 -57.999 -23.5s-23 -35.5 -23 -59.5s7.66699 -43.5 23 -58.5s34.666 -22.5 57.999 -22.5c24.667 0 44.667 7.5 60 22.5z" />
    <glyph glyph-name="tm_U" unicode="&#xb89;" horiz-adv-x="1035" 
d="M1025 0h-956.001v110h220c54 0 96.5 14.667 127.5 44s46.5 67.333 46.5 114c0 42.667 -13.333 77.667 -40 105s-63 41 -109 41c-21.333 0 -42.666 -2.66699 -63.999 -8c30 -7.33301 53.833 -22.166 71.5 -44.499s26.5 -49.5 26.5 -81.5c0 -26 -7 -49.5 -21 -70.5
s-33.167 -37.333 -57.5 -49s-51.5 -17.5 -81.5 -17.5c-48.667 0 -88.5 14 -119.5 42s-46.5 63.667 -46.5 107c0 46 12.833 87.167 38.5 123.5s60.667 64.666 105 84.999s93.5 30.5 147.5 30.5c58 0 109.667 -11.333 155 -34s80.5 -54 105.5 -94s37.5 -85 37.5 -135
c0 -61.333 -19 -114 -57 -158h471v-110zM225.499 246.5c9.66699 9.66699 14.499 21.834 14.499 36.501s-5 27 -15 37s-22.333 15 -37 15c-15.333 0 -27.833 -5 -37.5 -15s-14.5 -22.333 -14.5 -37s5 -26.834 15 -36.501s22.667 -14.5 38 -14.5
c14.667 0 26.834 4.83301 36.501 14.5z" />
    <glyph glyph-name="tm_Uu" unicode="&#xb8a;" horiz-adv-x="1611" 
d="M1601 0l-1532 0.000976562v110h220c54 0 96.5 14.667 127.5 44s46.5 67.333 46.5 114c0 42.667 -13.333 77.667 -40 105s-63 41 -109 41c-21.333 0 -42.666 -2.66699 -63.999 -8c30 -7.33301 53.833 -22.166 71.5 -44.499s26.5 -49.5 26.5 -81.5
c0 -26 -7 -49.5 -21 -70.5s-33.167 -37.333 -57.5 -49s-51.5 -17.5 -81.5 -17.5c-48.667 0 -88.5 14 -119.5 42s-46.5 63.667 -46.5 107c0 46 12.833 87.167 38.5 123.5s60.667 64.666 105 84.999s93.5 30.5 147.5 30.5c58 0 109.667 -11.333 155 -34s80.5 -54 105.5 -94
s37.5 -85 37.5 -135c0 -60.667 -19.667 -113.334 -59 -158.001h1049v-110zM768.999 164.501c-34.667 15.667 -61.5 37.168 -80.5 64.501s-28.5 57.666 -28.5 90.999c0 41.333 10.167 77.833 30.5 109.5s50 56.5 89 74.5s85.167 27 138.5 27c60 0 110.667 -15 152 -45v27h482
l17 -106h-113v-250h-136v251h-114v-251h-136v156c0 19.333 -6.5 37.5 -19.5 54.5s-30.667 30.5 -53 40.5s-47.166 15 -74.499 15c-40 0 -71.667 -9.66699 -95 -29s-35 -44 -35 -74c0 -6 0.666992 -14.333 2 -25c6 24 19 43.167 39 57.5s44.333 21.5 73 21.5
c38 0 69 -10.333 93 -31s36 -46.667 36 -78c0 -36 -13.667 -65.667 -41 -89s-63 -35 -107 -35c-44.667 0 -84.334 7.83301 -119.001 23.5zM225.499 246.502c9.66699 9.66699 14.499 21.834 14.499 36.501c0 15.333 -5 27.833 -15 37.5s-22.333 14.5 -37 14.5
c-15.333 0 -27.833 -5 -37.5 -15s-14.5 -22.333 -14.5 -37s5 -26.834 15 -36.501s22.667 -14.5 38 -14.5c14.667 0 26.834 4.83301 36.501 14.5zM874.998 288.002c-7.33301 -6.66699 -11 -15.334 -11 -26.001s3.66699 -19.667 11 -27s16.666 -11 27.999 -11
c10.667 0 19.5 3.5 26.5 10.5s10.5 16.167 10.5 27.5c0 10.667 -3.5 19.334 -10.5 26.001s-15.833 10 -26.5 10c-11.333 0 -20.666 -3.33301 -27.999 -10z" />
    <glyph glyph-name="tm_E" unicode="&#xb8e;" horiz-adv-x="935" 
d="M756 402l0.000976562 -402.001h-140v403h-214c-71.333 0 -124.5 -15 -159.5 -45s-52.5 -70.333 -52.5 -121c0 -22 3.33301 -41.667 10 -59c5.33301 40.667 23.666 73.834 54.999 99.501s69.666 38.5 114.999 38.5c35.333 0 67.333 -7 96 -21s51 -33.333 67 -58
s24 -52.334 24 -83.001c0 -33.333 -8.66699 -63 -26 -89s-41.666 -46.333 -72.999 -61s-67.666 -22 -108.999 -22c-58.667 0 -111.334 11 -158.001 33s-83.167 52.333 -109.5 91s-39.5 82.334 -39.5 131.001c0 54 13.833 101.833 41.5 143.5s68.167 74.167 121.5 97.5
s117.333 35 192 35h511l17 -111h-169zM325.501 194.499c-11 -11 -16.5 -25.167 -16.5 -42.5s5.5 -31.5 16.5 -42.5s25.167 -16.5 42.5 -16.5c16.667 0 30.5 5.66699 41.5 17s16.5 25.333 16.5 42s-5.5 30.667 -16.5 42s-24.833 17 -41.5 17
c-17.333 0 -31.5 -5.5 -42.5 -16.5z" />
    <glyph glyph-name="tm_Ee" unicode="&#xb8f;" horiz-adv-x="935" 
d="M756 402l0.000976562 -390.005c0 -43.333 -4 -77.166 -12 -101.499s-26.667 -40.5 -56 -48.5l-413 -112l-44 105l334 98c16 4.66699 27.5 10.834 34.5 18.501s11.5 17.334 13.5 29.001s3 29.834 3 54.501v348h-214c-71.333 0 -124.5 -15 -159.5 -45
s-52.5 -70.333 -52.5 -121c0 -22 3.33301 -41.667 10 -59c5.33301 40.667 23.666 73.834 54.999 99.501s69.666 38.5 114.999 38.5c35.333 0 67.333 -7 96 -21s51 -33.333 67 -58s24 -52.334 24 -83.001c0 -33.333 -8.66699 -63 -26 -89s-41.666 -46.333 -72.999 -61
s-67.666 -22 -108.999 -22c-58.667 0 -111.334 11 -158.001 33s-83.167 52.333 -109.5 91s-39.5 82.334 -39.5 131.001c0 54 13.833 101.833 41.5 143.5s68.167 74.167 121.5 97.5s117.333 35 192 35h511l17 -111h-169zM325.501 194.495c-11 -11 -16.5 -25.167 -16.5 -42.5
s5.5 -31.5 16.5 -42.5s25.167 -16.5 42.5 -16.5c16.667 0 30.5 5.66699 41.5 17s16.5 25.333 16.5 42s-5.5 30.667 -16.5 42s-24.833 17 -41.5 17c-17.333 0 -31.5 -5.5 -42.5 -16.5z" />
    <glyph glyph-name="tm_Ai" unicode="&#xb90;" horiz-adv-x="815" 
d="M749.5 33c5.66699 -19.333 8.49902 -39.3291 8.49902 -59.9961c0 -34.667 -8.16699 -65.334 -24.5 -92.001s-39.833 -47.667 -70.5 -63s-66.667 -23 -108 -23c-27.333 0 -53.666 5 -78.999 15s-47.333 24 -66 42c-20 -18 -44 -32 -72 -42s-57.667 -15 -89 -15
c-40 0 -75.667 8 -107 24s-55.833 38.167 -73.5 66.5s-26.5 60.5 -26.5 96.5c0 59.333 21.667 109.166 65 149.499s111.666 66.833 204.999 79.5l181 24c44 6 76.833 18.833 98.5 38.5s32.834 43.834 33.501 72.501c0 19.333 -5.5 35.5 -16.5 48.5s-25.5 19.5 -43.5 19.5
c-22 0 -39.333 -6.66699 -52 -20s-19 -30.333 -19 -51v-69h-134v56c0 26 -7.83301 46.667 -23.5 62s-37.5 23 -65.5 23c-5.33301 0 -14 -0.666992 -26 -2c17.333 -9.33301 30.5 -21.833 39.5 -37.5s13.5 -33.834 13.5 -54.501c0 -32 -12.333 -58.833 -37 -80.5
s-55.334 -32.5 -92.001 -32.5c-36.667 0.666992 -67 13.167 -91 37.5s-36 55.166 -36 92.499c0 38 9.5 71.667 28.5 101s45.167 52 78.5 68s71 24 113 24c70 0 124.667 -20.333 164 -61c39.333 40.667 88.666 61 147.999 61c39.333 0 73.833 -8 103.5 -24
s52.834 -38 69.501 -66s25 -59.667 25 -95c0 -61.333 -22.667 -111.833 -68 -151.5s-115.666 -65.834 -210.999 -78.501l-181 -24c-80.667 -10.667 -121.667 -46.334 -123 -107.001c0 -20.667 6.5 -38 19.5 -52s30.167 -21 51.5 -21c24.667 0 44.5 6.66699 59.5 20
s22.5 30.333 22.5 51v69h135v-69c0 -20.667 6.5 -37.667 19.5 -51s30.167 -20 51.5 -20c20 0 35.5 6.33301 46.5 19s16.5 29.667 16.5 51c0 13.333 -3 30.333 -9 51s-14.667 41.334 -26 62.001l144 6c14 -26 23.833 -48.667 29.5 -68zM200.999 294.504
c7.33301 7 11 15.833 11 26.5c0 12 -3.5 21.833 -10.5 29.5s-16.167 11.5 -27.5 11.5s-20.666 -3.83301 -27.999 -11.5s-11 -17.167 -11 -28.5s3.66699 -20.5 11 -27.5s16.666 -10.5 27.999 -10.5c10.667 0 19.667 3.5 27 10.5z" />
    <glyph glyph-name="tm_O" unicode="&#xb92;" horiz-adv-x="866" 
d="M613.5 73c17 -8.66699 42.168 -13.002 75.501 -13.002h92v-106h-92h-8c-2.66699 -33.333 -14.5 -63.166 -35.5 -89.499s-49.5 -46.833 -85.5 -61.5s-77 -22 -123 -22c-48 0 -90.5 8.16699 -127.5 24.5s-65.833 39 -86.5 68s-31 62.167 -31 99.5v36h136v-31
c0 -24 9.66699 -43.167 29 -57.5s45.666 -21.5 78.999 -21.5c34 0 60.833 6.83301 80.5 20.5s29.5 31.5 29.5 53.5v14c-56.667 32.667 -85 87.334 -85 164.001v118h117c0.666992 -15.333 5.83398 -27.666 15.501 -36.999s22.5 -14 38.5 -14c14.667 0 26.667 6 36 18
s14 27.333 14 46c0 25.333 -11.5 48.333 -34.5 69s-54.167 36.667 -93.5 48s-83 17 -131 17c-54 0 -103.167 -7.83301 -147.5 -23.5s-77.5 -36.5 -99.5 -62.5c16 8 34.333 12 55 12c41.333 0 75.166 -11.833 101.499 -35.5s39.5 -53.834 39.5 -90.501
c0 -39.333 -14.333 -72 -43 -98s-65 -39 -109 -39c-36 0 -67.833 7.66699 -95.5 23s-49.167 36.5 -64.5 63.5s-23 57.833 -23 92.5c0 52.667 16.667 100 50 142s79.333 74.833 138 98.5s124.667 35.5 198 35.5c75.333 0 144 -10.833 206 -32.5s110.833 -51.667 146.5 -90
s53.5 -81.5 53.5 -129.5c0 -34 -8 -64.5 -24 -91.5s-38.167 -48 -66.5 -63s-60.5 -22.5 -96.5 -22.5c-20.667 0 -41 3.66699 -61 11c4.66699 -20 15.5 -34.333 32.5 -43zM186.001 247.998c-9.33301 -8.66699 -13.999 -19.667 -13.999 -33s4.66699 -24.666 14 -33.999
s21 -14 35 -14c13.333 0 24.666 4.66699 33.999 14s14 20.666 14 33.999s-4.5 24.333 -13.5 33s-20.167 13 -33.5 13c-14.667 0 -26.667 -4.33301 -36 -13z" />
    <glyph glyph-name="tm_Oo" unicode="&#xb93;" horiz-adv-x="866" 
d="M613.5 73c17 -8.66699 42.168 -13.001 75.501 -13.001h92v-106h-92h-5c-2.66699 -33.333 -15.667 -63.166 -39 -89.499s-54.5 -46.833 -93.5 -61.5s-82.833 -22 -131.5 -22c-46.667 0 -88.167 6.5 -124.5 19.5s-64.5 31 -84.5 54s-30 49.167 -30 78.5
c0 40.667 14.833 73.5 44.5 98.5s71.5 37.5 125.5 37.5h16v-106h-16c-9.33301 0 -16.833 -2.83301 -22.5 -8.5s-8.5 -12.834 -8.5 -21.501c0 -11.333 9 -20.666 27 -27.999s42.333 -11 73 -11c37.333 0 68.166 7 92.499 21s36.5 31.667 36.5 53v17
c-28.667 16 -50.5 38 -65.5 66s-22.5 61.333 -22.5 100v118h117c0.666992 -15.333 5.83398 -27.666 15.501 -36.999s22.5 -14 38.5 -14c14.667 0 26.667 6 36 18s14 27.333 14 46c0 25.333 -11.5 48.333 -34.5 69s-54.167 36.667 -93.5 48s-83 17 -131 17
c-54 0 -103.167 -7.83301 -147.5 -23.5s-77.5 -36.5 -99.5 -62.5c16 8 34.333 12 55 12c41.333 0 75.166 -11.833 101.499 -35.5s39.5 -53.834 39.5 -90.501c0 -39.333 -14.333 -72 -43 -98s-65 -39 -109 -39c-36 0 -67.833 7.66699 -95.5 23s-49.167 36.5 -64.5 63.5
s-23 57.833 -23 92.5c0 52.667 16.667 100 50 142s79.333 74.833 138 98.5s124.667 35.5 198 35.5c75.333 0 144 -10.833 206 -32.5s110.833 -51.667 146.5 -90s53.5 -81.5 53.5 -129.5c0 -34 -8 -64.5 -24 -91.5s-38.167 -48 -66.5 -63s-60.5 -22.5 -96.5 -22.5
c-20.667 0 -41 3.66699 -61 11c4.66699 -20 15.5 -34.333 32.5 -43zM186.001 247.999c-9.33301 -8.66699 -13.999 -19.667 -13.999 -33s4.66699 -24.666 14 -33.999s21 -14 35 -14c13.333 0 24.666 4.66699 33.999 14s14 20.666 14 33.999s-4.5 24.333 -13.5 33
s-20.167 13 -33.5 13c-14.667 0 -26.667 -4.33301 -36 -13z" />
    <glyph glyph-name="tm_Au" unicode="&#xb94;" horiz-adv-x="2139" 
d="M613.5 73c17 -8.66699 42.168 -13.002 75.501 -13.002h92v-106h-92h-8c-2.66699 -33.333 -14.5 -63.166 -35.5 -89.499s-49.5 -46.833 -85.5 -61.5s-77 -22 -123 -22c-48 0 -90.5 8.16699 -127.5 24.5s-65.833 39 -86.5 68s-31 62.167 -31 99.5v36h136v-31
c0 -24 9.66699 -43.167 29 -57.5s45.666 -21.5 78.999 -21.5c34 0 60.833 6.83301 80.5 20.5s29.5 31.5 29.5 53.5v14c-56.667 32.667 -85 87.334 -85 164.001v118h117c0.666992 -15.333 5.83398 -27.666 15.501 -36.999s22.5 -14 38.5 -14c14.667 0 26.667 6 36 18
s14 27.333 14 46c0 25.333 -11.5 48.333 -34.5 69s-54.167 36.667 -93.5 48s-83 17 -131 17c-54 0 -103.167 -7.83301 -147.5 -23.5s-77.5 -36.5 -99.5 -62.5c16 8 34.333 12 55 12c41.333 0 75.166 -11.833 101.499 -35.5s39.5 -53.834 39.5 -90.501
c0 -39.333 -14.333 -72 -43 -98s-65 -39 -109 -39c-36 0 -67.833 7.66699 -95.5 23s-49.167 36.5 -64.5 63.5s-23 57.833 -23 92.5c0 52.667 16.667 100 50 142s79.333 74.833 138 98.5s124.667 35.5 198 35.5c75.333 0 144 -10.833 206 -32.5s110.833 -51.667 146.5 -90
s53.5 -81.5 53.5 -129.5c0 -34 -8 -64.5 -24 -91.5s-38.167 -48 -66.5 -63s-60.5 -22.5 -96.5 -22.5c-20.667 0 -41 3.66699 -61 11c4.66699 -20 15.5 -34.333 32.5 -43zM186.001 247.998c-9.33301 -8.66699 -13.999 -19.667 -13.999 -33s4.66699 -24.666 14 -33.999
s21 -14 35 -14c13.333 0 24.666 4.66699 33.999 14s14 20.666 14 33.999s-4.5 24.333 -13.5 33s-20.167 13 -33.5 13c-14.667 0 -26.667 -4.33301 -36 -13zM1960 402.998l0.00292969 -403.002h-140v403h-190v-403h-140v223c0 36.667 -9.83301 69.5 -29.5 98.5
s-46.667 51.667 -81 68s-72.5 24.5 -114.5 24.5c-42.667 0 -79.834 -7.66699 -111.501 -23s-55.834 -36.333 -72.501 -63s-25 -57 -25 -91c0 -22 3.33301 -41.667 10 -59c5.33301 40.667 23.666 73.834 54.999 99.501s69.666 38.5 114.999 38.5c35.333 0 67.333 -7 96 -21
s51 -33.333 67 -58s24 -52.334 24 -83.001c0 -33.333 -8.66699 -63 -26 -89s-41.666 -46.333 -72.999 -61s-67.666 -22 -108.999 -22c-58.667 0 -111.334 11 -158.001 33s-83.167 52.333 -109.5 91s-39.5 82.334 -39.5 131.001c0 56.667 14.5 107.334 43.5 152.001
s70.167 79.5 123.5 104.5s115.333 37.5 186 37.5c46 0 88.333 -7 127 -21s72.667 -34 102 -60v63h623l16 -110h-169zM1191.5 194.496c-11 -11 -16.5 -25.167 -16.5 -42.5s5.5 -31.5 16.5 -42.5s25.167 -16.5 42.5 -16.5c16.667 0 30.5 5.66699 41.5 17s16.5 25.333 16.5 42
s-5.5 30.667 -16.5 42s-24.833 17 -41.5 17c-17.333 0 -31.5 -5.5 -42.5 -16.5z" />
    <glyph glyph-name="tm_Ka" unicode="&#xb95;" horiz-adv-x="768" 
d="M647.5 294.5c31.667 -14.333 56.0029 -34.1689 73.0029 -59.502s25.5 -54.333 25.5 -87c0 -32 -8.83301 -60.5 -26.5 -85.5s-42.834 -44.667 -75.501 -59s-71.334 -21.5 -116.001 -21.5v111c24 0 42 4.83301 54 14.5s18 23.167 18 40.5c0 18 -5.16699 32 -15.5 42
s-26.5 15 -48.5 15h-20c0 -44.667 -11.5 -84 -34.5 -118s-54.5 -60 -94.5 -78s-85 -27 -135 -27c-70 0 -124.167 15.833 -162.5 47.5s-57.5 72.834 -57.5 123.501c0 33.333 9.16699 62.833 27.5 88.5s45.166 44.834 80.499 57.501v214h544l16 -110h-184v-87h19
c43.333 0 80.833 -7.16699 112.5 -21.5zM278.003 315.997h101v87h-101v-87zM343.003 126.997c24 18.667 36 44.667 36 78h-125c-23.333 0 -41.5 -4.83301 -54.5 -14.5s-19.5 -22.167 -19.5 -37.5c0 -16 6.66699 -29 20 -39s32 -15 56 -15c34 0 63 9.33301 87 28z" />
    <glyph glyph-name="tm_Nga" unicode="&#xb99;" horiz-adv-x="1061" 
d="M978 0h-635.002v110h160c34 0 59.5 6.83301 76.5 20.5s25.5 31.834 25.5 54.501c0 18 -5.16699 32.833 -15.5 44.5s-24.166 17.5 -41.499 17.5c-18.667 0 -34.167 -5.83301 -46.5 -17.5s-18.5 -25.834 -18.5 -42.501v-23h-140v239h-120v-403h-141v513h554l16 -111h-169
v-54c26 11.333 55 17 87 17c35.333 0 66.833 -7.66699 94.5 -23s49.334 -36.5 65.001 -63.5s23.5 -57.833 23.5 -92.5c0 -28.667 -6 -54 -18 -76h103v403h140v-513z" />
    <glyph glyph-name="tm_Ca" unicode="&#xb9a;" horiz-adv-x="723" 
d="M700 205l-183.999 -0.00195312c0 -44.667 -11.5 -84 -34.5 -118s-54.5 -60 -94.5 -78s-85 -27 -135 -27c-70 0 -124.167 15.833 -162.5 47.5s-57.5 72.834 -57.5 123.501c0 33.333 9.16699 62.833 27.5 88.5s45.166 44.834 80.499 57.501v214h544l16 -110h-184v-87h168z
M278.001 315.998h101v87h-101v-87zM343.001 126.998c24 18.667 36 44.667 36 78h-125c-23.333 0 -41.5 -4.83301 -54.5 -14.5s-19.5 -22.167 -19.5 -37.5c0 -16 6.66699 -29 20 -39s32 -15 56 -15c34 0 63 9.33301 87 28z" />
    <glyph glyph-name="tm_Ja" unicode="&#xb9c;" horiz-adv-x="815" 
d="M725 60c31.333 -29.333 46.998 -67.6621 46.998 -114.995c0 -44 -16.667 -79.833 -50 -107.5s-78.333 -41.5 -135 -41.5h-74v106h62c16.667 0 30 4.16699 40 12.5s15 19.166 15 32.499s-3.66699 24.166 -11 32.499s-17.333 12.5 -30 12.5c-16 0 -31 -5.66699 -45 -17
s-31 -28.666 -51 -51.999c-23.333 -26.667 -44.666 -48.334 -63.999 -65.001s-43.666 -31.334 -72.999 -44.001s-63.333 -19 -102 -19c-42 0 -79 8 -111 24s-56.833 38.167 -74.5 66.5s-26.5 60.5 -26.5 96.5c0 59.333 21.667 109.166 65 149.499
s111.666 66.833 204.999 79.5l181 24c44 6 76.833 18.833 98.5 38.5s32.834 43.834 33.501 72.501c0 19.333 -5.5 35.5 -16.5 48.5s-25.5 19.5 -43.5 19.5c-22 0 -39.333 -6.66699 -52 -20s-19 -30.333 -19 -51v-69h-134v56c0 26 -7.83301 46.667 -23.5 62
s-37.5 23 -65.5 23c-5.33301 0 -14 -0.666992 -26 -2c17.333 -9.33301 30.5 -21.833 39.5 -37.5s13.5 -33.834 13.5 -54.501c0 -32 -12.333 -58.833 -37 -80.5s-55.334 -32.5 -92.001 -32.5c-36.667 0.666992 -67 13.167 -91 37.5s-36 55.166 -36 92.499
c0 38 9.5 71.667 28.5 101s45.167 52 78.5 68s71 24 113 24c70 0 124.667 -20.333 164 -61c39.333 40.667 88.666 61 147.999 61c39.333 0 73.833 -8 103.5 -24s52.834 -38 69.501 -66s25 -59.667 25 -95c0 -61.333 -22.667 -111.833 -68 -151.5
s-115.666 -65.834 -210.999 -78.501l-181 -24c-82 -11.333 -123 -47 -123 -107c0 -20.667 6.83301 -38 20.5 -52s31.834 -21 54.501 -21c21.333 0 40.833 6.33301 58.5 19s40.5 33 68.5 61c24.667 24 46 43.333 64 58s39.167 27.334 63.5 38.001s51.166 16 80.499 16
c52.667 0 94.667 -14.667 126 -44zM200.998 294.504c7.33301 7 11 15.833 11 26.5c0 12 -3.5 21.833 -10.5 29.5s-16.167 11.5 -27.5 11.5s-20.666 -3.83301 -27.999 -11.5s-11 -17.167 -11 -28.5s3.66699 -20.5 11 -27.5s16.666 -10.5 27.999 -10.5
c10.667 0 19.667 3.5 27 10.5z" />
    <glyph glyph-name="tm_Nya" unicode="&#xb9e;" horiz-adv-x="1346" 
d="M1250.5 277c35.667 -42.667 53.499 -99.3359 53.499 -170.003c0 -78 -24.667 -147.167 -74 -207.5s-119.666 -107.166 -210.999 -140.499s-198 -50 -320 -50c-126.667 0 -238 19.333 -334 58s-170.5 93.167 -223.5 163.5s-79.5 151.833 -79.5 244.5
c0 62 13.5 125 40.5 189s62.167 117 105.5 159l144 -10c-42 -38 -76.333 -88 -103 -150s-40 -125.333 -40 -190c0 -70 20.167 -131.167 60.5 -183.5s97.5 -92.666 171.5 -120.999s159.667 -42.5 257 -42.5c93.333 0 174.666 11.333 243.999 34s122.5 55 159.5 97
s55.5 91 55.5 147c0 36.667 -6.83301 65.834 -20.5 87.501s-32.5 32.5 -56.5 32.5c-21.333 0 -39.166 -7.5 -53.499 -22.5s-21.5 -32.833 -21.5 -53.5v-148h-140v403h-192c-70.667 0 -123.5 -15 -158.5 -45s-52.5 -70.333 -52.5 -121c0 -22 3.33301 -41 10 -57
c5.33301 40 23.5 72.667 54.5 98s69.167 38 114.5 38c35.333 0 67.166 -7 95.499 -21s50.5 -33.333 66.5 -58s24 -52.334 24 -83.001c0 -33.333 -8.66699 -63 -26 -89s-41.666 -46.333 -72.999 -61s-67.333 -22 -108 -22c-58 0 -110.5 11 -157.5 33s-83.667 52.333 -110 91
s-39.5 82.334 -39.5 131.001c0 54 13.833 101.833 41.5 143.5s68.167 74.167 121.5 97.5s117.333 35 192 35h490l16 -111h-169v-86c28 16.667 59.333 25 94 25c65.333 0 115.833 -21.333 151.5 -64zM596.499 194.498c-11 -11 -16.5 -25.167 -16.5 -42.5
s5.5 -31.5 16.5 -42.5s25.167 -16.5 42.5 -16.5c16.667 0 30.667 5.5 42 16.5s17 25.167 17 42.5c0 16.667 -5.66699 30.667 -17 42s-25.333 17 -42 17c-17.333 0 -31.5 -5.5 -42.5 -16.5z" />
    <glyph glyph-name="tm_Tta" unicode="&#xb9f;" horiz-adv-x="735" 
d="M223 518l-141 -5v-513h643l-17 110h-485v408z" />
    <glyph glyph-name="tm_Nna" unicode="&#xba3;" horiz-adv-x="1827" 
d="M1648 403l0.00195312 -403.001h-140v403h-84c-26.667 0 -54 -3.33301 -82 -10c53.333 -62 80 -133.333 80 -214c0 -38.667 -8.5 -72.834 -25.5 -102.501s-40.667 -52.834 -71 -69.501s-65.5 -25 -105.5 -25s-75.5 8.33301 -106.5 25s-55 39.834 -72 69.501
s-25.5 63.834 -25.5 102.501c0 40.667 8.5 79.667 25.5 117s40.833 70.666 71.5 99.999c-32.667 12 -69 18 -109 18c-42 0 -82 -7.33301 -120 -22c33.333 -30 59.166 -63.167 77.499 -99.5s27.5 -74.166 27.5 -113.499c0 -38.667 -8.5 -72.834 -25.5 -102.501
s-40.833 -52.834 -71.5 -69.501s-65.667 -25 -105 -25c-40 0 -75.5 8.33301 -106.5 25s-55 39.834 -72 69.501s-25.5 63.834 -25.5 102.501c0 37.333 6.66699 73.333 20 108s32.333 66.667 57 96c-56.667 20.667 -117.334 31 -182.001 31
c-59.333 0 -110.833 -7.83301 -154.5 -23.5s-76.834 -37.5 -99.501 -65.5s-34 -59.667 -34 -95c0 -21.333 3.33301 -40 10 -56c4 42 21.833 76.167 53.5 102.5s70.5 39.5 116.5 39.5c35.333 0 67.333 -7 96 -21s51 -33.333 67 -58s24 -52.334 24 -83.001
c0 -33.333 -8.66699 -63 -26 -89s-41.666 -46.333 -72.999 -61s-67.666 -22 -108.999 -22c-58.667 0 -111.334 10.833 -158.001 32.5s-83.167 51.334 -109.5 89.001s-39.5 79.834 -39.5 126.501c0 58 17.667 109.667 53 155s86 81 152 107s143 39 231 39
c106 0 201.667 -20.333 287 -61c72 40.667 151.333 61 238 61c86 0 163.667 -18.333 233 -55c57.333 24.667 120 37 188 37h377l16 -110h-169zM1263 117.499c10.667 15 15.999 34.167 15.999 57.5c0 58.667 -19 109 -57 151c-20 -20 -35.333 -42.833 -46 -68.5
s-16 -53.167 -16 -82.5c0 -23.333 5.33301 -42.5 16 -57.5s25 -22.5 43 -22.5c18.667 0 33.334 7.5 44.001 22.5zM829.001 117.499c10.667 15 16 34.167 16 57.5c0 52.667 -23 99.334 -69 140.001c-33.333 -40.667 -50 -87.334 -50 -140.001c0 -23.333 5.5 -42.5 16.5 -57.5
s25.5 -22.5 43.5 -22.5s32.333 7.5 43 22.5zM325.501 194.499c-11 -11 -16.5 -25.167 -16.5 -42.5s5.5 -31.5 16.5 -42.5s25.167 -16.5 42.5 -16.5c16.667 0 30.5 5.66699 41.5 17s16.5 25.333 16.5 42s-5.5 30.667 -16.5 42s-24.833 17 -41.5 17
c-17.333 0 -31.5 -5.5 -42.5 -16.5z" />
    <glyph glyph-name="tm_Ta" unicode="&#xba4;" horiz-adv-x="806" 
d="M651 284.5c38 -21 67.834 -49.834 89.501 -86.501s32.5 -78.334 32.5 -125.001c0 -50.667 -12.667 -96.167 -38 -136.5s-60.5 -72 -105.5 -95s-95.5 -34.5 -151.5 -34.5h-180c-91.333 0 -148 -16.667 -170 -50l-96 73c14 27.333 42 48.833 84 64.5s98.333 23.5 169 23.5
h193c42.667 0 78 14.5 106 43.5s42 66.167 42 111.5c0 38 -9.66699 69.5 -29 94.5s-44.333 37.5 -75 37.5h-6c0 -44.667 -11.5 -84 -34.5 -118s-54.5 -60 -94.5 -78s-85 -27 -135 -27c-70 0 -124.167 15.833 -162.5 47.5s-57.5 72.834 -57.5 123.501
c0 33.333 9.16699 62.833 27.5 88.5s45.166 44.834 80.499 57.501v214h544l16 -110h-184v-87h5c48.667 0 92 -10.5 130 -31.5zM278.001 315.999h101v87h-101v-87zM343.001 126.999c24 18.667 36 44.667 36 78h-125c-23.333 0 -41.5 -4.83301 -54.5 -14.5
s-19.5 -22.167 -19.5 -37.5c0 -16 6.66699 -29 20 -39s32 -15 56 -15c34 0 63 9.33301 87 28z" />
    <glyph glyph-name="tm_Na" unicode="&#xba8;" horiz-adv-x="826" 
d="M689 309c30.667 -21.333 53.999 -50.666 69.999 -87.999s24 -80 24 -128c0 -55.333 -10.667 -104.5 -32 -147.5s-52.166 -76.833 -92.499 -101.5s-88.5 -37 -144.5 -37h-166c-91.333 0 -148 -16.667 -170 -50l-96 73c15.333 30 42.5 52.167 81.5 66.5
s95.833 21.5 170.5 21.5h180c41.333 0 72 15.667 92 47s30 73 30 125c0 39.333 -7 71.166 -21 95.499s-33 36.5 -57 36.5c-20.667 0 -37.5 -6.5 -50.5 -19.5s-19.5 -29.5 -19.5 -49.5v-153h-140v403h-125v-403h-141v513h558l17 -111h-169v-84c26.667 15.333 57.667 23 93 23
c41.333 0 77.333 -10.667 108 -32z" />
    <glyph glyph-name="tm_Nnna" unicode="&#xba9;" horiz-adv-x="1394" 
d="M1215 403v-403.001h-140v403h-85c-36.667 0 -70 -5.33301 -100 -16c31.333 -29.333 55.666 -61.5 72.999 -96.5s26 -71.833 26 -110.5s-8.5 -73 -25.5 -103s-40.833 -53.333 -71.5 -70s-65.667 -25 -105 -25c-40 0 -75.5 8.33301 -106.5 25s-55 40 -72 70
s-25.5 64.333 -25.5 103c0 37.333 7 73 21 107s34.333 65.333 61 94c-58.667 22 -121 33 -187 33c-59.333 0 -110.833 -7.83301 -154.5 -23.5s-76.834 -37.5 -99.501 -65.5s-34 -59.667 -34 -95c0 -21.333 3.33301 -40 10 -56c4 42 21.833 76.167 53.5 102.5
s70.5 39.5 116.5 39.5c35.333 0 67.333 -7 96 -21s51 -33.333 67 -58s24 -52.334 24 -83.001c0 -33.333 -8.66699 -63 -26 -89s-41.666 -46.333 -72.999 -61s-67.666 -22 -108.999 -22c-58.667 0 -111.334 10.833 -158.001 32.5s-83.167 51.334 -109.5 89.001
s-39.5 79.834 -39.5 126.501c0 58 17.667 109.667 53 155s86 81 152 107s143 39 231 39c108.667 0 208.334 -22.333 299.001 -67c65.333 32.667 136.333 49 213 49h378l16 -110h-169zM829 117.499c10.667 15 16 34.166 16 57.499c0 26 -5.83301 50.833 -17.5 74.5
s-28.5 45.167 -50.5 64.5c-34 -39.333 -51 -85.666 -51 -138.999c0 -23.333 5.5 -42.5 16.5 -57.5s25.5 -22.5 43.5 -22.5s32.333 7.5 43 22.5zM325.5 194.498c-11 -11 -16.5 -25.167 -16.5 -42.5s5.5 -31.5 16.5 -42.5s25.167 -16.5 42.5 -16.5
c16.667 0 30.5 5.66699 41.5 17s16.5 25.333 16.5 42s-5.5 30.667 -16.5 42s-24.833 17 -41.5 17c-17.333 0 -31.5 -5.5 -42.5 -16.5z" />
    <glyph glyph-name="tm_Pa" unicode="&#xbaa;" horiz-adv-x="767" 
d="M82 0v513l141 5v-408h321v403h140v-513h-602z" />
    <glyph glyph-name="tm_Ma" unicode="&#xbae;" horiz-adv-x="928" 
d="M763 494c39.333 -24.667 69.666 -59 90.999 -103s32 -93.667 32 -149c0 -72.667 -21.667 -131.167 -65 -175.5s-105.666 -66.5 -186.999 -66.5h-552v513l141 5v-408h173v182c0 71.333 20 129 60 173s96.667 66 170 66c52 0 97.667 -12.333 137 -37zM715 144
c15.333 22.667 22.999 55.333 22.999 98c0 51.333 -9.66699 92.833 -29 124.5s-46.666 47.5 -81.999 47.5c-32.667 0 -56 -11.5 -70 -34.5s-21 -54.833 -21 -95.5v-174h98c38.667 0 65.667 11.333 81 34z" />
    <glyph glyph-name="tm_Ya" unicode="&#xbaf;" horiz-adv-x="1015" 
d="M932 0h-509.001v28c-37.333 -30.667 -79.333 -46 -126 -46c-72 0 -127.5 21.333 -166.5 64s-58.5 100 -58.5 172v295l141 5v-292c0 -84.667 31 -127 93 -127c38.667 0 67.834 14 87.501 42s29.5 65.667 29.5 113v259h140v-403h228v403h141v-513z" />
    <glyph glyph-name="tm_Ra" unicode="&#xbb0;" horiz-adv-x="731" 
d="M552 12c0 -28.667 -1.16699 -52 -3.5 -70s-8.5 -34 -18.5 -48s-25.333 -24.667 -46 -32l-323 -112l-44 116l244 87c16 6 27.5 12.667 34.5 20s11.5 16.833 13.5 28.5s3 29.5 3 53.5v348h-189v-403h-141v513h623l16 -111h-169v-390z" />
    <glyph glyph-name="tm_Rra" unicode="&#xbb1;" horiz-adv-x="945" 
d="M784 491.5c38.667 -26.333 67.9971 -62.8301 87.9971 -109.497s30 -100.334 30 -161.001c0 -82 -13 -154 -39 -216s-65.667 -110.5 -119 -145.5s-119.666 -52.5 -198.999 -52.5h-207c-90.667 0 -147.334 -16.667 -170.001 -50l-96 73c14 27.333 42 48.833 84 64.5
s98.333 23.5 169 23.5h220c71.333 0 124 27.167 158 81.5s51 128.166 51 221.499c0 60 -8.66699 107.167 -26 141.5s-45 51.5 -83 51.5c-32.667 0 -57.5 -11.667 -74.5 -35s-25.5 -55 -25.5 -95v-284h-140v260c0 44.667 -8.83301 81.5 -26.5 110.5s-43.5 43.5 -77.5 43.5
c-29.333 0 -51.333 -11.333 -66 -34s-22 -55.334 -22 -98.001v-282h-141v296c0 71.333 19.333 128.333 58 171s92.334 64 161.001 64c34.667 0 66.667 -7.33301 96 -22s54.333 -35.667 75 -63c21.333 26.667 47.833 47.5 79.5 62.5s65.834 22.5 102.501 22.5
c54.667 0 101.334 -13.167 140.001 -39.5z" />
    <glyph glyph-name="tm_La" unicode="&#xbb2;" horiz-adv-x="1133" 
d="M1068.5 382c14.333 -50.667 21.498 -95.6689 21.498 -135.002c0 -80 -21.167 -144.167 -63.5 -192.5s-103.166 -72.5 -182.499 -72.5c-72.667 0 -129.667 21.5 -171 64.5s-62 100.167 -62 171.5v32c0 32 -8.5 60.5 -25.5 85.5s-40.833 44.333 -71.5 58
s-66 20.5 -106 20.5c-43.333 0 -81.5 -7.66699 -114.5 -23s-58.5 -36.5 -76.5 -63.5s-27 -57.167 -27 -90.5c0 -22 3.33301 -41.667 10 -59c5.33301 40.667 23.666 73.834 54.999 99.501s69.666 38.5 114.999 38.5c35.333 0 67.333 -7 96 -21s51 -33.333 67 -58
s24 -52.334 24 -83.001c0 -33.333 -8.66699 -63 -26 -89s-41.666 -46.333 -72.999 -61s-67.666 -22 -108.999 -22c-58.667 0 -111.334 11 -158.001 33s-83.167 52.333 -109.5 91s-39.5 82.334 -39.5 131.001c0 56.667 15.333 107.334 46 152.001s73.834 79.5 129.501 104.5
s118.834 37.5 189.501 37.5c67.333 0 127 -12 179 -36s92.5 -57.167 121.5 -99.5s43.5 -90.833 43.5 -145.5v-32c0 -37.333 8 -66.5 24 -87.5s39.333 -31.5 70 -31.5c32.667 0 57 13.333 73 40s24 62.667 24 108c0 38 -7.33301 82.167 -22 132.5s-34.667 94.833 -60 133.5
l145 14c28 -46 49.167 -94.333 63.5 -145zM325.498 194.498c-11 -11 -16.5 -25.167 -16.5 -42.5s5.5 -31.5 16.5 -42.5s25.167 -16.5 42.5 -16.5c16.667 0 30.5 5.66699 41.5 17s16.5 25.333 16.5 42s-5.5 30.667 -16.5 42s-24.833 17 -41.5 17
c-17.333 0 -31.5 -5.5 -42.5 -16.5z" />
    <glyph glyph-name="tm_Lla" unicode="&#xbb3;" horiz-adv-x="1273" 
d="M1094 403l0.00292969 -403.002h-140v403h-190v-403h-140v223c0 36.667 -9.83301 69.5 -29.5 98.5s-46.667 51.667 -81 68s-72.5 24.5 -114.5 24.5c-42.667 0 -79.834 -7.66699 -111.501 -23s-55.834 -36.333 -72.501 -63s-25 -57 -25 -91c0 -22 3.33301 -41.667 10 -59
c5.33301 40.667 23.666 73.834 54.999 99.501s69.666 38.5 114.999 38.5c35.333 0 67.333 -7 96 -21s51 -33.333 67 -58s24 -52.334 24 -83.001c0 -33.333 -8.66699 -63 -26 -89s-41.666 -46.333 -72.999 -61s-67.666 -22 -108.999 -22c-58.667 0 -111.334 11 -158.001 33
s-83.167 52.333 -109.5 91s-39.5 82.334 -39.5 131.001c0 56.667 14.5 107.334 43.5 152.001s70.167 79.5 123.5 104.5s115.333 37.5 186 37.5c46 0 88.333 -7 127 -21s72.667 -34 102 -60v63h623l16 -110h-169zM325.503 194.498c-11 -11 -16.5 -25.167 -16.5 -42.5
s5.5 -31.5 16.5 -42.5s25.167 -16.5 42.5 -16.5c16.667 0 30.5 5.66699 41.5 17s16.5 25.333 16.5 42s-5.5 30.667 -16.5 42s-24.833 17 -41.5 17c-17.333 0 -31.5 -5.5 -42.5 -16.5z" />
    <glyph glyph-name="tm_Llla" unicode="&#xbb4;" horiz-adv-x="928" 
d="M536 -25c0 -26 5.66602 -44.168 16.999 -54.501s28.333 -15.5 51 -15.5h145l16 -110h-200c-21.333 -30.667 -50.5 -54.5 -87.5 -71.5s-78.833 -25.5 -125.5 -25.5c-46 0 -87.167 9 -123.5 27s-64.666 42.667 -84.999 74s-30.5 66.666 -30.5 105.999h141
c0 -25.333 9 -46.5 27 -63.5s41.333 -25.5 70 -25.5c27.333 0 49.5 4 66.5 12s27.5 18.667 31.5 32c-16.667 8.66699 -29.667 21.834 -39 39.501s-14 37.834 -14 60.501v40h-314v513l141 5v-408h173v182c0 71.333 20 129 60 173s96.667 66 170 66
c52 0 97.667 -12.333 137 -37s69.666 -59 90.999 -103s32 -93.667 32 -149c0 -72.667 -21.667 -131.167 -65 -175.5s-105.666 -66.5 -186.999 -66.5h-98v-25zM633.999 109.999c38.667 0 65.666 11.332 80.999 33.999s23 55.334 23 98.001
c0 51.333 -9.66699 92.833 -29 124.5s-46.666 47.5 -81.999 47.5c-32.667 0 -56 -11.5 -70 -34.5s-21 -54.833 -21 -95.5v-174h98z" />
    <glyph glyph-name="tm_Va" unicode="&#xbb5;" horiz-adv-x="1131" 
d="M1049 0l-453.003 -0.00292969v110c24.667 46.667 37 93.334 37 140.001c0 48.667 -19.167 88.167 -57.5 118.5s-91.833 45.5 -160.5 45.5c-44 0 -83.167 -7.66699 -117.5 -23s-60.833 -36.5 -79.5 -63.5s-28 -57.167 -28 -90.5c0 -22 3.33301 -41.667 10 -59
c5.33301 40.667 23.833 73.834 55.5 99.501s69.834 38.5 114.501 38.5c35.333 0 67.333 -7 96 -21s51 -33.333 67 -58s24 -52.334 24 -83.001c0 -33.333 -8.66699 -63 -26 -89s-41.666 -46.333 -72.999 -61s-67.666 -22 -108.999 -22c-58.667 0 -111.334 11 -158.001 33
s-83.167 52.333 -109.5 91s-39.5 82.334 -39.5 131.001c0 56.667 15.833 107.334 47.5 152.001s75.667 79.5 132 104.5s120.5 37.5 192.5 37.5c70.667 0 133.834 -12 189.501 -36s99.167 -57.333 130.5 -100s47 -91 47 -145c0 -48 -11.667 -94.667 -35 -140h162v403h141
v-513zM325.497 194.497c-11 -11 -16.5 -25.167 -16.5 -42.5s5.5 -31.5 16.5 -42.5s25.167 -16.5 42.5 -16.5c16.667 0 30.5 5.66699 41.5 17s16.5 25.333 16.5 42s-5.5 30.667 -16.5 42s-24.833 17 -41.5 17c-17.333 0 -31.5 -5.5 -42.5 -16.5z" />
    <glyph glyph-name="tm_Sha" unicode="&#xbb6;" horiz-adv-x="1180" 
d="M1073 447c43.333 -44 64.999 -102.333 64.999 -175c0 -56 -10.667 -106 -32 -150s-51.666 -78.333 -90.999 -103s-85 -37 -137 -37c-73.333 0 -130.166 22 -170.499 66s-60.5 101.667 -60.5 173v182h-109v-189c0 -69.333 -20.167 -125.333 -60.5 -168
s-97.833 -64 -172.5 -64s-132.167 21.333 -172.5 64s-60.5 98.667 -60.5 168v299l141 5v-297c0 -81.333 30.667 -122 92 -122s92 40.667 92 122v292h489c81.333 0 143.666 -22 186.999 -66zM960.499 147c19 32 28.5 73.667 28.5 125c0 42 -7.5 74.333 -22.5 97
s-41.833 34 -80.5 34h-98v-173c0 -41.333 7 -73.5 21 -96.5s37.333 -34.5 70 -34.5c35.333 0 62.5 16 81.5 48z" />
    <glyph glyph-name="tm_Ssa" unicode="&#xbb7;" horiz-adv-x="1544" 
d="M1207 0v-243.002h-140v243h-471v110c24.667 46.667 37 93.334 37 140.001c0 48.667 -19.167 88.167 -57.5 118.5s-91.833 45.5 -160.5 45.5c-44 0 -83.167 -7.66699 -117.5 -23s-60.833 -36.5 -79.5 -63.5s-28 -57.167 -28 -90.5c0 -22 3.33301 -41.667 10 -59
c5.33301 40.667 23.666 73.834 54.999 99.501s69.666 38.5 114.999 38.5c35.333 0 67.333 -7 96 -21s51 -33.333 67 -58s24 -52.334 24 -83.001c0 -33.333 -8.66699 -63 -26 -89s-41.666 -46.333 -72.999 -61s-67.666 -22 -108.999 -22c-58.667 0 -111.334 11 -158.001 33
s-83.167 52.333 -109.5 91s-39.5 82.334 -39.5 131.001c0 56.667 15.833 107.334 47.5 152.001s75.667 79.5 132 104.5s120.5 37.5 192.5 37.5c70.667 0 133.834 -12 189.501 -36s99.167 -57.333 130.5 -100s47 -91 47 -145c0 -50 -11.667 -96.667 -35 -140h321v64h-18
c-47.333 0 -89 7.83301 -125 23.5s-63.833 37.5 -83.5 65.5s-29.5 59.667 -29.5 95c0 33.333 8.66699 63.166 26 89.499s41.5 46.833 72.5 61.5s65.833 22 104.5 22c38 0 71.5 -7.16699 100.5 -21.5s51.667 -34.5 68 -60.5s24.5 -55.667 24.5 -89v-38
c47.333 20 85.333 47 114 81h140v-403h-254zM1067 291.998v63c0 17.333 -4.66699 31.5 -14 42.5s-22.333 16.5 -39 16.5s-30 -5.33301 -40 -16s-15 -24.667 -15 -42c0 -20.667 7.83301 -36.5 23.5 -47.5s37.5 -16.5 65.5 -16.5h19zM1321 256.998
c-35.333 -26 -73.333 -45.333 -114 -58v-89h114v147zM325.5 194.498c-11 -11 -16.5 -25.167 -16.5 -42.5s5.5 -31.5 16.5 -42.5s25.167 -16.5 42.5 -16.5c16.667 0 30.5 5.66699 41.5 17s16.5 25.333 16.5 42s-5.5 30.667 -16.5 42s-24.833 17 -41.5 17
c-17.333 0 -31.5 -5.5 -42.5 -16.5z" />
    <glyph glyph-name="tm_Sa" unicode="&#xbb8;" horiz-adv-x="1456" 
d="M1392 381.5c14.667 -50.333 21.998 -95.1689 21.998 -134.502c0 -80 -21.333 -144.167 -64 -192.5s-103.667 -72.5 -183 -72.5c-72.667 0 -129.667 21.5 -171 64.5s-62 100.167 -62 171.5v70c0 40.667 -6.5 71.667 -19.5 93s-34.5 32 -64.5 32
c-33.333 0 -58.166 -14.667 -74.499 -44s-24.5 -69 -24.5 -119v-250h-140v250c0 32 -8.5 60.5 -25.5 85.5s-40.833 44.333 -71.5 58s-66 20.5 -106 20.5c-43.333 0 -81.5 -7.66699 -114.5 -23s-58.5 -36.5 -76.5 -63.5s-27 -57.167 -27 -90.5c0 -22 3.33301 -41.667 10 -59
c5.33301 40.667 23.666 73.834 54.999 99.501s69.666 38.5 114.999 38.5c35.333 0 67.333 -7 96 -21s51 -33.333 67 -58s24 -52.334 24 -83.001c0 -33.333 -8.66699 -63 -26 -89s-41.666 -46.333 -72.999 -61s-67.666 -22 -108.999 -22c-58.667 0 -111.334 11 -158.001 33
s-83.167 52.333 -109.5 91s-39.5 82.334 -39.5 131.001c0 56.667 15.333 107.334 46 152.001s73.834 79.5 129.501 104.5s118.834 37.5 189.501 37.5c56.667 0 108 -8.5 154 -25.5s84.333 -41.167 115 -72.5c20 31.333 45 55.333 75 72s64.333 25 103 25
c72 0 126.833 -21.167 164.5 -63.5s56.5 -99.833 56.5 -172.5v-76c0 -37.333 8 -66.5 24 -87.5s39.333 -31.5 70 -31.5c32 0 56.167 13.333 72.5 40s24.5 62.667 24.5 108c0 38 -7.33301 82.167 -22 132.5s-34.667 94.833 -60 133.5l145 14
c27.333 -46.667 48.333 -95.167 63 -145.5zM325.498 194.497c-11 -11 -16.5 -25.167 -16.5 -42.5s5.5 -31.5 16.5 -42.5s25.167 -16.5 42.5 -16.5c16.667 0 30.5 5.66699 41.5 17s16.5 25.333 16.5 42s-5.5 30.667 -16.5 42s-24.833 17 -41.5 17
c-17.333 0 -31.5 -5.5 -42.5 -16.5z" />
    <glyph glyph-name="tm_Ha" unicode="&#xbb9;" horiz-adv-x="1754" 
d="M1593 491.5c38.667 -26.333 68.165 -62.833 88.498 -109.5s30.5 -100.334 30.5 -161.001c0 -82 -13.167 -154 -39.5 -216s-66.166 -110.5 -119.499 -145.5s-119.333 -52.5 -198 -52.5h-1047c-91.333 0 -148 -16.667 -170 -50l-96 73c14 27.333 42 48.833 84 64.5
s98.333 23.5 169 23.5h1060c71.333 0 123.833 27.167 157.5 81.5s50.5 128.166 50.5 221.499c0 60 -8.66699 107.167 -26 141.5s-45 51.5 -83 51.5c-32.667 0 -57.334 -11.667 -74.001 -35s-25 -55 -25 -95v-284h-141v260c0 44.667 -8.83301 81.5 -26.5 110.5
s-43.5 43.5 -77.5 43.5c-28.667 0 -50.5 -11.333 -65.5 -34s-22.5 -55.334 -22.5 -98.001v-282h-426v110c24.667 46.667 37 93.334 37 140.001c0 48.667 -19.167 88.167 -57.5 118.5s-91.833 45.5 -160.5 45.5c-44.667 0 -84 -7.66699 -118 -23s-60.333 -36.333 -79 -63
s-28 -57 -28 -91c0 -22 3.33301 -41.667 10 -59c5.33301 40.667 23.666 73.834 54.999 99.501s69.666 38.5 114.999 38.5c35.333 0 67.333 -7 96 -21s51 -33.333 67 -58s24 -52.334 24 -83.001c0 -33.333 -8.66699 -63 -26 -89s-41.666 -46.333 -72.999 -61
s-67.666 -22 -108.999 -22c-58.667 0 -111.334 11 -158.001 33s-83.167 52.333 -109.5 91s-39.5 82.334 -39.5 131.001c0 56.667 15.833 107.334 47.5 152.001s75.667 79.5 132 104.5s120.5 37.5 192.5 37.5c70.667 0 133.834 -12 189.501 -36s99.167 -57.333 130.5 -100
s47 -91 47 -145c0 -50 -11.667 -96.667 -35 -140h135v186c0 71.333 19.333 128.333 58 171s92.334 64 161.001 64c35.333 0 67.666 -7.33301 96.999 -22s54 -35.667 74 -63c21.333 26.667 47.833 47.5 79.5 62.5s65.834 22.5 102.501 22.5
c54.667 0 101.334 -13.167 140.001 -39.5zM325.498 194.5c-11 -11 -16.5 -25.167 -16.5 -42.5s5.5 -31.5 16.5 -42.5s25.167 -16.5 42.5 -16.5c16.667 0 30.5 5.66699 41.5 17s16.5 25.333 16.5 42s-5.5 30.667 -16.5 42s-24.833 17 -41.5 17
c-17.333 0 -31.5 -5.5 -42.5 -16.5z" />
    <glyph glyph-name="tm_VowelAa" unicode="&#xbbe;" horiz-adv-x="711" 
d="M392 0v403h-169v-403h-141v513h603l16 -110h-169v-403h-140z" />
    <glyph glyph-name="tm_VowelI" unicode="&#xbbf;" horiz-adv-x="305" 
d="M63.5 759.5c51 -25 90.332 -59.832 117.999 -104.499s41.5 -95.334 41.5 -152.001v-503h-141v503c0 54 -17.167 97 -51.5 129s-81.833 48 -142.5 48c-39.333 0 -70.666 -8 -93.999 -24s-35 -37 -35 -63c0 -24.667 6 -44.167 18 -58.5s29.333 -21.5 52 -21.5v-95
c-42.667 0 -79.667 7.66699 -111 23s-55.5 36.5 -72.5 63.5s-25.833 57.833 -26.5 92.5c0 38.667 11 73.167 33 103.5s53.167 54 93.5 71s87.5 25.5 141.5 25.5c66.667 0 125.5 -12.5 176.5 -37.5z" />
    <glyph glyph-name="tm_VowelIi" unicode="&#xbc0;" horiz-adv-x="0" 
d="M-9.5 853c38.333 -16.667 68.501 -40 90.501 -70s33 -63.333 33 -100c0 -39.333 -13.5 -71.833 -40.5 -97.5s-61.167 -38.5 -102.5 -38.5s-75.5 12.667 -102.5 38s-40.5 57.333 -40.5 96c0 32.667 9.66699 60.667 29 84c-44.667 -0.666992 -79.834 -12.5 -105.501 -35.5
s-38.5 -52.833 -38.5 -89.5c0 -38 11 -68.667 33 -92s51.667 -35 89 -35v-105c-52 0 -98 9.83301 -138 29.5s-71 47.167 -93 82.5s-33 75.333 -33 120c0 46 12 87 36 123s58 64.167 102 84.5s95.333 30.5 154 30.5c46.667 0 89.167 -8.33301 127.5 -25zM1.00098 650
c8 8 12 18 12 30c0 11.333 -4 21 -12 29s-18 12 -30 12s-22 -4 -30 -12s-12 -17.667 -12 -29c0 -12 4 -22 12 -30s18 -12 30 -12s22 4 30 12z" />
    <glyph glyph-name="tm_VowelU" unicode="&#xbc1;" horiz-adv-x="472" 
d="M351.5 491c31.667 -14.667 56.5 -35.168 74.5 -61.501s27 -56.166 27 -89.499c0 -32 -8 -60.667 -24 -86s-38.333 -45.166 -67 -59.499s-61 -21.5 -97 -21.5c-35.333 0 -67 7 -95 21s-49.833 33.667 -65.5 59s-23.5 53.666 -23.5 84.999c0 23.333 5 45 15 65h-315v110
h463c40 0 75.833 -7.33301 107.5 -22zM306 298.999c11.333 11.333 17 25.666 17 42.999c0 18 -5.66699 32.667 -17 44s-25.666 17 -42.999 17s-31.833 -5.66699 -43.5 -17s-17.5 -26 -17.5 -44c0 -17.333 5.83301 -31.666 17.5 -42.999s26.167 -17 43.5 -17
s31.666 5.66699 42.999 17z" />
    <glyph glyph-name="tm_VowelUu" unicode="&#xbc2;" horiz-adv-x="723" 
d="M551 576c48 -24 85.5 -57.5029 112.5 -100.503s40.5 -91.167 40.5 -144.5c0 -57.333 -15 -108.666 -45 -153.999s-72.833 -80.666 -128.5 -105.999s-120.167 -38 -193.5 -38h-69v110h69c45.333 0 84.5 8 117.5 24s58.167 38.167 75.5 66.5s26 60.833 26 97.5
c0 50 -15.333 90.833 -46 122.5s-71 47.5 -121 47.5c-12 0 -28 -1.33301 -48 -4c34 -14 61.167 -34.833 81.5 -62.5s30.5 -59.167 30.5 -94.5c0 -32 -8 -60.667 -24 -86s-38.333 -45.166 -67 -59.499s-61 -21.5 -97 -21.5c-35.333 0 -67 7.33301 -95 22
s-49.833 34.834 -65.5 60.501s-23.5 54.5 -23.5 86.5c0 22.667 2.33301 43 7 61h-307v110h364c28 31.333 63.167 55.666 105.5 72.999s88.833 26 139.5 26c59.333 0 113 -12 161 -36zM306 298.997c11.333 11.333 17.001 25.667 17.001 43c0 18 -6 32.667 -18 44
s-28 17 -48 17h-44c-7.33301 -18 -11 -36.667 -11 -56s5.5 -35 16.5 -47s25.833 -18 44.5 -18c17.333 0 31.666 5.66699 42.999 17z" />
    <glyph glyph-name="tm_VowelE" unicode="&#xbc6;" horiz-adv-x="856" 
d="M604.5 633c53.667 -28 95.1641 -67.6699 124.497 -119.003s44 -110.666 44 -177.999v-336h-140v336c0 68.667 -19.167 122.834 -57.5 162.501s-91.166 59.5 -158.499 59.5c-45.333 0 -85.166 -10 -119.499 -30s-60.833 -48 -79.5 -84s-28 -76.667 -28 -122
c0 -40 5.66699 -76.333 17 -109c11.333 32 31.833 57.667 61.5 77s64.5 29 104.5 29c35.333 0 67 -7.16699 95 -21.5s49.833 -34 65.5 -59s23.5 -53.167 23.5 -84.5c0 -33.333 -8.66699 -63 -26 -89s-41.666 -46.333 -72.999 -61s-67.666 -22 -108.999 -22
c-58.667 0 -111.334 14.667 -158.001 44s-83.167 69.833 -109.5 121.5s-39.5 109.834 -39.5 174.501c0 67.333 15.667 127.833 47 181.5s75.333 95.667 132 126s121.667 45.5 195 45.5c72 0 134.833 -14 188.5 -42zM325.497 194.497c-11 -11 -16.5 -25.167 -16.5 -42.5
s5.5 -31.5 16.5 -42.5s25.167 -16.5 42.5 -16.5c16.667 0 30.5 5.66699 41.5 17s16.5 25.333 16.5 42s-5.5 30.667 -16.5 42s-24.833 17 -41.5 17c-17.333 0 -31.5 -5.5 -42.5 -16.5z" />
    <glyph glyph-name="tm_VowelEe" unicode="&#xbc7;" horiz-adv-x="697" 
d="M575.5 287c25 -12.667 44.5 -30.3262 58.5 -52.9932s21 -48 21 -76c0 -33.333 -10.167 -63.333 -30.5 -90s-49 -47.667 -86 -63s-78.833 -23 -125.5 -23c-74 0 -139.167 15.167 -195.5 45.5s-99.666 71.833 -129.999 124.5s-45.5 111.667 -45.5 177
s15.167 124.166 45.5 176.499s73.666 93.666 129.999 123.999s121.5 45.5 195.5 45.5c46.667 0 88.5 -7.66699 125.5 -23s65.667 -36.333 86 -63s30.5 -56.667 30.5 -90c0 -28 -7 -53.333 -21 -76s-33.5 -40.334 -58.5 -53.001s-53.167 -19 -84.5 -19
c-44.667 0 -81.5 14 -110.5 42s-43.5 63.667 -43.5 107c0 22 5 41.333 15 58c-50 -8.66699 -89.167 -33.334 -117.5 -74.001s-43.166 -92.334 -44.499 -155.001c1.33301 -63.333 16.166 -115.333 44.499 -156s67.5 -65.334 117.5 -74.001c-10 17.333 -15 36.666 -15 57.999
c0 43.333 14.5 79 43.5 107s65.833 42 110.5 42c31.333 0 59.5 -6.33301 84.5 -19zM524 469.508c8 8.33301 12 18.8311 12 31.498s-4 23.334 -12 32.001s-17.667 13 -29 13c-13.333 0 -24.333 -4.16699 -33 -12.5s-13 -18.833 -13 -31.5c0 -13.333 4 -24.166 12 -32.499
s18.333 -12.5 31 -12.5c13.333 0 24 4.16699 32 12.5zM461 187.506c-8 -8.33301 -12 -19.168 -12 -32.501c0 -12.667 4.33301 -23.167 13 -31.5s19.667 -12.5 33 -12.5c11.333 0 21 4.33301 29 13s12 19.334 12 32.001c0 13.333 -4 24 -12 32s-18.667 12 -32 12
c-12.667 0 -23 -4.16699 -31 -12.5z" />
    <glyph glyph-name="tm_VowelAi" unicode="&#xbc8;" horiz-adv-x="1303" 
d="M1132 497.5c42.667 -22.333 74.834 -53.502 96.501 -93.502s32.5 -86 32.5 -138c0 -39.333 -7.33301 -84.166 -22 -134.499s-35.667 -98.833 -63 -145.5l-145 14c25.333 38.667 45.333 83.167 60 133.5s22 94.5 22 132.5c0 45.333 -11 81.333 -33 108s-56.333 40 -103 40
c-32 0 -64.333 -6 -97 -18c34.667 -30.667 61.5 -64.5 80.5 -101.5s28.5 -75.5 28.5 -115.5c0 -38.667 -8.5 -72.834 -25.5 -102.501s-40.833 -52.834 -71.5 -69.501s-65.667 -25 -105 -25c-40 0 -75.5 8.33301 -106.5 25s-55 39.834 -72 69.501s-25.5 63.834 -25.5 102.501
c0 37.333 6.5 73.333 19.5 108s31.167 67 54.5 97c-56.667 20 -116.334 30 -179.001 30c-59.333 0 -110.833 -7.83301 -154.5 -23.5s-76.834 -37.5 -99.501 -65.5s-34 -59.667 -34 -95c0 -21.333 3.33301 -40 10 -56c4 42 21.833 76.167 53.5 102.5s70.5 39.5 116.5 39.5
c35.333 0 67.333 -7 96 -21s51 -33.333 67 -58s24 -52.334 24 -83.001c0 -33.333 -8.66699 -63 -26 -89s-41.666 -46.333 -72.999 -61s-67.666 -22 -108.999 -22c-58.667 0 -111.334 10.833 -158.001 32.5s-83.167 51.334 -109.5 89.001s-39.5 79.834 -39.5 126.501
c0 58 17.667 109.667 53 155s86 81 152 107s143 39 231 39c50.667 0 100 -5.16699 148 -15.5s92.667 -24.833 134 -43.5c66 39.333 138 59 216 59c61.333 0 113.333 -11.167 156 -33.5zM829 117.498c10.667 15 16 34.167 16 57.5c0 26 -6.16699 51.167 -18.5 75.5
s-29.5 46.5 -51.5 66.5c-32.667 -42 -49 -89.333 -49 -142c0 -23.333 5.5 -42.5 16.5 -57.5s25.5 -22.5 43.5 -22.5s32.333 7.5 43 22.5zM325.5 194.498c-11 -11 -16.5 -25.167 -16.5 -42.5s5.5 -31.5 16.5 -42.5s25.167 -16.5 42.5 -16.5c16.667 0 30.5 5.66699 41.5 17
s16.5 25.333 16.5 42s-5.5 30.667 -16.5 42s-24.833 17 -41.5 17c-17.333 0 -31.5 -5.5 -42.5 -16.5z" />
    <glyph glyph-name="tm_VowelO" unicode="&#xbca;" horiz-adv-x="2064" 
d="M604.5 633c53.667 -28 95.1641 -67.6699 124.497 -119.003s44 -110.666 44 -177.999v-336h-140v336c0 68.667 -19.167 122.834 -57.5 162.501s-91.166 59.5 -158.499 59.5c-45.333 0 -85.166 -10 -119.499 -30s-60.833 -48 -79.5 -84s-28 -76.667 -28 -122
c0 -40 5.66699 -76.333 17 -109c11.333 32 31.833 57.667 61.5 77s64.5 29 104.5 29c35.333 0 67 -7.16699 95 -21.5s49.833 -34 65.5 -59s23.5 -53.167 23.5 -84.5c0 -33.333 -8.66699 -63 -26 -89s-41.666 -46.333 -72.999 -61s-67.666 -22 -108.999 -22
c-58.667 0 -111.334 14.667 -158.001 44s-83.167 69.833 -109.5 121.5s-39.5 109.834 -39.5 174.501c0 67.333 15.667 127.833 47 181.5s75.333 95.667 132 126s121.667 45.5 195 45.5c72 0 134.833 -14 188.5 -42zM325.497 194.497c-11 -11 -16.5 -25.167 -16.5 -42.5
s5.5 -31.5 16.5 -42.5s25.167 -16.5 42.5 -16.5c16.667 0 30.5 5.66699 41.5 17s16.5 25.333 16.5 42s-5.5 30.667 -16.5 42s-24.833 17 -41.5 17c-17.333 0 -31.5 -5.5 -42.5 -16.5zM1729 -0.00292969v403h-169v-403h-141v513h603l16 -110h-169v-403h-140zM1109 466.997
c5.33301 5.33301 8 12.333 8 21s-2.66699 15.834 -8 21.501s-12.333 8.5 -21 8.5s-15.667 -2.83301 -21 -8.5s-8 -12.834 -8 -21.501s2.66699 -15.667 8 -21s12.333 -8 21 -8s15.667 2.66699 21 8zM977.997 493.997c-5.33301 -5.33301 -8 -12.333 -8 -21
s2.66699 -15.667 8 -21s12.333 -8 21 -8s15.667 2.66699 21 8s8 12.333 8 21s-2.66699 15.667 -8 21s-12.333 8 -21 8s-15.667 -2.66699 -21 -8zM1199 451.997c5.33301 5.33301 8 12.333 8 21s-2.66699 15.667 -8 21s-12.333 8 -21 8s-15.667 -2.66699 -21 -8
s-8 -12.333 -8 -21s2.66699 -15.667 8 -21s12.333 -8 21 -8s15.667 2.66699 21 8zM901.497 443.497c-5.66699 -5.66699 -8.5 -12.834 -8.5 -21.501s2.83301 -15.667 8.5 -21s12.834 -8 21.501 -8s15.667 2.66699 21 8s8 12.333 8 21s-2.66699 15.834 -8 21.501
s-12.333 8.5 -21 8.5s-15.834 -2.83301 -21.501 -8.5zM1275.5 400.997c5.66699 5.33301 8.5 12.333 8.5 21s-2.83301 15.834 -8.5 21.501s-12.834 8.5 -21.501 8.5s-15.667 -2.83301 -21 -8.5s-8 -12.834 -8 -21.501s2.66699 -15.667 8 -21s12.333 -8 21 -8
s15.834 2.66699 21.501 8zM853.497 364.497c-5.66699 -5.66699 -8.5 -12.834 -8.5 -21.501s2.83301 -15.667 8.5 -21s12.834 -8 21.501 -8s15.667 2.66699 21 8s8 12.333 8 21s-2.66699 15.834 -8 21.501s-12.333 8.5 -21 8.5s-15.834 -2.83301 -21.501 -8.5zM1323 321.997
c5.33301 5.33301 8 12.333 8 21s-2.66699 15.834 -8 21.501s-12.333 8.5 -21 8.5s-15.667 -2.83301 -21 -8.5s-8 -12.834 -8 -21.501s2.66699 -15.667 8 -21s12.333 -8 21 -8s15.667 2.66699 21 8zM839.497 278.497c-5.66699 -5.66699 -8.5 -12.834 -8.5 -21.501
s2.83301 -15.5 8.5 -20.5s12.834 -7.5 21.501 -7.5s15.667 2.5 21 7.5s8 11.833 8 20.5s-2.66699 15.834 -8 21.501s-12.333 8.5 -21 8.5s-15.834 -2.83301 -21.501 -8.5zM1337.5 236.497c5.66699 5 8.5 11.833 8.5 20.5s-2.83301 15.834 -8.5 21.501
s-12.834 8.5 -21.501 8.5s-15.667 -2.83301 -21 -8.5s-8 -12.834 -8 -21.501s2.66699 -15.5 8 -20.5s12.333 -7.5 21 -7.5s15.834 2.5 21.501 7.5zM853.497 194.997c-5.66699 -5.33301 -8.5 -12.333 -8.5 -21s2.83301 -15.667 8.5 -21s12.834 -8 21.501 -8
s15.667 2.66699 21 8s8 12.333 8 21s-2.66699 15.667 -8 21s-12.333 8 -21 8s-15.834 -2.66699 -21.501 -8zM1323 152.997c5.33301 5.33301 8 12.333 8 21s-2.66699 15.667 -8 21s-12.333 8 -21 8s-15.667 -2.66699 -21 -8s-8 -12.333 -8 -21s2.66699 -15.667 8 -21
s12.333 -8 21 -8s15.667 2.66699 21 8zM900.497 114.997c-5.66699 -5.33301 -8.5 -12.333 -8.5 -21s2.83301 -15.667 8.5 -21s12.834 -8 21.501 -8s15.667 2.66699 21 8s8 12.333 8 21s-2.66699 15.667 -8 21s-12.333 8 -21 8s-15.834 -2.66699 -21.501 -8zM1276.5 72.9971
c5.66699 5.33301 8.5 12.333 8.5 21s-2.83301 15.667 -8.5 21s-12.834 8 -21.501 8s-15.667 -2.66699 -21 -8s-8 -12.333 -8 -21s2.66699 -15.667 8 -21s12.333 -8 21 -8s15.834 2.66699 21.501 8zM977.997 65.4971c-5.33301 -5.66699 -8 -12.834 -8 -21.501
s2.66699 -15.667 8 -21s12.333 -8 21 -8s15.667 2.66699 21 8s8 12.333 8 21s-2.66699 15.834 -8 21.501s-12.333 8.5 -21 8.5s-15.667 -2.83301 -21 -8.5zM1199 22.9971c5.33301 5.33301 8 12.333 8 21s-2.66699 15.834 -8 21.501s-12.333 8.5 -21 8.5
s-15.667 -2.83301 -21 -8.5s-8 -12.834 -8 -21.501s2.66699 -15.667 8 -21s12.333 -8 21 -8s15.667 2.66699 21 8zM1109 7.99707c5.33301 5.33301 8 12.333 8 21s-2.66699 15.834 -8 21.501s-12.333 8.5 -21 8.5s-15.667 -2.83301 -21 -8.5s-8 -12.834 -8 -21.501
s2.66699 -15.667 8 -21s12.333 -8 21 -8s15.667 2.66699 21 8z" />
    <glyph glyph-name="tm_VowelOo" unicode="&#xbcb;" horiz-adv-x="1950" 
d="M575.5 287c25 -12.667 44.5 -30.3262 58.5 -52.9932s21 -48 21 -76c0 -33.333 -10.167 -63.333 -30.5 -90s-49 -47.667 -86 -63s-78.833 -23 -125.5 -23c-74 0 -139.167 15.167 -195.5 45.5s-99.666 71.833 -129.999 124.5s-45.5 111.667 -45.5 177
s15.167 124.166 45.5 176.499s73.666 93.666 129.999 123.999s121.5 45.5 195.5 45.5c46.667 0 88.5 -7.66699 125.5 -23s65.667 -36.333 86 -63s30.5 -56.667 30.5 -90c0 -28 -7 -53.333 -21 -76s-33.5 -40.334 -58.5 -53.001s-53.167 -19 -84.5 -19
c-44.667 0 -81.5 14 -110.5 42s-43.5 63.667 -43.5 107c0 22 5 41.333 15 58c-50 -8.66699 -89.167 -33.334 -117.5 -74.001s-43.166 -92.334 -44.499 -155.001c1.33301 -63.333 16.166 -115.333 44.499 -156s67.5 -65.334 117.5 -74.001c-10 17.333 -15 36.666 -15 57.999
c0 43.333 14.5 79 43.5 107s65.833 42 110.5 42c31.333 0 59.5 -6.33301 84.5 -19zM524 469.508c8 8.33301 12 18.8311 12 31.498s-4 23.334 -12 32.001s-17.667 13 -29 13c-13.333 0 -24.333 -4.16699 -33 -12.5s-13 -18.833 -13 -31.5c0 -13.333 4 -24.166 12 -32.499
s18.333 -12.5 31 -12.5c13.333 0 24 4.16699 32 12.5zM461 187.506c-8 -8.33301 -12 -19.168 -12 -32.501c0 -12.667 4.33301 -23.167 13 -31.5s19.667 -12.5 33 -12.5c11.333 0 21 4.33301 29 13s12 19.334 12 32.001c0 13.333 -4 24 -12 32s-18.667 12 -32 12
c-12.667 0 -23 -4.16699 -31 -12.5zM1611 0.00390625v403h-169v-403h-141v513h603l16 -110h-169v-403h-140zM997 467.004c5.33301 5.33301 8 12.333 8 21s-2.66699 15.834 -8 21.501s-12.333 8.5 -21 8.5s-15.667 -2.83301 -21 -8.5s-8 -12.834 -8 -21.501
s2.66699 -15.667 8 -21s12.333 -8 21 -8s15.667 2.66699 21 8zM866 494.004c-5.33301 -5.33301 -8 -12.333 -8 -21s2.66699 -15.667 8 -21s12.333 -8 21 -8s15.667 2.66699 21 8s8 12.333 8 21s-2.66699 15.667 -8 21s-12.333 8 -21 8s-15.667 -2.66699 -21 -8z
M1087 452.004c5.33301 5.33301 8 12.333 8 21s-2.66699 15.667 -8 21s-12.333 8 -21 8s-15.667 -2.66699 -21 -8s-8 -12.333 -8 -21s2.66699 -15.667 8 -21s12.333 -8 21 -8s15.667 2.66699 21 8zM789.5 443.504c-5.66699 -5.66699 -8.5 -12.834 -8.5 -21.501
s2.83301 -15.667 8.5 -21s12.834 -8 21.501 -8s15.667 2.66699 21 8s8 12.333 8 21s-2.66699 15.834 -8 21.501s-12.333 8.5 -21 8.5s-15.834 -2.83301 -21.501 -8.5zM1163.5 401.004c5.66699 5.33301 8.5 12.333 8.5 21s-2.83301 15.834 -8.5 21.501
s-12.834 8.5 -21.501 8.5s-15.667 -2.83301 -21 -8.5s-8 -12.834 -8 -21.501s2.66699 -15.667 8 -21s12.333 -8 21 -8s15.834 2.66699 21.501 8zM741.5 364.504c-5.66699 -5.66699 -8.5 -12.834 -8.5 -21.501s2.83301 -15.667 8.5 -21s12.834 -8 21.501 -8
s15.667 2.66699 21 8s8 12.333 8 21s-2.66699 15.834 -8 21.501s-12.333 8.5 -21 8.5s-15.834 -2.83301 -21.501 -8.5zM1211 322.004c5.33301 5.33301 8 12.333 8 21s-2.66699 15.834 -8 21.501s-12.333 8.5 -21 8.5s-15.667 -2.83301 -21 -8.5s-8 -12.834 -8 -21.501
s2.66699 -15.667 8 -21s12.333 -8 21 -8s15.667 2.66699 21 8zM727.5 278.504c-5.66699 -5.66699 -8.5 -12.834 -8.5 -21.501s2.83301 -15.5 8.5 -20.5s12.834 -7.5 21.501 -7.5s15.667 2.5 21 7.5s8 11.833 8 20.5s-2.66699 15.834 -8 21.501s-12.333 8.5 -21 8.5
s-15.834 -2.83301 -21.501 -8.5zM1225.5 236.504c5.66699 5 8.5 11.833 8.5 20.5s-2.83301 15.834 -8.5 21.501s-12.834 8.5 -21.501 8.5s-15.667 -2.83301 -21 -8.5s-8 -12.834 -8 -21.501s2.66699 -15.5 8 -20.5s12.333 -7.5 21 -7.5s15.834 2.5 21.501 7.5z
M741.5 195.004c-5.66699 -5.33301 -8.5 -12.333 -8.5 -21s2.83301 -15.667 8.5 -21s12.834 -8 21.501 -8s15.667 2.66699 21 8s8 12.333 8 21s-2.66699 15.667 -8 21s-12.333 8 -21 8s-15.834 -2.66699 -21.501 -8zM1211 153.004c5.33301 5.33301 8 12.333 8 21
s-2.66699 15.667 -8 21s-12.333 8 -21 8s-15.667 -2.66699 -21 -8s-8 -12.333 -8 -21s2.66699 -15.667 8 -21s12.333 -8 21 -8s15.667 2.66699 21 8zM788.5 115.004c-5.66699 -5.33301 -8.5 -12.333 -8.5 -21s2.83301 -15.667 8.5 -21s12.834 -8 21.501 -8
s15.667 2.66699 21 8s8 12.333 8 21s-2.66699 15.667 -8 21s-12.333 8 -21 8s-15.834 -2.66699 -21.501 -8zM1164.5 73.0039c5.66699 5.33301 8.5 12.333 8.5 21s-2.83301 15.667 -8.5 21s-12.834 8 -21.501 8s-15.667 -2.66699 -21 -8s-8 -12.333 -8 -21
s2.66699 -15.667 8 -21s12.333 -8 21 -8s15.834 2.66699 21.501 8zM866 65.5039c-5.33301 -5.66699 -8 -12.834 -8 -21.501s2.66699 -15.667 8 -21s12.333 -8 21 -8s15.667 2.66699 21 8s8 12.333 8 21s-2.66699 15.834 -8 21.501s-12.333 8.5 -21 8.5
s-15.667 -2.83301 -21 -8.5zM1087 23.0039c5.33301 5.33301 8 12.333 8 21s-2.66699 15.834 -8 21.501s-12.333 8.5 -21 8.5s-15.667 -2.83301 -21 -8.5s-8 -12.834 -8 -21.501s2.66699 -15.667 8 -21s12.333 -8 21 -8s15.667 2.66699 21 8zM997 8.00391
c5.33301 5.33301 8 12.333 8 21s-2.66699 15.834 -8 21.501s-12.333 8.5 -21 8.5s-15.667 -2.83301 -21 -8.5s-8 -12.834 -8 -21.501s2.66699 -15.667 8 -21s12.333 -8 21 -8s15.667 2.66699 21 8z" />
    </font>
</defs>
</svg>
