<?xml version="1.0" standalone="no"?>
<!DOCTYPE svg PUBLIC "-//W3C//DTD SVG 1.1//EN" "http://www.w3.org/Graphics/SVG/1.1/DTD/svg11.dtd" >
<svg>
<metadata>
Created by FontForge 20090914 at Fri Mar 31 17:22:00 2017
 By www-data
Copyright 2014 Pria Ravichandran (pria.ravichandran@gmail.com)
</metadata>
<defs>
<font id="Catamaran-ExtraLight" horiz-adv-x="507" >
  <font-face 
    font-family="Catamaran ExtraLight"
    font-weight="250"
    font-stretch="normal"
    units-per-em="1000"
    panose-1="0 0 3 0 0 0 0 0 0 0"
    ascent="770"
    descent="-230"
    x-height="485"
    cap-height="680"
    bbox="-534.002 -376.997 2493 1320"
    underline-thickness="50"
    underline-position="-75"
    unicode-range="U+000D-U+FB02"
  />
<missing-glyph horiz-adv-x="636" 
d="M538 0v696h-441v-696h441zM153 44v607h329v-607h-329z" />
    <glyph glyph-name=".notdef" horiz-adv-x="636" 
d="M538 0v696h-441v-696h441zM153 44v607h329v-607h-329z" />
    <glyph glyph-name="uni0000" horiz-adv-x="0" 
 />
    <glyph glyph-name="uni0000" horiz-adv-x="0" 
 />
    <glyph glyph-name="nonmarkingreturn" unicode="&#xd;" horiz-adv-x="0" 
 />
    <glyph glyph-name="space" unicode=" " horiz-adv-x="238" 
 />
    <glyph glyph-name="exclam" unicode="!" horiz-adv-x="146" 
d="M112 702h-64l8 -502l43 -21zM42.5 72c-8.33301 -8 -12.5 -17.667 -12.5 -29c0 -12 4.16699 -22.167 12.5 -30.5s18.5 -12.5 30.5 -12.5s22.167 4.16699 30.5 12.5s12.5 18.5 12.5 30.5c0 11.333 -4.16699 21 -12.5 29s-18.5 12 -30.5 12s-22.167 -4 -30.5 -12z" />
    <glyph glyph-name="quotedbl" unicode="&#x22;" horiz-adv-x="289" 
d="M52 689c-8 -8.66699 -12 -18.665 -12 -29.998c0 -10 3.5 -19.5 10.5 -28.5s16.5 -13.833 28.5 -14.5c-2 -30.667 -21.667 -57.334 -59 -80.001l17 -27c26.667 13.333 48.167 33.166 64.5 59.499s24.5 54.5 24.5 84.5c0 13.333 -4.16699 24.833 -12.5 34.5
s-18.5 14.5 -30.5 14.5c-12.667 0 -23 -4.33301 -31 -13zM186 689.002c-8 -8.66699 -11.999 -18.668 -11.999 -30.001c0 -10 3.66699 -19.5 11 -28.5s16.666 -13.833 27.999 -14.5c-2 -31.333 -21.667 -58 -59 -80l17 -27c26.667 12.667 48 32.334 64 59.001s24 55 24 85
c0 13.333 -4 24.833 -12 34.5s-18 14.5 -30 14.5c-12.667 0 -23 -4.33301 -31 -13z" />
    <glyph glyph-name="numbersign" unicode="#" horiz-adv-x="497" 
d="M212 371l32 131h-48l-33 -131h-133l8 -44h114l-35 -143h-87l8 -44h68l-33 -135l48 -5l34 140h134l-33 -135l47 -5l34 140h130l-7 44h-112l35 143h84l-7 44h-66l33 131h-49l-32 -131h-134zM166 184l35 143h134l-36 -143h-133z" />
    <glyph glyph-name="dollar" unicode="$" horiz-adv-x="522" 
d="M109.5 6.5c-25 7 -43.167 14.501 -54.5 22.501l15 43c21.333 -10.667 46.666 -19.834 75.999 -27.501s59.333 -11.5 90 -11.5c55.333 0 98.666 12.167 129.999 36.5s47 54.5 47 90.5s-14.333 66.333 -43 91s-75 50.667 -139 78c-61.333 26 -107.166 55.333 -137.499 88
s-45.5 71.334 -45.5 116.001c0 37.333 12.333 69.833 37 97.5s58.667 46.834 102 57.501v99l43 10v-103c9.33301 1.33301 18 2 26 2c14.667 0 28.334 -1 41.001 -3v97l44 10v-114c29.333 -6.66699 57 -16.334 83 -29.001l-22 -41c-24 10.667 -46.333 19 -67 25
s-46.334 9 -77.001 9c-47.333 0 -85.166 -11.167 -113.499 -33.5s-42.5 -51.166 -42.5 -86.499c0 -36 14.333 -66.5 43 -91.5s75.667 -52.167 141 -81.5c64 -28 110.333 -56.833 139 -86.5s43 -67.167 43 -112.5c0 -36.667 -11 -68.834 -33 -96.501
s-53.333 -47.834 -94 -60.501v-112h-44v103c-20 -3.33301 -40 -5 -60 -5h-7v-98h-43v102c-26.667 3.33301 -52.5 8.5 -77.5 15.5z" />
    <glyph glyph-name="percent" unicode="%" horiz-adv-x="823" 
d="M278 -4l309 710l-53 4l-308 -710zM113 681c-23.333 -14 -41.667 -33.833 -55 -59.5s-20 -55.5 -20 -89.5c0 -53.333 14.167 -94.833 42.5 -124.5s65.833 -44.5 112.5 -44.5c28 0 53.667 7 77 21s41.666 33.667 54.999 59s20 55 20 89c0 53.333 -14 95 -42 125
s-65 45 -111 45c-29.333 0 -55.666 -7 -78.999 -21zM262.999 626c18.667 -22 27.999 -53.3311 27.999 -93.998s-9.66699 -71.834 -29 -93.501s-42.333 -32.5 -69 -32.5c-28 0 -51.833 11.167 -71.5 33.5s-29.5 53.166 -29.5 92.499c0 40.667 10 72 30 94s43.333 33 70 33
c28.667 0 52.334 -11 71.001 -33zM552.998 317.002c-23.333 -14 -41.668 -33.833 -55.001 -59.5s-20 -55.5 -20 -89.5c0 -52.667 14.167 -94 42.5 -124s65.5 -45 111.5 -45c28.667 0 54.5 7 77.5 21s41.333 33.667 55 59s20.5 55 20.5 89c0 53.333 -14 95 -42 125
s-65 45 -111 45c-29.333 0 -55.666 -7 -78.999 -21zM702.996 261.502c18.667 -21.667 28 -52.832 28 -93.499c0 -40 -9.83301 -70.833 -29.5 -92.5s-42.834 -32.5 -69.501 -32.5c-28 0 -51.667 11 -71 33s-29 52.667 -29 92c0 41.333 9.83301 72.666 29.5 93.999
s43.167 32 70.5 32c28.667 0 52.334 -10.833 71.001 -32.5z" />
    <glyph glyph-name="ampersand" unicode="&#x26;" horiz-adv-x="654" 
d="M525 119c33.333 56.667 50.998 125.334 52.998 206.001l-41 14c-1.33301 -33.333 -6.16602 -66.166 -14.499 -98.499s-20.166 -61.5 -35.499 -87.5l-203 191c-38.667 36.667 -66.334 67.834 -83.001 93.501s-25 55.167 -25 88.5c0 21.333 5.5 41.5 16.5 60.5
s26.167 34.333 45.5 46s41 17.5 65 17.5c25.333 0 45.833 -2.33301 61.5 -7s29.334 -9.83398 41.001 -15.501s19.167 -9.5 22.5 -11.5l21 41c-48 26 -98.333 39 -151 39c-34.667 0 -65.167 -7.83301 -91.5 -23.5s-46.833 -36.834 -61.5 -63.501s-22 -56 -22 -88
c0 -40.667 11.667 -78 35 -112c-33.333 -22 -60 -50.833 -80 -86.5s-30 -75.5 -30 -119.5c0 -44.667 10.667 -83.334 32 -116.001s50.5 -57.5 87.5 -74.5s78.5 -25.5 124.5 -25.5c44 0 83.5 8.33301 118.5 25s64.5 40 88.5 70l91 -82l27 33zM388.998 55
c-28.667 -14.667 -60.3311 -22 -94.998 -22c-32.667 0 -63.834 6.83301 -93.501 20.5s-53.5 33.5 -71.5 59.5s-27 56.667 -27 92c0 36 7.16699 68.5 21.5 97.5s35.166 52.5 62.499 70.5c10.667 -13.333 26.334 -29 47.001 -47l230 -210
c-20.667 -26 -45.334 -46.333 -74.001 -61z" />
    <glyph glyph-name="quotesingle" unicode="'" horiz-adv-x="156" 
d="M52 689c-8 -8.66699 -12 -18.665 -12 -29.998c0 -10 3.5 -19.5 10.5 -28.5s16.5 -13.833 28.5 -14.5c-2 -30.667 -21.667 -57.334 -59 -80.001l17 -27c26.667 13.333 48.167 33.166 64.5 59.499s24.5 54.5 24.5 84.5c0 13.333 -4.16699 24.833 -12.5 34.5
s-18.5 14.5 -30.5 14.5c-12.667 0 -23 -4.33301 -31 -13z" />
    <glyph glyph-name="parenleft" unicode="(" horiz-adv-x="245" 
d="M162 72c-16.667 41.333 -30 85.002 -40 131.002s-15 85.333 -15 118c0 32 5 70.667 15 116s23.333 88.333 40 129s34.334 71 53.001 91l-46 18c-39.333 -50 -69 -107.333 -89 -172s-30 -125.667 -30 -183c0 -58 10 -119.333 30 -184s49.667 -122.334 89 -173.001l46 18
c-18.667 19.333 -36.334 49.666 -53.001 90.999z" />
    <glyph glyph-name="parenright" unicode=")" horiz-adv-x="245" 
d="M82 565.5c16.667 -41 30.167 -84.333 40.5 -130s15.5 -84.5 15.5 -116.5s-5.16699 -71 -15.5 -117s-23.833 -89.5 -40.5 -130.5s-34 -71.167 -52 -90.5l46 -18c38.667 51.333 68.167 109.333 88.5 174s30.5 125.667 30.5 183c0 56 -10.167 116.5 -30.5 181.5
s-49.833 122.833 -88.5 173.5l-46 -18c18 -20 35.333 -50.5 52 -91.5z" />
    <glyph glyph-name="asterisk" unicode="*" horiz-adv-x="325" 
d="M140 656l-118 29l-12 -35l119 -27l-83 -121l36 -21l80 115l83 -115l33 21l-82 121l119 27l-13 35l-120 -29v118h-41z" />
    <glyph glyph-name="plus" unicode="+" horiz-adv-x="531" 
d="M291 531l-53 3v-239h-208l8 -43h200v-244l53 -4v248h210l-10 43h-200v236z" />
    <glyph glyph-name="comma" unicode="," horiz-adv-x="156" 
d="M52.5 71.5c-8.33301 -8.33301 -12.498 -18.1689 -12.498 -29.502c0 -10 3.66699 -19.5 11 -28.5s16.666 -13.5 27.999 -13.5c-0.666992 -31.333 -20.334 -58.333 -59.001 -81l17 -27c26.667 12.667 48.167 32.334 64.5 59.001s24.5 55.334 24.5 86.001
c0 13.333 -4 24.5 -12 33.5s-18.333 13.5 -31 13.5c-12 0 -22.167 -4.16699 -30.5 -12.5z" />
    <glyph glyph-name="hyphen" unicode="-" horiz-adv-x="313" 
d="M38 251h245l-8 44h-245z" />
    <glyph glyph-name="period" unicode="." horiz-adv-x="145" 
d="M102.5 12.5c8.33301 8.33301 12.5 18.5 12.5 30.5c0 10.667 -4.16699 20.167 -12.5 28.5s-18.166 12.5 -29.499 12.5c-12 0 -22.167 -4 -30.5 -12s-12.5 -17.667 -12.5 -29c0 -12 4 -22.167 12 -30.5s18.333 -12.5 31 -12.5c11.333 0 21.166 4.16699 29.499 12.5z" />
    <glyph glyph-name="slash" unicode="/" horiz-adv-x="380" 
d="M61 -4l309 710l-52 4l-308 -710z" />
    <glyph glyph-name="zero" unicode="0" horiz-adv-x="578" 
d="M70.5 133c21.667 -46 51.5 -81.834 89.5 -107.501s81.333 -38.5 130 -38.5c48 0 91 13 129 39s67.833 62 89.5 108s32.5 97.667 32.5 155c0 55.333 -10.833 105 -32.5 149s-51.5 78.5 -89.5 103.5s-81 37.5 -129 37.5c-48.667 0 -92 -12.5 -130 -37.5
s-67.833 -59.667 -89.5 -104s-32.5 -94.166 -32.5 -149.499c0 -57.333 10.833 -109 32.5 -155zM120 414.999c16.667 36.667 39.834 65.332 69.501 85.999s63.167 31 100.5 31c36.667 0 69.667 -10.5 99 -31.5s52.333 -50.167 69 -87.5s25 -79.666 25 -126.999
c0 -48 -8.33301 -91.167 -25 -129.5s-39.667 -68.333 -69 -90s-62.333 -32.5 -99 -32.5c-37.333 0 -70.833 11 -100.5 33s-52.834 52.5 -69.501 91.5s-25 83.167 -25 132.5c0 46 8.33301 87.333 25 124z" />
    <glyph glyph-name="one" unicode="1" horiz-adv-x="300" 
d="M184 566l-174 -81l22 -43l134 57v-499h56v566h-38z" />
    <glyph glyph-name="two" unicode="2" horiz-adv-x="473" 
d="M118.5 564c-29 -10 -55.833 -22.3359 -80.5 -37.0029l22 -42c26 14.667 50.667 26.334 74 35.001s51 13 83 13c44 0 79.5 -10.667 106.5 -32s40.5 -49.666 40.5 -84.999c0 -32 -8.5 -60.333 -25.5 -85s-48.5 -56.334 -94.5 -95.001l-219 -186v-50h428l-8 44h-356l184 151
c50.667 42 88.167 80.5 112.5 115.5s36.5 70.833 36.5 107.5c0 30.667 -8.5 58.334 -25.5 83.001s-40.833 43.834 -71.5 57.501s-66 20.5 -106 20.5c-38 0 -71.5 -5 -100.5 -15z" />
    <glyph glyph-name="three" unicode="3" horiz-adv-x="451" 
d="M11 520l30.999 -36.001c50 32.667 103.333 49 160 49c26.667 0 50.5 -5.5 71.5 -16.5s37.167 -25.5 48.5 -43.5s17 -37 17 -57c0 -38.667 -16 -69.834 -48 -93.501s-75.667 -35.5 -131 -35.5h-34l10 -41h18c66.667 0 116.167 -12.5 148.5 -37.5s48.5 -59.833 48.5 -104.5
c0 -26 -7.5 -49.167 -22.5 -69.5s-34.667 -36.166 -59 -47.499s-49.833 -17 -76.5 -17c-34 0 -62.667 3.66699 -86 11s-48 18.666 -74 33.999l-33 -39c26 -14.667 55.5 -27 88.5 -37s66.833 -15 101.5 -15c44 0 82.333 8 115 24s58 37.667 76 65s27 58.333 27 93
c0 40 -11.5 74.833 -34.5 104.5s-53.5 48.834 -91.5 57.501c32.667 10.667 59.834 29.5 81.501 56.5s32.5 57.833 32.5 92.5c0 28.667 -7.16699 55.334 -21.5 80.001s-36 44.5 -65 59.5s-63.833 22.5 -104.5 22.5c-67.333 0 -132 -19.667 -194 -59z" />
    <glyph glyph-name="four" unicode="4" horiz-adv-x="512" 
d="M381 571h-34l-337 -446l9 -51h307v-143h55v143h103l8 45h-111v452zM68 119l258 345v-345h-258z" />
    <glyph glyph-name="five" unicode="5" horiz-adv-x="491" 
d="M179 267.5c22.667 11 45.9961 16.499 69.9961 16.499c44 0 79.167 -13.833 105.5 -41.5s39.5 -65.167 39.5 -112.5c0 -48.667 -15 -87.5 -45 -116.5s-71 -43.5 -123 -43.5c-31.333 0 -59.5 3.83301 -84.5 11.5s-50.167 18.834 -75.5 33.501l-28 -40
c64 -34 125.333 -51 184 -51c48.667 0 90.334 9.33301 125.001 28s61 43.5 79 74.5s27 65.5 27 103.5c-0.666992 58.667 -18.167 106.667 -52.5 144s-86.166 56 -155.499 56c-18 0 -37.167 -3.5 -57.5 -10.5s-39.166 -16.5 -56.499 -28.5l10 230h268l5 45h-325l-15 -336h49
c14.667 14 33.334 26.5 56.001 37.5z" />
    <glyph glyph-name="six" unicode="6" horiz-adv-x="497" 
d="M365 359.5c30.667 -18.333 53.998 -42.499 69.998 -72.499s24 -62.333 24 -97c0 -36 -8.83301 -69.5 -26.5 -100.5s-42 -55.833 -73 -74.5s-65.5 -28 -103.5 -28c-42.667 0 -80.5 10.667 -113.5 32s-58.667 52.5 -77 93.5s-27.5 90.167 -27.5 147.5
c0 71.333 16.5 134 49.5 188s75.333 96.667 127 128s105.834 50.666 162.501 57.999l18 -44c-40.667 -2 -82.667 -14.5 -126 -37.5s-81 -55 -113 -96s-52 -87.5 -60 -139.5c45.333 46.667 98.333 70 159 70c42.667 0 79.334 -9.16699 110.001 -27.5zM333.498 55.501
c22.333 14.333 39.501 33.001 51.501 56.001s18 47.5 18 73.5c0 46 -13.333 83.667 -40 113s-62.667 44 -108 44c-31.333 0 -62 -8.5 -92 -25.5s-53.667 -37.167 -71 -60.5c1.33301 -72.667 15.666 -127.834 42.999 -165.501s67 -56.5 119 -56.5
c30.667 0 57.167 7.16699 79.5 21.5z" />
    <glyph glyph-name="seven" unicode="7" horiz-adv-x="429" 
d="M387 566h-377l8 -45h333l-230 -570l53 -20l235 606z" />
    <glyph glyph-name="eight" unicode="8" horiz-adv-x="508" 
d="M151 620.5c-28.667 -15 -50 -34.6699 -64 -59.0029s-21 -51.166 -21 -80.499c0 -32 10.167 -60.5 30.5 -85.5s46.5 -43.833 78.5 -56.5c-24.667 -5.33301 -47.5 -17 -68.5 -35s-37.667 -39 -50 -63s-18.5 -48 -18.5 -72c0 -34 8.16699 -64.833 24.5 -92.5
s40.833 -49.5 73.5 -65.5s72.334 -24 119.001 -24c46 0 85.167 8.33301 117.5 25s56.833 38.834 73.5 66.501s25 57.834 25 90.501c0 40.667 -13.5 77 -40.5 109s-58.833 52.333 -95.5 61c30 13.333 55.5 32.5 76.5 57.5s31.5 53.167 31.5 84.5c0 28 -7 54.333 -21 79
s-35 44.667 -63 60s-62.667 23 -104 23c-40.667 0 -75.334 -7.5 -104.001 -22.5zM353 564.497c23.333 -22.333 35 -49.833 35 -82.5c0 -28 -12.167 -53.833 -36.5 -77.5s-56.5 -38.5 -96.5 -44.5c-41.333 6 -73.833 20.5 -97.5 43.5s-35.5 49.167 -35.5 78.5
c0 32 11.167 59.333 33.5 82s54.5 34 96.5 34c44 0 77.667 -11.167 101 -33.5zM372.5 264.997c27.667 -28 41.498 -61.667 41.498 -101c0 -25.333 -7.16699 -47.833 -21.5 -67.5s-33.666 -35.167 -57.999 -46.5s-50.833 -17 -79.5 -17c-30 0 -57.167 5.66699 -81.5 17
s-43.5 27 -57.5 47s-21 42.333 -21 67c0 39.333 13.667 73 41 101s67 45 119 51c50.667 -6 89.834 -23 117.501 -51z" />
    <glyph glyph-name="nine" unicode="9" horiz-adv-x="497" 
d="M353.5 546.5c33 -21 58.8369 -52.1689 77.5039 -93.502s28 -90.666 28 -147.999c0 -71.333 -16.5 -134 -49.5 -188s-75.5 -96.667 -127.5 -128s-106.333 -50.666 -163 -57.999l-18 44c41.333 2 83.666 14.5 126.999 37.5s81.166 55 113.499 96s52.5 87.833 60.5 140.5
c-47.333 -47.333 -101 -71 -161 -71c-42.667 0 -79.334 9.16699 -110.001 27.5s-53.834 42.5 -69.501 72.5s-23.5 62.333 -23.5 97c0 36.667 8.66699 70.5 26 101.5s41.5 55.667 72.5 74s65.5 27.5 103.5 27.5c42.667 0 80.5 -10.5 113.5 -31.5zM334.004 249.998
c30 17.333 53.667 37.665 71 60.998c-2 72 -16.833 126.833 -44.5 164.5s-67.167 56.5 -118.5 56.5c-30.667 0 -57.167 -7.16699 -79.5 -21.5s-39.5 -33.166 -51.5 -56.499s-18 -48 -18 -74c0 -45.333 13.333 -82.666 40 -111.999s62.667 -44 108 -44c32 0 63 8.66699 93 26
z" />
    <glyph glyph-name="colon" unicode=":" horiz-adv-x="145" 
d="M102.5 373c8.33301 8.66699 12.5 18.667 12.5 30s-4.16699 21.333 -12.5 30s-18.5 13 -30.5 13s-22 -4.33301 -30 -13s-12 -18.667 -12 -30c0 -12 4 -22.167 12 -30.5s18 -12.5 30 -12.5s22.167 4.33301 30.5 13zM102.5 53.5c8.33301 8.33301 12.5 18.5 12.5 30.5
s-4.16699 22.167 -12.5 30.5s-18.5 12.5 -30.5 12.5s-22 -4.16699 -30 -12.5s-12 -18.5 -12 -30.5s4 -22.167 12 -30.5s18 -12.5 30 -12.5s22.167 4.16699 30.5 12.5z" />
    <glyph glyph-name="semicolon" unicode=";" horiz-adv-x="156" 
d="M113.5 373c8.33301 8.66699 12.5 18.667 12.5 30s-4.16699 21.333 -12.5 30s-18.5 13 -30.5 13s-22.167 -4.33301 -30.5 -13s-12.5 -18.667 -12.5 -30c0 -12 4.16699 -22.167 12.5 -30.5s18.5 -12.5 30.5 -12.5s22.167 4.33301 30.5 13zM52.5 114
c-8.33301 -8.66699 -12.498 -18.999 -12.498 -30.999c0 -10 3.66699 -19.333 11 -28s16.666 -13.334 27.999 -14.001c-0.666992 -31.333 -20.334 -58.333 -59.001 -81l17 -27c26.667 12.667 48.167 32.5 64.5 59.5s24.5 55.5 24.5 85.5c0 14 -4 25.667 -12 35
s-18.333 14 -31 14c-12 0 -22.167 -4.33301 -30.5 -13z" />
    <glyph glyph-name="less" unicode="&#x3c;" horiz-adv-x="322" 
d="M302 431l-23 39l-249 -206v-38l249 -207l23 40l-221 186z" />
    <glyph glyph-name="equal" unicode="=" horiz-adv-x="497" 
d="M38 327h429l-7 44h-430zM38 140h429l-7 44h-430z" />
    <glyph glyph-name="greater" unicode="&#x3e;" horiz-adv-x="322" 
d="M20 431l221 -187l-221 -186l23 -39l249 207v37l-249 207z" />
    <glyph glyph-name="question" unicode="?" horiz-adv-x="398" 
d="M90 685.5c-28 -11 -54.667 -25.833 -80 -44.5l8 -47c30 21.333 56.833 36.833 80.5 46.5s52.167 14.5 85.5 14.5c40.667 0 71.667 -9.83301 93 -29.5s32 -49.167 32 -88.5c0 -37.333 -15.833 -71.5 -47.5 -102.5s-73.834 -54.833 -126.501 -71.5l8 -205l39 -20l9 194
c54.667 24 97.834 54.667 129.501 92s47.5 75.333 47.5 114c0 50 -15.333 89.833 -46 119.5s-76 44.5 -136 44.5c-36 0 -68 -5.5 -96 -16.5zM127 72c-8 -8 -12 -17.667 -12 -29c0 -12 4 -22.167 12 -30.5s18 -12.5 30 -12.5s22.167 4.16699 30.5 12.5s12.5 18.5 12.5 30.5
c0 11.333 -4.16699 21 -12.5 29s-18.5 12 -30.5 12s-22 -4 -30 -12z" />
    <glyph glyph-name="at" unicode="@" horiz-adv-x="762" 
d="M443 406c-38.667 0 -74.665 -8.33496 -107.998 -25.002s-59.833 -39.834 -79.5 -69.501s-29.5 -63.167 -29.5 -100.5c0 -43.333 14.167 -78.333 42.5 -105s67.166 -40 116.499 -40c16 0 32.667 3.16699 50 9.5s32.333 14.166 45 23.499
c9.33301 -11.333 21 -20.166 35 -26.499s29.333 -9.5 46 -9.5c50.667 0 90.5 20.667 119.5 62s43.5 101 43.5 179c0 55.333 -12.833 105 -38.5 149s-61.5 78.5 -107.5 103.5s-98.667 37.5 -158 37.5c-78.667 0 -146.834 -17 -204.501 -51s-101.667 -80 -132 -138
s-45.5 -122 -45.5 -192c0 -62 14.5 -116.833 43.5 -164.5s67.333 -84.5 115 -110.5s99.167 -39 154.5 -39c75.333 0 138 13 188 39l-14 42c-20 -11.333 -44.833 -20 -74.5 -26s-59.167 -9 -88.5 -9c-50 0 -95.333 11 -136 33s-72.834 53.333 -96.501 94s-35.5 88 -35.5 142
c0 66.667 14.333 125.334 43 176.001s67.5 90 116.5 118s103.5 42 163.5 42c52 0 97.333 -10.667 136 -32s68.334 -51.166 89.001 -89.499s31 -82.166 31 -131.499c0 -60 -10 -106.667 -30 -140s-45.667 -50 -77 -50c-17.333 0 -31.5 5 -42.5 15s-16.5 25.667 -16.5 47
c0 6 0.333008 10.667 1 14l24 201l-18 22h-71zM308.002 136.498c-18 19.667 -27.001 44.498 -27.001 74.498c0 31.333 7.16699 58.833 21.5 82.5s33.5 41.834 57.5 54.501s50 19 78 19h45l-23 -177c-1.33301 -10.667 -2 -18.667 -2 -24c0 -13.333 1.66699 -24.666 5 -33.999
c-8.66699 -7.33301 -20.167 -13.333 -34.5 -18s-29.166 -7 -44.499 -7c-32.667 0 -58 9.83301 -76 29.5z" />
    <glyph glyph-name="A" unicode="A" horiz-adv-x="581" 
d="M64 0l76 209h296l80 -215l55 11l-259 675h-55l-247 -680h54zM285 608l135 -355h-265z" />
    <glyph glyph-name="B" unicode="B" horiz-adv-x="571" 
d="M463 44c46.667 29.333 70 77.332 70 143.999c0 45.333 -12.167 82.333 -36.5 111s-58.5 49.667 -102.5 63c30 14.667 54.333 33.834 73 57.501s28 51.5 28 83.5c0 64 -21.5 109.5 -64.5 136.5s-103.167 40.5 -180.5 40.5h-152v-680h179c77.333 0 139.333 14.667 186 44z
M391.5 605.499c31 -19.667 46.5 -54.165 46.5 -103.498c0 -44.667 -17.833 -76.834 -53.5 -96.501s-82.5 -29.834 -140.5 -30.501h-91v260h104c58.667 0 103.5 -9.83301 134.5 -29.5zM428 294.501c32 -23.667 48 -59.834 48 -108.501
c0 -49.333 -17.5 -85.166 -52.5 -107.499s-81.5 -33.5 -139.5 -33.5h-131v285h142c56.667 0 101 -11.833 133 -35.5z" />
    <glyph glyph-name="C" unicode="C" horiz-adv-x="553" 
d="M449.5 684c-34.333 6.66699 -63.835 10 -88.502 10c-63.333 0 -118.666 -15.833 -165.999 -47.5s-83.666 -74.667 -108.999 -129s-38 -114.833 -38 -181.5c0 -64 11.5 -122.5 34.5 -175.5s57.5 -95.333 103.5 -127s102.333 -47.5 169 -47.5c28 0 58.833 3.66699 92.5 11
s59.834 16 78.501 26l-24 42c-21.333 -9.33301 -43.5 -16.666 -66.5 -21.999s-50.833 -8 -83.5 -8c-50 0 -93.5 13.667 -130.5 41s-65.167 63.833 -84.5 109.5s-29 96.167 -29 151.5c0 60 11 113.333 33 160s52.333 83.167 91 109.5s81.667 39.5 129 39.5
c32.667 0 58.667 -2.33301 78 -7s41.666 -12.334 66.999 -23.001l20 41c-16.667 11.333 -42.167 20.333 -76.5 27z" />
    <glyph glyph-name="D" unicode="D" horiz-adv-x="663" 
d="M482.5 45.5c44.333 30.333 77.5 71.5 99.5 123.5s33 110.333 33 175c0 100 -23.667 181 -71 243s-120.333 93 -219 93h-227v-680h222c64 0 118.167 15.167 162.5 45.5zM457.5 596.5c34.333 -25.667 60 -60.5 77 -104.5s25.5 -93.667 25.5 -149
c0 -58 -10 -109.5 -30 -154.5s-48 -80.167 -84 -105.5s-77.667 -38 -125 -38h-168v590h178c50 0 92.167 -12.833 126.5 -38.5z" />
    <glyph glyph-name="E" unicode="E" horiz-adv-x="499" 
d="M153 44v284h245l-5 41h-240v269h303l-5 42h-353v-680h381l-6 44h-320z" />
    <glyph glyph-name="F" unicode="F" horiz-adv-x="467" 
d="M153 638h294l-7 42h-342v-680h55v324h235l-6 41h-229v273z" />
    <glyph glyph-name="G" unicode="G" horiz-adv-x="620" 
d="M506 58c-42 -15.333 -82.6641 -23.0029 -121.997 -23.0029c-52.667 0 -99.834 12.667 -141.501 38s-74.5 60.833 -98.5 106.5s-36 97.834 -36 156.501c0 61.333 12.833 115.666 38.5 162.999s60.167 83.833 103.5 109.5s91 38.5 143 38.5c32 0 58 -2.33301 78 -7
s42.333 -12 67 -22l19 39c-16.667 11.333 -42.334 20.333 -77.001 27s-64.334 10 -89.001 10c-64.667 0 -123 -15.167 -175 -45.5s-93 -72.666 -123 -126.999s-45 -116.166 -45 -185.499c0 -66.667 13.833 -126.5 41.5 -179.5s67 -94.667 118 -125
s110.167 -45.5 177.5 -45.5c30 0 62 4.33301 96 13s60.667 19.334 80 32.001v311h-202l-6 -42h153v-242z" />
    <glyph glyph-name="H" unicode="H" horiz-adv-x="653" 
d="M500 680v-314h-347v319l-55 -5v-680h55v322h347v-322h55v680h-55z" />
    <glyph glyph-name="I" unicode="I" horiz-adv-x="250" 
d="M98 680v-680h55v680h-55z" />
    <glyph glyph-name="J" unicode="J" horiz-adv-x="239" 
d="M89.5 -7c-5 -14 -13.332 -24.833 -24.999 -32.5s-29.834 -16.167 -54.501 -25.5l24 -37c32 10 56.5 20.833 73.5 32.5s28.667 26.167 35 43.5s9.5 40 9.5 68v638h-55v-626c0 -26.667 -2.5 -47 -7.5 -61z" />
    <glyph glyph-name="K" unicode="K" horiz-adv-x="586" 
d="M153 263v-263h-55v680h55v-350l340 365l37 -35l-256 -269l302 -391h-68l-271 352z" />
    <glyph glyph-name="L" unicode="L" horiz-adv-x="494" 
d="M153 680h-55v-680h386l-5 44h-326v636z" />
    <glyph glyph-name="M" unicode="M" horiz-adv-x="740" 
d="M587 0h55v680h-33l-240 -360l-243 360h-28v-680h55v555l208 -317l20 4l206 318v-560z" />
    <glyph glyph-name="N" unicode="N" horiz-adv-x="670" 
d="M167 539l372 -539h34v680h-56v-561l-34 59l-351 502h-34v-680h55v568z" />
    <glyph glyph-name="O" unicode="O" horiz-adv-x="713" 
d="M199.5 648.5c-47.667 -31 -84.8311 -73.667 -111.498 -128s-40 -115.5 -40 -183.5c0 -67.333 13.167 -127.666 39.5 -180.999s62.666 -95 108.999 -125s98.833 -45 157.5 -45c59.333 0 112.666 15.5 159.999 46.5s84.5 73.833 111.5 128.5s40.5 116 40.5 184
c0 67.333 -13.167 127.666 -39.5 180.999s-62.833 95 -109.5 125s-99 45 -157 45c-59.333 -0.666992 -112.833 -16.5 -160.5 -47.5zM140.503 497c21.667 47.333 51.833 84.333 90.5 111s82 40 130 40c46.667 0 88.5 -13 125.5 -39s66 -62.167 87 -108.5
s31.5 -98.5 31.5 -156.5c0 -59.333 -10.833 -112.666 -32.5 -159.999s-51.667 -84.333 -90 -111s-81.833 -40 -130.5 -40c-46.667 0 -88.5 13.167 -125.5 39.5s-66 62.666 -87 108.999s-31.5 98.5 -31.5 156.5c0 58.667 10.833 111.667 32.5 159z" />
    <glyph glyph-name="P" unicode="P" horiz-adv-x="549" 
d="M256 264c75.333 0 136.667 17.667 184 53s71.333 88 72 158c0 70.667 -22 122.5 -66 155.5s-103.667 49.5 -179 49.5h-169v-680h55v264h103zM456.001 474c-0.666992 -54 -18.832 -95 -54.499 -123s-81.834 -42 -138.501 -42h-110v325h121c121.333 0 182 -53.333 182 -160
z" />
    <glyph glyph-name="Q" unicode="Q" horiz-adv-x="713" 
d="M640 195c-17.333 -46 -41.6689 -85.667 -73.002 -119l68 -67l-34 -28l-69 65c-52.667 -40 -112 -60 -178 -60c-58.667 0 -111.167 15 -157.5 45s-82.666 71.667 -108.999 125s-39.5 113.666 -39.5 180.999c0 68 13.333 129.167 40 183.5s63.834 97 111.501 128
s101.167 46.833 160.5 47.5c58 0 110.333 -15 157 -45s83.167 -71.667 109.5 -125s39.5 -113.666 39.5 -180.999c0 -54 -8.66699 -104 -26 -150zM493.997 82l-105.999 98.999l39 33l101 -100c24.667 28.667 43.667 62.667 57 102s20 82 20 128
c0 58 -10.5 110.167 -31.5 156.5s-50 82.5 -87 108.5s-78.833 39 -125.5 39c-48 0 -91.333 -13.333 -130 -40s-68.834 -63.667 -90.501 -111s-32.5 -100.333 -32.5 -159c0 -58 10.5 -110.167 31.5 -156.5s50 -82.666 87 -108.999s78.833 -39.5 125.5 -39.5
c52.667 0 100 16.333 142 49z" />
    <glyph glyph-name="R" unicode="R" horiz-adv-x="576" 
d="M153 0l-0.000976562 286h103c28 0 56.333 2.66699 85 8l163 -294h62l-177 309c38 14.667 67.833 36.667 89.5 66s32.834 66.333 33.501 111c0 68 -21.833 117.333 -65.5 148s-103.5 46 -179.5 46h-169v-680h55zM455.999 484c-0.666992 -52.667 -19.667 -91.333 -57 -116
s-84.333 -37 -141 -37h-105v303h116c124.667 0 187 -50 187 -150z" />
    <glyph glyph-name="S" unicode="S" horiz-adv-x="506" 
d="M136 0c38 -8.66699 71.665 -12.9951 100.998 -12.9951c72.667 0 129.334 15.667 170.001 47s61 72.666 61 123.999c0 45.333 -14.333 82.833 -43 112.5s-75 58.5 -139 86.5c-65.333 29.333 -112.333 56.5 -141 81.5s-43 55.5 -43 91.5
c0 35.333 14.167 64.166 42.5 86.499s66.166 33.5 113.499 33.5c30.667 0 56.334 -3 77.001 -9s43 -14.333 67 -25l22 41c-22.667 11.333 -48.5 20.666 -77.5 27.999s-59.167 11 -90.5 11c-42 0 -78.667 -7.16699 -110 -21.5s-55.5 -33.833 -72.5 -58.5
s-25.5 -52.334 -25.5 -83.001c0 -44.667 15.167 -83.334 45.5 -116.001s76.166 -62 137.499 -88c64 -27.333 110.333 -53.333 139 -78s43 -55 43 -91s-15.667 -66.167 -47 -90.5s-74.666 -36.5 -129.999 -36.5c-30.667 0 -60.667 3.83301 -90 11.5
s-54.666 16.834 -75.999 27.501l-15 -43c16 -10.667 43 -20.334 81 -29.001z" />
    <glyph glyph-name="T" unicode="T" horiz-adv-x="543" 
d="M10 636h233v-636h56v636h234l-5 44h-518v-44z" />
    <glyph glyph-name="U" unicode="U" horiz-adv-x="665" 
d="M88 239c0 -48.667 9.83398 -91.998 29.501 -129.998s47.834 -67.667 84.501 -89s80 -32 130 -32c50.667 0 94.5 10.667 131.5 32s65.167 51 84.5 89s29 81.333 29 130v441h-55v-438c0 -38.667 -7.66699 -73.834 -23 -105.501s-37.333 -56.5 -66 -74.5
s-62.334 -27 -101.001 -27c-37.333 0 -70.333 9.16699 -99 27.5s-50.834 43.166 -66.501 74.499s-23.5 66.333 -23.5 105v438h-55v-441z" />
    <glyph glyph-name="V" unicode="V" horiz-adv-x="581" 
d="M269 -1h55l247 680h-53l-222 -607l-231 613l-55 -11z" />
    <glyph glyph-name="W" unicode="W" horiz-adv-x="816" 
d="M574 -1l-165 588l-149 -588h-55l-195 675l55 11l166 -603l152 597h54l164 -597l152 597h53l-177 -680h-55z" />
    <glyph glyph-name="X" unicode="X" horiz-adv-x="546" 
d="M466 0h64l-215 334l221 346h-60l-191 -302l-199 314l-50 -24l209 -321l-235 -347h63l201 305z" />
    <glyph glyph-name="Y" unicode="Y" horiz-adv-x="537" 
d="M527 680h-61l-204 -352l-200 364l-52 -26l225 -394v-272h55v278z" />
    <glyph glyph-name="Z" unicode="Z" horiz-adv-x="548" 
d="M521 631l-5 49h-467l10 -44h406l-437 -586l6 -50h477l-5 44h-420z" />
    <glyph glyph-name="bracketleft" unicode="[" horiz-adv-x="269" 
d="M251 -47h-98v701h98l8 42h-159v-784h159z" />
    <glyph glyph-name="backslash" unicode="\" horiz-adv-x="380" 
d="M10 706l308 -710l52 4l-308 710z" />
    <glyph glyph-name="bracketright" unicode="]" horiz-adv-x="268" 
d="M18 654h98v-701h-98l-8 -41h158v784h-158z" />
    <glyph glyph-name="asciicircum" unicode="^" horiz-adv-x="414" 
d="M399 143l-169 247h-51l-169 -247h54l141 203l140 -203h54z" />
    <glyph glyph-name="underscore" unicode="_" horiz-adv-x="434" 
d="M38 0h366l-8 44h-366z" />
    <glyph glyph-name="grave" unicode="`" horiz-adv-x="141" 
d="M76 742h-66l85 -153l36 12z" />
    <glyph glyph-name="a" unicode="a" horiz-adv-x="479" 
d="M170.5 444c19 5.33301 43.501 8 73.501 8c38 0 66.833 -10.5 86.5 -31.5s29.5 -49.167 29.5 -84.5v-55h-135c-51.333 0 -93 -12.833 -125 -38.5s-48 -61.167 -48 -106.5c0 -44 14 -79.833 42 -107.5s68.333 -41.5 121 -41.5c28 0 55.5 6.16699 82.5 18.5
s48.833 27.833 65.5 46.5l8 -52h44v340c0 48 -15.333 86.333 -46 115s-73.334 43 -128.001 43c-22 0 -49 -4 -81 -12s-56.667 -18 -74 -30l19 -38c24.667 12 46.5 20.667 65.5 26zM138.501 212c20.333 20 49.5 30 87.5 30h134v-129c-17.333 -24 -38.333 -43.333 -63 -58
s-51.667 -22 -81 -22c-34 0 -60.5 10 -79.5 30s-28.5 44.333 -28.5 73c0 30.667 10.167 56 30.5 76z" />
    <glyph glyph-name="b" unicode="b" horiz-adv-x="516" 
d="M422.5 428c37 -46.667 55.501 -109 55.501 -187c0 -48.667 -8.5 -92.167 -25.5 -130.5s-42 -68.5 -75 -90.5s-72.833 -33 -119.5 -33c-23.333 0 -46.5 5 -69.5 15s-44.167 22.667 -63.5 38l-13 -40h-34v696l55 10v-257c39.333 32.667 82.666 49 129.999 49
c69.333 0 122.5 -23.333 159.5 -70zM379.001 92c28 39.333 42.001 88.667 42.001 148c0 63.333 -13.167 114.5 -39.5 153.5s-65.5 58.5 -117.5 58.5c-28 0 -52.167 -5.33301 -72.5 -16s-39.833 -25.667 -58.5 -45v-305c18.667 -16 38.167 -28.833 58.5 -38.5
s43.166 -14.5 68.499 -14.5c51.333 0 91 19.667 119 59z" />
    <glyph glyph-name="c" unicode="c" horiz-adv-x="450" 
d="M364.5 54c-14.333 -7.33301 -30.0029 -12.668 -47.0029 -16.001s-36.167 -5 -57.5 -5c-52.667 0 -93.5 20 -122.5 60s-43.5 91 -43.5 153c0.666992 38 7.83398 72.667 21.501 104s33.334 56.166 59.001 74.499s55.834 27.5 90.501 27.5c28.667 0 51.667 -2.83301 69 -8.5
s38 -14.167 62 -25.5l20 38c-18.667 12 -43 22 -73 30s-55.333 12 -76 12c-46.667 0 -87.334 -10.833 -122.001 -32.5s-61.167 -51.667 -79.5 -90s-27.5 -81.833 -27.5 -130.5c0 -77.333 19.5 -139.666 58.5 -186.999s93.5 -71 163.5 -71c22 0 47.833 3.83301 77.5 11.5
s54.167 17.5 73.5 29.5l-20 39c-3.33301 -1.33301 -12.166 -5.66602 -26.499 -12.999z" />
    <glyph glyph-name="d" unicode="d" horiz-adv-x="514" 
d="M436 0h-33l-15 42c-40 -36.667 -85.333 -55 -136 -55c-69.333 0 -122.333 23.333 -159 70s-55 109 -55 187c0 48.667 8.5 92.167 25.5 130.5s42 68.5 75 90.5s72.833 33 119.5 33c40 0 81 -15.333 123 -46v244l55 9v-705zM323 48.5c20 10.333 39.335 25.167 58.002 44.5
v307c-18.667 16 -37.834 28.667 -57.501 38s-42.5 14 -68.5 14c-51.333 0 -90.833 -19.5 -118.5 -58.5s-41.834 -88.5 -42.501 -148.5c0 -62.667 13.333 -113.667 40 -153s66 -59 118 -59c27.333 0 51 5.16699 71 15.5z" />
    <glyph glyph-name="e" unicode="e" horiz-adv-x="486" 
d="M397 427c-34 47.333 -81.9971 70.998 -143.997 70.998c-69.333 0 -122.5 -23.333 -159.5 -70s-55.5 -107.667 -55.5 -183c0 -79.333 19.667 -142.166 59 -188.499s98.666 -69.5 177.999 -69.5c28 0 56.5 3.83301 85.5 11.5s54.5 17.834 76.5 30.501l-20 41
c-24 -12 -47.333 -21.333 -70 -28s-48.667 -10 -78 -10c-58.667 0 -102.334 19.167 -131.001 57.5s-43.334 88.833 -44.001 151.5h354c0 76.667 -17 138.667 -51 186zM141.503 403.998c25.667 32 61.165 48 106.498 48s79.333 -15.667 102 -47s36.334 -73 41.001 -125h-295
c4.66699 50.667 19.834 92 45.501 124z" />
    <glyph glyph-name="f" unicode="f" horiz-adv-x="269" 
d="M92 0h54.999v431h109l-21 41h-88v100c0 54.667 23 82 69 82c6 0 13.333 -1 22 -3s15 -4 19 -6l12 44c-22.667 8.66699 -44.667 13 -66 13c-35.333 0 -62.666 -12.5 -81.999 -37.5s-29 -58.833 -29 -101.5v-91h-73v-41h73v-431z" />
    <glyph glyph-name="g" unicode="g" horiz-adv-x="510" 
d="M436 -62c0 -49.333 -17.499 -89.666 -52.499 -120.999s-83.5 -47 -145.5 -47c-22 0 -50.5 4 -85.5 12s-61.5 17.667 -79.5 29l19 40c24 -11.333 46.667 -19.833 68 -25.5s46.666 -8.83398 75.999 -9.50098c42.667 0 77.5 10 104.5 30s40.5 49 40.5 87v102
c-38.667 -32 -81.667 -48 -129 -48c-69.333 0 -122.333 23.333 -159 70s-55 109 -55 187c0 48.667 8.5 92.167 25.5 130.5s42 68.5 75 90.5s72.833 33 119.5 33c42.667 0 86.667 -17.333 132 -52l13 39h33v-547zM323.001 48.5c20 10.333 39.335 25.167 58.002 44.5v307
c-18.667 16 -37.834 28.667 -57.501 38s-42.5 14 -68.5 14c-51.333 0 -90.833 -19.5 -118.5 -58.5s-41.834 -88.5 -42.501 -148.5c0 -62.667 13.333 -113.667 40 -153s66 -59 118 -59c27.333 0 51 5.16699 71 15.5z" />
    <glyph glyph-name="h" unicode="h" horiz-adv-x="517" 
d="M418 454.5c24 -29 36 -68.168 36 -117.501v-337h-55v331c0 80 -31 120 -93 120c-26.667 0 -55.667 -9 -87 -27s-60 -41.667 -86 -71v-353h-55v696l55 10v-295c20.667 24.667 47.5 45.334 80.5 62.001s64.167 25 93.5 25c50 0 87 -14.5 111 -43.5z" />
    <glyph glyph-name="i" unicode="i" horiz-adv-x="191" 
d="M125.5 608c8.33301 8 12.5 18 12.5 30s-4.16699 22 -12.5 30s-18.5 12 -30.5 12c-12.667 0 -22.834 -4 -30.501 -12s-11.5 -18 -11.5 -30s3.83301 -22 11.5 -30s17.834 -12 30.501 -12c12 0 22.167 4 30.5 12zM68 485v-485h55v485h-55z" />
    <glyph glyph-name="j" unicode="j" horiz-adv-x="210" 
d="M72.5 608c-7.66699 8 -11.5 18 -11.5 30s3.83301 22 11.5 30s17.834 12 30.501 12c12 0 22.167 -4 30.5 -12s12.5 -18 12.5 -30s-4.16699 -22 -12.5 -30s-18.5 -12 -30.5 -12c-12.667 0 -22.834 4 -30.501 12zM124 -135.5
c-5.33301 -18.333 -16.002 -34.334 -32.002 -48.001s-39.667 -25.5 -71 -35.5l-21 39c22.667 8.66699 39.334 17.834 50.001 27.501s17.834 22 21.501 37s5.16699 36.5 4.5 64.5v536h56v-547c0 -30.667 -2.66699 -55.167 -8 -73.5z" />
    <glyph glyph-name="k" unicode="k" horiz-adv-x="453" 
d="M206 273l180 -273h67l-211 309l154 155l-38 34l-225 -233v441l-55 -10v-696h55v199z" />
    <glyph glyph-name="l" unicode="l" horiz-adv-x="210" 
d="M78 696v-696h55v706z" />
    <glyph glyph-name="m" unicode="m" horiz-adv-x="784" 
d="M688 455c22 -28.667 32.999 -68.001 32.999 -118.001v-337h-55v331c0 38 -6 67.5 -18 88.5s-33.667 31.5 -65 31.5c-22.667 0 -48.334 -8.16699 -77.001 -24.5s-55.667 -37.833 -81 -64.5c0.666992 -5.33301 1 -13.666 1 -24.999v-337h-55v331
c0 38 -5.83301 67.5 -17.5 88.5s-33.167 31.5 -64.5 31.5c-24 0 -51.167 -9 -81.5 -27s-58.5 -41.667 -84.5 -71v-353h-55v485h44l10 -75c20.667 24 47.334 44.667 80.001 62s62 26 88 26c66.667 0 108.667 -29.333 126 -88c20.667 24 47.334 44.667 80.001 62s62 26 88 26
c47.333 0 82 -14.333 104 -43z" />
    <glyph glyph-name="n" unicode="n" 
d="M209 424c31.333 18 60.332 27 86.999 27c62 0 93 -40 93 -120v-331h55v337c0 49.333 -12 88.5 -36 117.5s-61 43.5 -111 43.5c-29.333 0 -60.666 -8.5 -93.999 -25.5s-60.333 -37.833 -81 -62.5l-10 75h-44v-485h55v353c26 29.333 54.667 53 86 71z" />
    <glyph glyph-name="o" unicode="o" horiz-adv-x="525" 
d="M459.5 110.5c-18.333 -38.333 -44.666 -68.499 -78.999 -90.499s-74.833 -33 -121.5 -33c-70 0 -124.333 23.667 -163 71s-58 109.666 -58 186.999c0 48 9.16699 91.167 27.5 129.5s44.666 68.5 78.999 90.5s74.833 33 121.5 33
c70.667 -0.666992 125.167 -24.167 163.5 -70.5s57.5 -108.833 57.5 -187.5c0 -48 -9.16699 -91.167 -27.5 -129.5zM350.5 60.501c25.667 18.333 45.334 43.166 59.001 74.499s20.834 66 21.501 104c0 62 -14.5 113 -43.5 153s-69.833 60 -122.5 60
c-34.667 0 -64.834 -9.16699 -90.501 -27.5s-45.334 -43.166 -59.001 -74.499s-20.834 -66 -21.501 -104c0 -62 14.5 -113 43.5 -153s69.833 -60 122.5 -60c34.667 0 64.834 9.16699 90.501 27.5z" />
    <glyph glyph-name="p" unicode="p" horiz-adv-x="512" 
d="M418.5 428c37 -46.667 55.5 -109 55.5 -187c0 -48.667 -8.5 -92.167 -25.5 -130.5s-42 -68.5 -75 -90.5s-72.833 -33 -119.5 -33c-22 0 -43.833 4.33301 -65.5 13s-41.5 20 -59.5 34v-242l-55 -11v704h34l13 -43c40.667 37.333 86.667 56 138 56
c69.333 0 122.5 -23.333 159.5 -70zM375 92c28 39.333 42.001 88.667 42.001 148c0 63.333 -13.167 114.5 -39.5 153.5s-65.5 58.5 -117.5 58.5c-28 0 -52.167 -5.33301 -72.5 -16s-39.833 -25.667 -58.5 -45v-305c18.667 -16 38.167 -28.833 58.5 -38.5
s43.166 -14.5 68.499 -14.5c51.333 0 91 19.667 119 59z" />
    <glyph glyph-name="q" unicode="q" horiz-adv-x="510" 
d="M436 -208l-55 -11v254c-38.667 -32 -81.667 -48 -129 -48c-69.333 0 -122.333 23.333 -159 70s-55 109 -55 187c0 48.667 8.5 92.167 25.5 130.5s42 68.5 75 90.5s72.833 33 119.5 33c42 0 85.667 -17.333 131 -52l14 39h33v-693zM323 48.5
c20 10.333 39.335 25.167 58.002 44.5v307c-18.667 16 -37.834 28.667 -57.501 38s-42.5 14 -68.5 14c-51.333 0 -90.833 -19.5 -118.5 -58.5s-41.834 -88.5 -42.501 -148.5c0 -62.667 13.333 -113.667 40 -153s66 -59 118 -59c27.333 0 51 5.16699 71 15.5z" />
    <glyph glyph-name="r" unicode="r" horiz-adv-x="306" 
d="M203.5 414c33 18.667 63.833 27.999 92.5 27.999l-17 43c-22.667 0 -49.167 -8.16699 -79.5 -24.5s-56.833 -33.833 -79.5 -52.5l-18 77h-34v-485h55v352c20.667 22.667 47.5 43.334 80.5 62.001z" />
    <glyph glyph-name="s" unicode="s" horiz-adv-x="412" 
d="M112 -2.5c29.333 -7 55.333 -10.501 78 -10.501c60.667 0 106.5 11.833 137.5 35.5s46.5 57.167 46.5 100.5c0 33.333 -14.167 61.833 -42.5 85.5s-65.5 44.167 -111.5 61.5c-39.333 14.667 -69.666 29.5 -90.999 44.5s-32 32.833 -32 53.5c0 24 10.667 44.167 32 60.5
s48.666 24.5 81.999 24.5c26 0 47.833 -3 65.5 -9s37.834 -14.333 60.501 -25l20 39c-16 11.333 -38 20.833 -66 28.5s-53 11.5 -75 11.5c-54 0 -96.167 -12.167 -126.5 -36.5s-45.5 -56.833 -45.5 -97.5c0 -56.667 49.333 -102.667 148 -138
c86.667 -32 130 -67.667 130 -107c0 -27.333 -11.667 -48.666 -35 -63.999s-55 -23 -95 -23c-38.667 0 -82.667 12 -132 36l-18 -43c17.333 -11.333 40.666 -20.5 69.999 -27.5z" />
    <glyph glyph-name="t" unicode="t" horiz-adv-x="295" 
d="M146 623l-55 -22.001v-129h-72v-41h72v-315c0 -41.333 9.83301 -73.166 29.5 -95.499s46.5 -33.5 80.5 -33.5c12.667 0 25.667 1.66699 39 5c16 4.66699 25 7 27 7l-12 44c-14 -6 -27.667 -9 -41 -9c-23.333 0 -40.5 8.33301 -51.5 25s-16.5 38 -16.5 64v308h109l-21 41
h-88v151z" />
    <glyph glyph-name="u" unicode="u" 
d="M298.5 61c-31.667 -18 -60.8311 -26.999 -87.498 -26.999c-33.333 0 -57 10.667 -71 32s-21 50.666 -21 87.999v331h-55v-337c0 -49.333 11.833 -88.5 35.5 -117.5s60.5 -43.5 110.5 -43.5c29.333 0 60.666 8.66699 93.999 26s60.666 38.333 81.999 63l10 -76h44v485h-55
v-353c-26 -29.333 -54.833 -53 -86.5 -71z" />
    <glyph glyph-name="v" unicode="v" horiz-adv-x="434" 
d="M369 485l-152 -418l-158 428l-49 -22l179 -473h56l179 485h-55z" />
    <glyph glyph-name="w" unicode="w" horiz-adv-x="642" 
d="M577 485l-113 -412l-121 412h-50l-117 -412l-117 421l-49 -22l139 -472h56l110 402l120 -402h57l140 485h-55z" />
    <glyph glyph-name="x" unicode="x" horiz-adv-x="416" 
d="M332 0h61l-150 232l163 253h-60l-132 -212l-137 221l-49 -22l144 -228l-162 -244h62l129 203z" />
    <glyph glyph-name="y" unicode="y" horiz-adv-x="434" 
d="M127.5 -146c-14.333 -11.333 -35.5 -22.668 -63.5 -34.001l10 -39c32 6.66699 59.667 19.334 83 38.001s40 41.667 50 69l217 597h-55l-152 -417l-160 426l-47 -22l183 -475l-32 -95c-8 -20.667 -19.167 -36.667 -33.5 -48z" />
    <glyph glyph-name="z" unicode="z" horiz-adv-x="432" 
d="M71 442h270l-315 -411l8 -31h366l-10 42h-302l318 411l-3 32h-348z" />
    <glyph glyph-name="braceleft" unicode="{" horiz-adv-x="265" 
d="M178 348.5c11.333 18.333 16.998 41.8359 16.998 70.5029c0 18.667 -6.33301 42 -19 70s-19 51.667 -19 71c0 15.333 6.33301 28.666 19 39.999s30.334 17 53.001 17h19l7 42h-26c-40.667 0 -71.5 -9.33301 -92.5 -28s-31.5 -44.334 -31.5 -77.001
c0 -20.667 6 -44.667 18 -72c12 -26.667 18 -50.667 18 -72c0 -24 -7.83301 -43.833 -23.5 -59.5s-33.834 -23.5 -54.501 -23.5h-33v-39h33c20.667 0 38.834 -7.83301 54.501 -23.5s23.5 -35.5 23.5 -59.5c0 -20 -6 -43.667 -18 -71c-12 -26.667 -18 -50.667 -18 -72
c0 -33.333 10.333 -59.333 31 -78s51.667 -28 93 -28h26l-7 42h-19c-23.333 0 -41.166 5.66699 -53.499 17s-18.5 25 -18.5 41c0 18.667 6.33301 42 19 70s19 51.667 19 71c0 27.333 -5.83301 50.666 -17.5 69.999s-27.167 33.333 -46.5 42c20 8 35.667 21.167 47 39.5z" />
    <glyph glyph-name="bar" unicode="|" horiz-adv-x="250" 
d="M153 -4v710l-55 4v-710z" />
    <glyph glyph-name="braceright" unicode="}" horiz-adv-x="265" 
d="M87.5 267c-11.667 -18.667 -17.502 -42.002 -17.502 -70.002c0 -19.333 6.33301 -43 19 -71s19 -51.333 19 -70c0 -16 -6.16699 -29.667 -18.5 -41s-30.166 -17 -53.499 -17h-19l-7 -42h26c41.333 0 72.333 9.33301 93 28s31 44.667 31 78c0 21.333 -6 45.333 -18 72
c-12 27.333 -18 51 -18 71c0 24 7.83301 44 23.5 60s33.834 24 54.501 24h33v38h-33c-20.667 0 -38.834 7.83301 -54.501 23.5s-23.5 35.5 -23.5 59.5c0 21.333 6 45.333 18 72c12 27.333 18 51.333 18 72c0 32.667 -10.5 58.334 -31.5 77.001s-51.833 28 -92.5 28h-26
l7 -42h19c22.667 0 40.334 -5.66699 53.001 -17s19 -24.666 19 -39.999c0 -19.333 -6.33301 -43 -19 -71s-19 -51.333 -19 -70c0 -28 5.83301 -51.5 17.5 -70.5s27.5 -32.833 47.5 -41.5c-20 -8 -35.833 -21.333 -47.5 -40z" />
    <glyph glyph-name="asciitilde" unicode="~" horiz-adv-x="378" 
d="M87 241c9.33301 7.33301 20.333 11.002 33 11.002c20.667 0 43.334 -8 68.001 -24c24 -16 47.333 -24 70 -24c27.333 0 49.166 7.33301 65.499 22s24.5 35.667 24.5 63h-44c0 -12.667 -4.5 -22.834 -13.5 -30.501s-20.167 -11.5 -33.5 -11.5c-18 0 -38 8 -60 24
c-22.667 16 -48.334 24 -77.001 24c-27.333 0 -49.166 -7.33301 -65.499 -22s-24.5 -35.667 -24.5 -63h42c0.666992 13.333 5.66699 23.666 15 30.999z" />
    <glyph glyph-name="uni00A0" unicode="&#xa0;" horiz-adv-x="233" 
 />
    <glyph glyph-name="exclamdown" unicode="&#xa1;" horiz-adv-x="146" 
d="M104 628.5c8 8.33301 12 18.5 12 30.5s-4 22.167 -12 30.5s-18 12.5 -30 12.5s-22.167 -4.33301 -30.5 -13s-12.5 -18.667 -12.5 -30s4.16699 -21.333 12.5 -30s18.5 -13 30.5 -13s22 4.16699 30 12.5zM36 0h63l-8 502l-43 21z" />
    <glyph glyph-name="cent" unicode="&#xa2;" horiz-adv-x="450" 
d="M355.5 3.5c-22.333 -7 -44.1631 -11.833 -65.4961 -14.5v-100h-47v99c-64.667 4 -115 29.333 -151 76s-54 107 -54 181c0 70 18.333 128.167 55 174.5s86.667 72.166 150 77.499v98l47 10v-109c21.333 -2 43.833 -6.66699 67.5 -14s43.167 -16 58.5 -26l-20 -38
c-24 11.333 -44.667 19.833 -62 25.5s-40.333 8.5 -69 8.5c-34.667 0 -64.834 -9.16699 -90.501 -27.5s-45.334 -43.166 -59.001 -74.499s-20.834 -66 -21.501 -104c0 -62 14.5 -113 43.5 -153s69.833 -60 122.5 -60c21.333 0 39.5 1.5 54.5 4.5s28.667 7.16699 41 12.5
s24.166 11 35.499 17l20 -39c-14.667 -9.33301 -33.167 -17.5 -55.5 -24.5z" />
    <glyph glyph-name="sterling" unicode="&#xa3;" horiz-adv-x="428" 
d="M412 44l-260.001 0.000976562c12 12 20.667 26.5 26 43.5s8 37.167 8 60.5v184h160l-22 41h-138v181c0 55.333 23 83 69 83c6 0 13.167 -1.16699 21.5 -3.5s14.833 -4.5 19.5 -6.5l12 44c-22.667 8.66699 -44.667 13 -66 13c-35.333 0 -62.666 -12.5 -81.999 -37.5
s-29 -58.833 -29 -101.5v-172h-73l2 -41h71v-205c0 -54.667 -22.333 -82.334 -67 -83.001l4 -44h350z" />
    <glyph glyph-name="currency" unicode="&#xa4;" horiz-adv-x="662" 
d="M325 -13c33.333 0 64.334 5.5 93.001 16.5s53.667 26.5 75 46.5l108 -106l31 36l-106 107c31.333 42.667 47.666 93.334 48.999 152.001c0 30 -4 58.667 -12 86s-19.667 51.666 -35 72.999l104 105l-31 37l-104 -104c-44.667 41.333 -98.667 62 -162 62
c-32 0 -62.333 -5.66699 -91 -17s-54 -27 -76 -47l-107 106l-31 -37l106 -105c-32 -43.333 -48 -94 -48 -152c0 -63.333 15.333 -117.333 46 -162l-104 -104l31 -36l105 104c42.667 -40.667 95.667 -61 159 -61zM493.501 135c-16.333 -31.333 -39.167 -55.998 -68.5 -73.998
s-62.333 -27 -99 -27c-35.333 0 -66.833 9.16699 -94.5 27.5s-49.167 43.5 -64.5 75.5s-23 68.333 -23 109c0 37.333 8.33301 71.666 25 102.999s39.5 56.166 68.5 74.499s61.833 27.5 98.5 27.5c37.333 0 69.833 -9.5 97.5 -28.5s48.667 -44.5 63 -76.5
s21.5 -67.667 21.5 -107c0 -38 -8.16699 -72.667 -24.5 -104z" />
    <glyph glyph-name="yen" unicode="&#xa5;" horiz-adv-x="537" 
d="M527 680h-61l-204 -352l-200 364l-52 -26l225 -394v-272h55v278zM260 280l-1 2h18l1 -2h-18zM260 105l-1 2h18l1 -2h-18z" />
    <glyph glyph-name="brokenbar" unicode="&#xa6;" horiz-adv-x="250" 
d="M153 406v300l-55 4v-300zM153 -4v292l-55 4v-292z" />
    <glyph glyph-name="section" unicode="&#xa7;" horiz-adv-x="566" 
d="M511 169c-12 -22.667 -29.6641 -41.6709 -52.9971 -57.0039c6.66699 -16 10 -35.667 10 -59c0 -51.333 -20.333 -92.833 -61 -124.5s-97.334 -47.5 -170.001 -47.5c-28.667 0 -62 4.33301 -100 13s-65.333 18.334 -82 29.001l15 44
c21.333 -10.667 46.666 -19.834 75.999 -27.501s59.333 -11.5 90 -11.5c55.333 0 98.666 12 129.999 36s47 54 47 90s-14.333 66.5 -43 91.5s-75 50.833 -139 77.5c-61.333 25.333 -107.166 54.5 -137.499 87.5s-45.5 71.833 -45.5 116.5
c0 26.667 6.16699 50.834 18.5 72.501s30.166 39.834 53.499 54.501c-8 19.333 -12 40.333 -12 63c0 30.667 8.5 58.5 25.5 83.5s41.333 44.5 73 58.5s68.5 21 110.5 21c31.333 0 61.5 -3.66699 90.5 -11s54.833 -16.666 77.5 -27.999l-22 -41c-24 10.667 -46.333 19 -67 25
s-46.334 9 -77.001 9c-47.333 0 -85.166 -11.167 -113.499 -33.5s-42.5 -51.166 -42.5 -86.499c0 -36 14.333 -66.5 43 -91.5s75.667 -51.833 141 -80.5c64 -28.667 110.333 -57.667 139 -87s43 -66.666 43 -111.999c0 -26.667 -6 -51.334 -18 -74.001zM474.003 243.996
c0 36 -14.332 66.5 -42.999 91.5s-75.334 50.833 -140.001 77.5c-68.667 29.333 -117.334 62 -146.001 98c-28.667 -23.333 -43 -52.333 -43 -87c0 -36 14.333 -66.5 43 -91.5s75.667 -51.833 141 -80.5c35.333 -16 64.833 -31.5 88.5 -46.5s42.834 -31.167 57.501 -48.5
c28 23.333 42 52.333 42 87z" />
    <glyph glyph-name="dieresis" unicode="&#xa8;" horiz-adv-x="258" 
d="M78.5 629.5c7.66699 7.66699 11.5 17.165 11.5 28.498c0 10.667 -3.83301 19.834 -11.5 27.501s-17.167 11.5 -28.5 11.5s-20.833 -3.66699 -28.5 -11s-11.5 -16.666 -11.5 -27.999s3.83301 -20.833 11.5 -28.5s17.167 -11.5 28.5 -11.5s20.833 3.83301 28.5 11.5z
M236.5 629.498c7.66699 7.66699 11.5 17.165 11.5 28.498c0 10.667 -3.83301 19.834 -11.5 27.501s-17.167 11.5 -28.5 11.5c-12 0 -21.667 -3.66699 -29 -11s-11 -16.666 -11 -27.999s3.66699 -20.833 11 -28.5s17 -11.5 29 -11.5c11.333 0 20.833 3.83301 28.5 11.5z" />
    <glyph glyph-name="copyright" unicode="&#xa9;" horiz-adv-x="789" 
d="M706.5 516c-29.667 54 -71.5 96.5 -125.5 127.5s-116.333 46.5 -187 46.5s-133 -15.5 -187 -46.5s-95.667 -73.5 -125 -127.5s-44 -114 -44 -180s14.5 -125.667 43.5 -179s70.333 -95.5 124 -126.5s116.5 -46.5 188.5 -46.5c70.667 0 133 15.5 187 46.5
s95.833 73.333 125.5 127s44.5 113.167 44.5 178.5c0 66 -14.833 126 -44.5 180zM127.5 495.5c25 47 60.5 84 106.5 111s99.333 40.5 160 40.5s114.167 -13.5 160.5 -40.5s82.166 -64.167 107.499 -111.5s38 -100 38 -158s-12.667 -110.667 -38 -158
s-61.166 -84.5 -107.499 -111.5s-99.833 -40.5 -160.5 -40.5s-114 13.5 -160 40.5s-81.5 64 -106.5 111s-37.5 99.833 -37.5 158.5s12.5 111.5 37.5 158.5zM479 125.5c26.667 7.66699 47.999 17.832 63.999 30.499l-20 36c-19.333 -11.333 -37.5 -19.833 -54.5 -25.5
s-37.833 -8.5 -62.5 -8.5c-49.333 0 -87.166 16.167 -113.499 48.5s-39.5 77.5 -39.5 135.5c0 54.667 13.833 98.5 41.5 131.5s65.5 49.5 113.5 49.5c25.333 0 46.5 -3 63.5 -9s34.833 -14.333 53.5 -25l20 37c-15.333 12.667 -36.333 22.834 -63 30.501
s-50.667 11.5 -72 11.5c-42 0 -79 -9.33301 -111 -28s-56.833 -45 -74.5 -79s-26.5 -74 -26.5 -120c0 -69.333 19 -124.5 57 -165.5s88.667 -61.5 152 -61.5c21.333 0 45.333 3.83301 72 11.5z" />
    <glyph glyph-name="ordfeminine" unicode="&#xaa;" horiz-adv-x="332" 
d="M93.5 644.5c10.333 4.33301 21.168 7.66797 32.501 10.001s24 3.5 38 3.5c26 0 45.833 -6.83301 59.5 -20.5s20.5 -32.167 20.5 -55.5v-20h-86c-34.667 0 -63.334 -8.66699 -86.001 -26s-34 -41 -34 -71c0 -28.667 10.667 -52.834 32 -72.501s49 -29.5 83 -29.5
c17.333 0 34.5 4.33301 51.5 13s31.167 19.334 42.5 32.001l11 -36h36v208c0 33.333 -11.667 62 -35 86s-55.333 36 -96 36c-14.667 0 -32.5 -2.83301 -53.5 -8.5s-37.5 -12.5 -49.5 -20.5l12 -37c4 1.33301 11.167 4.16602 21.5 8.49902zM109.002 509.002
c14.667 11.333 33.999 17 57.999 17h77v-70c-11.333 -15.333 -25 -28 -41 -38s-32.667 -15 -50 -15c-19.333 0 -35.166 6.16699 -47.499 18.5s-18.5 26.833 -18.5 43.5c0 18 7.33301 32.667 22 44z" />
    <glyph glyph-name="guillemotleft" unicode="&#xab;" horiz-adv-x="363" 
d="M191 120l-117 125l117 125l-21 36l-140 -142v-38l140 -142zM343 120l-118 125l118 125l-21 36l-140 -142v-38l140 -142z" />
    <glyph glyph-name="logicalnot" unicode="&#xac;" horiz-adv-x="509" 
d="M18 362h408v-245l53 -5v244l-8 50h-461z" />
    <glyph glyph-name="softhyphen" unicode="&#xad;" horiz-adv-x="120" 
 />
    <glyph glyph-name="registered" unicode="&#xae;" horiz-adv-x="710" 
d="M633 646.5c-26.667 47.667 -64 85.167 -112 112.5s-103 41 -165 41c-63.333 0 -119 -13.667 -167 -41s-85.167 -64.833 -111.5 -112.5s-39.5 -100.834 -39.5 -159.501c0 -58 13.333 -110.667 40 -158s64.167 -84.666 112.5 -111.999s103.5 -41 165.5 -41
s117 13.667 165 41s85.333 64.666 112 111.999s40 100 40 158c0 58.667 -13.333 111.834 -40 159.501zM121 626.5c22 41 53.167 73.167 93.5 96.5s87.5 35 141.5 35c53.333 0 100 -11.667 140 -35s70.833 -55.5 92.5 -96.5s32.5 -87.167 32.5 -138.5
c0 -50.667 -10.833 -96.5 -32.5 -137.5s-52.5 -73.333 -92.5 -97s-86.667 -35.5 -140 -35.5c-54 0 -101.167 11.833 -141.5 35.5s-71.5 56 -93.5 97s-33 86.833 -33 137.5c0 51.333 11 97.5 33 138.5zM458.5 510.5c13 17 19.5 37.501 19.5 61.501
c0 37.333 -12.167 64.666 -36.5 81.999s-57.5 26 -99.5 26h-92v-376h45v158h42c6.66699 0 11.667 0.333008 15 1h14l90 -159h52l-99 168c20 8.66699 36.5 21.5 49.5 38.5zM406 630.001c16.667 -9.33301 25 -29 25 -59c0 -28 -9.5 -47.333 -28.5 -58s-44.5 -16 -76.5 -16h-31
v147h36c33.333 0 58.333 -4.66699 75 -14z" />
    <glyph glyph-name="macron" unicode="&#xaf;" horiz-adv-x="261" 
d="M245 683h-235v-43h241z" />
    <glyph glyph-name="degree" unicode="&#xb0;" horiz-adv-x="238" 
d="M41 672c-20.667 -20 -31 -44.333 -31 -73c0 -29.333 10.167 -53.5 30.5 -72.5s45.5 -28.5 75.5 -28.5c30.667 0 56.167 9.5 76.5 28.5s30.5 43.167 30.5 72.5c0 28.667 -10.333 53 -31 73s-46 30 -76 30c-29.333 0 -54.333 -10 -75 -30zM71.5 553.5
c-12.333 13.667 -18.499 29.167 -18.499 46.5s6 32.5 18 45.5s27 19.5 45 19.5s33.333 -6.66699 46 -20s19 -28.333 19 -45c0 -17.333 -5.83301 -32.833 -17.5 -46.5s-26.834 -20.5 -45.501 -20.5s-34.167 6.83301 -46.5 20.5z" />
    <glyph glyph-name="plusminus" unicode="&#xb1;" horiz-adv-x="492" 
d="M269 531l-52 3v-187h-187l8 -42h179v-192l52 -5v197h189l-8 42h-181v184zM38 0h424l-8 42h-424z" />
    <glyph glyph-name="twosuperior" unicode="&#xb2;" horiz-adv-x="347" 
d="M97.5 760c-26.333 -7.33301 -49.168 -16.3311 -68.501 -26.998l19 -37c16 8.66699 35.5 16.667 58.5 24s44.167 11 63.5 11c31.333 0 54.666 -8.5 69.999 -25.5s23 -36.5 23 -58.5c0 -16 -5.33301 -34.333 -16 -55c-11.333 -21.333 -33.333 -47 -66 -77l-156 -139v-40
h302l-6 38h-239l125 109c38 33.333 65.167 62.666 81.5 87.999s24.5 51.666 24.5 78.999c0 20 -5 39.167 -15 57.5s-25.667 33.5 -47 45.5s-47.666 18 -78.999 18c-23.333 0 -48.166 -3.66699 -74.499 -11z" />
    <glyph glyph-name="threesuperior" unicode="&#xb3;" horiz-adv-x="354" 
d="M77.5 759.5c-23 -7.66699 -45.832 -18.501 -68.499 -32.501l22 -34c39.333 25.333 80.333 38 123 38c30 0 53.833 -7.66699 71.5 -23s26.5 -34.666 26.5 -57.999c0 -29.333 -10.5 -52.333 -31.5 -69s-51.833 -25 -92.5 -25h-32l7 -38h20c50 0 85.667 -8.66699 107 -26
s32 -43 32 -77c0 -29.333 -11.167 -52.5 -33.5 -69.5s-49.5 -25.5 -81.5 -25.5c-26.667 0 -49 2.66699 -67 8s-36.667 13.666 -56 24.999l-24 -35c20 -11.333 42.333 -20.833 67 -28.5s50 -11.5 76 -11.5c51.333 0 92.166 13.167 122.499 39.5s45.5 59.166 45.5 98.499
c0 31.333 -8 57.833 -24 79.5s-38.333 35.834 -67 42.501c23.333 8 42.833 22.167 58.5 42.5s23.5 43.833 23.5 70.5c0 34.667 -12.5 63.334 -37.5 86.001s-61.5 34 -109.5 34c-28.667 0 -54.5 -3.83301 -77.5 -11.5z" />
    <glyph glyph-name="acute" unicode="&#xb4;" horiz-adv-x="141" 
d="M65 742l-55 -141l36 -12l85 153h-66z" />
    <glyph glyph-name="mu" unicode="&#xb5;" horiz-adv-x="517" 
d="M450 0l-44.0039 -0.000976562l-10 76c-21.333 -24.667 -48.666 -45.667 -81.999 -63s-64.666 -26 -93.999 -26c-37.333 0 -67.666 8.66699 -90.999 26v-221l-55 -11v704h55v-331c0 -37.333 7 -66.666 21 -87.999s37.667 -32 71 -32c26.667 0 55.834 9 87.501 27
s60.5 41.667 86.5 71v353h55v-485z" />
    <glyph glyph-name="paragraph" unicode="&#xb6;" horiz-adv-x="810" 
d="M612 636v-636h55v636h106v44h-490c-75.333 0 -135 -17 -179 -51s-66 -85.333 -66 -154s24 -121 72 -157s109.333 -54 184 -54h38v-264h55v636h225z" />
    <glyph glyph-name="periodcentered" unicode="&#xb7;" horiz-adv-x="145" 
d="M102.5 232c8.33301 8.66699 12.5 18.667 12.5 30c0 12 -4.16699 22 -12.5 30s-18.166 12 -29.499 12c-12.667 0 -23 -4 -31 -12s-12 -18 -12 -30s4.16699 -22.167 12.5 -30.5s18.5 -12.5 30.5 -12.5c11.333 0 21.166 4.33301 29.499 13z" />
    <glyph glyph-name="cedilla" unicode="&#xb8;" horiz-adv-x="206" 
d="M121.5 -97c17.667 -11.333 26.501 -24.332 26.501 -38.999c0 -12.667 -6.33301 -23.167 -19 -31.5s-27.667 -12.5 -45 -12.5c-16.667 0 -36.334 4.66699 -59.001 14l-15 -36c8 -5.33301 19.5 -9.83301 34.5 -13.5s28.833 -5.5 41.5 -5.5c32 0 58.333 7.66699 79 23
s31 36.666 31 63.999c0 18 -8 35 -24 51s-36.667 26.333 -62 31l26 65h-47l-35 -92c27.333 -0.666992 49.833 -6.66699 67.5 -18z" />
    <glyph glyph-name="onesuperior" unicode="&#xb9;" horiz-adv-x="243" 
d="M136 765l-126 -65l23 -31l84 42v-375h49v429h-30z" />
    <glyph glyph-name="ordmasculine" unicode="&#xba;" horiz-adv-x="362" 
d="M103 681c-23.333 -14 -41.835 -33.833 -55.502 -59.5s-20.5 -55.5 -20.5 -89.5c0 -52.667 14.5 -94 43.5 -124s65.5 -45 109.5 -45c28.667 0 54.834 7 78.501 21s42.334 33.667 56.001 59s20.5 55 20.5 89c0 52.667 -14.667 94.167 -44 124.5s-66.333 45.5 -111 45.5
c-28 0 -53.667 -7 -77 -21zM252.498 626c19.667 -22.667 29.498 -54 29.498 -94c0 -40.667 -10.167 -72 -30.5 -94s-44.166 -33 -71.499 -33c-28 0 -51.833 11.333 -71.5 34s-29.5 53.667 -29.5 93c0 40.667 10.167 72.167 30.5 94.5s43.833 33.5 70.5 33.5
c28.667 0 52.834 -11.333 72.501 -34z" />
    <glyph glyph-name="guillemotright" unicode="&#xbb;" horiz-adv-x="363" 
d="M20 370l118 -125l-118 -125l22 -36l140 142v38l-140 142zM172 370l118 -125l-118 -125l22 -36l139 142v38l-139 142z" />
    <glyph glyph-name="onequarter" unicode="&#xbc;" horiz-adv-x="716" 
d="M136 765l-126 -65l23 -31l84 42v-375h49v429h-30zM89 -134l496 834h-49l-502 -834h55zM615 321h-32l-253 -352l4 -39h233v-93h48v93h77l4 39h-81v352zM382 -31l185 261v-261h-185z" />
    <glyph glyph-name="onehalf" unicode="&#xbd;" horiz-adv-x="750" 
d="M136 765l-126 -65l23 -31l84 42v-375h49v429h-30zM85 -134l496 834h-49l-502 -834h55zM501 313.5c-26.667 -7.66699 -49.3311 -16.498 -67.998 -26.498l19 -37c16 8.66699 35.5 16.667 58.5 24s44.167 11 63.5 11c31.333 0 54.666 -8.5 69.999 -25.5s23 -36.5 23 -58.5
c0 -16 -5.33301 -34.333 -16 -55c-11.333 -21.333 -33.333 -47 -66 -77l-156 -139v-40h301l-6 38h-238l125 109c37.333 33.333 64.166 62.666 80.499 87.999s24.5 51.666 24.5 78.999c0 20 -5 39.167 -15 57.5s-25.5 33.5 -46.5 45.5s-47.167 18 -78.5 18
c-23.333 0 -48.333 -3.83301 -75 -11.5z" />
    <glyph glyph-name="threequarters" unicode="&#xbe;" horiz-adv-x="767" 
d="M77.5 759.5c-23 -7.66699 -45.832 -18.501 -68.499 -32.501l22 -34c39.333 25.333 80.333 38 123 38c30 0 53.833 -7.66699 71.5 -23s26.5 -34.666 26.5 -57.999c0 -29.333 -10.5 -52.333 -31.5 -69s-51.833 -25 -92.5 -25h-32l7 -38h20c50 0 85.667 -8.66699 107 -26
s32 -43 32 -77c0 -29.333 -11.167 -52.5 -33.5 -69.5s-49.5 -25.5 -81.5 -25.5c-26.667 0 -49 2.66699 -67 8s-36.667 13.666 -56 24.999l-24 -35c20 -11.333 42.333 -20.833 67 -28.5s50 -11.5 76 -11.5c51.333 0 92.166 13.167 122.499 39.5s45.5 59.166 45.5 98.499
c0 31.333 -8 57.833 -24 79.5s-38.333 35.834 -67 42.501c23.333 8 42.833 22.167 58.5 42.5s23.5 43.833 23.5 70.5c0 34.667 -12.5 63.334 -37.5 86.001s-61.5 34 -109.5 34c-28.667 0 -54.5 -3.83301 -77.5 -11.5zM169.001 -134.001l497 834h-50l-501 -834h54z
M665.001 320.999h-32l-253 -352l4 -39h233v-93h48v93h78l4 39h-82v352zM432.001 -31.001l185 261v-261h-185z" />
    <glyph glyph-name="questiondown" unicode="&#xbf;" horiz-adv-x="398" 
d="M270.5 548.5c8.33301 8.33301 12.5 18.5 12.5 30.5s-4.16699 22.167 -12.5 30.5s-18.5 12.5 -30.5 12.5c-11.333 0 -21.333 -4.33301 -30 -13s-13 -18.667 -13 -30s4.33301 -21.333 13 -30s18.667 -13 30 -13c12 0 22.167 4.16699 30.5 12.5zM308.5 -64
c28.333 10.667 54.834 25.334 79.501 44.001l-8 48c-30 -21.333 -56.833 -36.833 -80.5 -46.5s-52.167 -14.5 -85.5 -14.5c-40.667 0 -71.667 9.83301 -93 29.5s-32 49.167 -32 88.5c0 37.333 15.667 71.5 47 102.5s73.333 54.833 126 71.5l-7 205l-39 20l-9 -194
c-54.667 -24 -97.834 -54.833 -129.501 -92.5s-47.5 -75.834 -47.5 -114.501c0 -50 15.167 -89.667 45.5 -119s75.833 -44 136.5 -44c36 0 68.167 5.33301 96.5 16z" />
    <glyph glyph-name="Agrave" unicode="&#xc0;" horiz-adv-x="581" 
d="M64 0l76 209h296l80 -215l55 11l-259 675h-55l-247 -680h54zM285 608l135 -355h-265zM268 892h-66l85 -153l36 12z" />
    <glyph glyph-name="Aacute" unicode="&#xc1;" horiz-adv-x="581" 
d="M64 0l76 209h296l80 -215l55 11l-259 675h-55l-247 -680h54zM285 608l135 -355h-265zM297 892l-55 -141l36 -12l85 153h-66z" />
    <glyph glyph-name="Acircumflex" unicode="&#xc2;" horiz-adv-x="581" 
d="M64 0l76 209h296l80 -215l55 11l-259 675h-55l-247 -680h54zM285 608l135 -355h-265zM413 752l-104 141h-49l-103 -143l47 -10l81 113l79 -113z" />
    <glyph glyph-name="Atilde" unicode="&#xc3;" horiz-adv-x="581" 
d="M64 0l76 209h296l80 -215l55 11l-259 675h-55l-247 -680h54zM285 608l135 -355h-265zM363.5 813.5c-7.66699 -8.33301 -17.167 -12.501 -28.5 -12.501c-16.667 0 -32.667 8.66699 -48 26s-37 26 -65 26c-24.667 0 -44.667 -7.33301 -60 -22s-23 -37.667 -23 -69h42
c1.33301 15.333 5.83301 27.333 13.5 36s17.167 13 28.5 13c16 0 33.333 -8.66699 52 -26c17.333 -18 37.333 -27 60 -27c24.667 0 44.667 7.33301 60 22s23 37.667 23 69h-41c-1.33301 -15.333 -5.83301 -27.166 -13.5 -35.499z" />
    <glyph glyph-name="Adieresis" unicode="&#xc4;" horiz-adv-x="581" 
d="M64 0l76 209h296l80 -215l55 11l-259 675h-55l-247 -680h54zM285 608l135 -355h-265zM231.5 779.5c7.66699 7.66699 11.5 17.165 11.5 28.498c0 10.667 -3.83301 19.834 -11.5 27.501s-17.167 11.5 -28.5 11.5s-20.833 -3.66699 -28.5 -11s-11.5 -16.666 -11.5 -27.999
s3.83301 -20.833 11.5 -28.5s17.167 -11.5 28.5 -11.5s20.833 3.83301 28.5 11.5zM389.5 779.498c7.66699 7.66699 11.5 17.165 11.5 28.498c0 10.667 -3.83301 19.834 -11.5 27.501s-17.167 11.5 -28.5 11.5c-12 0 -21.667 -3.66699 -29 -11s-11 -16.666 -11 -27.999
s3.66699 -20.833 11 -28.5s17 -11.5 29 -11.5c11.333 0 20.833 3.83301 28.5 11.5z" />
    <glyph glyph-name="Aring" unicode="&#xc5;" horiz-adv-x="581" 
d="M64 0l76 209h296l80 -215l55 11l-259 675h-55l-247 -680h54zM285 608l135 -355h-265zM222.5 885c-17.667 -16 -26.5 -36 -26.5 -60c0 -23.333 8.66699 -42.666 26 -57.999s38.333 -23 63 -23s45.5 7.66699 62.5 23s25.5 34.666 25.5 57.999c0 24 -8.66699 44 -26 60
s-38 24 -62 24s-44.833 -8 -62.5 -24zM251.5 791.5c-9 9 -13.5 20.167 -13.5 33.5c0 14 4.5 25.667 13.5 35s20.167 14 33.5 14s24.5 -4.66699 33.5 -14s13.5 -21 13.5 -35c0 -13.333 -4.5 -24.5 -13.5 -33.5s-20.167 -13.5 -33.5 -13.5s-24.5 4.5 -33.5 13.5z" />
    <glyph glyph-name="AE" unicode="&#xc6;" horiz-adv-x="835" 
d="M810 44h-321v284h245l-5 41h-240v269h304l-5 42h-362l-416 -675l53 -10l128 214h243v-209h381zM219 253l215 351v-351h-215z" />
    <glyph glyph-name="Ccedilla" unicode="&#xc7;" horiz-adv-x="553" 
d="M457 -1.5c-29.333 -7 -57.665 -11.1689 -84.998 -12.502l-15 -38c25.333 -4.66699 46 -15 62 -31s24 -33 24 -51c0 -27.333 -10.333 -48.666 -31 -63.999s-47 -23 -79 -23c-12.667 0 -26.5 1.83301 -41.5 5.5s-26.5 8.16699 -34.5 13.5l15 36
c22.667 -9.33301 42.334 -14 59.001 -14c17.333 0 32.333 4.16699 45 12.5s19 18.833 19 31.5c0 14.667 -8.83301 27.667 -26.5 39s-40.167 17.333 -67.5 18l25 66c-60.667 4.66699 -111.834 23.334 -153.501 56.001s-72.834 74.5 -93.501 125.5s-31 106.833 -31 167.5
c0 66.667 12.667 127.167 38 181.5s61.666 97.333 108.999 129s102.666 47.5 165.999 47.5c24.667 0 54.167 -3.33301 88.5 -10s59.833 -15.667 76.5 -27l-20 -41c-25.333 10.667 -47.666 18.334 -66.999 23.001s-45.333 7 -78 7c-47.333 0 -90.333 -13.167 -129 -39.5
s-69 -62.833 -91 -109.5s-33 -100 -33 -160c0 -55.333 9.66699 -105.833 29 -151.5s47.5 -82.167 84.5 -109.5s80.5 -41 130.5 -41c32.667 0 60.5 2.66699 83.5 8s45.167 12.666 66.5 21.999l24 -42c-16.667 -9.33301 -39.667 -17.5 -69 -24.5z" />
    <glyph glyph-name="Egrave" unicode="&#xc8;" horiz-adv-x="499" 
d="M153 44v284h245l-5 41h-240v269h303l-5 42h-353v-680h381l-6 44h-320zM260 892h-66l85 -153l36 12z" />
    <glyph glyph-name="Eacute" unicode="&#xc9;" horiz-adv-x="499" 
d="M153 44v284h245l-5 41h-240v269h303l-5 42h-353v-680h381l-6 44h-320zM288 892l-55 -141l36 -12l85 153h-66z" />
    <glyph glyph-name="Ecircumflex" unicode="&#xca;" horiz-adv-x="499" 
d="M153 44v284h245l-5 41h-240v269h303l-5 42h-353v-680h381l-6 44h-320zM405 752l-104 141h-49l-103 -143l47 -10l81 113l79 -113z" />
    <glyph glyph-name="Edieresis" unicode="&#xcb;" horiz-adv-x="499" 
d="M153 44v284h245l-5 41h-240v269h303l-5 42h-353v-680h381l-6 44h-320zM222.5 779.5c7.66699 7.66699 11.5 17.165 11.5 28.498c0 10.667 -3.83301 19.834 -11.5 27.501s-17.167 11.5 -28.5 11.5s-20.833 -3.66699 -28.5 -11s-11.5 -16.666 -11.5 -27.999
s3.83301 -20.833 11.5 -28.5s17.167 -11.5 28.5 -11.5s20.833 3.83301 28.5 11.5zM380.5 779.498c7.66699 7.66699 11.5 17.165 11.5 28.498c0 10.667 -3.83301 19.834 -11.5 27.501s-17.167 11.5 -28.5 11.5c-12 0 -21.667 -3.66699 -29 -11s-11 -16.666 -11 -27.999
s3.66699 -20.833 11 -28.5s17 -11.5 29 -11.5c11.333 0 20.833 3.83301 28.5 11.5z" />
    <glyph glyph-name="Igrave" unicode="&#xcc;" horiz-adv-x="250" 
d="M98 680v-680h55v680h-55zM109 892h-66l85 -153l36 12z" />
    <glyph glyph-name="Iacute" unicode="&#xcd;" horiz-adv-x="250" 
d="M98 680v-680h55v680h-55zM138 892l-55 -141l36 -12l85 153h-66z" />
    <glyph glyph-name="Icircumflex" unicode="&#xce;" horiz-adv-x="250" 
d="M98 680v-680h55v680h-55zM254 752l-104 141h-49l-103 -143l47 -10l81 113l79 -113z" />
    <glyph glyph-name="Idieresis" unicode="&#xcf;" horiz-adv-x="250" 
d="M98 680v-680h55v680h-55zM72.5 779.5c7.66699 7.66699 11.5 17.165 11.5 28.498c0 10.667 -3.83301 19.834 -11.5 27.501s-17.167 11.5 -28.5 11.5s-20.833 -3.66699 -28.5 -11s-11.5 -16.666 -11.5 -27.999s3.83301 -20.833 11.5 -28.5s17.167 -11.5 28.5 -11.5
s20.833 3.83301 28.5 11.5zM230.5 779.498c7.66699 7.66699 11.5 17.165 11.5 28.498c0 10.667 -3.83301 19.834 -11.5 27.501s-17.167 11.5 -28.5 11.5c-12 0 -21.667 -3.66699 -29 -11s-11 -16.666 -11 -27.999s3.66699 -20.833 11 -28.5s17 -11.5 29 -11.5
c11.333 0 20.833 3.83301 28.5 11.5z" />
    <glyph glyph-name="Eth" unicode="&#xd0;" horiz-adv-x="663" 
d="M544 587c47.333 -62 71 -143 71 -243c0 -64.667 -11 -123 -33 -175s-55.167 -93.167 -99.5 -123.5s-98.5 -45.5 -162.5 -45.5h-222v312h-74l-9 44h83v324h227c98.667 0 171.667 -31 219 -93zM446 83c36 25.333 64 60.5 84 105.5s30 96.5 30 154.5
c0 55.333 -8.5 105 -25.5 149s-42.667 78.833 -77 104.5s-76.5 38.5 -126.5 38.5h-178v-279h110l9 -44h-119v-267h168c47.333 0 89 12.667 125 38z" />
    <glyph glyph-name="Ntilde" unicode="&#xd1;" horiz-adv-x="670" 
d="M167 539l372 -539h34v680h-56v-561l-34 59l-351 502h-34v-680h55v568zM413.5 813.5c-7.66699 -8.33301 -17.167 -12.501 -28.5 -12.501c-16.667 0 -32.667 8.66699 -48 26s-37 26 -65 26c-24.667 0 -44.667 -7.33301 -60 -22s-23 -37.667 -23 -69h42
c1.33301 15.333 5.83301 27.333 13.5 36s17.167 13 28.5 13c16 0 33.333 -8.66699 52 -26c17.333 -18 37.333 -27 60 -27c24.667 0 44.667 7.33301 60 22s23 37.667 23 69h-41c-1.33301 -15.333 -5.83301 -27.166 -13.5 -35.499z" />
    <glyph glyph-name="Ograve" unicode="&#xd2;" horiz-adv-x="713" 
d="M199.5 648.5c-47.667 -31 -84.8311 -73.667 -111.498 -128s-40 -115.5 -40 -183.5c0 -67.333 13.167 -127.666 39.5 -180.999s62.666 -95 108.999 -125s98.833 -45 157.5 -45c59.333 0 112.666 15.5 159.999 46.5s84.5 73.833 111.5 128.5s40.5 116 40.5 184
c0 67.333 -13.167 127.666 -39.5 180.999s-62.833 95 -109.5 125s-99 45 -157 45c-59.333 -0.666992 -112.833 -16.5 -160.5 -47.5zM140.503 497c21.667 47.333 51.833 84.333 90.5 111s82 40 130 40c46.667 0 88.5 -13 125.5 -39s66 -62.167 87 -108.5
s31.5 -98.5 31.5 -156.5c0 -59.333 -10.833 -112.666 -32.5 -159.999s-51.667 -84.333 -90 -111s-81.833 -40 -130.5 -40c-46.667 0 -88.5 13.167 -125.5 39.5s-66 62.666 -87 108.999s-31.5 98.5 -31.5 156.5c0 58.667 10.833 111.667 32.5 159zM343.002 892h-66l85 -153
l36 12z" />
    <glyph glyph-name="Oacute" unicode="&#xd3;" horiz-adv-x="713" 
d="M199.5 648.5c-47.667 -31 -84.8311 -73.667 -111.498 -128s-40 -115.5 -40 -183.5c0 -67.333 13.167 -127.666 39.5 -180.999s62.666 -95 108.999 -125s98.833 -45 157.5 -45c59.333 0 112.666 15.5 159.999 46.5s84.5 73.833 111.5 128.5s40.5 116 40.5 184
c0 67.333 -13.167 127.666 -39.5 180.999s-62.833 95 -109.5 125s-99 45 -157 45c-59.333 -0.666992 -112.833 -16.5 -160.5 -47.5zM140.503 497c21.667 47.333 51.833 84.333 90.5 111s82 40 130 40c46.667 0 88.5 -13 125.5 -39s66 -62.167 87 -108.5
s31.5 -98.5 31.5 -156.5c0 -59.333 -10.833 -112.666 -32.5 -159.999s-51.667 -84.333 -90 -111s-81.833 -40 -130.5 -40c-46.667 0 -88.5 13.167 -125.5 39.5s-66 62.666 -87 108.999s-31.5 98.5 -31.5 156.5c0 58.667 10.833 111.667 32.5 159zM371.002 892l-55 -141
l36 -12l85 153h-66z" />
    <glyph glyph-name="Ocircumflex" unicode="&#xd4;" horiz-adv-x="713" 
d="M199.5 648.5c-47.667 -31 -84.8311 -73.667 -111.498 -128s-40 -115.5 -40 -183.5c0 -67.333 13.167 -127.666 39.5 -180.999s62.666 -95 108.999 -125s98.833 -45 157.5 -45c59.333 0 112.666 15.5 159.999 46.5s84.5 73.833 111.5 128.5s40.5 116 40.5 184
c0 67.333 -13.167 127.666 -39.5 180.999s-62.833 95 -109.5 125s-99 45 -157 45c-59.333 -0.666992 -112.833 -16.5 -160.5 -47.5zM140.503 497c21.667 47.333 51.833 84.333 90.5 111s82 40 130 40c46.667 0 88.5 -13 125.5 -39s66 -62.167 87 -108.5
s31.5 -98.5 31.5 -156.5c0 -59.333 -10.833 -112.666 -32.5 -159.999s-51.667 -84.333 -90 -111s-81.833 -40 -130.5 -40c-46.667 0 -88.5 13.167 -125.5 39.5s-66 62.666 -87 108.999s-31.5 98.5 -31.5 156.5c0 58.667 10.833 111.667 32.5 159zM488.002 752l-104 141h-49
l-103 -143l47 -10l81 113l79 -113z" />
    <glyph glyph-name="Otilde" unicode="&#xd5;" horiz-adv-x="713" 
d="M199.5 648.5c-47.667 -31 -84.8311 -73.667 -111.498 -128s-40 -115.5 -40 -183.5c0 -67.333 13.167 -127.666 39.5 -180.999s62.666 -95 108.999 -125s98.833 -45 157.5 -45c59.333 0 112.666 15.5 159.999 46.5s84.5 73.833 111.5 128.5s40.5 116 40.5 184
c0 67.333 -13.167 127.666 -39.5 180.999s-62.833 95 -109.5 125s-99 45 -157 45c-59.333 -0.666992 -112.833 -16.5 -160.5 -47.5zM140.503 497c21.667 47.333 51.833 84.333 90.5 111s82 40 130 40c46.667 0 88.5 -13 125.5 -39s66 -62.167 87 -108.5
s31.5 -98.5 31.5 -156.5c0 -59.333 -10.833 -112.666 -32.5 -159.999s-51.667 -84.333 -90 -111s-81.833 -40 -130.5 -40c-46.667 0 -88.5 13.167 -125.5 39.5s-66 62.666 -87 108.999s-31.5 98.5 -31.5 156.5c0 58.667 10.833 111.667 32.5 159zM438.502 813.5
c-7.66699 -8.33301 -17.167 -12.501 -28.5 -12.501c-16.667 0 -32.667 8.66699 -48 26s-37 26 -65 26c-24.667 0 -44.667 -7.33301 -60 -22s-23 -37.667 -23 -69h42c1.33301 15.333 5.83301 27.333 13.5 36s17.167 13 28.5 13c16 0 33.333 -8.66699 52 -26
c17.333 -18 37.333 -27 60 -27c24.667 0 44.667 7.33301 60 22s23 37.667 23 69h-41c-1.33301 -15.333 -5.83301 -27.166 -13.5 -35.499z" />
    <glyph glyph-name="Odieresis" unicode="&#xd6;" horiz-adv-x="713" 
d="M199.5 648.5c-47.667 -31 -84.8311 -73.667 -111.498 -128s-40 -115.5 -40 -183.5c0 -67.333 13.167 -127.666 39.5 -180.999s62.666 -95 108.999 -125s98.833 -45 157.5 -45c59.333 0 112.666 15.5 159.999 46.5s84.5 73.833 111.5 128.5s40.5 116 40.5 184
c0 67.333 -13.167 127.666 -39.5 180.999s-62.833 95 -109.5 125s-99 45 -157 45c-59.333 -0.666992 -112.833 -16.5 -160.5 -47.5zM140.503 497c21.667 47.333 51.833 84.333 90.5 111s82 40 130 40c46.667 0 88.5 -13 125.5 -39s66 -62.167 87 -108.5
s31.5 -98.5 31.5 -156.5c0 -59.333 -10.833 -112.666 -32.5 -159.999s-51.667 -84.333 -90 -111s-81.833 -40 -130.5 -40c-46.667 0 -88.5 13.167 -125.5 39.5s-66 62.666 -87 108.999s-31.5 98.5 -31.5 156.5c0 58.667 10.833 111.667 32.5 159zM306.502 779.5
c7.66699 7.66699 11.5 17.165 11.5 28.498c0 10.667 -3.83301 19.834 -11.5 27.501s-17.167 11.5 -28.5 11.5s-20.833 -3.66699 -28.5 -11s-11.5 -16.666 -11.5 -27.999s3.83301 -20.833 11.5 -28.5s17.167 -11.5 28.5 -11.5s20.833 3.83301 28.5 11.5zM464.502 779.498
c7.66699 7.66699 11.5 17.165 11.5 28.498c0 10.667 -3.83301 19.834 -11.5 27.501s-17.167 11.5 -28.5 11.5c-12 0 -21.667 -3.66699 -29 -11s-11 -16.666 -11 -27.999s3.66699 -20.833 11 -28.5s17 -11.5 29 -11.5c11.333 0 20.833 3.83301 28.5 11.5z" />
    <glyph glyph-name="multiply" unicode="&#xd7;" horiz-adv-x="478" 
d="M376 31l-139 174l-150 -174h-57l183 219l-166 214h55l138 -174l152 174h56l-183 -219l167 -214h-56z" />
    <glyph glyph-name="Oslash" unicode="&#xd8;" horiz-adv-x="713" 
d="M517 651c46.667 -30 83.1641 -71.667 109.497 -125s39.5 -113.666 39.5 -180.999c0 -68 -13.5 -129.333 -40.5 -184s-64.167 -97.5 -111.5 -128.5s-100.666 -46.5 -159.999 -46.5c-58.667 0 -111.167 15 -157.5 45s-82.666 71.667 -108.999 125
s-39.5 113.666 -39.5 180.999c0 68 13.333 129.167 40 183.5s63.834 97 111.501 128s101.167 46.833 160.5 47.5c58 0 110.333 -15 157 -45zM136.997 187c19.333 -44.667 46.002 -80.333 80.002 -107l236 548c-28.667 13.333 -59.334 20 -92.001 20
c-48 0 -91.333 -13.333 -130 -40s-68.834 -63.667 -90.501 -111s-32.5 -100.333 -32.5 -159c0 -56 9.66699 -106.333 29 -151zM482.499 73.001c38.333 26.667 68.333 63.668 90 111.001s32.5 100.666 32.5 159.999c0 55.333 -9.33301 105.333 -28 150s-45 80 -79 106
l-236 -548c29.333 -12.667 59.333 -19 90 -19c48.667 0 92.167 13.333 130.5 40z" />
    <glyph glyph-name="Ugrave" unicode="&#xd9;" horiz-adv-x="665" 
d="M88 239c0 -48.667 9.83398 -91.998 29.501 -129.998s47.834 -67.667 84.501 -89s80 -32 130 -32c50.667 0 94.5 10.667 131.5 32s65.167 51 84.5 89s29 81.333 29 130v441h-55v-438c0 -38.667 -7.66699 -73.834 -23 -105.501s-37.333 -56.5 -66 -74.5
s-62.334 -27 -101.001 -27c-37.333 0 -70.333 9.16699 -99 27.5s-50.834 43.166 -66.501 74.499s-23.5 66.333 -23.5 105v438h-55v-441zM315.001 892.002h-66l85 -153l36 12z" />
    <glyph glyph-name="Uacute" unicode="&#xda;" horiz-adv-x="665" 
d="M88 239c0 -48.667 9.83398 -91.998 29.501 -129.998s47.834 -67.667 84.501 -89s80 -32 130 -32c50.667 0 94.5 10.667 131.5 32s65.167 51 84.5 89s29 81.333 29 130v441h-55v-438c0 -38.667 -7.66699 -73.834 -23 -105.501s-37.333 -56.5 -66 -74.5
s-62.334 -27 -101.001 -27c-37.333 0 -70.333 9.16699 -99 27.5s-50.834 43.166 -66.501 74.499s-23.5 66.333 -23.5 105v438h-55v-441zM344.001 892.002l-55 -141l36 -12l85 153h-66z" />
    <glyph glyph-name="Ucircumflex" unicode="&#xdb;" horiz-adv-x="665" 
d="M88 239c0 -48.667 9.83398 -91.998 29.501 -129.998s47.834 -67.667 84.501 -89s80 -32 130 -32c50.667 0 94.5 10.667 131.5 32s65.167 51 84.5 89s29 81.333 29 130v441h-55v-438c0 -38.667 -7.66699 -73.834 -23 -105.501s-37.333 -56.5 -66 -74.5
s-62.334 -27 -101.001 -27c-37.333 0 -70.333 9.16699 -99 27.5s-50.834 43.166 -66.501 74.499s-23.5 66.333 -23.5 105v438h-55v-441zM460.001 752.002l-104 141h-49l-103 -143l47 -10l81 113l79 -113z" />
    <glyph glyph-name="Udieresis" unicode="&#xdc;" horiz-adv-x="665" 
d="M88 239c0 -48.667 9.83398 -91.998 29.501 -129.998s47.834 -67.667 84.501 -89s80 -32 130 -32c50.667 0 94.5 10.667 131.5 32s65.167 51 84.5 89s29 81.333 29 130v441h-55v-438c0 -38.667 -7.66699 -73.834 -23 -105.501s-37.333 -56.5 -66 -74.5
s-62.334 -27 -101.001 -27c-37.333 0 -70.333 9.16699 -99 27.5s-50.834 43.166 -66.501 74.499s-23.5 66.333 -23.5 105v438h-55v-441zM278.501 779.502c7.66699 7.66699 11.5 17.165 11.5 28.498c0 10.667 -3.83301 19.834 -11.5 27.501s-17.167 11.5 -28.5 11.5
s-20.833 -3.66699 -28.5 -11s-11.5 -16.666 -11.5 -27.999s3.83301 -20.833 11.5 -28.5s17.167 -11.5 28.5 -11.5s20.833 3.83301 28.5 11.5zM436.501 779.5c7.66699 7.66699 11.5 17.165 11.5 28.498c0 10.667 -3.83301 19.834 -11.5 27.501s-17.167 11.5 -28.5 11.5
c-12 0 -21.667 -3.66699 -29 -11s-11 -16.666 -11 -27.999s3.66699 -20.833 11 -28.5s17 -11.5 29 -11.5c11.333 0 20.833 3.83301 28.5 11.5z" />
    <glyph glyph-name="Yacute" unicode="&#xdd;" horiz-adv-x="537" 
d="M527 680h-61l-204 -352l-200 364l-52 -26l225 -394v-272h55v278zM274 892l-55 -141l36 -12l85 153h-66z" />
    <glyph glyph-name="Thorn" unicode="&#xde;" horiz-adv-x="549" 
d="M446 550.5c44 -33 65.999 -84.833 65.999 -155.5c-0.666992 -70 -24.667 -122.667 -72 -158s-108.666 -53 -183.999 -53h-103v-184h-55v680h55v-80h114c75.333 0 135 -16.5 179 -49.5zM401.499 271c35.667 28 53.832 69 54.499 123c0 106.667 -60.667 160 -182 160h-121
v-325h110c56.667 0 102.834 14 138.501 42z" />
    <glyph glyph-name="germandbls" unicode="&#xdf;" horiz-adv-x="550" 
d="M133 473c0 47.333 12.835 85.8301 38.502 115.497s62.5 44.5 110.5 44.5c38 0 69.833 -11.333 95.5 -34s38.5 -55 38.5 -97c0 -43.333 -12.833 -75.333 -38.5 -96s-67.834 -31 -126.501 -31h-27v-45h45c56.667 0 101 -11.833 133 -35.5s48 -59.834 48 -108.501
c0 -49.333 -17.333 -85.166 -52 -107.499s-81 -33.5 -139 -33.5h-51v-45h43c78 0 140.167 14.667 186.5 44s69.5 77.333 69.5 144c0 42 -11.333 77.333 -34 106s-53 49.334 -91 62.001c29.333 13.333 51.833 32.333 67.5 57s23.5 54.667 23.5 90
c0 56.667 -18.167 100.334 -54.5 131.001s-81.833 46 -136.5 46c-62.667 0 -112.334 -18.167 -149.001 -54.5s-55 -87.166 -55 -152.499v-473h55v473z" />
    <glyph glyph-name="agrave" unicode="&#xe0;" horiz-adv-x="479" 
d="M170.5 444c19 5.33301 43.501 8 73.501 8c38 0 66.833 -10.5 86.5 -31.5s29.5 -49.167 29.5 -84.5v-55h-135c-51.333 0 -93 -12.833 -125 -38.5s-48 -61.167 -48 -106.5c0 -44 14 -79.833 42 -107.5s68.333 -41.5 121 -41.5c28 0 55.5 6.16699 82.5 18.5
s48.833 27.833 65.5 46.5l8 -52h44v340c0 48 -15.333 86.333 -46 115s-73.334 43 -128.001 43c-22 0 -49 -4 -81 -12s-56.667 -18 -74 -30l19 -38c24.667 12 46.5 20.667 65.5 26zM138.501 212c20.333 20 49.5 30 87.5 30h134v-129c-17.333 -24 -38.333 -43.333 -63 -58
s-51.667 -22 -81 -22c-34 0 -60.5 10 -79.5 30s-28.5 44.333 -28.5 73c0 30.667 10.167 56 30.5 76zM228.001 742h-66l85 -153l36 12z" />
    <glyph glyph-name="aacute" unicode="&#xe1;" horiz-adv-x="479" 
d="M170.5 444c19 5.33301 43.501 8 73.501 8c38 0 66.833 -10.5 86.5 -31.5s29.5 -49.167 29.5 -84.5v-55h-135c-51.333 0 -93 -12.833 -125 -38.5s-48 -61.167 -48 -106.5c0 -44 14 -79.833 42 -107.5s68.333 -41.5 121 -41.5c28 0 55.5 6.16699 82.5 18.5
s48.833 27.833 65.5 46.5l8 -52h44v340c0 48 -15.333 86.333 -46 115s-73.334 43 -128.001 43c-22 0 -49 -4 -81 -12s-56.667 -18 -74 -30l19 -38c24.667 12 46.5 20.667 65.5 26zM138.501 212c20.333 20 49.5 30 87.5 30h134v-129c-17.333 -24 -38.333 -43.333 -63 -58
s-51.667 -22 -81 -22c-34 0 -60.5 10 -79.5 30s-28.5 44.333 -28.5 73c0 30.667 10.167 56 30.5 76zM254.001 742l-55 -141l36 -12l85 153h-66z" />
    <glyph glyph-name="acircumflex" unicode="&#xe2;" horiz-adv-x="479" 
d="M170.5 444c19 5.33301 43.501 8 73.501 8c38 0 66.833 -10.5 86.5 -31.5s29.5 -49.167 29.5 -84.5v-55h-135c-51.333 0 -93 -12.833 -125 -38.5s-48 -61.167 -48 -106.5c0 -44 14 -79.833 42 -107.5s68.333 -41.5 121 -41.5c28 0 55.5 6.16699 82.5 18.5
s48.833 27.833 65.5 46.5l8 -52h44v340c0 48 -15.333 86.333 -46 115s-73.334 43 -128.001 43c-22 0 -49 -4 -81 -12s-56.667 -18 -74 -30l19 -38c24.667 12 46.5 20.667 65.5 26zM138.501 212c20.333 20 49.5 30 87.5 30h134v-129c-17.333 -24 -38.333 -43.333 -63 -58
s-51.667 -22 -81 -22c-34 0 -60.5 10 -79.5 30s-28.5 44.333 -28.5 73c0 30.667 10.167 56 30.5 76zM376.001 601l-104 141h-49l-103 -143l47 -10l81 114l79 -114z" />
    <glyph glyph-name="atilde" unicode="&#xe3;" horiz-adv-x="479" 
d="M170.5 444c19 5.33301 43.501 8 73.501 8c38 0 66.833 -10.5 86.5 -31.5s29.5 -49.167 29.5 -84.5v-55h-135c-51.333 0 -93 -12.833 -125 -38.5s-48 -61.167 -48 -106.5c0 -44 14 -79.833 42 -107.5s68.333 -41.5 121 -41.5c28 0 55.5 6.16699 82.5 18.5
s48.833 27.833 65.5 46.5l8 -52h44v340c0 48 -15.333 86.333 -46 115s-73.334 43 -128.001 43c-22 0 -49 -4 -81 -12s-56.667 -18 -74 -30l19 -38c24.667 12 46.5 20.667 65.5 26zM138.501 212c20.333 20 49.5 30 87.5 30h134v-129c-17.333 -24 -38.333 -43.333 -63 -58
s-51.667 -22 -81 -22c-34 0 -60.5 10 -79.5 30s-28.5 44.333 -28.5 73c0 30.667 10.167 56 30.5 76zM322.501 663.5c-7.66699 -8.33301 -17.167 -12.501 -28.5 -12.501c-16.667 0 -32.667 8.66699 -48 26s-37 26 -65 26c-24.667 0 -44.667 -7.33301 -60 -22
s-23 -37.667 -23 -69h42c1.33301 15.333 5.83301 27.333 13.5 36s17.167 13 28.5 13c16 0 33.333 -8.66699 52 -26c17.333 -18 37.333 -27 60 -27c24.667 0 44.667 7.33301 60 22s23 37.667 23 69h-41c-1.33301 -15.333 -5.83301 -27.166 -13.5 -35.499z" />
    <glyph glyph-name="adieresis" unicode="&#xe4;" horiz-adv-x="479" 
d="M170.5 444c19 5.33301 43.501 8 73.501 8c38 0 66.833 -10.5 86.5 -31.5s29.5 -49.167 29.5 -84.5v-55h-135c-51.333 0 -93 -12.833 -125 -38.5s-48 -61.167 -48 -106.5c0 -44 14 -79.833 42 -107.5s68.333 -41.5 121 -41.5c28 0 55.5 6.16699 82.5 18.5
s48.833 27.833 65.5 46.5l8 -52h44v340c0 48 -15.333 86.333 -46 115s-73.334 43 -128.001 43c-22 0 -49 -4 -81 -12s-56.667 -18 -74 -30l19 -38c24.667 12 46.5 20.667 65.5 26zM138.501 212c20.333 20 49.5 30 87.5 30h134v-129c-17.333 -24 -38.333 -43.333 -63 -58
s-51.667 -22 -81 -22c-34 0 -60.5 10 -79.5 30s-28.5 44.333 -28.5 73c0 30.667 10.167 56 30.5 76zM194.501 629.5c7.66699 7.66699 11.5 17.165 11.5 28.498c0 10.667 -3.83301 19.834 -11.5 27.501s-17.167 11.5 -28.5 11.5s-20.833 -3.66699 -28.5 -11
s-11.5 -16.666 -11.5 -27.999s3.83301 -20.833 11.5 -28.5s17.167 -11.5 28.5 -11.5s20.833 3.83301 28.5 11.5zM352.501 629.498c7.66699 7.66699 11.5 17.165 11.5 28.498c0 10.667 -3.83301 19.834 -11.5 27.501s-17.167 11.5 -28.5 11.5c-12 0 -21.667 -3.66699 -29 -11
s-11 -16.666 -11 -27.999s3.66699 -20.833 11 -28.5s17 -11.5 29 -11.5c11.333 0 20.833 3.83301 28.5 11.5z" />
    <glyph glyph-name="aring" unicode="&#xe5;" horiz-adv-x="479" 
d="M170.5 444c19 5.33301 43.501 8 73.501 8c38 0 66.833 -10.5 86.5 -31.5s29.5 -49.167 29.5 -84.5v-55h-135c-51.333 0 -93 -12.833 -125 -38.5s-48 -61.167 -48 -106.5c0 -44 14 -79.833 42 -107.5s68.333 -41.5 121 -41.5c28 0 55.5 6.16699 82.5 18.5
s48.833 27.833 65.5 46.5l8 -52h44v340c0 48 -15.333 86.333 -46 115s-73.334 43 -128.001 43c-22 0 -49 -4 -81 -12s-56.667 -18 -74 -30l19 -38c24.667 12 46.5 20.667 65.5 26zM138.501 212c20.333 20 49.5 30 87.5 30h134v-129c-17.333 -24 -38.333 -43.333 -63 -58
s-51.667 -22 -81 -22c-34 0 -60.5 10 -79.5 30s-28.5 44.333 -28.5 73c0 30.667 10.167 56 30.5 76zM181.501 735c-17.667 -16 -26.5 -36 -26.5 -60c0 -23.333 8.66699 -42.666 26 -57.999s38.333 -23 63 -23s45.5 7.66699 62.5 23s25.5 34.666 25.5 57.999
c0 24 -8.66699 44 -26 60s-38 24 -62 24s-44.833 -8 -62.5 -24zM210.501 641.5c-9 9 -13.5 20.167 -13.5 33.5c0 14 4.5 25.667 13.5 35s20.167 14 33.5 14s24.5 -4.66699 33.5 -14s13.5 -21 13.5 -35c0 -13.333 -4.5 -24.5 -13.5 -33.5s-20.167 -13.5 -33.5 -13.5
s-24.5 4.5 -33.5 13.5z" />
    <glyph glyph-name="ae" unicode="&#xe6;" horiz-adv-x="805" 
d="M667 42.5c22.667 6.33301 45.667 15.5 69 27.5l20 -41c-22 -12.667 -47.5 -22.834 -76.5 -30.501s-57.5 -11.5 -85.5 -11.5c-89.333 0 -154.333 31 -195 93c-44.667 -62 -106 -93 -184 -93c-52.667 0 -93 13.833 -121 41.5s-42 63.5 -42 107.5
c0 45.333 16 80.833 48 106.5s73.667 38.5 125 38.5h134l1 13v42c0 35.333 -9.83301 63.5 -29.5 84.5s-48.5 31.5 -86.5 31.5c-30 0 -54.5 -2.66699 -73.5 -8s-40.833 -14 -65.5 -26l-19 38c17.333 12 42 22 74 30s59 12 81 12c39.333 0 72.666 -7.66699 99.999 -23
s47.333 -36.666 60 -63.999c18 28 41.5 49.5 70.5 64.5s62.833 22.5 101.5 22.5c61.333 0 109 -23.667 143 -71s51 -109.333 51 -186h-354c0.666992 -62 15.334 -112.167 44.001 -150.5s72.667 -57.5 132 -57.5c29.333 0 55.333 3.16699 78 9.5zM460.5 404.5
c-25.667 -31.667 -40.832 -72.833 -45.499 -123.5h295c-4.66699 52 -18.334 93.5 -41.001 124.5s-56.667 46.5 -102 46.5s-80.833 -15.833 -106.5 -47.5zM313.002 57.501c24 16.333 45.333 38.5 64 66.5c-13.333 36 -20 75.333 -20 118h-131c-38 0 -67.167 -10 -87.5 -30
s-30.5 -45.333 -30.5 -76c0 -28.667 9.5 -53 28.5 -73s45.5 -30 79.5 -30c40.667 0 73 8.16699 97 24.5z" />
    <glyph glyph-name="ccedilla" unicode="&#xe7;" horiz-adv-x="450" 
d="M349.5 2c-25 -7.33301 -48.498 -12.002 -70.498 -14.002l-16 -40c25.333 -4.66699 46 -15 62 -31s24 -33 24 -51c0 -27.333 -10.333 -48.666 -31 -63.999s-47 -23 -79 -23c-12.667 0 -26.5 1.83301 -41.5 5.5s-26.5 8.16699 -34.5 13.5l15 36
c22.667 -9.33301 42.334 -14 59.001 -14c17.333 0 32.333 4.16699 45 12.5s19 18.833 19 31.5c0 14.667 -8.83301 27.667 -26.5 39s-40.167 17.333 -67.5 18l26 67c-62 6.66699 -110 33.167 -144 79.5s-51 105.5 -51 177.5c0 48.667 9.16699 92.167 27.5 130.5
s44.833 68.333 79.5 90s75.334 32.5 122.001 32.5c20.667 0 46 -4 76 -12s54.333 -18 73 -30l-20 -38c-24 11.333 -44.667 19.833 -62 25.5s-40.333 8.5 -69 8.5c-34.667 0 -64.834 -9.16699 -90.501 -27.5s-45.334 -43.166 -59.001 -74.499s-20.834 -66 -21.501 -104
c0 -62 14.5 -113 43.5 -153s69.833 -60 122.5 -60c21.333 0 39.5 1.5 54.5 4.5s28.667 7.16699 41 12.5s24.166 11 35.499 17l20 -39c-16 -10 -36.5 -18.667 -61.5 -26z" />
    <glyph glyph-name="egrave" unicode="&#xe8;" horiz-adv-x="486" 
d="M397 427c-34 47.333 -81.9971 70.998 -143.997 70.998c-69.333 0 -122.5 -23.333 -159.5 -70s-55.5 -107.667 -55.5 -183c0 -79.333 19.667 -142.166 59 -188.499s98.666 -69.5 177.999 -69.5c28 0 56.5 3.83301 85.5 11.5s54.5 17.834 76.5 30.501l-20 41
c-24 -12 -47.333 -21.333 -70 -28s-48.667 -10 -78 -10c-58.667 0 -102.334 19.167 -131.001 57.5s-43.334 88.833 -44.001 151.5h354c0 76.667 -17 138.667 -51 186zM141.503 403.998c25.667 32 61.165 48 106.498 48s79.333 -15.667 102 -47s36.334 -73 41.001 -125h-295
c4.66699 50.667 19.834 92 45.501 124zM236.001 741.998h-66l85 -153l36 12z" />
    <glyph glyph-name="eacute" unicode="&#xe9;" horiz-adv-x="486" 
d="M397 427c-34 47.333 -81.9971 70.998 -143.997 70.998c-69.333 0 -122.5 -23.333 -159.5 -70s-55.5 -107.667 -55.5 -183c0 -79.333 19.667 -142.166 59 -188.499s98.666 -69.5 177.999 -69.5c28 0 56.5 3.83301 85.5 11.5s54.5 17.834 76.5 30.501l-20 41
c-24 -12 -47.333 -21.333 -70 -28s-48.667 -10 -78 -10c-58.667 0 -102.334 19.167 -131.001 57.5s-43.334 88.833 -44.001 151.5h354c0 76.667 -17 138.667 -51 186zM141.503 403.998c25.667 32 61.165 48 106.498 48s79.333 -15.667 102 -47s36.334 -73 41.001 -125h-295
c4.66699 50.667 19.834 92 45.501 124zM262.001 741.998l-55 -141l36 -12l85 153h-66z" />
    <glyph glyph-name="ecircumflex" unicode="&#xea;" horiz-adv-x="486" 
d="M397 427c-34 47.333 -81.9971 70.998 -143.997 70.998c-69.333 0 -122.5 -23.333 -159.5 -70s-55.5 -107.667 -55.5 -183c0 -79.333 19.667 -142.166 59 -188.499s98.666 -69.5 177.999 -69.5c28 0 56.5 3.83301 85.5 11.5s54.5 17.834 76.5 30.501l-20 41
c-24 -12 -47.333 -21.333 -70 -28s-48.667 -10 -78 -10c-58.667 0 -102.334 19.167 -131.001 57.5s-43.334 88.833 -44.001 151.5h354c0 76.667 -17 138.667 -51 186zM141.503 403.998c25.667 32 61.165 48 106.498 48s79.333 -15.667 102 -47s36.334 -73 41.001 -125h-295
c4.66699 50.667 19.834 92 45.501 124zM384.001 600.998l-104 141h-49l-103 -143l47 -10l81 114l79 -114z" />
    <glyph glyph-name="edieresis" unicode="&#xeb;" horiz-adv-x="486" 
d="M397 427c-34 47.333 -81.9971 70.998 -143.997 70.998c-69.333 0 -122.5 -23.333 -159.5 -70s-55.5 -107.667 -55.5 -183c0 -79.333 19.667 -142.166 59 -188.499s98.666 -69.5 177.999 -69.5c28 0 56.5 3.83301 85.5 11.5s54.5 17.834 76.5 30.501l-20 41
c-24 -12 -47.333 -21.333 -70 -28s-48.667 -10 -78 -10c-58.667 0 -102.334 19.167 -131.001 57.5s-43.334 88.833 -44.001 151.5h354c0 76.667 -17 138.667 -51 186zM141.503 403.998c25.667 32 61.165 48 106.498 48s79.333 -15.667 102 -47s36.334 -73 41.001 -125h-295
c4.66699 50.667 19.834 92 45.501 124zM201.501 629.498c7.66699 7.66699 11.5 17.165 11.5 28.498c0 10.667 -3.83301 19.834 -11.5 27.501s-17.167 11.5 -28.5 11.5s-20.833 -3.66699 -28.5 -11s-11.5 -16.666 -11.5 -27.999s3.83301 -20.833 11.5 -28.5
s17.167 -11.5 28.5 -11.5s20.833 3.83301 28.5 11.5zM359.501 629.496c7.66699 7.66699 11.5 17.165 11.5 28.498c0 10.667 -3.83301 19.834 -11.5 27.501s-17.167 11.5 -28.5 11.5c-12 0 -21.667 -3.66699 -29 -11s-11 -16.666 -11 -27.999s3.66699 -20.833 11 -28.5
s17 -11.5 29 -11.5c11.333 0 20.833 3.83301 28.5 11.5z" />
    <glyph glyph-name="igrave" unicode="&#xec;" horiz-adv-x="191" 
d="M68 485v-485h55v485h-55zM81 742h-66l85 -153l36 12z" />
    <glyph glyph-name="iacute" unicode="&#xed;" horiz-adv-x="191" 
d="M68 485v-485h55v485h-55zM107 742l-55 -141l36 -12l85 153h-66z" />
    <glyph glyph-name="icircumflex" unicode="&#xee;" horiz-adv-x="191" 
d="M68 485v-485h55v485h-55zM229 601l-104 141h-49l-103 -143l47 -10l81 114l79 -114z" />
    <glyph glyph-name="idieresis" unicode="&#xef;" horiz-adv-x="191" 
d="M68 485v-485h55v485h-55zM46.5 629.5c7.66699 7.66699 11.5 17.165 11.5 28.498c0 10.667 -3.83301 19.834 -11.5 27.501s-17.167 11.5 -28.5 11.5s-20.833 -3.66699 -28.5 -11s-11.5 -16.666 -11.5 -27.999s3.83301 -20.833 11.5 -28.5s17.167 -11.5 28.5 -11.5
s20.833 3.83301 28.5 11.5zM204.5 629.498c7.66699 7.66699 11.5 17.165 11.5 28.498c0 10.667 -3.83301 19.834 -11.5 27.501s-17.167 11.5 -28.5 11.5c-12 0 -21.667 -3.66699 -29 -11s-11 -16.666 -11 -27.999s3.66699 -20.833 11 -28.5s17 -11.5 29 -11.5
c11.333 0 20.833 3.83301 28.5 11.5z" />
    <glyph glyph-name="eth" unicode="&#xf0;" horiz-adv-x="525" 
d="M487 240c0 -48 -9.16895 -91.168 -27.502 -129.501s-44.666 -68.5 -78.999 -90.5s-74.833 -33 -121.5 -33c-70 0 -124.333 23.667 -163 71s-58 109.666 -58 186.999c0 48 9.16699 91.167 27.5 129.5s44.666 68.5 78.999 90.5s74.833 33 121.5 33
c46.667 -0.666992 87.334 -13.667 122.001 -39c-31.333 68.667 -80.666 127.334 -147.999 176.001l-128 -64l-22 39l108 53c-32.667 19.333 -66 36 -100 50l16 37c47.333 -17.333 91 -38.666 131 -63.999l113 56l21 -36l-93 -47c134 -99.333 201 -239 201 -419z
M350.498 60.499c25.667 18.333 45.335 43.167 59.002 74.5s20.834 66 21.501 104c0 52.667 -5.66699 101.667 -17 147c-19.333 21.333 -41.833 37.666 -67.5 48.999s-52.834 17 -81.501 17c-34.667 0 -64.834 -9.16699 -90.501 -27.5s-45.334 -43.166 -59.001 -74.499
s-20.834 -66 -21.501 -104c0 -62 14.5 -113 43.5 -153s69.833 -60 122.5 -60c34.667 0 64.834 9.16699 90.501 27.5z" />
    <glyph glyph-name="ntilde" unicode="&#xf1;" 
d="M209 424c31.333 18 60.332 27 86.999 27c62 0 93 -40 93 -120v-331h55v337c0 49.333 -12 88.5 -36 117.5s-61 43.5 -111 43.5c-29.333 0 -60.666 -8.5 -93.999 -25.5s-60.333 -37.833 -81 -62.5l-10 75h-44v-485h55v353c26 29.333 54.667 53 86 71zM342.499 663.5
c-7.66699 -8.33301 -17.167 -12.501 -28.5 -12.501c-16.667 0 -32.667 8.66699 -48 26s-37 26 -65 26c-24.667 0 -44.667 -7.33301 -60 -22s-23 -37.667 -23 -69h42c1.33301 15.333 5.83301 27.333 13.5 36s17.167 13 28.5 13c16 0 33.333 -8.66699 52 -26
c17.333 -18 37.333 -27 60 -27c24.667 0 44.667 7.33301 60 22s23 37.667 23 69h-41c-1.33301 -15.333 -5.83301 -27.166 -13.5 -35.499z" />
    <glyph glyph-name="ograve" unicode="&#xf2;" horiz-adv-x="525" 
d="M459.5 110.5c-18.333 -38.333 -44.666 -68.499 -78.999 -90.499s-74.833 -33 -121.5 -33c-70 0 -124.333 23.667 -163 71s-58 109.666 -58 186.999c0 48 9.16699 91.167 27.5 129.5s44.666 68.5 78.999 90.5s74.833 33 121.5 33
c70.667 -0.666992 125.167 -24.167 163.5 -70.5s57.5 -108.833 57.5 -187.5c0 -48 -9.16699 -91.167 -27.5 -129.5zM350.5 60.501c25.667 18.333 45.334 43.166 59.001 74.499s20.834 66 21.501 104c0 62 -14.5 113 -43.5 153s-69.833 60 -122.5 60
c-34.667 0 -64.834 -9.16699 -90.501 -27.5s-45.334 -43.166 -59.001 -74.499s-20.834 -66 -21.501 -104c0 -62 14.5 -113 43.5 -153s69.833 -60 122.5 -60c34.667 0 64.834 9.16699 90.501 27.5zM249 742.001h-66l85 -153l36 12z" />
    <glyph glyph-name="oacute" unicode="&#xf3;" horiz-adv-x="525" 
d="M459.5 110.5c-18.333 -38.333 -44.666 -68.499 -78.999 -90.499s-74.833 -33 -121.5 -33c-70 0 -124.333 23.667 -163 71s-58 109.666 -58 186.999c0 48 9.16699 91.167 27.5 129.5s44.666 68.5 78.999 90.5s74.833 33 121.5 33
c70.667 -0.666992 125.167 -24.167 163.5 -70.5s57.5 -108.833 57.5 -187.5c0 -48 -9.16699 -91.167 -27.5 -129.5zM350.5 60.501c25.667 18.333 45.334 43.166 59.001 74.499s20.834 66 21.501 104c0 62 -14.5 113 -43.5 153s-69.833 60 -122.5 60
c-34.667 0 -64.834 -9.16699 -90.501 -27.5s-45.334 -43.166 -59.001 -74.499s-20.834 -66 -21.501 -104c0 -62 14.5 -113 43.5 -153s69.833 -60 122.5 -60c34.667 0 64.834 9.16699 90.501 27.5zM275 742.001l-55 -141l36 -12l85 153h-66z" />
    <glyph glyph-name="ocircumflex" unicode="&#xf4;" horiz-adv-x="525" 
d="M459.5 110.5c-18.333 -38.333 -44.666 -68.499 -78.999 -90.499s-74.833 -33 -121.5 -33c-70 0 -124.333 23.667 -163 71s-58 109.666 -58 186.999c0 48 9.16699 91.167 27.5 129.5s44.666 68.5 78.999 90.5s74.833 33 121.5 33
c70.667 -0.666992 125.167 -24.167 163.5 -70.5s57.5 -108.833 57.5 -187.5c0 -48 -9.16699 -91.167 -27.5 -129.5zM350.5 60.501c25.667 18.333 45.334 43.166 59.001 74.499s20.834 66 21.501 104c0 62 -14.5 113 -43.5 153s-69.833 60 -122.5 60
c-34.667 0 -64.834 -9.16699 -90.501 -27.5s-45.334 -43.166 -59.001 -74.499s-20.834 -66 -21.501 -104c0 -62 14.5 -113 43.5 -153s69.833 -60 122.5 -60c34.667 0 64.834 9.16699 90.501 27.5zM397 601.001l-104 141h-49l-103 -143l47 -10l81 114l79 -114z" />
    <glyph glyph-name="otilde" unicode="&#xf5;" horiz-adv-x="525" 
d="M459.5 110.5c-18.333 -38.333 -44.666 -68.499 -78.999 -90.499s-74.833 -33 -121.5 -33c-70 0 -124.333 23.667 -163 71s-58 109.666 -58 186.999c0 48 9.16699 91.167 27.5 129.5s44.666 68.5 78.999 90.5s74.833 33 121.5 33
c70.667 -0.666992 125.167 -24.167 163.5 -70.5s57.5 -108.833 57.5 -187.5c0 -48 -9.16699 -91.167 -27.5 -129.5zM350.5 60.501c25.667 18.333 45.334 43.166 59.001 74.499s20.834 66 21.501 104c0 62 -14.5 113 -43.5 153s-69.833 60 -122.5 60
c-34.667 0 -64.834 -9.16699 -90.501 -27.5s-45.334 -43.166 -59.001 -74.499s-20.834 -66 -21.501 -104c0 -62 14.5 -113 43.5 -153s69.833 -60 122.5 -60c34.667 0 64.834 9.16699 90.501 27.5zM343.5 663.501c-7.66699 -8.33301 -17.167 -12.501 -28.5 -12.501
c-16.667 0 -32.667 8.66699 -48 26s-37 26 -65 26c-24.667 0 -44.667 -7.33301 -60 -22s-23 -37.667 -23 -69h42c1.33301 15.333 5.83301 27.333 13.5 36s17.167 13 28.5 13c16 0 33.333 -8.66699 52 -26c17.333 -18 37.333 -27 60 -27c24.667 0 44.667 7.33301 60 22
s23 37.667 23 69h-41c-1.33301 -15.333 -5.83301 -27.166 -13.5 -35.499z" />
    <glyph glyph-name="odieresis" unicode="&#xf6;" horiz-adv-x="525" 
d="M459.5 110.5c-18.333 -38.333 -44.666 -68.499 -78.999 -90.499s-74.833 -33 -121.5 -33c-70 0 -124.333 23.667 -163 71s-58 109.666 -58 186.999c0 48 9.16699 91.167 27.5 129.5s44.666 68.5 78.999 90.5s74.833 33 121.5 33
c70.667 -0.666992 125.167 -24.167 163.5 -70.5s57.5 -108.833 57.5 -187.5c0 -48 -9.16699 -91.167 -27.5 -129.5zM350.5 60.501c25.667 18.333 45.334 43.166 59.001 74.499s20.834 66 21.501 104c0 62 -14.5 113 -43.5 153s-69.833 60 -122.5 60
c-34.667 0 -64.834 -9.16699 -90.501 -27.5s-45.334 -43.166 -59.001 -74.499s-20.834 -66 -21.501 -104c0 -62 14.5 -113 43.5 -153s69.833 -60 122.5 -60c34.667 0 64.834 9.16699 90.501 27.5zM214.5 629.501c7.66699 7.66699 11.5 17.165 11.5 28.498
c0 10.667 -3.83301 19.834 -11.5 27.501s-17.167 11.5 -28.5 11.5s-20.833 -3.66699 -28.5 -11s-11.5 -16.666 -11.5 -27.999s3.83301 -20.833 11.5 -28.5s17.167 -11.5 28.5 -11.5s20.833 3.83301 28.5 11.5zM372.5 629.499c7.66699 7.66699 11.5 17.165 11.5 28.498
c0 10.667 -3.83301 19.834 -11.5 27.501s-17.167 11.5 -28.5 11.5c-12 0 -21.667 -3.66699 -29 -11s-11 -16.666 -11 -27.999s3.66699 -20.833 11 -28.5s17 -11.5 29 -11.5c11.333 0 20.833 3.83301 28.5 11.5z" />
    <glyph glyph-name="divide" unicode="&#xf7;" horiz-adv-x="497" 
d="M280.5 383c9 9.33301 13.5 20 13.5 32c0 13.333 -4.33301 24.5 -13 33.5s-19.667 13.5 -33 13.5c-14 0 -25.333 -4.5 -34 -13.5s-13 -20.167 -13 -33.5c0 -12.667 4.5 -23.5 13.5 -32.5s20.167 -13.5 33.5 -13.5c12.667 0 23.5 4.66699 32.5 14zM38 252h429l-9 43h-428z
M283.5 80c9 9.33301 13.5 20.333 13.5 33s-4.5 23.5 -13.5 32.5s-19.833 13.5 -32.5 13.5c-14 0 -25.333 -4.33301 -34 -13s-13 -19.667 -13 -33s4.33301 -24.5 13 -33.5s20 -13.5 34 -13.5c12.667 0 23.5 4.66699 32.5 14z" />
    <glyph glyph-name="oslash" unicode="&#xf8;" horiz-adv-x="525" 
d="M459.5 110.5c-18.333 -38.333 -44.666 -68.499 -78.999 -90.499s-74.833 -33 -121.5 -33c-70 0 -124.333 23.667 -163 71s-58 109.666 -58 186.999c0 48 9.16699 91.167 27.5 129.5s44.666 68.5 78.999 90.5s74.833 33 121.5 33
c70.667 -0.666992 125.167 -24.167 163.5 -70.5s57.5 -108.833 57.5 -187.5c0 -48 -9.16699 -91.167 -27.5 -129.5zM350.5 60.501c25.667 18.333 45.334 43.166 59.001 74.499s20.834 66 21.501 104c0 62 -14.5 113 -43.5 153s-69.833 60 -122.5 60
c-34.667 0 -64.834 -9.16699 -90.501 -27.5s-45.334 -43.166 -59.001 -74.499s-20.834 -66 -21.501 -104c0 -62 14.5 -113 43.5 -153s69.833 -60 122.5 -60c34.667 0 64.834 9.16699 90.501 27.5zM258 220.001l17 31l-2 -4l-13 -24z" />
    <glyph glyph-name="ugrave" unicode="&#xf9;" 
d="M298.5 61c-31.667 -18 -60.8311 -26.999 -87.498 -26.999c-33.333 0 -57 10.667 -71 32s-21 50.666 -21 87.999v331h-55v-337c0 -49.333 11.833 -88.5 35.5 -117.5s60.5 -43.5 110.5 -43.5c29.333 0 60.666 8.66699 93.999 26s60.666 38.333 81.999 63l10 -76h44v485h-55
v-353c-26 -29.333 -54.833 -53 -86.5 -71zM233.003 742.001h-66l85 -153l36 12z" />
    <glyph glyph-name="uacute" unicode="&#xfa;" 
d="M298.5 61c-31.667 -18 -60.8311 -26.999 -87.498 -26.999c-33.333 0 -57 10.667 -71 32s-21 50.666 -21 87.999v331h-55v-337c0 -49.333 11.833 -88.5 35.5 -117.5s60.5 -43.5 110.5 -43.5c29.333 0 60.666 8.66699 93.999 26s60.666 38.333 81.999 63l10 -76h44v485h-55
v-353c-26 -29.333 -54.833 -53 -86.5 -71zM259.003 742.001l-55 -141l36 -12l85 153h-66z" />
    <glyph glyph-name="ucircumflex" unicode="&#xfb;" 
d="M298.5 61c-31.667 -18 -60.8311 -26.999 -87.498 -26.999c-33.333 0 -57 10.667 -71 32s-21 50.666 -21 87.999v331h-55v-337c0 -49.333 11.833 -88.5 35.5 -117.5s60.5 -43.5 110.5 -43.5c29.333 0 60.666 8.66699 93.999 26s60.666 38.333 81.999 63l10 -76h44v485h-55
v-353c-26 -29.333 -54.833 -53 -86.5 -71zM381.003 601.001l-104 141h-49l-103 -143l47 -10l81 114l79 -114z" />
    <glyph glyph-name="udieresis" unicode="&#xfc;" 
d="M298.5 61c-31.667 -18 -60.8311 -26.999 -87.498 -26.999c-33.333 0 -57 10.667 -71 32s-21 50.666 -21 87.999v331h-55v-337c0 -49.333 11.833 -88.5 35.5 -117.5s60.5 -43.5 110.5 -43.5c29.333 0 60.666 8.66699 93.999 26s60.666 38.333 81.999 63l10 -76h44v485h-55
v-353c-26 -29.333 -54.833 -53 -86.5 -71zM198.503 629.501c7.66699 7.66699 11.5 17.165 11.5 28.498c0 10.667 -3.83301 19.834 -11.5 27.501s-17.167 11.5 -28.5 11.5s-20.833 -3.66699 -28.5 -11s-11.5 -16.666 -11.5 -27.999s3.83301 -20.833 11.5 -28.5
s17.167 -11.5 28.5 -11.5s20.833 3.83301 28.5 11.5zM356.503 629.499c7.66699 7.66699 11.5 17.165 11.5 28.498c0 10.667 -3.83301 19.834 -11.5 27.501s-17.167 11.5 -28.5 11.5c-12 0 -21.667 -3.66699 -29 -11s-11 -16.666 -11 -27.999s3.66699 -20.833 11 -28.5
s17 -11.5 29 -11.5c11.333 0 20.833 3.83301 28.5 11.5z" />
    <glyph glyph-name="yacute" unicode="&#xfd;" horiz-adv-x="434" 
d="M127.5 -146c-14.333 -11.333 -35.5 -22.668 -63.5 -34.001l10 -39c32 6.66699 59.667 19.334 83 38.001s40 41.667 50 69l217 597h-55l-152 -417l-160 426l-47 -22l183 -475l-32 -95c-8 -20.667 -19.167 -36.667 -33.5 -48zM224 741.998l-55 -141l36 -12l85 153h-66z" />
    <glyph glyph-name="thorn" unicode="&#xfe;" horiz-adv-x="512" 
d="M418.5 428c37 -46.667 55.5 -109 55.5 -187c0 -48.667 -8.5 -92.167 -25.5 -130.5s-42 -68.5 -75 -90.5s-72.833 -33 -119.5 -33c-22 0 -43.833 4.33301 -65.5 13s-41.5 20 -59.5 34v-242l-55 -11v915l55 10v-258c38.667 33.333 82 50 130 50
c69.333 0 122.5 -23.333 159.5 -70zM375 92c28 39.333 42 88.668 42 148.001c0 63.333 -13.167 114.5 -39.5 153.5s-65.5 58.5 -117.5 58.5c-28 0 -52.167 -5.33301 -72.5 -16s-39.833 -26 -58.5 -46v-303c18.667 -16.667 38 -29.834 58 -39.501s43 -14.5 69 -14.5
c51.333 0 91 19.667 119 59z" />
    <glyph glyph-name="ydieresis" unicode="&#xff;" horiz-adv-x="434" 
d="M127.5 -146c-14.333 -11.333 -35.5 -22.668 -63.5 -34.001l10 -39c32 6.66699 59.667 19.334 83 38.001s40 41.667 50 69l217 597h-55l-152 -417l-160 426l-47 -22l183 -475l-32 -95c-8 -20.667 -19.167 -36.667 -33.5 -48zM163.5 629.498
c7.66699 7.66699 11.5 17.165 11.5 28.498c0 10.667 -3.83301 19.834 -11.5 27.501s-17.167 11.5 -28.5 11.5s-20.833 -3.66699 -28.5 -11s-11.5 -16.666 -11.5 -27.999s3.83301 -20.833 11.5 -28.5s17.167 -11.5 28.5 -11.5s20.833 3.83301 28.5 11.5zM321.5 629.496
c7.66699 7.66699 11.5 17.165 11.5 28.498c0 10.667 -3.83301 19.834 -11.5 27.501s-17.167 11.5 -28.5 11.5c-12 0 -21.667 -3.66699 -29 -11s-11 -16.666 -11 -27.999s3.66699 -20.833 11 -28.5s17 -11.5 29 -11.5c11.333 0 20.833 3.83301 28.5 11.5z" />
    <glyph glyph-name="Amacron" unicode="&#x100;" horiz-adv-x="581" 
d="M64 0l76 209h296l80 -215l55 11l-259 675h-55l-247 -680h54zM285 608l135 -355h-265zM399 833h-236v-43h241z" />
    <glyph glyph-name="amacron" unicode="&#x101;" horiz-adv-x="479" 
d="M170.5 444c19 5.33301 43.501 8 73.501 8c38 0 66.833 -10.5 86.5 -31.5s29.5 -49.167 29.5 -84.5v-55h-135c-51.333 0 -93 -12.833 -125 -38.5s-48 -61.167 -48 -106.5c0 -44 14 -79.833 42 -107.5s68.333 -41.5 121 -41.5c28 0 55.5 6.16699 82.5 18.5
s48.833 27.833 65.5 46.5l8 -52h44v340c0 48 -15.333 86.333 -46 115s-73.334 43 -128.001 43c-22 0 -49 -4 -81 -12s-56.667 -18 -74 -30l19 -38c24.667 12 46.5 20.667 65.5 26zM138.501 212c20.333 20 49.5 30 87.5 30h134v-129c-17.333 -24 -38.333 -43.333 -63 -58
s-51.667 -22 -81 -22c-34 0 -60.5 10 -79.5 30s-28.5 44.333 -28.5 73c0 30.667 10.167 56 30.5 76zM354.001 683h-235v-43h241z" />
    <glyph glyph-name="Abreve" unicode="&#x102;" horiz-adv-x="581" 
d="M64 0l76 209h296l80 -215l55 11l-259 675h-55l-247 -680h54zM285 608l135 -355h-265zM347.5 820c-15.667 -17.333 -36.499 -26.002 -62.499 -26.002c-26.667 0 -47.834 8.83301 -63.501 26.5s-23.5 37.834 -23.5 60.501h-43c0 -36 11.333 -66.667 34 -92
s54.667 -38 96 -38c42 0 74.167 12.667 96.5 38s33.5 56 33.5 92h-44c0 -23.333 -7.83301 -43.666 -23.5 -60.999z" />
    <glyph glyph-name="abreve" unicode="&#x103;" horiz-adv-x="479" 
d="M170.5 444c19 5.33301 43.501 8 73.501 8c38 0 66.833 -10.5 86.5 -31.5s29.5 -49.167 29.5 -84.5v-55h-135c-51.333 0 -93 -12.833 -125 -38.5s-48 -61.167 -48 -106.5c0 -44 14 -79.833 42 -107.5s68.333 -41.5 121 -41.5c28 0 55.5 6.16699 82.5 18.5
s48.833 27.833 65.5 46.5l8 -52h44v340c0 48 -15.333 86.333 -46 115s-73.334 43 -128.001 43c-22 0 -49 -4 -81 -12s-56.667 -18 -74 -30l19 -38c24.667 12 46.5 20.667 65.5 26zM138.501 212c20.333 20 49.5 30 87.5 30h134v-129c-17.333 -24 -38.333 -43.333 -63 -58
s-51.667 -22 -81 -22c-34 0 -60.5 10 -79.5 30s-28.5 44.333 -28.5 73c0 30.667 10.167 56 30.5 76zM302.501 670c-15.667 -17.333 -36.499 -26.002 -62.499 -26.002c-26.667 0 -47.834 8.83301 -63.501 26.5s-23.5 37.834 -23.5 60.501h-43c0 -36 11.333 -66.667 34 -92
s54.667 -38 96 -38c42 0 74.167 12.667 96.5 38s33.5 56 33.5 92h-44c0 -23.333 -7.83301 -43.666 -23.5 -60.999z" />
    <glyph glyph-name="Aogonek" unicode="&#x104;" horiz-adv-x="581" 
d="M609.5 -198.5c-14.333 -5.66699 -29.499 -8.49902 -45.499 -8.49902c-30 0 -55 9 -75 27s-30 41 -30 69c0 16.667 5.16699 35 15.5 55s23.833 37.667 40.5 53l-79 212h-296l-76 -209h-54l247 680h55l259 -675l-19 -4l14 -1c-18 -14.667 -32 -31.5 -42 -50.5
s-15 -38.833 -15 -59.5c0 -18 6 -31.833 18 -41.5s25.333 -14.5 40 -14.5c19.333 0 37.666 7 54.999 21l22 -32c-8.66699 -8.66699 -20.167 -15.834 -34.5 -21.501zM285.001 608.001l-130 -355h265z" />
    <glyph glyph-name="aogonek" unicode="&#x105;" horiz-adv-x="479" 
d="M460.5 -198.5c-14.333 -5.66699 -29.5 -8.49902 -45.5 -8.49902c-30 0 -55 9 -75 27s-30 41 -30 69c0 18 5.66699 37.5 17 58.5s26 38.833 44 53.5l-8 51c-16.667 -18.667 -38.5 -34.167 -65.5 -46.5s-54.5 -18.5 -82.5 -18.5c-52.667 0 -93 13.833 -121 41.5
s-42 63.5 -42 107.5c0 45.333 16 80.833 48 106.5s73.667 38.5 125 38.5h135v55c0 35.333 -9.83301 63.5 -29.5 84.5s-48.5 31.5 -86.5 31.5c-30 0 -54.5 -2.66699 -73.5 -8s-40.833 -14 -65.5 -26l-19 38c17.333 12 42 22 74 30s59 12 81 12
c54.667 0 97.334 -14.333 128.001 -43s46 -67 46 -115v-340h2c-18 -14.667 -32 -31.5 -42 -50.5s-15 -38.833 -15 -59.5c0 -18 6 -31.833 18 -41.5s25.333 -14.5 40 -14.5c19.333 0 37.666 7 54.999 21l22 -32c-8.66699 -8.66699 -20.167 -15.834 -34.5 -21.501z
M226 242.001c-38 0 -67.167 -10 -87.5 -30s-30.5 -45.333 -30.5 -76c0 -28.667 9.5 -53 28.5 -73s45.5 -30 79.5 -30c29.333 0 56.333 7.33301 81 22s45.667 34 63 58v129h-134z" />
    <glyph glyph-name="Cacute" unicode="&#x106;" horiz-adv-x="553" 
d="M449.5 684c-34.333 6.66699 -63.835 10 -88.502 10c-63.333 0 -118.666 -15.833 -165.999 -47.5s-83.666 -74.667 -108.999 -129s-38 -114.833 -38 -181.5c0 -64 11.5 -122.5 34.5 -175.5s57.5 -95.333 103.5 -127s102.333 -47.5 169 -47.5c28 0 58.833 3.66699 92.5 11
s59.834 16 78.501 26l-24 42c-21.333 -9.33301 -43.5 -16.666 -66.5 -21.999s-50.833 -8 -83.5 -8c-50 0 -93.5 13.667 -130.5 41s-65.167 63.833 -84.5 109.5s-29 96.167 -29 151.5c0 60 11 113.333 33 160s52.333 83.167 91 109.5s81.667 39.5 129 39.5
c32.667 0 58.667 -2.33301 78 -7s41.666 -12.334 66.999 -23.001l20 41c-16.667 11.333 -42.167 20.333 -76.5 27zM372.998 892l-55 -141l36 -12l85 153h-66z" />
    <glyph glyph-name="cacute" unicode="&#x107;" horiz-adv-x="450" 
d="M364.5 54c-14.333 -7.33301 -30.0029 -12.668 -47.0029 -16.001s-36.167 -5 -57.5 -5c-52.667 0 -93.5 20 -122.5 60s-43.5 91 -43.5 153c0.666992 38 7.83398 72.667 21.501 104s33.334 56.166 59.001 74.499s55.834 27.5 90.501 27.5c28.667 0 51.667 -2.83301 69 -8.5
s38 -14.167 62 -25.5l20 38c-18.667 12 -43 22 -73 30s-55.333 12 -76 12c-46.667 0 -87.334 -10.833 -122.001 -32.5s-61.167 -51.667 -79.5 -90s-27.5 -81.833 -27.5 -130.5c0 -77.333 19.5 -139.666 58.5 -186.999s93.5 -71 163.5 -71c22 0 47.833 3.83301 77.5 11.5
s54.167 17.5 73.5 29.5l-20 39c-3.33301 -1.33301 -12.166 -5.66602 -26.499 -12.999zM264.997 741.998l-55 -141l36 -12l85 153h-66z" />
    <glyph glyph-name="Ccaron" unicode="&#x10c;" horiz-adv-x="553" 
d="M449.5 684c-34.333 6.66699 -63.835 10 -88.502 10c-63.333 0 -118.666 -15.833 -165.999 -47.5s-83.666 -74.667 -108.999 -129s-38 -114.833 -38 -181.5c0 -64 11.5 -122.5 34.5 -175.5s57.5 -95.333 103.5 -127s102.333 -47.5 169 -47.5c28 0 58.833 3.66699 92.5 11
s59.834 16 78.501 26l-24 42c-21.333 -9.33301 -43.5 -16.666 -66.5 -21.999s-50.833 -8 -83.5 -8c-50 0 -93.5 13.667 -130.5 41s-65.167 63.833 -84.5 109.5s-29 96.167 -29 151.5c0 60 11 113.333 33 160s52.333 83.167 91 109.5s81.667 39.5 129 39.5
c32.667 0 58.667 -2.33301 78 -7s41.666 -12.334 66.999 -23.001l20 41c-16.667 11.333 -42.167 20.333 -76.5 27zM233.998 882l104 -143h49l103 141l-47 12l-80 -114l-80 114z" />
    <glyph glyph-name="ccaron" unicode="&#x10d;" horiz-adv-x="450" 
d="M364.5 54c-14.333 -7.33301 -30.0029 -12.668 -47.0029 -16.001s-36.167 -5 -57.5 -5c-52.667 0 -93.5 20 -122.5 60s-43.5 91 -43.5 153c0.666992 38 7.83398 72.667 21.501 104s33.334 56.166 59.001 74.499s55.834 27.5 90.501 27.5c28.667 0 51.667 -2.83301 69 -8.5
s38 -14.167 62 -25.5l20 38c-18.667 12 -43 22 -73 30s-55.333 12 -76 12c-46.667 0 -87.334 -10.833 -122.001 -32.5s-61.167 -51.667 -79.5 -90s-27.5 -81.833 -27.5 -130.5c0 -77.333 19.5 -139.666 58.5 -186.999s93.5 -71 163.5 -71c22 0 47.833 3.83301 77.5 11.5
s54.167 17.5 73.5 29.5l-20 39c-3.33301 -1.33301 -12.166 -5.66602 -26.499 -12.999zM124.997 731.998l104 -143h49l103 141l-47 12l-80 -114l-80 114z" />
    <glyph glyph-name="Dcaron" unicode="&#x10e;" horiz-adv-x="663" 
d="M482.5 45.5c44.333 30.333 77.5 71.5 99.5 123.5s33 110.333 33 175c0 100 -23.667 181 -71 243s-120.333 93 -219 93h-227v-680h222c64 0 118.167 15.167 162.5 45.5zM457.5 596.5c34.333 -25.667 60 -60.5 77 -104.5s25.5 -93.667 25.5 -149
c0 -58 -10 -109.5 -30 -154.5s-48 -80.167 -84 -105.5s-77.667 -38 -125 -38h-168v590h178c50 0 92.167 -12.833 126.5 -38.5zM184 882l104 -143h49l103 141l-47 12l-80 -114l-80 114z" />
    <glyph glyph-name="dcaron" unicode="&#x10f;" horiz-adv-x="641" 
d="M436 705v-705h-33l-15 42c-40 -36.667 -85.333 -55 -136 -55c-69.333 0 -122.333 23.333 -159 70s-55 109 -55 187c0 48.667 8.5 92.167 25.5 130.5s42 68.5 75 90.5s72.833 33 119.5 33c40 0 81 -15.333 123 -46v244zM598.5 687.5
c8.33301 -9.66699 12.499 -21.168 12.499 -34.501c0 -30 -8.16699 -58.167 -24.5 -84.5s-37.833 -46.166 -64.5 -59.499l-17 27c37.333 22 57 48.667 59 80c-11.333 0.666992 -20.666 5.5 -27.999 14.5s-11 18.5 -11 28.5c0 11.333 4 21.333 12 30s18.333 13 31 13
c12 0 22.167 -4.83301 30.5 -14.5zM322.999 48.499c20 10.333 39.335 25.167 58.002 44.5v307c-18.667 16 -37.834 28.667 -57.501 38s-42.5 14 -68.5 14c-51.333 0 -90.833 -19.5 -118.5 -58.5s-41.834 -88.5 -42.501 -148.5c0 -62.667 13.333 -113.667 40 -153
s66 -59 118 -59c27.333 0 51 5.16699 71 15.5z" />
    <glyph glyph-name="Dcroat" unicode="&#x110;" horiz-adv-x="663" 
d="M544 587c47.333 -62 71 -143 71 -243c0 -64.667 -11 -123 -33 -175s-55.167 -93.167 -99.5 -123.5s-98.5 -45.5 -162.5 -45.5h-222v312h-74l-9 44h83v324h227c98.667 0 171.667 -31 219 -93zM446 83c36 25.333 64 60.5 84 105.5s30 96.5 30 154.5
c0 55.333 -8.5 105 -25.5 149s-42.667 78.833 -77 104.5s-76.5 38.5 -126.5 38.5h-178v-279h110l9 -44h-119v-267h168c47.333 0 89 12.667 125 38z" />
    <glyph glyph-name="dcroat" unicode="&#x111;" horiz-adv-x="514" 
d="M436 574v-574h-33l-15 42c-40 -36.667 -85.333 -55 -136 -55c-69.333 0 -122.333 23.333 -159 70s-55 109 -55 187c0 48.667 8.5 92.167 25.5 130.5s42 68.5 75 90.5s72.833 33 119.5 33c40 0 81 -15.333 123 -46v122h-119l-8 39h127v83l55 9v-92h66l8 -39h-74zM323 48.5
c20 10.333 39.335 25.167 58.002 44.5v307c-18.667 16 -37.834 28.667 -57.501 38s-42.5 14 -68.5 14c-51.333 0 -90.833 -19.5 -118.5 -58.5s-41.834 -88.5 -42.501 -148.5c0 -62.667 13.333 -113.667 40 -153s66 -59 118 -59c27.333 0 51 5.16699 71 15.5z" />
    <glyph glyph-name="Emacron" unicode="&#x112;" horiz-adv-x="499" 
d="M153 44v284h245l-5 41h-240v269h303l-5 42h-353v-680h381l-6 44h-320zM390 833h-236v-43h241z" />
    <glyph glyph-name="emacron" unicode="&#x113;" horiz-adv-x="486" 
d="M397 427c-34 47.333 -81.9971 70.998 -143.997 70.998c-69.333 0 -122.5 -23.333 -159.5 -70s-55.5 -107.667 -55.5 -183c0 -79.333 19.667 -142.166 59 -188.499s98.666 -69.5 177.999 -69.5c28 0 56.5 3.83301 85.5 11.5s54.5 17.834 76.5 30.501l-20 41
c-24 -12 -47.333 -21.333 -70 -28s-48.667 -10 -78 -10c-58.667 0 -102.334 19.167 -131.001 57.5s-43.334 88.833 -44.001 151.5h354c0 76.667 -17 138.667 -51 186zM141.503 403.998c25.667 32 61.165 48 106.498 48s79.333 -15.667 102 -47s36.334 -73 41.001 -125h-295
c4.66699 50.667 19.834 92 45.501 124zM362.001 682.998h-235v-43h241z" />
    <glyph glyph-name="Edotaccent" unicode="&#x116;" horiz-adv-x="499" 
d="M153 44v284h245l-5 41h-240v269h303l-5 42h-353v-680h381l-6 44h-320zM304.5 780.5c8.33301 8.33301 12.5 18.5 12.5 30.5c0 11.333 -4.16699 21.166 -12.5 29.499s-18.166 12.5 -29.499 12.5c-12 0 -22.167 -4.16699 -30.5 -12.5s-12.5 -18.166 -12.5 -29.499
c0 -12 4 -22.167 12 -30.5s18.333 -12.5 31 -12.5c11.333 0 21.166 4.16699 29.499 12.5z" />
    <glyph glyph-name="edotaccent" unicode="&#x117;" horiz-adv-x="486" 
d="M397 427c-34 47.333 -81.9971 70.998 -143.997 70.998c-69.333 0 -122.5 -23.333 -159.5 -70s-55.5 -107.667 -55.5 -183c0 -79.333 19.667 -142.166 59 -188.499s98.666 -69.5 177.999 -69.5c28 0 56.5 3.83301 85.5 11.5s54.5 17.834 76.5 30.501l-20 41
c-24 -12 -47.333 -21.333 -70 -28s-48.667 -10 -78 -10c-58.667 0 -102.334 19.167 -131.001 57.5s-43.334 88.833 -44.001 151.5h354c0 76.667 -17 138.667 -51 186zM141.503 403.998c25.667 32 61.165 48 106.498 48s79.333 -15.667 102 -47s36.334 -73 41.001 -125h-295
c4.66699 50.667 19.834 92 45.501 124zM280.501 630.498c8.33301 8.33301 12.5 18.5 12.5 30.5c0 11.333 -4.16699 21.166 -12.5 29.499s-18.166 12.5 -29.499 12.5c-12 0 -22.167 -4.16699 -30.5 -12.5s-12.5 -18.166 -12.5 -29.499c0 -12 4 -22.167 12 -30.5
s18.333 -12.5 31 -12.5c11.333 0 21.166 4.16699 29.499 12.5z" />
    <glyph glyph-name="Eogonek" unicode="&#x118;" horiz-adv-x="499" 
d="M451.5 -198.5c-14.333 -5.66699 -29.499 -8.49902 -45.499 -8.49902c-30 0 -55 9 -75 27s-30 41 -30 69c0 17.333 5.5 36.333 16.5 57s25.167 38.667 42.5 54h-262v680h353l5 -42h-303v-269h240l5 -41h-245v-284h320l6 -44h-71c-18 -14.667 -32 -31.5 -42 -50.5
s-15 -38.833 -15 -59.5c0 -18 6 -31.833 18 -41.5s25.333 -14.5 40 -14.5c19.333 0 37.666 7 54.999 21l22 -32c-8.66699 -8.66699 -20.167 -15.834 -34.5 -21.501z" />
    <glyph glyph-name="eogonek" unicode="&#x119;" horiz-adv-x="486" 
d="M297 -110c0 -18 5.99805 -31.8311 17.998 -41.498s25.333 -14.5 40 -14.5c19.333 0 37.666 7 54.999 21l22 -32c-8.66699 -8.66699 -20.167 -15.834 -34.5 -21.501s-29.5 -8.5 -45.5 -8.5c-30 0 -55 9 -75 27s-30 41 -30 69c0 15.333 4.16699 31.833 12.5 49.5
s19.5 34.167 33.5 49.5l-18 -1c-79.333 0 -138.666 23.167 -177.999 69.5s-59 109.166 -59 188.499c0 75.333 18.5 136.333 55.5 183s90.167 70 159.5 70c62 0 110 -23.667 144 -71s51 -109.333 51 -186h-354c0.666992 -62.667 15.334 -113.167 44.001 -151.5
s72.334 -57.5 131.001 -57.5c29.333 0 55.333 3.33301 78 10s46 16 70 28l20 -41c-26.667 -15.333 -56 -26.333 -88 -33c-34.667 -30.667 -52 -66 -52 -106zM141.498 404.002c-25.667 -32 -40.832 -73.333 -45.499 -124h295c-4.66699 52 -18.334 93.667 -41.001 125
s-56.667 47 -102 47s-80.833 -16 -106.5 -48z" />
    <glyph glyph-name="Ecaron" unicode="&#x11a;" horiz-adv-x="499" 
d="M153 44v284h245l-5 41h-240v269h303l-5 42h-353v-680h381l-6 44h-320zM149 882l104 -143h49l103 141l-47 12l-80 -114l-80 114z" />
    <glyph glyph-name="ecaron" unicode="&#x11b;" horiz-adv-x="486" 
d="M397 427c-34 47.333 -81.9971 70.998 -143.997 70.998c-69.333 0 -122.5 -23.333 -159.5 -70s-55.5 -107.667 -55.5 -183c0 -79.333 19.667 -142.166 59 -188.499s98.666 -69.5 177.999 -69.5c28 0 56.5 3.83301 85.5 11.5s54.5 17.834 76.5 30.501l-20 41
c-24 -12 -47.333 -21.333 -70 -28s-48.667 -10 -78 -10c-58.667 0 -102.334 19.167 -131.001 57.5s-43.334 88.833 -44.001 151.5h354c0 76.667 -17 138.667 -51 186zM141.503 403.998c25.667 32 61.165 48 106.498 48s79.333 -15.667 102 -47s36.334 -73 41.001 -125h-295
c4.66699 50.667 19.834 92 45.501 124zM122.001 731.998l104 -143h49l103 141l-47 12l-80 -114l-80 114z" />
    <glyph glyph-name="Gbreve" unicode="&#x11e;" horiz-adv-x="620" 
d="M506 58c-42 -15.333 -82.6641 -23.0029 -121.997 -23.0029c-52.667 0 -99.834 12.667 -141.501 38s-74.5 60.833 -98.5 106.5s-36 97.834 -36 156.501c0 61.333 12.833 115.666 38.5 162.999s60.167 83.833 103.5 109.5s91 38.5 143 38.5c32 0 58 -2.33301 78 -7
s42.333 -12 67 -22l19 39c-16.667 11.333 -42.334 20.333 -77.001 27s-64.334 10 -89.001 10c-64.667 0 -123 -15.167 -175 -45.5s-93 -72.666 -123 -126.999s-45 -116.166 -45 -185.499c0 -66.667 13.833 -126.5 41.5 -179.5s67 -94.667 118 -125
s110.167 -45.5 177.5 -45.5c30 0 62 4.33301 96 13s60.667 19.334 80 32.001v311h-202l-6 -42h153v-242zM443.503 819.997c-15.667 -17.333 -36.499 -26.002 -62.499 -26.002c-26.667 0 -47.834 8.83301 -63.501 26.5s-23.5 37.834 -23.5 60.501h-43
c0 -36 11.333 -66.667 34 -92s54.667 -38 96 -38c42 0 74.167 12.667 96.5 38s33.5 56 33.5 92h-44c0 -23.333 -7.83301 -43.666 -23.5 -60.999z" />
    <glyph glyph-name="gbreve" unicode="&#x11f;" horiz-adv-x="510" 
d="M436 -62c0 -49.333 -17.499 -89.666 -52.499 -120.999s-83.5 -47 -145.5 -47c-22 0 -50.5 4 -85.5 12s-61.5 17.667 -79.5 29l19 40c24 -11.333 46.667 -19.833 68 -25.5s46.666 -8.83398 75.999 -9.50098c42.667 0 77.5 10 104.5 30s40.5 49 40.5 87v102
c-38.667 -32 -81.667 -48 -129 -48c-69.333 0 -122.333 23.333 -159 70s-55 109 -55 187c0 48.667 8.5 92.167 25.5 130.5s42 68.5 75 90.5s72.833 33 119.5 33c42.667 0 86.667 -17.333 132 -52l13 39h33v-547zM323.001 48.5c20 10.333 39.335 25.167 58.002 44.5v307
c-18.667 16 -37.834 28.667 -57.501 38s-42.5 14 -68.5 14c-51.333 0 -90.833 -19.5 -118.5 -58.5s-41.834 -88.5 -42.501 -148.5c0 -62.667 13.333 -113.667 40 -153s66 -59 118 -59c27.333 0 51 5.16699 71 15.5zM312.503 670.001
c-15.667 -17.333 -36.499 -26.002 -62.499 -26.002c-26.667 0 -47.834 8.83301 -63.501 26.5s-23.5 37.834 -23.5 60.501h-43c0 -36 11.333 -66.667 34 -92s54.667 -38 96 -38c42 0 74.167 12.667 96.5 38s33.5 56 33.5 92h-44c0 -23.333 -7.83301 -43.666 -23.5 -60.999z
" />
    <glyph glyph-name="Gcommaaccent" unicode="&#x122;" horiz-adv-x="620" 
d="M506 58c-42 -15.333 -82.6641 -23.0029 -121.997 -23.0029c-52.667 0 -99.834 12.667 -141.501 38s-74.5 60.833 -98.5 106.5s-36 97.834 -36 156.501c0 61.333 12.833 115.666 38.5 162.999s60.167 83.833 103.5 109.5s91 38.5 143 38.5c32 0 58 -2.33301 78 -7
s42.333 -12 67 -22l19 39c-16.667 11.333 -42.334 20.333 -77.001 27s-64.334 10 -89.001 10c-64.667 0 -123 -15.167 -175 -45.5s-93 -72.666 -123 -126.999s-45 -116.166 -45 -185.499c0 -66.667 13.833 -126.5 41.5 -179.5s67 -94.667 118 -125
s110.167 -45.5 177.5 -45.5c30 0 62 4.33301 96 13s60.667 19.334 80 32.001v311h-202l-6 -42h153v-242zM355.503 -33.5029c-8.33301 -8.33301 -12.498 -18.5 -12.498 -30.5c0 -10 3.66699 -19.333 11 -28s16.666 -13.334 27.999 -14.001
c-0.666992 -31.333 -20.334 -58.333 -59.001 -81l17 -27c26.667 12.667 48.167 32.334 64.5 59.001s24.5 55.334 24.5 86.001c0 13.333 -4.16699 24.666 -12.5 33.999s-18.5 14 -30.5 14s-22.167 -4.16699 -30.5 -12.5z" />
    <glyph glyph-name="gcommaaccent" unicode="&#x123;" horiz-adv-x="510" 
d="M227 585c-8 9.33301 -11.999 21.001 -11.999 35.001c0 30 8.16699 58.333 24.5 85s37.5 46.667 63.5 60l18 -28c-38 -22.667 -58 -49.334 -60 -80.001c12 -0.666992 21.5 -5.5 28.5 -14.5s10.5 -18.5 10.5 -28.5c0 -12 -3.83301 -22.167 -11.5 -30.5
s-17.834 -12.5 -30.501 -12.5s-23 4.66699 -31 14zM436.001 -61.999c0 -49.333 -17.499 -89.666 -52.499 -120.999s-83.5 -47 -145.5 -47c-22 0 -50.5 4 -85.5 12s-61.5 17.667 -79.5 29l19 40c24 -11.333 46.667 -19.833 68 -25.5s46.666 -8.83398 75.999 -9.50098
c42.667 0 77.5 10 104.5 30s40.5 49 40.5 87v102c-38.667 -32 -81.667 -48 -129 -48c-69.333 0 -122.333 23.333 -159 70s-55 109 -55 187c0 48.667 8.5 92.167 25.5 130.5s42 68.5 75 90.5s72.833 33 119.5 33c42.667 0 86.667 -17.333 132 -52l13 39h33v-547z
M323.002 48.501c20 10.333 39.335 25.167 58.002 44.5v307c-18.667 16 -37.834 28.667 -57.501 38s-42.5 14 -68.5 14c-51.333 0 -90.833 -19.5 -118.5 -58.5s-41.834 -88.5 -42.501 -148.5c0 -62.667 13.333 -113.667 40 -153s66 -59 118 -59c27.333 0 51 5.16699 71 15.5z
" />
    <glyph glyph-name="Imacron" unicode="&#x12a;" horiz-adv-x="250" 
d="M98 680v-680h55v680h-55zM240 833h-236v-43h241z" />
    <glyph glyph-name="imacron" unicode="&#x12b;" horiz-adv-x="191" 
d="M68 485v-485h55v485h-55zM207 683h-235v-43h241z" />
    <glyph glyph-name="Iogonek" unicode="&#x12e;" horiz-adv-x="250" 
d="M191.5 -198.5c-14.333 -5.66699 -29.499 -8.49902 -45.499 -8.49902c-30 0 -55 9 -75 27s-30 41 -30 69c0 17.333 5.5 36.333 16.5 57s25.167 38.667 42.5 54h-2v680h55v-680h-5c-18 -14.667 -32 -31.5 -42 -50.5s-15 -38.833 -15 -59.5c0 -18 6 -31.833 18 -41.5
s25.333 -14.5 40 -14.5c19.333 0 37.666 7 54.999 21l22 -32c-8.66699 -8.66699 -20.167 -15.834 -34.5 -21.501z" />
    <glyph glyph-name="iogonek" unicode="&#x12f;" horiz-adv-x="191" 
d="M65 630.5c-8 8.33301 -12 18.5 -12 30.5c0 11.333 4.16699 21.166 12.5 29.499s18.5 12.5 30.5 12.5c11.333 0 21.166 -4.16699 29.499 -12.5s12.5 -18.166 12.5 -29.499c0 -12 -4.16699 -22.167 -12.5 -30.5s-18.166 -12.5 -29.499 -12.5
c-12.667 0 -23 4.16699 -31 12.5zM160.5 -198.5c-14.333 -5.66699 -29.499 -8.49902 -45.499 -8.49902c-30 0 -55 9 -75 27s-30 41 -30 69c0 17.333 5.5 36.333 16.5 57s25.167 38.667 42.5 54h-1v485h55v-485h-6c-18 -14.667 -32 -31.5 -42 -50.5s-15 -38.833 -15 -59.5
c0 -18 6 -31.833 18 -41.5s25.333 -14.5 40 -14.5c19.333 0 37.666 7 54.999 21l22 -32c-8.66699 -8.66699 -20.167 -15.834 -34.5 -21.501z" />
    <glyph glyph-name="Idotaccent" unicode="&#x130;" horiz-adv-x="250" 
d="M98 680v-680h55v680h-55zM154.5 780.5c8.33301 8.33301 12.5 18.5 12.5 30.5c0 11.333 -4.16699 21.166 -12.5 29.499s-18.166 12.5 -29.499 12.5c-12 0 -22.167 -4.16699 -30.5 -12.5s-12.5 -18.166 -12.5 -29.499c0 -12 4 -22.167 12 -30.5s18.333 -12.5 31 -12.5
c11.333 0 21.166 4.16699 29.499 12.5z" />
    <glyph glyph-name="dotlessi" unicode="&#x131;" horiz-adv-x="191" 
d="M68 485v-485h55v485h-55z" />
    <glyph glyph-name="Kcommaaccent" unicode="&#x136;" horiz-adv-x="586" 
d="M153 263v-263h-55v680h55v-350l340 365l37 -35l-256 -269l302 -391h-68l-271 352zM305.5 -33.5c-8.33301 -8.33301 -12.498 -18.5 -12.498 -30.5c0 -10 3.66699 -19.333 11 -28s16.666 -13.334 27.999 -14.001c-0.666992 -31.333 -20.334 -58.333 -59.001 -81l17 -27
c26.667 12.667 48.167 32.334 64.5 59.001s24.5 55.334 24.5 86.001c0 13.333 -4.16699 24.666 -12.5 33.999s-18.5 14 -30.5 14s-22.167 -4.16699 -30.5 -12.5z" />
    <glyph glyph-name="kcommaaccent" unicode="&#x137;" horiz-adv-x="453" 
d="M206 273l180 -273h67l-211 309l154 155l-38 34l-225 -233v441l-55 -10v-696h55v199zM226.5 -33.5c-8.33301 -8.33301 -12.498 -18.5 -12.498 -30.5c0 -10 3.66699 -19.333 11 -28s16.666 -13.334 27.999 -14.001c-0.666992 -31.333 -20.334 -58.333 -59.001 -81l17 -27
c26.667 12.667 48.167 32.334 64.5 59.001s24.5 55.334 24.5 86.001c0 13.333 -4.16699 24.666 -12.5 33.999s-18.5 14 -30.5 14s-22.167 -4.16699 -30.5 -12.5z" />
    <glyph glyph-name="Lacute" unicode="&#x139;" horiz-adv-x="494" 
d="M153 680h-55v-680h386l-5 44h-326v636zM189 892l-55 -141l36 -12l85 153h-66z" />
    <glyph glyph-name="lacute" unicode="&#x13a;" horiz-adv-x="210" 
d="M139 892l-55 -141l35 -12l85 153h-65zM78 674v-674h55v684z" />
    <glyph glyph-name="Lcommaaccent" unicode="&#x13b;" horiz-adv-x="494" 
d="M153 680h-55v-680h386l-5 44h-326v636zM295.5 -33.5c-8.33301 -8.33301 -12.498 -18.5 -12.498 -30.5c0 -10 3.66699 -19.333 11 -28s16.666 -13.334 27.999 -14.001c-0.666992 -31.333 -20.334 -58.333 -59.001 -81l17 -27c26.667 12.667 48.167 32.334 64.5 59.001
s24.5 55.334 24.5 86.001c0 13.333 -4.16699 24.666 -12.5 33.999s-18.5 14 -30.5 14s-22.167 -4.16699 -30.5 -12.5z" />
    <glyph glyph-name="lcommaaccent" unicode="&#x13c;" horiz-adv-x="210" 
d="M78 696v-696h55v706zM76.5 -33.5c-8.33301 -8.33301 -12.498 -18.5 -12.498 -30.5c0 -10 3.66699 -19.333 11 -28s16.666 -13.334 27.999 -14.001c-0.666992 -31.333 -20.334 -58.333 -59.001 -81l17 -27c26.667 12.667 48.167 32.334 64.5 59.001
s24.5 55.334 24.5 86.001c0 13.333 -4.16699 24.666 -12.5 33.999s-18.5 14 -30.5 14s-22.167 -4.16699 -30.5 -12.5z" />
    <glyph glyph-name="Lcaron" unicode="&#x13d;" horiz-adv-x="494" 
d="M153 680h-55v-680h386l-5 44h-326v636zM342 689c-8 -8.66699 -12 -18.665 -12 -29.998c0 -10 3.5 -19.5 10.5 -28.5s16.5 -13.833 28.5 -14.5c-2 -30.667 -21.667 -57.334 -59 -80.001l17 -27c26.667 13.333 48.167 33.166 64.5 59.499s24.5 54.5 24.5 84.5
c0 13.333 -4.16699 24.833 -12.5 34.5s-18.5 14.5 -30.5 14.5c-12.667 0 -23 -4.33301 -31 -13z" />
    <glyph glyph-name="lcaron" unicode="&#x13e;" horiz-adv-x="338" 
d="M78 696v-696h55v706zM234 689c-8 -8.66699 -12 -18.665 -12 -29.998c0 -10 3.5 -19.5 10.5 -28.5s16.5 -13.833 28.5 -14.5c-2 -30.667 -21.667 -57.334 -59 -80.001l17 -27c26.667 13.333 48.167 33.166 64.5 59.499s24.5 54.5 24.5 84.5
c0 13.333 -4.16699 24.833 -12.5 34.5s-18.5 14.5 -30.5 14.5c-12.667 0 -23 -4.33301 -31 -13z" />
    <glyph glyph-name="Lslash" unicode="&#x141;" horiz-adv-x="489" 
d="M38 218l-26 37l81 70v355h55v-307l113 99l26 -35l-139 -123v-270h326l5 -44h-386v266z" />
    <glyph glyph-name="lslash" unicode="&#x142;" horiz-adv-x="274" 
d="M165 706l-55 -10v-336l-110 -95l26 -38l84 74v-301h55v349l109 97l-25 36l-84 -74v298z" />
    <glyph glyph-name="Nacute" unicode="&#x143;" horiz-adv-x="670" 
d="M167 539l372 -539h34v680h-56v-561l-34 59l-351 502h-34v-680h55v568zM347 892l-55 -141l36 -12l85 153h-66z" />
    <glyph glyph-name="nacute" unicode="&#x144;" 
d="M209 424c31.333 18 60.332 27 86.999 27c62 0 93 -40 93 -120v-331h55v337c0 49.333 -12 88.5 -36 117.5s-61 43.5 -111 43.5c-29.333 0 -60.666 -8.5 -93.999 -25.5s-60.333 -37.833 -81 -62.5l-10 75h-44v-485h55v353c26 29.333 54.667 53 86 71zM273.999 742l-55 -141
l36 -12l85 153h-66z" />
    <glyph glyph-name="Ncommaaccent" unicode="&#x145;" horiz-adv-x="670" 
d="M167 539l372 -539h34v680h-56v-561l-34 59l-351 502h-34v-680h55v568zM321.5 -33.5c-8.33301 -8.33301 -12.498 -18.5 -12.498 -30.5c0 -10 3.66699 -19.333 11 -28s16.666 -13.334 27.999 -14.001c-0.666992 -31.333 -20.334 -58.333 -59.001 -81l17 -27
c26.667 12.667 48.167 32.334 64.5 59.001s24.5 55.334 24.5 86.001c0 13.333 -4.16699 24.666 -12.5 33.999s-18.5 14 -30.5 14s-22.167 -4.16699 -30.5 -12.5z" />
    <glyph glyph-name="ncommaaccent" unicode="&#x146;" 
d="M209 424c31.333 18 60.332 27 86.999 27c62 0 93 -40 93 -120v-331h55v337c0 49.333 -12 88.5 -36 117.5s-61 43.5 -111 43.5c-29.333 0 -60.666 -8.5 -93.999 -25.5s-60.333 -37.833 -81 -62.5l-10 75h-44v-485h55v353c26 29.333 54.667 53 86 71zM229.499 -33.5
c-8.33301 -8.33301 -12.498 -18.5 -12.498 -30.5c0 -10 3.66699 -19.333 11 -28s16.666 -13.334 27.999 -14.001c-0.666992 -31.333 -20.334 -58.333 -59.001 -81l17 -27c26.667 12.667 48.167 32.334 64.5 59.001s24.5 55.334 24.5 86.001
c0 13.333 -4.16699 24.666 -12.5 33.999s-18.5 14 -30.5 14s-22.167 -4.16699 -30.5 -12.5z" />
    <glyph glyph-name="Ncaron" unicode="&#x147;" horiz-adv-x="670" 
d="M167 539l372 -539h34v680h-56v-561l-34 59l-351 502h-34v-680h55v568zM207 882l104 -143h49l103 141l-47 12l-80 -114l-80 114z" />
    <glyph glyph-name="ncaron" unicode="&#x148;" 
d="M209 424c31.333 18 60.332 27 86.999 27c62 0 93 -40 93 -120v-331h55v337c0 49.333 -12 88.5 -36 117.5s-61 43.5 -111 43.5c-29.333 0 -60.666 -8.5 -93.999 -25.5s-60.333 -37.833 -81 -62.5l-10 75h-44v-485h55v353c26 29.333 54.667 53 86 71zM134.999 732l104 -143
h49l103 141l-47 12l-80 -114l-80 114z" />
    <glyph glyph-name="Omacron" unicode="&#x14c;" horiz-adv-x="713" 
d="M199.5 648.5c-47.667 -31 -84.8311 -73.667 -111.498 -128s-40 -115.5 -40 -183.5c0 -67.333 13.167 -127.666 39.5 -180.999s62.666 -95 108.999 -125s98.833 -45 157.5 -45c59.333 0 112.666 15.5 159.999 46.5s84.5 73.833 111.5 128.5s40.5 116 40.5 184
c0 67.333 -13.167 127.666 -39.5 180.999s-62.833 95 -109.5 125s-99 45 -157 45c-59.333 -0.666992 -112.833 -16.5 -160.5 -47.5zM140.503 497c21.667 47.333 51.833 84.333 90.5 111s82 40 130 40c46.667 0 88.5 -13 125.5 -39s66 -62.167 87 -108.5
s31.5 -98.5 31.5 -156.5c0 -59.333 -10.833 -112.666 -32.5 -159.999s-51.667 -84.333 -90 -111s-81.833 -40 -130.5 -40c-46.667 0 -88.5 13.167 -125.5 39.5s-66 62.666 -87 108.999s-31.5 98.5 -31.5 156.5c0 58.667 10.833 111.667 32.5 159zM474.002 833h-236v-43h241z
" />
    <glyph glyph-name="omacron" unicode="&#x14d;" horiz-adv-x="525" 
d="M459.5 110.5c-18.333 -38.333 -44.666 -68.499 -78.999 -90.499s-74.833 -33 -121.5 -33c-70 0 -124.333 23.667 -163 71s-58 109.666 -58 186.999c0 48 9.16699 91.167 27.5 129.5s44.666 68.5 78.999 90.5s74.833 33 121.5 33
c70.667 -0.666992 125.167 -24.167 163.5 -70.5s57.5 -108.833 57.5 -187.5c0 -48 -9.16699 -91.167 -27.5 -129.5zM350.5 60.501c25.667 18.333 45.334 43.166 59.001 74.499s20.834 66 21.501 104c0 62 -14.5 113 -43.5 153s-69.833 60 -122.5 60
c-34.667 0 -64.834 -9.16699 -90.501 -27.5s-45.334 -43.166 -59.001 -74.499s-20.834 -66 -21.501 -104c0 -62 14.5 -113 43.5 -153s69.833 -60 122.5 -60c34.667 0 64.834 9.16699 90.501 27.5zM375 683.001h-235v-43h241z" />
    <glyph glyph-name="Ohungarumlaut" unicode="&#x150;" horiz-adv-x="713" 
d="M199.5 648.5c-47.667 -31 -84.8311 -73.667 -111.498 -128s-40 -115.5 -40 -183.5c0 -67.333 13.167 -127.666 39.5 -180.999s62.666 -95 108.999 -125s98.833 -45 157.5 -45c59.333 0 112.666 15.5 159.999 46.5s84.5 73.833 111.5 128.5s40.5 116 40.5 184
c0 67.333 -13.167 127.666 -39.5 180.999s-62.833 95 -109.5 125s-99 45 -157 45c-59.333 -0.666992 -112.833 -16.5 -160.5 -47.5zM140.503 497c21.667 47.333 51.833 84.333 90.5 111s82 40 130 40c46.667 0 88.5 -13 125.5 -39s66 -62.167 87 -108.5
s31.5 -98.5 31.5 -156.5c0 -59.333 -10.833 -112.666 -32.5 -159.999s-51.667 -84.333 -90 -111s-81.833 -40 -130.5 -40c-46.667 0 -88.5 13.167 -125.5 39.5s-66 62.666 -87 108.999s-31.5 98.5 -31.5 156.5c0 58.667 10.833 111.667 32.5 159zM317.002 892l-55 -141
l36 -12l85 153h-66zM451.002 892l-55 -141l35 -12l85 153h-65z" />
    <glyph glyph-name="ohungarumlaut" unicode="&#x151;" horiz-adv-x="525" 
d="M459.5 110.5c-18.333 -38.333 -44.666 -68.499 -78.999 -90.499s-74.833 -33 -121.5 -33c-70 0 -124.333 23.667 -163 71s-58 109.666 -58 186.999c0 48 9.16699 91.167 27.5 129.5s44.666 68.5 78.999 90.5s74.833 33 121.5 33
c70.667 -0.666992 125.167 -24.167 163.5 -70.5s57.5 -108.833 57.5 -187.5c0 -48 -9.16699 -91.167 -27.5 -129.5zM350.5 60.501c25.667 18.333 45.334 43.166 59.001 74.499s20.834 66 21.501 104c0 62 -14.5 113 -43.5 153s-69.833 60 -122.5 60
c-34.667 0 -64.834 -9.16699 -90.501 -27.5s-45.334 -43.166 -59.001 -74.499s-20.834 -66 -21.501 -104c0 -62 14.5 -113 43.5 -153s69.833 -60 122.5 -60c34.667 0 64.834 9.16699 90.501 27.5zM223 742.001l-55 -141l36 -12l85 153h-66zM357 742.001l-55 -141l35 -12
l85 153h-65z" />
    <glyph glyph-name="OE" unicode="&#x152;" horiz-adv-x="901" 
d="M500 12c-20 -7.33301 -43.498 -13.501 -70.498 -18.501s-51.833 -7.5 -74.5 -7.5c-66.667 0 -123 15.833 -169 47.5s-80.5 74 -103.5 127s-34.5 111.5 -34.5 175.5c0 66.667 12.667 127.167 38 181.5s61.666 97.333 108.999 129s102.666 47.5 165.999 47.5
c18.667 0 41.5 -2.16699 68.5 -6.5s50.5 -10.166 70.5 -17.499v10h353l5 -42h-303v-269h240l5 -41h-245v-284h320l6 -44h-381v12zM435.002 42.499c22.667 5 44.334 12.167 65.001 21.5v554c-22.667 9.33301 -43.834 16.333 -63.501 21s-44.834 7 -75.501 7
c-47.333 0 -90.333 -13.167 -129 -39.5s-69 -62.833 -91 -109.5s-33 -100 -33 -160c0 -55.333 9.66699 -105.833 29 -151.5s47.5 -82.167 84.5 -109.5s80.5 -41 130.5 -41c32.667 0 60.334 2.5 83.001 7.5z" />
    <glyph glyph-name="oe" unicode="&#x153;" horiz-adv-x="766" 
d="M627.5 41.5c22.333 6.33301 45.501 15.835 69.501 28.502l20 -41c-22 -12.667 -47.5 -22.834 -76.5 -30.501s-57.5 -11.5 -85.5 -11.5c-58 0 -106.333 13.667 -145 41c-19.333 -12 -43.666 -21.833 -72.999 -29.5s-55 -11.5 -77 -11.5c-70 0 -124.5 23.667 -163.5 71
s-58.5 109.666 -58.5 186.999c0 48.667 9.16699 92.167 27.5 130.5s44.833 68.333 79.5 90s75.334 32.5 122.001 32.5c19.333 0 42.833 -3.5 70.5 -10.5s51.5 -16.167 71.5 -27.5c34 25.333 75.667 38 125 38c61.333 0 109.166 -23.833 143.499 -71.5
s51.5 -109.5 51.5 -185.5h-354c0.666992 -62.667 15.167 -113.167 43.5 -151.5s72.166 -57.5 131.499 -57.5c29.333 0 55.166 3.16699 77.499 9.5zM137.501 93.002c29 -40 69.8369 -60 122.504 -60c26.667 0 48.167 2.16699 64.5 6.5s33.166 10.833 50.499 19.5
c-38 46 -57 108 -57 186c0 76.667 18.667 137.667 56 183c-16 7.33301 -32.333 13.166 -49 17.499s-36.667 6.5 -60 6.5c-34.667 0 -64.834 -9.16699 -90.501 -27.5s-45.334 -43.166 -59.001 -74.499s-20.834 -66 -21.501 -104c0 -62 14.5 -113 43.5 -153zM422.505 404.002
c-25.667 -32 -40.832 -73.333 -45.499 -124h295c-4.66699 52 -18.334 93.667 -41.001 125s-56.667 47 -102 47s-80.833 -16 -106.5 -48z" />
    <glyph glyph-name="Racute" unicode="&#x154;" horiz-adv-x="576" 
d="M153 0l-0.000976562 286h103c28 0 56.333 2.66699 85 8l163 -294h62l-177 309c38 14.667 67.833 36.667 89.5 66s32.834 66.333 33.501 111c0 68 -21.833 117.333 -65.5 148s-103.5 46 -179.5 46h-169v-680h55zM455.999 484c-0.666992 -52.667 -19.667 -91.333 -57 -116
s-84.333 -37 -141 -37h-105v303h116c124.667 0 187 -50 187 -150zM277.999 892.001l-55 -141l36 -12l85 153h-66z" />
    <glyph glyph-name="racute" unicode="&#x155;" horiz-adv-x="306" 
d="M203.5 414c33 18.667 63.833 27.999 92.5 27.999l-17 43c-22.667 0 -49.167 -8.16699 -79.5 -24.5s-56.833 -33.833 -79.5 -52.5l-18 77h-34v-485h55v352c20.667 22.667 47.5 43.334 80.5 62.001zM165 741.999l-55 -141l36 -12l85 153h-66z" />
    <glyph glyph-name="Rcommaaccent" unicode="&#x156;" horiz-adv-x="576" 
d="M153 0l-0.000976562 286h103c28 0 56.333 2.66699 85 8l163 -294h62l-177 309c38 14.667 67.833 36.667 89.5 66s32.834 66.333 33.501 111c0 68 -21.833 117.333 -65.5 148s-103.5 46 -179.5 46h-169v-680h55zM455.999 484c-0.666992 -52.667 -19.667 -91.333 -57 -116
s-84.333 -37 -141 -37h-105v303h116c124.667 0 187 -50 187 -150zM299.499 -33.499c-8.33301 -8.33301 -12.498 -18.5 -12.498 -30.5c0 -10 3.66699 -19.333 11 -28s16.666 -13.334 27.999 -14.001c-0.666992 -31.333 -20.334 -58.333 -59.001 -81l17 -27
c26.667 12.667 48.167 32.334 64.5 59.001s24.5 55.334 24.5 86.001c0 13.333 -4.16699 24.666 -12.5 33.999s-18.5 14 -30.5 14s-22.167 -4.16699 -30.5 -12.5z" />
    <glyph glyph-name="rcommaaccent" unicode="&#x157;" horiz-adv-x="306" 
d="M203.5 414c33 18.667 63.833 27.999 92.5 27.999l-17 43c-22.667 0 -49.167 -8.16699 -79.5 -24.5s-56.833 -33.833 -79.5 -52.5l-18 77h-34v-485h55v352c20.667 22.667 47.5 43.334 80.5 62.001zM66.5 -33.501c-8.33301 -8.33301 -12.498 -18.5 -12.498 -30.5
c0 -10 3.66699 -19.333 11 -28s16.666 -13.334 27.999 -14.001c-0.666992 -31.333 -20.334 -58.333 -59.001 -81l17 -27c26.667 12.667 48.167 32.334 64.5 59.001s24.5 55.334 24.5 86.001c0 13.333 -4.16699 24.666 -12.5 33.999s-18.5 14 -30.5 14
s-22.167 -4.16699 -30.5 -12.5z" />
    <glyph glyph-name="Rcaron" unicode="&#x158;" horiz-adv-x="576" 
d="M153 0l-0.000976562 286h103c28 0 56.333 2.66699 85 8l163 -294h62l-177 309c38 14.667 67.833 36.667 89.5 66s32.834 66.333 33.501 111c0 68 -21.833 117.333 -65.5 148s-103.5 46 -179.5 46h-169v-680h55zM455.999 484c-0.666992 -52.667 -19.667 -91.333 -57 -116
s-84.333 -37 -141 -37h-105v303h116c124.667 0 187 -50 187 -150zM138.999 882.001l104 -143h49l103 141l-47 12l-80 -114l-80 114z" />
    <glyph glyph-name="rcaron" unicode="&#x159;" horiz-adv-x="306" 
d="M203.5 414c33 18.667 63.833 27.999 92.5 27.999l-17 43c-22.667 0 -49.167 -8.16699 -79.5 -24.5s-56.833 -33.833 -79.5 -52.5l-18 77h-34v-485h55v352c20.667 22.667 47.5 43.334 80.5 62.001zM26 731.999l104 -143h49l103 141l-47 12l-80 -114l-80 114z" />
    <glyph glyph-name="Sacute" unicode="&#x15a;" horiz-adv-x="506" 
d="M136 0c38 -8.66699 71.665 -12.9951 100.998 -12.9951c72.667 0 129.334 15.667 170.001 47s61 72.666 61 123.999c0 45.333 -14.333 82.833 -43 112.5s-75 58.5 -139 86.5c-65.333 29.333 -112.333 56.5 -141 81.5s-43 55.5 -43 91.5
c0 35.333 14.167 64.166 42.5 86.499s66.166 33.5 113.499 33.5c30.667 0 56.334 -3 77.001 -9s43 -14.333 67 -25l22 41c-22.667 11.333 -48.5 20.666 -77.5 27.999s-59.167 11 -90.5 11c-42 0 -78.667 -7.16699 -110 -21.5s-55.5 -33.833 -72.5 -58.5
s-25.5 -52.334 -25.5 -83.001c0 -44.667 15.167 -83.334 45.5 -116.001s76.166 -62 137.499 -88c64 -27.333 110.333 -53.333 139 -78s43 -55 43 -91s-15.667 -66.167 -47 -90.5s-74.666 -36.5 -129.999 -36.5c-30.667 0 -60.667 3.83301 -90 11.5
s-54.666 16.834 -75.999 27.501l-15 -43c16 -10.667 43 -20.334 81 -29.001zM267.998 892.005l-55 -141l36 -12l85 153h-66z" />
    <glyph glyph-name="sacute" unicode="&#x15b;" horiz-adv-x="412" 
d="M112 -2.5c29.333 -7 55.333 -10.501 78 -10.501c60.667 0 106.5 11.833 137.5 35.5s46.5 57.167 46.5 100.5c0 33.333 -14.167 61.833 -42.5 85.5s-65.5 44.167 -111.5 61.5c-39.333 14.667 -69.666 29.5 -90.999 44.5s-32 32.833 -32 53.5c0 24 10.667 44.167 32 60.5
s48.666 24.5 81.999 24.5c26 0 47.833 -3 65.5 -9s37.834 -14.333 60.501 -25l20 39c-16 11.333 -38 20.833 -66 28.5s-53 11.5 -75 11.5c-54 0 -96.167 -12.167 -126.5 -36.5s-45.5 -56.833 -45.5 -97.5c0 -56.667 49.333 -102.667 148 -138
c86.667 -32 130 -67.667 130 -107c0 -27.333 -11.667 -48.666 -35 -63.999s-55 -23 -95 -23c-38.667 0 -82.667 12 -132 36l-18 -43c17.333 -11.333 40.666 -20.5 69.999 -27.5zM226 741.999l-55 -141l36 -12l85 153h-66z" />
    <glyph glyph-name="Scedilla" unicode="&#x15e;" horiz-adv-x="506" 
d="M412 38c-37.333 -31.333 -89.335 -48.3379 -156.002 -51.0049l-16 -39c25.333 -4.66699 46 -15 62 -31s24 -33 24 -51c0 -27.333 -10.333 -48.666 -31 -63.999s-47 -23 -79 -23c-12.667 0 -26.5 1.83301 -41.5 5.5s-26.5 8.16699 -34.5 13.5l15 36
c22.667 -9.33301 42.334 -14 59.001 -14c17.333 0 32.333 4.16699 45 12.5s19 18.833 19 31.5c0 14.667 -8.83301 27.667 -26.5 39s-40.167 17.333 -67.5 18l26 67c-29.333 2.66699 -59.166 7.83398 -89.499 15.501s-52.166 16.167 -65.499 25.5l15 43
c21.333 -10.667 46.666 -19.834 75.999 -27.501s59.333 -11.5 90 -11.5c55.333 0 98.666 12.167 129.999 36.5s47 54.5 47 90.5s-14.333 66.333 -43 91s-75 50.667 -139 78c-61.333 26 -107.166 55.333 -137.499 88s-45.5 71.334 -45.5 116.001
c0 30.667 8.5 58.334 25.5 83.001s41.167 44.167 72.5 58.5s68 21.5 110 21.5c31.333 0 61.5 -3.66699 90.5 -11s54.833 -16.666 77.5 -27.999l-22 -41c-24 10.667 -46.333 19 -67 25s-46.334 9 -77.001 9c-47.333 0 -85.166 -11.167 -113.499 -33.5
s-42.5 -51.166 -42.5 -86.499c0 -36 14.333 -66.5 43 -91.5s75.667 -52.167 141 -81.5c64 -28 110.333 -56.833 139 -86.5s43 -67.167 43 -112.5c0 -48.667 -18.667 -88.667 -56 -120z" />
    <glyph glyph-name="scedilla" unicode="&#x15f;" horiz-adv-x="412" 
d="M333 27c-27.333 -23.333 -68 -36.333 -122 -39l-16 -40c25.333 -4.66699 46 -15 62 -31s24 -33 24 -51c0 -27.333 -10.333 -48.666 -31 -63.999s-47 -23 -79 -23c-12.667 0 -26.5 1.83301 -41.5 5.5s-26.5 8.16699 -34.5 13.5l15 36
c22.667 -9.33301 42.334 -14 59.001 -14c17.333 0 32.333 4.16699 45 12.5s19 18.833 19 31.5c0 14.667 -8.83301 27.667 -26.5 39s-40.167 17.333 -67.5 18l26 67c-22 2 -44.5 6.33301 -67.5 13s-41.5 14.667 -55.5 24l18 43c49.333 -24 93.333 -36 132 -36
c40 0 71.667 7.66699 95 23s35 36.666 35 63.999c0 39.333 -43.333 75 -130 107c-98.667 35.333 -148 81.333 -148 138c0 40.667 15.167 73.167 45.5 97.5s72.5 36.5 126.5 36.5c22 0 47 -3.83301 75 -11.5s50 -17.167 66 -28.5l-20 -39
c-22.667 10.667 -42.834 19 -60.501 25s-39.5 9 -65.5 9c-33.333 0 -60.666 -8.16699 -81.999 -24.5s-32 -36.5 -32 -60.5c0 -20.667 10.667 -38.5 32 -53.5s51.666 -29.833 90.999 -44.5c46 -17.333 83.167 -37.833 111.5 -61.5s42.5 -52.167 42.5 -85.5
c0 -40.667 -13.667 -72.667 -41 -96z" />
    <glyph glyph-name="Scaron" unicode="&#x160;" horiz-adv-x="506" 
d="M136 0c38 -8.66699 71.665 -12.9951 100.998 -12.9951c72.667 0 129.334 15.667 170.001 47s61 72.666 61 123.999c0 45.333 -14.333 82.833 -43 112.5s-75 58.5 -139 86.5c-65.333 29.333 -112.333 56.5 -141 81.5s-43 55.5 -43 91.5
c0 35.333 14.167 64.166 42.5 86.499s66.166 33.5 113.499 33.5c30.667 0 56.334 -3 77.001 -9s43 -14.333 67 -25l22 41c-22.667 11.333 -48.5 20.666 -77.5 27.999s-59.167 11 -90.5 11c-42 0 -78.667 -7.16699 -110 -21.5s-55.5 -33.833 -72.5 -58.5
s-25.5 -52.334 -25.5 -83.001c0 -44.667 15.167 -83.334 45.5 -116.001s76.166 -62 137.499 -88c64 -27.333 110.333 -53.333 139 -78s43 -55 43 -91s-15.667 -66.167 -47 -90.5s-74.666 -36.5 -129.999 -36.5c-30.667 0 -60.667 3.83301 -90 11.5
s-54.666 16.834 -75.999 27.501l-15 -43c16 -10.667 43 -20.334 81 -29.001zM128.998 882.005l104 -143h49l103 141l-47 12l-80 -114l-80 114z" />
    <glyph glyph-name="scaron" unicode="&#x161;" horiz-adv-x="412" 
d="M112 -2.5c29.333 -7 55.333 -10.501 78 -10.501c60.667 0 106.5 11.833 137.5 35.5s46.5 57.167 46.5 100.5c0 33.333 -14.167 61.833 -42.5 85.5s-65.5 44.167 -111.5 61.5c-39.333 14.667 -69.666 29.5 -90.999 44.5s-32 32.833 -32 53.5c0 24 10.667 44.167 32 60.5
s48.666 24.5 81.999 24.5c26 0 47.833 -3 65.5 -9s37.834 -14.333 60.501 -25l20 39c-16 11.333 -38 20.833 -66 28.5s-53 11.5 -75 11.5c-54 0 -96.167 -12.167 -126.5 -36.5s-45.5 -56.833 -45.5 -97.5c0 -56.667 49.333 -102.667 148 -138
c86.667 -32 130 -67.667 130 -107c0 -27.333 -11.667 -48.666 -35 -63.999s-55 -23 -95 -23c-38.667 0 -82.667 12 -132 36l-18 -43c17.333 -11.333 40.666 -20.5 69.999 -27.5zM86 731.999l104 -143h49l103 141l-47 12l-80 -114l-80 114z" />
    <glyph glyph-name="Tcedilla" unicode="&#x162;" horiz-adv-x="543" 
d="M337 -83c16 -16 23.999 -33.001 23.999 -51.001c0 -27.333 -10.333 -48.666 -31 -63.999s-47 -23 -79 -23c-12.667 0 -26.5 1.83301 -41.5 5.5s-26.5 8.16699 -34.5 13.5l15 36c22.667 -9.33301 42.334 -14 59.001 -14c17.333 0 32.333 4.16699 45 12.5
s19 18.833 19 31.5c0 14.667 -8.83301 27.667 -26.5 39s-40.167 17.333 -67.5 18l30 79h-6v636h-233v44h518l5 -44h-234v-623h2l-2 -5v-8h-3l-21 -52c25.333 -4.66699 46 -15 62 -31z" />
    <glyph glyph-name="tcedilla" unicode="&#x163;" horiz-adv-x="295" 
d="M246 -83c16 -16 23.999 -33 23.999 -51c0 -27.333 -10.333 -48.666 -31 -63.999s-47 -23 -79 -23c-12.667 0 -26.5 1.83301 -41.5 5.5s-26.5 8.16699 -34.5 13.5l15 36c22.667 -9.33301 42.334 -14 59.001 -14c17.333 0 32.333 4.16699 45 12.5s19 18.833 19 31.5
c0 14.667 -8.83301 27.667 -26.5 39s-40.167 17.333 -67.5 18l28 74c-20.667 8.66699 -36.667 23.167 -48 43.5s-17 46.166 -17 77.499v315h-72v41h72v129l55 22v-151h88l21 -41h-109v-308c0 -26 5.5 -47.333 16.5 -64s28.167 -25 51.5 -25c13.333 0 27 3 41 9l12 -44
c-2 0 -11 -2.33301 -27 -7c-13.333 -3.33301 -26.333 -5 -39 -5h-1l-16 -39c25.333 -4.66699 46 -15 62 -31z" />
    <glyph glyph-name="Tcaron" unicode="&#x164;" horiz-adv-x="543" 
d="M10 636h233v-636h56v636h234l-5 44h-518v-44zM144 882l104 -143h49l103 141l-47 12l-80 -114l-80 114z" />
    <glyph glyph-name="tcaron" unicode="&#x165;" horiz-adv-x="409" 
d="M305.5 689c-8.33301 -8.66699 -12.499 -18.665 -12.499 -29.998c0 -10 3.66699 -19.5 11 -28.5s16.666 -13.833 27.999 -14.5c-2 -30.667 -21.333 -57.334 -58 -80.001l16 -27c26.667 13.333 48.167 33.166 64.5 59.499s24.5 54.5 24.5 84.5c0 13.333 -4 24.833 -12 34.5
s-18 14.5 -30 14.5c-12.667 0 -23.167 -4.33301 -31.5 -13zM146.001 623.002l-55 -22.001v-129h-72v-41h72v-315c0 -41.333 9.83301 -73.166 29.5 -95.499s46.5 -33.5 80.5 -33.5c12.667 0 25.667 1.66699 39 5c16 4.66699 25 7 27 7l-12 44c-14 -6 -27.667 -9 -41 -9
c-23.333 0 -40.5 8.33301 -51.5 25s-16.5 38 -16.5 64v308h109l-21 41h-88v151z" />
    <glyph glyph-name="Umacron" unicode="&#x16a;" horiz-adv-x="665" 
d="M88 239c0 -48.667 9.83398 -91.998 29.501 -129.998s47.834 -67.667 84.501 -89s80 -32 130 -32c50.667 0 94.5 10.667 131.5 32s65.167 51 84.5 89s29 81.333 29 130v441h-55v-438c0 -38.667 -7.66699 -73.834 -23 -105.501s-37.333 -56.5 -66 -74.5
s-62.334 -27 -101.001 -27c-37.333 0 -70.333 9.16699 -99 27.5s-50.834 43.166 -66.501 74.499s-23.5 66.333 -23.5 105v438h-55v-441zM446.001 833.002h-236v-43h241z" />
    <glyph glyph-name="umacron" unicode="&#x16b;" 
d="M298.5 61c-31.667 -18 -60.8311 -26.999 -87.498 -26.999c-33.333 0 -57 10.667 -71 32s-21 50.666 -21 87.999v331h-55v-337c0 -49.333 11.833 -88.5 35.5 -117.5s60.5 -43.5 110.5 -43.5c29.333 0 60.666 8.66699 93.999 26s60.666 38.333 81.999 63l10 -76h44v485h-55
v-353c-26 -29.333 -54.833 -53 -86.5 -71zM359.003 683.001h-235v-43h241z" />
    <glyph glyph-name="Uring" unicode="&#x16e;" horiz-adv-x="665" 
d="M88 239c0 -48.667 9.83398 -91.998 29.501 -129.998s47.834 -67.667 84.501 -89s80 -32 130 -32c50.667 0 94.5 10.667 131.5 32s65.167 51 84.5 89s29 81.333 29 130v441h-55v-438c0 -38.667 -7.66699 -73.834 -23 -105.501s-37.333 -56.5 -66 -74.5
s-62.334 -27 -101.001 -27c-37.333 0 -70.333 9.16699 -99 27.5s-50.834 43.166 -66.501 74.499s-23.5 66.333 -23.5 105v438h-55v-441zM269.501 885.002c-17.667 -16 -26.5 -36 -26.5 -60c0 -23.333 8.66699 -42.666 26 -57.999s38.333 -23 63 -23s45.5 7.66699 62.5 23
s25.5 34.666 25.5 57.999c0 24 -8.66699 44 -26 60s-38 24 -62 24s-44.833 -8 -62.5 -24zM298.501 791.502c-9 9 -13.5 20.167 -13.5 33.5c0 14 4.5 25.667 13.5 35s20.167 14 33.5 14s24.5 -4.66699 33.5 -14s13.5 -21 13.5 -35c0 -13.333 -4.5 -24.5 -13.5 -33.5
s-20.167 -13.5 -33.5 -13.5s-24.5 4.5 -33.5 13.5z" />
    <glyph glyph-name="uring" unicode="&#x16f;" 
d="M298.5 61c-31.667 -18 -60.8311 -26.999 -87.498 -26.999c-33.333 0 -57 10.667 -71 32s-21 50.666 -21 87.999v331h-55v-337c0 -49.333 11.833 -88.5 35.5 -117.5s60.5 -43.5 110.5 -43.5c29.333 0 60.666 8.66699 93.999 26s60.666 38.333 81.999 63l10 -76h44v485h-55
v-353c-26 -29.333 -54.833 -53 -86.5 -71zM185.503 735.001c-17.667 -16 -26.5 -36 -26.5 -60c0 -23.333 8.66699 -42.666 26 -57.999s38.333 -23 63 -23s45.5 7.66699 62.5 23s25.5 34.666 25.5 57.999c0 24 -8.66699 44 -26 60s-38 24 -62 24s-44.833 -8 -62.5 -24z
M214.503 641.501c-9 9 -13.5 20.167 -13.5 33.5c0 14 4.5 25.667 13.5 35s20.167 14 33.5 14s24.5 -4.66699 33.5 -14s13.5 -21 13.5 -35c0 -13.333 -4.5 -24.5 -13.5 -33.5s-20.167 -13.5 -33.5 -13.5s-24.5 4.5 -33.5 13.5z" />
    <glyph glyph-name="Uhungarumlaut" unicode="&#x170;" horiz-adv-x="665" 
d="M88 239c0 -48.667 9.83398 -91.998 29.501 -129.998s47.834 -67.667 84.501 -89s80 -32 130 -32c50.667 0 94.5 10.667 131.5 32s65.167 51 84.5 89s29 81.333 29 130v441h-55v-438c0 -38.667 -7.66699 -73.834 -23 -105.501s-37.333 -56.5 -66 -74.5
s-62.334 -27 -101.001 -27c-37.333 0 -70.333 9.16699 -99 27.5s-50.834 43.166 -66.501 74.499s-23.5 66.333 -23.5 105v438h-55v-441zM289.001 892.002l-55 -141l36 -12l85 153h-66zM423.001 892.002l-55 -141l35 -12l85 153h-65z" />
    <glyph glyph-name="uhungarumlaut" unicode="&#x171;" 
d="M298.5 61c-31.667 -18 -60.8311 -26.999 -87.498 -26.999c-33.333 0 -57 10.667 -71 32s-21 50.666 -21 87.999v331h-55v-337c0 -49.333 11.833 -88.5 35.5 -117.5s60.5 -43.5 110.5 -43.5c29.333 0 60.666 8.66699 93.999 26s60.666 38.333 81.999 63l10 -76h44v485h-55
v-353c-26 -29.333 -54.833 -53 -86.5 -71zM206.003 742.001l-55 -141l36 -12l85 153h-66zM340.003 742.001l-55 -141l35 -12l85 153h-65z" />
    <glyph glyph-name="Uogonek" unicode="&#x172;" horiz-adv-x="665" 
d="M577 239c0 -47.333 -9.33203 -89.832 -27.999 -127.499s-45.834 -67.334 -81.501 -89.001s-77.834 -33.167 -126.501 -34.5c-29.333 -28 -44 -60.667 -44 -98c0 -18 6 -31.833 18 -41.5s25.333 -14.5 40 -14.5c19.333 0 37.666 7 54.999 21l22 -32
c-8.66699 -8.66699 -20.167 -15.834 -34.5 -21.501s-29.5 -8.5 -45.5 -8.5c-30 0 -55 9 -75 27s-30 41 -30 69c0 16 4.5 33 13.5 51s20.833 34.667 35.5 50c-64.667 8 -115.5 34.667 -152.5 80s-55.5 101.666 -55.5 168.999v441h55v-438
c0 -38.667 7.83301 -73.667 23.5 -105s37.834 -56.166 66.501 -74.499s61.667 -27.5 99 -27.5c38.667 0 72.334 9 101.001 27s50.667 42.833 66 74.5s23 66.834 23 105.501v438h55v-441z" />
    <glyph glyph-name="uogonek" unicode="&#x173;" 
d="M483.5 -198.5c-14.333 -5.66699 -29.5029 -8.5 -45.5029 -8.5c-30 0 -55 9 -75 27s-30 41 -30 69c0 18.667 5.83301 38.5 17.5 59.5s26.834 39.167 45.501 54.5l-10 73c-21.333 -24.667 -48.666 -45.667 -81.999 -63s-64.666 -26 -93.999 -26
c-50 0 -86.833 14.5 -110.5 43.5s-35.5 68.167 -35.5 117.5v337h55v-331c0 -37.333 7 -66.666 21 -87.999s37.667 -32 71 -32c26.667 0 55.834 9 87.501 27s60.5 41.667 86.5 71v353h55v-485c-18 -14.667 -32 -31.5 -42 -50.5s-15 -38.833 -15 -59.5
c0 -18 6 -31.833 18 -41.5s25.333 -14.5 40 -14.5c19.333 0 37.666 7 54.999 21l22 -32c-8.66699 -8.66699 -20.167 -15.834 -34.5 -21.501z" />
    <glyph glyph-name="Ydieresis" unicode="&#x178;" horiz-adv-x="537" 
d="M527 680h-61l-204 -352l-200 364l-52 -26l225 -394v-272h55v278zM208.5 779.5c7.66699 7.66699 11.5 17.165 11.5 28.498c0 10.667 -3.83301 19.834 -11.5 27.501s-17.167 11.5 -28.5 11.5s-20.833 -3.66699 -28.5 -11s-11.5 -16.666 -11.5 -27.999
s3.83301 -20.833 11.5 -28.5s17.167 -11.5 28.5 -11.5s20.833 3.83301 28.5 11.5zM366.5 779.498c7.66699 7.66699 11.5 17.165 11.5 28.498c0 10.667 -3.83301 19.834 -11.5 27.501s-17.167 11.5 -28.5 11.5c-12 0 -21.667 -3.66699 -29 -11s-11 -16.666 -11 -27.999
s3.66699 -20.833 11 -28.5s17 -11.5 29 -11.5c11.333 0 20.833 3.83301 28.5 11.5z" />
    <glyph glyph-name="Zacute" unicode="&#x179;" horiz-adv-x="548" 
d="M521 631l-5 49h-467l10 -44h406l-437 -586l6 -50h477l-5 44h-420zM288 892l-55 -141l36 -12l85 153h-66z" />
    <glyph glyph-name="zacute" unicode="&#x17a;" horiz-adv-x="432" 
d="M71 442h270l-315 -411l8 -31h366l-10 42h-302l318 411l-3 32h-348zM237 742l-55 -141l36 -12l85 153h-66z" />
    <glyph glyph-name="Zdotaccent" unicode="&#x17b;" horiz-adv-x="548" 
d="M521 631l-5 49h-467l10 -44h406l-437 -586l6 -50h477l-5 44h-420zM304.5 780.5c8.33301 8.33301 12.5 18.5 12.5 30.5c0 11.333 -4.16699 21.166 -12.5 29.499s-18.166 12.5 -29.499 12.5c-12 0 -22.167 -4.16699 -30.5 -12.5s-12.5 -18.166 -12.5 -29.499
c0 -12 4 -22.167 12 -30.5s18.333 -12.5 31 -12.5c11.333 0 21.166 4.16699 29.499 12.5z" />
    <glyph glyph-name="zdotaccent" unicode="&#x17c;" horiz-adv-x="432" 
d="M71 442h270l-315 -411l8 -31h366l-10 42h-302l318 411l-3 32h-348zM255.5 630.5c8.33301 8.33301 12.5 18.5 12.5 30.5c0 11.333 -4.16699 21.166 -12.5 29.499s-18.166 12.5 -29.499 12.5c-12 0 -22.167 -4.16699 -30.5 -12.5s-12.5 -18.166 -12.5 -29.499
c0 -12 4 -22.167 12 -30.5s18.333 -12.5 31 -12.5c11.333 0 21.166 4.16699 29.499 12.5z" />
    <glyph glyph-name="Zcaron" unicode="&#x17d;" horiz-adv-x="548" 
d="M521 631l-5 49h-467l10 -44h406l-437 -586l6 -50h477l-5 44h-420zM149 882l104 -143h49l103 141l-47 12l-80 -114l-80 114z" />
    <glyph glyph-name="zcaron" unicode="&#x17e;" horiz-adv-x="432" 
d="M71 442h270l-315 -411l8 -31h366l-10 42h-302l318 411l-3 32h-348zM97 732l104 -143h49l103 141l-47 12l-80 -114l-80 114z" />
    <glyph glyph-name="florin" unicode="&#x192;" horiz-adv-x="299" 
d="M122 431v-367c0 -54.667 -23.333 -82 -70 -82c-6 0 -13.167 1 -21.5 3s-14.5 4 -18.5 6l-12 -44c22.667 -8.66699 44.667 -13 66 -13c35.333 0 62.666 12.5 81.999 37.5s29 58.833 29 101.5v358h109l-21 41h-88v100c0 54.667 23 82 69 82c6 0 13.333 -1 22 -3
s15 -4 19 -6l12 44c-22.667 8.66699 -44.667 13 -66 13c-35.333 0 -62.666 -12.5 -81.999 -37.5s-29 -58.833 -29 -101.5v-91h-73v-41h73z" />
    <glyph glyph-name="Scommaaccent" unicode="&#x218;" horiz-adv-x="506" 
d="M136 0c38 -8.66699 71.665 -12.9951 100.998 -12.9951c72.667 0 129.334 15.667 170.001 47s61 72.666 61 123.999c0 45.333 -14.333 82.833 -43 112.5s-75 58.5 -139 86.5c-65.333 29.333 -112.333 56.5 -141 81.5s-43 55.5 -43 91.5
c0 35.333 14.167 64.166 42.5 86.499s66.166 33.5 113.499 33.5c30.667 0 56.334 -3 77.001 -9s43 -14.333 67 -25l22 41c-22.667 11.333 -48.5 20.666 -77.5 27.999s-59.167 11 -90.5 11c-42 0 -78.667 -7.16699 -110 -21.5s-55.5 -33.833 -72.5 -58.5
s-25.5 -52.334 -25.5 -83.001c0 -44.667 15.167 -83.334 45.5 -116.001s76.166 -62 137.499 -88c64 -27.333 110.333 -53.333 139 -78s43 -55 43 -91s-15.667 -66.167 -47 -90.5s-74.666 -36.5 -129.999 -36.5c-30.667 0 -60.667 3.83301 -90 11.5
s-54.666 16.834 -75.999 27.501l-15 -43c16 -10.667 43 -20.334 81 -29.001zM208.498 -33.4951c-8.33301 -8.33301 -12.498 -18.5 -12.498 -30.5c0 -10 3.66699 -19.333 11 -28s16.666 -13.334 27.999 -14.001c-0.666992 -31.333 -20.334 -58.333 -59.001 -81l17 -27
c26.667 12.667 48.167 32.334 64.5 59.001s24.5 55.334 24.5 86.001c0 13.333 -4.16699 24.666 -12.5 33.999s-18.5 14 -30.5 14s-22.167 -4.16699 -30.5 -12.5z" />
    <glyph glyph-name="scommaaccent" unicode="&#x219;" horiz-adv-x="412" 
d="M112 -2.5c29.333 -7 55.333 -10.501 78 -10.501c60.667 0 106.5 11.833 137.5 35.5s46.5 57.167 46.5 100.5c0 33.333 -14.167 61.833 -42.5 85.5s-65.5 44.167 -111.5 61.5c-39.333 14.667 -69.666 29.5 -90.999 44.5s-32 32.833 -32 53.5c0 24 10.667 44.167 32 60.5
s48.666 24.5 81.999 24.5c26 0 47.833 -3 65.5 -9s37.834 -14.333 60.501 -25l20 39c-16 11.333 -38 20.833 -66 28.5s-53 11.5 -75 11.5c-54 0 -96.167 -12.167 -126.5 -36.5s-45.5 -56.833 -45.5 -97.5c0 -56.667 49.333 -102.667 148 -138
c86.667 -32 130 -67.667 130 -107c0 -27.333 -11.667 -48.666 -35 -63.999s-55 -23 -95 -23c-38.667 0 -82.667 12 -132 36l-18 -43c17.333 -11.333 40.666 -20.5 69.999 -27.5zM163.5 -33.501c-8.33301 -8.33301 -12.498 -18.5 -12.498 -30.5c0 -10 3.66699 -19.333 11 -28
s16.666 -13.334 27.999 -14.001c-0.666992 -31.333 -20.334 -58.333 -59.001 -81l17 -27c26.667 12.667 48.167 32.334 64.5 59.001s24.5 55.334 24.5 86.001c0 13.333 -4.16699 24.666 -12.5 33.999s-18.5 14 -30.5 14s-22.167 -4.16699 -30.5 -12.5z" />
    <glyph glyph-name="Tcommaaccent" unicode="&#x21a;" horiz-adv-x="543" 
d="M10 636h233v-636h56v636h234l-5 44h-518v-44zM243.5 -33.5c-8.33301 -8.33301 -12.498 -18.5 -12.498 -30.5c0 -10 3.66699 -19.333 11 -28s16.666 -13.334 27.999 -14.001c-0.666992 -31.333 -20.334 -58.333 -59.001 -81l17 -27
c26.667 12.667 48.167 32.334 64.5 59.001s24.5 55.334 24.5 86.001c0 13.333 -4.16699 24.666 -12.5 33.999s-18.5 14 -30.5 14s-22.167 -4.16699 -30.5 -12.5z" />
    <glyph glyph-name="tcommaaccent" unicode="&#x21b;" horiz-adv-x="295" 
d="M146 623l-55 -22.001v-129h-72v-41h72v-315c0 -41.333 9.83301 -73.166 29.5 -95.499s46.5 -33.5 80.5 -33.5c12.667 0 25.667 1.66699 39 5c16 4.66699 25 7 27 7l-12 44c-14 -6 -27.667 -9 -41 -9c-23.333 0 -40.5 8.33301 -51.5 25s-16.5 38 -16.5 64v308h109l-21 41
h-88v151zM152.5 -33.501c-8.33301 -8.33301 -12.498 -18.5 -12.498 -30.5c0 -10 3.66699 -19.333 11 -28s16.666 -13.334 27.999 -14.001c-0.666992 -31.333 -20.334 -58.333 -59.001 -81l17 -27c26.667 12.667 48.167 32.334 64.5 59.001s24.5 55.334 24.5 86.001
c0 13.333 -4.16699 24.666 -12.5 33.999s-18.5 14 -30.5 14s-22.167 -4.16699 -30.5 -12.5z" />
    <glyph glyph-name="circumflex" unicode="&#x2c6;" horiz-adv-x="276" 
d="M266 601l-104 141h-49l-103 -143l47 -10l81 114l79 -114z" />
    <glyph glyph-name="caron" unicode="&#x2c7;" horiz-adv-x="276" 
d="M10 732l104 -143h49l103 141l-47 12l-80 -114l-80 114z" />
    <glyph glyph-name="uni02C9" unicode="&#x2c9;" horiz-adv-x="261" 
d="M245 689h-235v-44h241z" />
    <glyph glyph-name="breve" unicode="&#x2d8;" horiz-adv-x="280" 
d="M202.5 670c-15.667 -17.333 -36.499 -26.002 -62.499 -26.002c-26.667 0 -47.834 8.83301 -63.501 26.5s-23.5 37.834 -23.5 60.501h-43c0 -36 11.333 -66.667 34 -92s54.667 -38 96 -38c42 0 74.167 12.667 96.5 38s33.5 56 33.5 92h-44
c0 -23.333 -7.83301 -43.666 -23.5 -60.999z" />
    <glyph glyph-name="dotaccent" unicode="&#x2d9;" horiz-adv-x="105" 
d="M82.5 630.5c8.33301 8.33301 12.5 18.5 12.5 30.5c0 11.333 -4.16699 21.166 -12.5 29.499s-18.166 12.5 -29.499 12.5c-12 0 -22.167 -4.16699 -30.5 -12.5s-12.5 -18.166 -12.5 -29.499c0 -12 4 -22.167 12 -30.5s18.333 -12.5 31 -12.5
c11.333 0 21.166 4.16699 29.499 12.5z" />
    <glyph glyph-name="ring" unicode="&#x2da;" horiz-adv-x="197" 
d="M36.5 735c-17.667 -16 -26.5 -36 -26.5 -60c0 -23.333 8.66699 -42.666 26 -57.999s38.333 -23 63 -23s45.5 7.66699 62.5 23s25.5 34.666 25.5 57.999c0 24 -8.66699 44 -26 60s-38 24 -62 24s-44.833 -8 -62.5 -24zM65.5 641.5c-9 9 -13.5 20.167 -13.5 33.5
c0 14 4.5 25.667 13.5 35s20.167 14 33.5 14s24.5 -4.66699 33.5 -14s13.5 -21 13.5 -35c0 -13.333 -4.5 -24.5 -13.5 -33.5s-20.167 -13.5 -33.5 -13.5s-24.5 4.5 -33.5 13.5z" />
    <glyph glyph-name="ogonek" unicode="&#x2db;" horiz-adv-x="205" 
d="M28 -51c-12 -21.333 -18.001 -41.335 -18.001 -60.002c0 -28 10 -51 30 -69s45 -27 75 -27c16 0 31.167 2.83301 45.5 8.5s25.833 12.834 34.5 21.501l-22 32c-17.333 -14 -35.666 -21 -54.999 -21c-14.667 0 -28 4.83301 -40 14.5s-18 23.5 -18 41.5
c0 20.667 5 40.5 15 59.5s24 35.833 42 50.5l-43 4c-18.667 -15.333 -34 -33.666 -46 -54.999z" />
    <glyph glyph-name="tilde" unicode="&#x2dc;" horiz-adv-x="302" 
d="M234.5 663.5c-7.66699 -8.33301 -17.167 -12.501 -28.5 -12.501c-16.667 0 -32.667 8.66699 -48 26s-37 26 -65 26c-24.667 0 -44.667 -7.33301 -60 -22s-23 -37.667 -23 -69h42c1.33301 15.333 5.83301 27.333 13.5 36s17.167 13 28.5 13c16 0 33.333 -8.66699 52 -26
c17.333 -18 37.333 -27 60 -27c24.667 0 44.667 7.33301 60 22s23 37.667 23 69h-41c-1.33301 -15.333 -5.83301 -27.166 -13.5 -35.499z" />
    <glyph glyph-name="hungarumlaut" unicode="&#x2dd;" horiz-adv-x="274" 
d="M65 742l-55 -141l36 -12l85 153h-66zM199 742l-55 -141l35 -12l85 153h-65z" />
    <glyph glyph-name="pi" unicode="&#x3c0;" horiz-adv-x="554" 
d="M388 441v-441h56v441h100v44h-534v-44h99v-441h55v441h224z" />
    <glyph glyph-name="tm_Anusvara" unicode="&#xb82;" horiz-adv-x="0" 
d="M76 667c20.667 19.333 31 43.666 31 72.999c0 30 -10.5 54.667 -31.5 74s-46.167 29 -75.5 29c-28.667 0 -53.667 -9.66699 -75 -29s-32 -44 -32 -74c0 -29.333 10.5 -53.666 31.5 -72.999s46.167 -29 75.5 -29c30 0 55.333 9.66699 76 29zM-43.5 697
c-11.667 11.333 -17.5 25.666 -17.5 42.999s5.83301 31.833 17.5 43.5s26.167 17.5 43.5 17.5s31.833 -5.83301 43.5 -17.5s17.5 -26.167 17.5 -43.5s-5.83301 -31.666 -17.5 -42.999s-26.167 -17 -43.5 -17s-31.833 5.66699 -43.5 17z" />
    <glyph glyph-name="tm_Visarga" unicode="&#xb83;" horiz-adv-x="672" 
d="M412 351c20.667 19.333 30.998 43.666 30.998 72.999s-10.667 53.833 -32 73.5s-46.666 29.5 -75.999 29.5c-28 0 -52.667 -9.83301 -74 -29.5s-32 -44.167 -32 -73.5s10.333 -53.666 31 -72.999s45.667 -29 75 -29c30.667 0 56.334 9.66699 77.001 29zM292.498 381
c-11.667 11.333 -17.5 25.666 -17.5 42.999s5.83301 31.833 17.5 43.5s26.167 17.5 43.5 17.5s31.833 -5.83301 43.5 -17.5s17.5 -26.167 17.5 -43.5s-5.83301 -31.666 -17.5 -42.999s-26.167 -17 -43.5 -17s-31.833 5.66699 -43.5 17zM239.998 15
c20.667 19.333 31 44 31 74c0 29.333 -10.5 53.666 -31.5 72.999s-46.167 29 -75.5 29c-28.667 0 -53.5 -9.66699 -74.5 -29s-31.5 -43.666 -31.5 -72.999s10.333 -53.833 31 -73.5s45.667 -29.5 75 -29.5c30 0 55.333 9.66699 76 29zM582.998 15.5
c20.667 19.667 31 44.167 31 73.5s-10.5 53.666 -31.5 72.999s-46.167 29 -75.5 29c-28.667 0 -53.667 -9.66699 -75 -29s-32 -43.666 -32 -72.999s10.5 -53.833 31.5 -73.5s46.167 -29.5 75.5 -29.5c30 0 55.333 9.83301 76 29.5zM120.998 45.5
c-11.333 11.667 -17 26.167 -17 43.5s5.66699 31.833 17 43.5s25.666 17.5 42.999 17.5c18 0 32.833 -5.83301 44.5 -17.5s17.5 -26.167 17.5 -43.5s-5.83301 -31.833 -17.5 -43.5s-26.5 -17.5 -44.5 -17.5c-17.333 0 -31.666 5.83301 -42.999 17.5zM463.998 45.5
c-11.333 11.667 -17 26.167 -17 43.5s5.66699 31.666 17 42.999s25.666 17 42.999 17s31.833 -5.66699 43.5 -17s17.5 -25.666 17.5 -42.999s-5.83301 -31.833 -17.5 -43.5s-26.167 -17.5 -43.5 -17.5s-31.666 5.83301 -42.999 17.5z" />
    <glyph glyph-name="tm_A" unicode="&#xb85;" horiz-adv-x="1056" 
d="M958 -126l-49 0.00292969v211h-189c-30 -70.667 -79.5 -126.5 -148.5 -167.5s-149.833 -61.5 -242.5 -61.5c-56 0 -106.167 7.5 -150.5 22.5s-78.833 35.667 -103.5 62s-37 55.833 -37 88.5c0 29.333 9.5 52.666 28.5 69.999s46.167 26 81.5 26h531
c10.667 35.333 16 70.333 16 105c0 49.333 -9.16699 93.333 -27.5 132s-44.5 69 -78.5 91s-74 33 -120 33c-28.667 0 -55.167 -4 -79.5 -12s-45.166 -19.333 -62.499 -34c13.333 2.66699 24 4 32 4c35.333 0 64.833 -10.833 88.5 -32.5s35.5 -48.5 35.5 -80.5
c0 -34.667 -11.833 -63 -35.5 -85s-53.834 -33 -90.501 -33c-36 0 -65.833 11.167 -89.5 33.5s-35.5 50.5 -35.5 84.5c0 38 10.333 72.167 31 102.5s49.167 54.166 85.5 71.499s76.5 26 120.5 26c56 0 105.167 -12.833 147.5 -38.5s75 -61.334 98 -107.001
s34.5 -97.5 34.5 -155.5c0 -36.667 -5 -71.667 -15 -105h175v388h49v-639zM412 383.003c-14.667 14 -33.332 21 -55.999 21s-41.334 -7 -56.001 -21s-22 -32 -22 -54s7.33301 -40 22 -54s33.667 -21 57 -21c22.667 0 41.167 7 55.5 21s21.5 32 21.5 54s-7.33301 40 -22 54z
M532.502 -49.4971c58.333 33 101.501 77.833 129.501 134.5h-511c-40 0 -60 -18.667 -60 -56c0 -23.333 10 -44.833 30 -64.5s48 -35.167 84 -46.5s77.333 -17 124 -17c77.333 0 145.166 16.5 203.499 49.5z" />
    <glyph glyph-name="tm_Aa" unicode="&#xb86;" horiz-adv-x="1256" 
d="M1202 40c29.333 -32 43.999 -73.3301 43.999 -123.997c0 -56 -15.667 -106.333 -47 -151s-74.5 -79.5 -129.5 -104.5s-116.833 -37.5 -185.5 -37.5c-41.333 0 -78.5 5.66699 -111.5 17s-58.833 27.166 -77.5 47.499s-28 43.5 -28 69.5c0 32 11.667 58.333 35 79
s53 31 89 31h21v-40h-21c-21.333 0 -38.5 -6.5 -51.5 -19.5s-19.5 -29.833 -19.5 -50.5c0 -26.667 15.333 -48.167 46 -64.5s70 -24.5 118 -24.5c59.333 0 112.5 10.667 159.5 32s83.667 50.833 110 88.5s39.5 80.5 39.5 128.5c0 36.667 -10 66.667 -30 90
s-47.333 35 -82 35c-35.333 0 -64.666 -12.833 -87.999 -38.5s-35 -58.167 -35 -97.5v-32h-49v211h-189c-30 -70.667 -79.5 -126.5 -148.5 -167.5s-149.833 -61.5 -242.5 -61.5c-56 0 -106.167 7.5 -150.5 22.5s-78.833 35.667 -103.5 62s-37 55.833 -37 88.5
c0 29.333 9.5 52.666 28.5 69.999s46.167 26 81.5 26h531c10.667 35.333 16 70.333 16 105c0 49.333 -9.16699 93.333 -27.5 132s-44.5 69 -78.5 91s-74 33 -120 33c-28.667 0 -55.167 -4 -79.5 -12s-45.166 -19.333 -62.499 -34c13.333 2.66699 24 4 32 4
c35.333 0 64.833 -10.833 88.5 -32.5s35.5 -48.5 35.5 -80.5c0 -34.667 -11.833 -63 -35.5 -85s-53.834 -33 -90.501 -33c-36 0 -65.833 11.167 -89.5 33.5s-35.5 50.5 -35.5 84.5c0 38 10.333 72.167 31 102.5s49.167 54.166 85.5 71.499s76.5 26 120.5 26
c56 0 105.167 -12.833 147.5 -38.5s75 -61.334 98 -107.001s34.5 -97.5 34.5 -155.5c0 -36.667 -5 -71.667 -15 -105h175v388h49v-485c14.667 18.667 32.834 33.334 54.501 44.001s45.5 16 71.5 16c49.333 0 88.666 -16 117.999 -48zM411.999 383.003
c-14.667 14 -33.332 21 -55.999 21s-41.334 -7 -56.001 -21s-22 -32 -22 -54s7.33301 -40 22 -54s33.667 -21 57 -21c22.667 0 41.167 7 55.5 21s21.5 32 21.5 54s-7.33301 40 -22 54zM532.501 -49.4971c58.333 33 101.501 77.833 129.501 134.5h-511
c-40 0 -60 -18.667 -60 -56c0 -23.333 10 -44.833 30 -64.5s48 -35.167 84 -46.5s77.333 -17 124 -17c77.333 0 145.166 16.5 203.499 49.5z" />
    <glyph glyph-name="tm_I" unicode="&#xb87;" horiz-adv-x="1033" 
d="M742 667c60 -29.333 107.17 -70.832 141.503 -124.499s51.5 -115.167 51.5 -184.5v-506h-49v504c0 62.667 -14.833 117.334 -44.5 164.001s-70.667 82.667 -123 108s-111.833 38 -178.5 38c-72 0 -135.667 -12.333 -191 -37s-98.333 -60.834 -129 -108.501
s-46 -104.834 -46 -171.501c0 -80 19.667 -157.333 59 -232c66 23.333 135.667 35 209 35c50 0 98.667 -7.33301 146 -22c43.333 70.667 65 134 65 190c0 50 -14.333 90.167 -43 120.5s-69.334 45.5 -122.001 45.5c-58 0 -102.667 -16.667 -134 -50c14 5.33301 28 8 42 8
c35.333 0 64.833 -10.833 88.5 -32.5s35.5 -48.5 35.5 -80.5c0 -34.667 -11.833 -63 -35.5 -85s-53.834 -33 -90.501 -33c-36 0 -65.833 11.167 -89.5 33.5s-35.5 50.5 -35.5 84.5c0 38 9.33301 72.167 28 102.5s44.667 54.166 78 71.499s71 26 113 26
c68.667 0 122.167 -19.5 160.5 -58.5s57.5 -89.833 57.5 -152.5c0 -31.333 -6.16699 -64.666 -18.5 -99.999s-29.833 -71 -52.5 -107c50 -22 90 -51.167 120 -87.5s45 -76.5 45 -120.5c0 -31.333 -12.667 -56.333 -38 -75s-60.333 -28 -105 -28
c-88.667 0 -174.334 24.333 -257.001 73c-78 -48.667 -151 -73 -219 -73c-44.667 0 -79.667 9.33301 -105 28s-38 43.667 -38 75c0 39.333 13.167 75.5 39.5 108.5s62.833 60.833 109.5 83.5c-43.333 81.333 -65 165.333 -65 252c0 74.667 17.833 139.167 53.5 193.5
s85.167 96 148.5 125s135.333 43.5 216 43.5c74.667 0 142 -14.667 202 -44zM337.003 383.001c-14.667 -14 -21.998 -32 -21.998 -54s7.33301 -40 22 -54s33.667 -21 57 -21c22.667 0 41.167 7 55.5 21s21.5 32 21.5 54s-7.33301 40 -22 54s-33.334 21 -56.001 21
s-41.334 -7 -56.001 -21zM257.005 77.001c38 -59.333 85.667 -108.332 143 -146.999c61.333 43.333 115.333 96.666 162 159.999c-39.333 11.333 -79.333 17 -120 17c-65.333 0 -127 -10 -185 -30zM709.505 2.00195c-25 29.333 -58.5 53 -100.5 71
c-47.333 -65.333 -103 -121.666 -167 -168.999c69.333 -38 141 -57 215 -57c60 0 90 19.333 90 58c0 35.333 -12.5 67.666 -37.5 96.999zM358.005 -96.998c-58.667 42 -107.668 93.333 -147.001 154c-37.333 -18.667 -66.666 -41 -87.999 -67s-32 -54.333 -32 -85
c0 -38.667 30 -58 90 -58c56 0 115 18.667 177 56z" />
    <glyph glyph-name="tm_Ii" unicode="&#xb88;" horiz-adv-x="741" 
d="M430 0v473h-283v-473h-49v513h628l5 -40h-252v-473h-49zM316 204.5c7.33301 7.66699 11.002 16.832 11.002 27.499s-3.83301 19.5 -11.5 26.5s-16.834 10.5 -27.501 10.5c-11.333 0 -20.5 -3.5 -27.5 -10.5s-10.5 -15.833 -10.5 -26.5
c0 -11.333 3.5 -20.666 10.5 -27.999s16.167 -11 27.5 -11s20.666 3.83301 27.999 11.5zM648.002 204.498c7.33301 7.66699 11.002 16.832 11.002 27.499s-3.83301 19.5 -11.5 26.5s-16.834 10.5 -27.501 10.5s-19.667 -3.5 -27 -10.5s-11 -15.833 -11 -26.5
c0 -11.333 3.66699 -20.666 11 -27.999s16.333 -11 27 -11c11.333 0 20.666 3.83301 27.999 11.5z" />
    <glyph glyph-name="tm_U" unicode="&#xb89;" horiz-adv-x="972" 
d="M962 0h-884.997v40h237c43.333 0 82.166 10 116.499 30s61.166 47.667 80.499 83s29 75.333 29 120c0 41.333 -9.33301 78 -28 110s-44.834 57.167 -78.501 75.5s-72.5 27.5 -116.5 27.5c-42.667 0 -80.667 -8.16699 -114 -24.5s-60 -39.166 -80 -68.499
c23.333 12.667 49 19 77 19c44 0 80.5 -13.333 109.5 -40s43.5 -60.334 43.5 -101.001c0 -42.667 -14.667 -77.5 -44 -104.5s-66.666 -40.5 -111.999 -40.5c-46 0 -84 14 -114 42s-45 63.667 -45 107c0 48.667 11.667 92.5 35 131.5s56.166 69.5 98.499 91.5
s90.833 33 145.5 33c53.333 0 101 -11.167 143 -33.5s74.833 -53 98.5 -92s35.5 -83.167 35.5 -132.5c0 -52 -11 -98.167 -33 -138.5s-53.667 -71.833 -95 -94.5h496v-40zM120.003 343c-20.667 -18 -30.998 -41.001 -30.998 -69.001c0 -30.667 10.167 -55.5 30.5 -74.5
s46.166 -28.5 77.499 -28.5c30 0 54.833 9.5 74.5 28.5s29.5 42.833 29.5 71.5s-9.5 52.334 -28.5 71.001s-43.167 28 -72.5 28c-32.667 0 -59.334 -9 -80.001 -27z" />
    <glyph glyph-name="tm_Uu" unicode="&#xb8a;" horiz-adv-x="1657" 
d="M1647 0h-1570v40h237c43.333 0 82.166 10 116.499 30s61.166 47.667 80.499 83s29 75.333 29 120c0 41.333 -9.33301 78 -28 110s-44.834 57.167 -78.501 75.5s-72.5 27.5 -116.5 27.5c-42.667 0 -80.667 -8.16699 -114 -24.5s-60 -39.166 -80 -68.499
c23.333 12.667 49 19 77 19c44 0 80.5 -13.333 109.5 -40s43.5 -60.334 43.5 -101.001c0 -42.667 -14.667 -77.5 -44 -104.5s-66.666 -40.5 -111.999 -40.5c-46 0 -84 14 -114 42s-45 63.667 -45 107c0 48.667 11.667 92.5 35 131.5s56.166 69.5 98.499 91.5
s90.833 33 145.5 33c53.333 0 101 -11.167 143 -33.5s74.833 -53 98.5 -92s35.5 -83.167 35.5 -132.5c0 -52.667 -11.167 -99.167 -33.5 -139.5s-54.166 -71.5 -95.499 -93.5h1182v-40zM791.502 108.5c-35 18.333 -61.832 43.501 -80.499 75.501s-28 67.667 -28 107
c0 45.333 10.833 86.166 32.5 122.499s51.834 64.833 90.501 85.5s82.667 31 132 31c44 0 83.833 -9.33301 119.5 -28s64.167 -44.334 85.5 -77.001v88h451l5 -40h-142v-375h-50v375h-214v-375h-50v189c0 36.667 -8.83301 70.167 -26.5 100.5s-42.167 54.166 -73.5 71.499
s-66.333 26 -105 26c-39.333 0 -74.5 -8.5 -105.5 -25.5s-55 -40.167 -72 -69.5s-25.5 -62.333 -25.5 -99c0 -27.333 5.16699 -52.666 15.5 -75.999s25.166 -42.666 44.499 -57.999c-9.33301 17.333 -14 36.333 -14 57c0 38 12.667 69.333 38 94s57.666 37 96.999 37
c40.667 0 74 -12.5 100 -37.5s39 -56.5 39 -94.5s-13.167 -69.5 -39.5 -94.5s-59.833 -37.5 -100.5 -37.5c-47.333 0 -88.5 9.16699 -123.5 27.5zM120.003 343.001c-20.667 -18 -30.998 -41.001 -30.998 -69.001c0 -30.667 10.167 -55.5 30.5 -74.5
s46.166 -28.5 77.499 -28.5c30 0 54.833 9.5 74.5 28.5s29.5 42.833 29.5 71.5s-9.5 52.334 -28.5 71.001s-43.167 28 -72.5 28c-32.667 0 -59.334 -9 -80.001 -27zM851.005 146.5c17.333 -17.667 39.333 -26.499 66 -26.499s48.5 8.66699 65.5 26s25.5 39.666 25.5 66.999
c0 26.667 -8.5 48.667 -25.5 66s-38.833 26 -65.5 26s-48.667 -8.66699 -66 -26s-26 -39 -26 -65c0 -27.333 8.66699 -49.833 26 -67.5z" />
    <glyph glyph-name="tm_E" unicode="&#xb8e;" horiz-adv-x="847" 
d="M639 473v-473.002h-49v473h-201c-91.333 0 -160.5 -21.167 -207.5 -63.5s-70.5 -99.833 -70.5 -172.5c0 -37.333 7 -71.166 21 -101.499s34 -54.833 60 -73.5c-14.667 24 -22 50 -22 78c0 30 7 57 21 81s33.5 42.833 58.5 56.5s52.833 20.5 83.5 20.5
c32 0 60.833 -6.83301 86.5 -20.5s45.667 -32.5 60 -56.5s21.5 -51.333 21.5 -82c0 -30 -7.16699 -57 -21.5 -81s-34.333 -42.667 -60 -56s-54.5 -20 -86.5 -20c-56.667 0 -105.667 10.833 -147 32.5s-73 51.834 -95 90.501s-33 82.667 -33 132c0 84 27.5 151 82.5 201
s134.833 75 239.5 75h452l5 -40h-198zM249 54.998c22 -22 50 -33 84 -33c34.667 0 63 11 85 33s33 50 33 84s-11 62.167 -33 84.5s-50.333 33.5 -85 33.5c-34 0 -62 -11 -84 -33s-33 -50 -33 -84c0 -34.667 11 -63 33 -85z" />
    <glyph glyph-name="tm_Ee" unicode="&#xb8f;" horiz-adv-x="847" 
d="M639 473v-446.999c0 -28.667 -1.5 -51.334 -4.5 -68.001s-9.33301 -30.834 -19 -42.501s-24.5 -21.834 -44.5 -30.501l-322 -135l-23 37l306 130c23.333 10 38.833 22.5 46.5 37.5s11.5 38.833 11.5 71.5v447h-201c-91.333 0 -160.5 -21.167 -207.5 -63.5
s-70.5 -99.833 -70.5 -172.5c0 -37.333 7 -71.166 21 -101.499s34 -54.833 60 -73.5c-14.667 24 -22 50 -22 78c0 30 7 57 21 81s33.5 42.833 58.5 56.5s52.833 20.5 83.5 20.5c32 0 60.833 -6.83301 86.5 -20.5s45.667 -32.5 60 -56.5s21.5 -51.333 21.5 -82
c0 -30 -7.16699 -57 -21.5 -81s-34.333 -42.667 -60 -56s-54.5 -20 -86.5 -20c-56.667 0 -105.667 10.833 -147 32.5s-73 51.834 -95 90.501s-33 82.667 -33 132c0 84 27.5 151 82.5 201s134.833 75 239.5 75h452l5 -40h-198zM249 55.001c22 -22 50 -33 84 -33
c34.667 0 63 11 85 33s33 50 33 84s-11 62.167 -33 84.5s-50.333 33.5 -85 33.5c-34 0 -62 -11 -84 -33s-33 -50 -33 -84c0 -34.667 11 -63 33 -85z" />
    <glyph glyph-name="tm_Ai" unicode="&#xb90;" horiz-adv-x="836" 
d="M755 25.5c6 -22.333 8.99805 -47.5 8.99805 -75.5c0 -45.333 -16 -82.5 -48 -111.5s-74.333 -43.5 -127 -43.5c-74 0 -129 30.333 -165 91c-38 -60.667 -97 -91 -177 -91c-36.667 0 -69.334 7.5 -98.001 22.5s-51 35.667 -67 62s-24 55.833 -24 88.5
c0 112 90 180.333 270 205l180 24c70 9.33301 123.5 27.666 160.5 54.999s55.833 62.666 56.5 105.999c0 37.333 -11.333 68 -34 92s-52 36 -88 36c-40.667 0 -74.167 -13.5 -100.5 -40.5s-39.5 -61.167 -39.5 -102.5v-69h-50v69c0 41.333 -13.5 75.5 -40.5 102.5
s-61.833 40.5 -104.5 40.5c-28.667 0 -53.667 -4.66699 -75 -14s-38.666 -22.333 -51.999 -39c8.66699 2.66699 18.667 4 30 4c30 0 54.5 -9 73.5 -27s28.5 -41.333 28.5 -70c0 -27.333 -9.83301 -50 -29.5 -68s-44.5 -27 -74.5 -27s-54.833 9 -74.5 27
s-29.5 41.333 -29.5 70c0 36 8.66699 68.333 26 97s41.5 51.167 72.5 67.5s65.833 24.5 104.5 24.5c71.333 0 128 -31.667 170 -95c39.333 63.333 94.333 95 165 95c33.333 0 63.333 -7.5 90 -22.5s47.5 -35.667 62.5 -62s22.5 -55.833 22.5 -88.5
c0 -56.667 -22.167 -101.834 -66.5 -135.501s-112.166 -56.834 -203.499 -69.501l-180 -24c-69.333 -9.33301 -122.666 -27.666 -159.999 -54.999s-56.333 -62.666 -57 -105.999c0 -37.333 12.5 -68 37.5 -92s57.833 -36 98.5 -36c44.667 0 81.167 13.5 109.5 40.5
s42.5 61.167 42.5 102.5v69h50v-69c0 -42 12.833 -76.333 38.5 -103s59.5 -40 101.5 -40c37.333 0 67 10.167 89 30.5s33 46.833 33 79.5c0 20.667 -3.16699 44.334 -9.5 71.001s-14.833 51.334 -25.5 74.001l50 6c13.333 -28 23 -53.167 29 -75.5zM129.498 382.5
c-11 -9.66699 -16.835 -22.168 -17.502 -37.501v-6c0 -15.333 5.33301 -28.166 16 -38.499s24.334 -15.5 41.001 -15.5c16 0 29.333 5 40 15s16.334 22.667 17.001 38c0 17.333 -5.16699 31.5 -15.5 42.5s-23.5 16.5 -39.5 16.5c-16.667 0 -30.5 -4.83301 -41.5 -14.5z" />
    <glyph glyph-name="tm_O" unicode="&#xb92;" horiz-adv-x="814" 
d="M661 5l60.998 0.00292969v-40h-61c-23.333 0 -45 2.66699 -65 8v-23c0 -32 -8 -60.833 -24 -86.5s-38 -45.834 -66 -60.501s-59.667 -22 -95 -22s-67 7.33301 -95 22s-49.833 34.834 -65.5 60.501s-23.5 54.5 -23.5 86.5v50h49v-50c0 -36.667 12.667 -66.667 38 -90
s57.666 -35 96.999 -35s71.833 11.667 97.5 35s38.5 53.333 38.5 90v47c-37.333 27.333 -56 72.666 -56 135.999v136h48c0.666992 -28.667 8.83398 -52.167 24.501 -70.5s35.834 -27.5 60.501 -27.5c26.667 0 46.5 10 59.5 30s19.5 47 19.5 81
c0 39.333 -12.833 74.666 -38.5 105.999s-61 55.833 -106 73.5s-95.5 26.5 -151.5 26.5c-57.333 0 -108.833 -9.33301 -154.5 -28s-81.334 -44.667 -107.001 -78s-38.5 -71 -38.5 -113c0 -9.33301 0.333008 -16.333 1 -21c6 26 19.167 46.833 39.5 62.5
s44.833 23.5 73.5 23.5c35.333 0 64.5 -11 87.5 -33s34.5 -50 34.5 -84c0 -33.333 -11.667 -60.833 -35 -82.5s-53.333 -32.5 -90 -32.5c-30 0 -57.167 7.16699 -81.5 21.5s-43.5 34.166 -57.5 59.499s-21 54 -21 86c0 50.667 15 96.167 45 136.5s71.5 71.833 124.5 94.5
s112.833 34 179.5 34s126.5 -10.833 179.5 -32.5s94.5 -51.667 124.5 -90s45 -81.5 45 -129.5c0 -46 -11.667 -83.5 -35 -112.5s-55.666 -43.5 -96.999 -43.5c-35.333 0 -64.666 12.667 -87.999 38v-31c0 -85.333 41.667 -128 125 -128zM164.498 271.003
c-14.333 -14 -21.499 -32 -21.499 -54c0 -21.333 7 -39 21 -53s32 -21 54 -21c21.333 0 39.166 7 53.499 21s21.833 31.667 22.5 53c0 22 -7 40 -21 54s-31.667 21 -53 21c-22.667 0 -41.167 -7 -55.5 -21z" />
    <glyph glyph-name="tm_Oo" unicode="&#xb93;" horiz-adv-x="814" 
d="M661 5l60.999 0.00683594v-40h-61c-23.333 0 -45 2.66699 -65 8v-23c0 -32 -8.83301 -60.833 -26.5 -86.5s-41.834 -45.834 -72.501 -60.501s-65.334 -22 -104.001 -22c-36.667 0 -69.667 5.66699 -99 17s-52.166 27.166 -68.499 47.499s-24.5 43.166 -24.5 68.499
c0 32 11.667 58.667 35 80s52.666 32 87.999 32h21v-40h-21c-21.333 0 -38.666 -6.83301 -51.999 -20.5s-20 -30.834 -20 -51.501c0 -26 13.167 -47.333 39.5 -64s60.166 -25 101.499 -25c44.667 0 81.5 11.667 110.5 35s43.5 53.333 43.5 90v47
c-37.333 27.333 -56 72.666 -56 135.999v136h48c0.666992 -28.667 8.83398 -52.167 24.501 -70.5s35.834 -27.5 60.501 -27.5c26.667 0 46.5 10 59.5 30s19.5 47 19.5 81c0 39.333 -12.833 74.666 -38.5 105.999s-61 55.833 -106 73.5s-95.5 26.5 -151.5 26.5
c-57.333 0 -108.833 -9.33301 -154.5 -28s-81.334 -44.667 -107.001 -78s-38.5 -71 -38.5 -113c0 -9.33301 0.333008 -16.333 1 -21c6 26 19.167 46.833 39.5 62.5s44.833 23.5 73.5 23.5c35.333 0 64.5 -11 87.5 -33s34.5 -50 34.5 -84
c0 -33.333 -11.667 -60.833 -35 -82.5s-53.333 -32.5 -90 -32.5c-30 0 -57.167 7.16699 -81.5 21.5s-43.5 34.166 -57.5 59.499s-21 54 -21 86c0 50.667 15 96.167 45 136.5s71.5 71.833 124.5 94.5s112.833 34 179.5 34s126.5 -10.833 179.5 -32.5s94.5 -51.667 124.5 -90
s45 -81.5 45 -129.5c0 -46 -11.667 -83.5 -35 -112.5s-55.666 -43.5 -96.999 -43.5c-35.333 0 -64.666 12.667 -87.999 38v-31c0 -85.333 41.667 -128 125 -128zM164.499 271.007c-14.333 -14 -21.499 -32 -21.499 -54c0 -21.333 7 -39 21 -53s32 -21 54 -21
c21.333 0 39.166 7 53.499 21s21.833 31.667 22.5 53c0 22 -7 40 -21 54s-31.667 21 -53 21c-22.667 0 -41.167 -7 -55.5 -21z" />
    <glyph glyph-name="tm_Au" unicode="&#xb94;" horiz-adv-x="2015" 
d="M661 5l60.998 0.00292969v-40h-61c-23.333 0 -45 2.66699 -65 8v-23c0 -32 -8 -60.833 -24 -86.5s-38 -45.834 -66 -60.501s-59.667 -22 -95 -22s-67 7.33301 -95 22s-49.833 34.834 -65.5 60.501s-23.5 54.5 -23.5 86.5v50h49v-50c0 -36.667 12.667 -66.667 38 -90
s57.666 -35 96.999 -35s71.833 11.667 97.5 35s38.5 53.333 38.5 90v47c-37.333 27.333 -56 72.666 -56 135.999v136h48c0.666992 -28.667 8.83398 -52.167 24.501 -70.5s35.834 -27.5 60.501 -27.5c26.667 0 46.5 10 59.5 30s19.5 47 19.5 81
c0 39.333 -12.833 74.666 -38.5 105.999s-61 55.833 -106 73.5s-95.5 26.5 -151.5 26.5c-57.333 0 -108.833 -9.33301 -154.5 -28s-81.334 -44.667 -107.001 -78s-38.5 -71 -38.5 -113c0 -9.33301 0.333008 -16.333 1 -21c6 26 19.167 46.833 39.5 62.5
s44.833 23.5 73.5 23.5c35.333 0 64.5 -11 87.5 -33s34.5 -50 34.5 -84c0 -33.333 -11.667 -60.833 -35 -82.5s-53.333 -32.5 -90 -32.5c-30 0 -57.167 7.16699 -81.5 21.5s-43.5 34.166 -57.5 59.499s-21 54 -21 86c0 50.667 15 96.167 45 136.5s71.5 71.833 124.5 94.5
s112.833 34 179.5 34s126.5 -10.833 179.5 -32.5s94.5 -51.667 124.5 -90s45 -81.5 45 -129.5c0 -46 -11.667 -83.5 -35 -112.5s-55.666 -43.5 -96.999 -43.5c-35.333 0 -64.666 12.667 -87.999 38v-31c0 -85.333 41.667 -128 125 -128zM164.498 271.003
c-14.333 -14 -21.499 -32 -21.499 -54c0 -21.333 7 -39 21 -53s32 -21 54 -21c21.333 0 39.166 7 53.499 21s21.833 31.667 22.5 53c0 22 -7 40 -21 54s-31.667 21 -53 21c-22.667 0 -41.167 -7 -55.5 -21zM1808 473.003v-473.002h-50v473h-267v-473h-49v228
c0 49.333 -11.167 93.666 -33.5 132.999s-53 70 -92 92s-82.5 33 -130.5 33c-53.333 0 -99.666 -10.667 -138.999 -32s-69.5 -50.833 -90.5 -88.5s-31.5 -80.5 -31.5 -128.5c0 -37.333 7 -71.166 21 -101.499s34 -54.833 60 -73.5c-14.667 24 -22 50 -22 78c0 30 7 57 21 81
s33.5 42.833 58.5 56.5s52.833 20.5 83.5 20.5c32 0 60.833 -6.83301 86.5 -20.5s45.667 -32.5 60 -56.5s21.5 -51.333 21.5 -82c0 -30 -7.16699 -57 -21.5 -81s-34.333 -42.667 -60 -56s-54.5 -20 -86.5 -20c-56.667 0 -105.667 10.833 -147 32.5s-73 51.834 -95 90.501
s-33 82.667 -33 132c0 56.667 12.667 107.334 38 152.001s61.666 79.5 108.999 104.5s103 37.5 167 37.5c54.667 0 104.5 -12.667 149.5 -38s80.5 -60.333 106.5 -105v125h558l5 -40h-197zM1063 55.001c22 -22 50 -33 84 -33c34.667 0 63 11 85 33s33 50 33 84
s-11 62.167 -33 84.5s-50.333 33.5 -85 33.5c-34 0 -62 -11 -84 -33s-33 -50 -33 -84c0 -34.667 11 -63 33 -85z" />
    <glyph glyph-name="tm_Ka" unicode="&#xb95;" horiz-adv-x="729" 
d="M641 248.5c33.333 -27.667 50 -63.8311 50 -108.498c0 -46.667 -17.833 -84.667 -53.5 -114s-83.834 -44 -144.501 -44v40c46 0 81.667 10.833 107 32.5s38 50.167 38 85.5c0 32.667 -11.5 59.167 -34.5 79.5s-55.5 30.5 -97.5 30.5h-48v-45
c0 -70.667 -20.167 -125.5 -60.5 -164.5s-94.166 -58.5 -161.499 -58.5c-37.333 0 -70.166 6.66699 -98.499 20s-50.333 31.666 -66 54.999s-23.5 49.666 -23.5 78.999c0 36 10.333 67 31 93s49.667 44 87 54v230h461l5 -40h-174v-183h47
c57.333 0 102.666 -13.833 135.999 -41.5zM229 290.003h179v183h-192v-183h13zM231 250.003c-41.333 0 -73.334 -10.5 -96.001 -31.5s-34 -48.833 -34 -83.5c0 -32 12.333 -58 37 -78s57.334 -30 98.001 -30c52.667 0 94.5 15.5 125.5 46.5s46.5 74.833 46.5 131.5v45h-177z
" />
    <glyph glyph-name="tm_Nga" unicode="&#xb99;" horiz-adv-x="951" 
d="M853 0h-511v40h123c48.667 0 87.667 14.667 117 44s44 66.666 44 111.999c0 36.667 -9.66699 66.5 -29 89.5s-46.333 34.5 -81 34.5c-36.667 0 -66.667 -13 -90 -39s-35 -58.667 -35 -98v-37h-49v327h-195v-473h-49v513h486l4 -40h-197v-168
c15.333 18.667 34 33.334 56 44.001s46 16 72 16c49.333 0 88.333 -15.833 117 -47.5s43 -72.5 43 -122.5c0 -34 -6.83301 -64.167 -20.5 -90.5s-33.5 -47.833 -59.5 -64.5h205v473h49v-513z" />
    <glyph glyph-name="tm_Ca" unicode="&#xb9a;" horiz-adv-x="669" 
d="M458 250l-0.00195312 -44.998c0 -70.667 -20.167 -125.5 -60.5 -164.5s-94.166 -58.5 -161.499 -58.5c-37.333 0 -70.166 6.66699 -98.499 20s-50.333 31.666 -66 54.999s-23.5 49.666 -23.5 78.999c0 36 10.333 67 31 93s49.667 44 87 54v230h461l5 -40h-174v-183h169
l5 -40h-174zM228.998 290.002h179v183h-192v-183h13zM230.998 250.002c-41.333 0 -73.334 -10.5 -96.001 -31.5s-34 -48.833 -34 -83.5c0 -32 12.333 -58 37 -78s57.334 -30 98.001 -30c52.667 0 94.5 15.5 125.5 46.5s46.5 74.833 46.5 131.5v45h-177z" />
    <glyph glyph-name="tm_Ja" unicode="&#xb9c;" horiz-adv-x="836" 
d="M738 32.5c26.667 -25 39.998 -57.165 39.998 -96.498c0 -40 -16 -73 -48 -99s-73 -39 -123 -39h-122v40h122c36 0 64.667 9.16699 86 27.5s32 41.833 32 70.5c0 26.667 -8 48.167 -24 64.5s-38.667 24.5 -68 24.5c-27.333 0 -53.833 -8.66699 -79.5 -26
s-57.834 -43.666 -96.501 -78.999c-44.667 -40.667 -83.667 -71.667 -117 -93s-69 -32 -107 -32c-52.667 0 -95 16.167 -127 48.5s-48 73.833 -48 124.5c0 112 90 180.333 270 205l180 24c70 9.33301 123.5 27.666 160.5 54.999s55.833 62.666 56.5 105.999
c0 37.333 -11.333 68 -34 92s-52 36 -88 36c-40.667 0 -74.167 -13.5 -100.5 -40.5s-39.5 -61.167 -39.5 -102.5v-69h-50v69c0 41.333 -13.5 75.5 -40.5 102.5s-61.833 40.5 -104.5 40.5c-28.667 0 -53.667 -4.66699 -75 -14s-38.666 -22.333 -51.999 -39
c8.66699 2.66699 18.667 4 30 4c30 0 54.5 -9 73.5 -27s28.5 -41.333 28.5 -70c0 -27.333 -9.83301 -50 -29.5 -68s-44.5 -27 -74.5 -27s-54.833 9 -74.5 27s-29.5 41.333 -29.5 70c0 36 8.66699 68.333 26 97s41.5 51.167 72.5 67.5s65.833 24.5 104.5 24.5
c71.333 0 128 -31.667 170 -95c39.333 63.333 94.333 95 165 95c33.333 0 63.333 -7.5 90 -22.5s47.5 -35.667 62.5 -62s22.5 -55.833 22.5 -88.5c0 -56.667 -22.167 -101.834 -66.5 -135.501s-112.166 -56.834 -203.499 -69.501l-180 -24
c-69.333 -9.33301 -122.666 -27.666 -159.999 -54.999s-56.333 -62.666 -57 -105.999c0 -38 11 -68.833 33 -92.5s51.667 -35.5 89 -35.5c28.667 0 56.667 9 84 27s62 45.667 104 83c44 39.333 81.833 69.166 113.5 89.499s64.5 30.5 98.5 30.5
c43.333 0 78.333 -12.5 105 -37.5zM129.498 382.502c-11 -9.66699 -16.835 -22.168 -17.502 -37.501v-6c0 -15.333 5.33301 -28.166 16 -38.499s24.334 -15.5 41.001 -15.5c16 0 29.333 5 40 15s16.334 22.667 17.001 38c0 17.333 -5.16699 31.5 -15.5 42.5
s-23.5 16.5 -39.5 16.5c-16.667 0 -30.5 -4.83301 -41.5 -14.5z" />
    <glyph glyph-name="tm_Nya" unicode="&#xb9e;" horiz-adv-x="1198" 
d="M1096.5 289.5c29 -39.667 43.499 -90.498 43.499 -152.498c0 -79.333 -20.667 -148.333 -62 -207s-100 -103.5 -176 -134.5s-164.667 -46.5 -266 -46.5c-112.667 0 -211 17.333 -295 52s-148.833 84.5 -194.5 149.5s-68.5 141.833 -68.5 230.5
c0 59.333 13.5 121.666 40.5 186.999s60.833 117 101.5 155l51 -10c-40 -32.667 -73.333 -80.834 -100 -144.501s-40 -126.834 -40 -189.501c0 -79.333 20.667 -147.833 62 -205.5s100 -101.834 176 -132.501s165 -46 267 -46c91.333 0 170.833 13.667 238.5 41
s120 66.833 157 118.5s55.5 113.167 55.5 184.5c0 48 -9.66699 87.5 -29 118.5s-47.666 46.5 -84.999 46.5c-36 0 -65.667 -13 -89 -39s-35 -58.667 -35 -98v-167h-49v473h-179c-91.333 0 -160.5 -21.167 -207.5 -63.5s-70.5 -99.833 -70.5 -172.5
c0 -37.333 7.16699 -71.166 21.5 -101.499s34.833 -54.833 61.5 -73.5c-15.333 22.667 -23 48.667 -23 78c0 46 15.333 83.833 46 113.5s69.667 44.5 117 44.5c32 0 60.833 -6.83301 86.5 -20.5s45.667 -32.5 60 -56.5s21.5 -51.333 21.5 -82c0 -30 -7.16699 -57 -21.5 -81
s-34.333 -42.667 -60 -56s-54.5 -20 -86.5 -20c-56.667 0 -105.834 10.833 -147.501 32.5s-73.5 51.834 -95.5 90.501s-33 82.667 -33 132c0 55.333 12.167 103.666 36.5 144.999s60.5 73.5 108.5 96.5s107 34.5 177 34.5h430l5 -40h-198v-184
c14.667 18.667 32.834 33.334 54.501 44.001s45.5 16 71.5 16c52 0 92.5 -19.833 121.5 -59.5zM480.999 55.002c22 -22 50.333 -33 85 -33c34 0 62 11 84 33s33 50 33 84s-11 62.167 -33 84.5s-50 33.5 -84 33.5c-34.667 0 -63 -11 -85 -33s-33 -50 -33 -84
c0 -34.667 11 -63 33 -85z" />
    <glyph glyph-name="tm_Tta" unicode="&#xb9f;" horiz-adv-x="715" 
d="M147 518l-49 -5v-513h607l-4 40h-554v478z" />
    <glyph glyph-name="tm_Nna" unicode="&#xba3;" horiz-adv-x="1672" 
d="M1464 473l-0.000976562 -473h-50v473h-101c-61.333 0 -115.666 -13.333 -162.999 -40c32.667 -32.667 58 -71.667 76 -117s27 -93.666 27 -144.999c0 -56 -14.167 -101.5 -42.5 -136.5s-66.166 -52.5 -113.499 -52.5c-46.667 0 -83.834 17.5 -111.501 52.5
s-41.5 80.5 -41.5 136.5c0 53.333 11.333 102.833 34 148.5s54.334 84.167 95.001 115.5c-48.667 34 -104 51 -166 51c-64.667 0 -121 -16.667 -169 -50c41.333 -33.333 73.666 -72.833 96.999 -118.5s35 -94.5 35 -146.5c0 -56 -14 -101.5 -42 -136.5
s-65.333 -52.5 -112 -52.5c-47.333 0 -85.166 17.5 -113.499 52.5s-42.5 80.5 -42.5 136.5c0 50.667 8.83301 98.5 26.5 143.5s42.834 84.167 75.501 117.5c-62.667 36 -134.334 54 -215.001 54c-68 0 -127.333 -11 -178 -33s-89.667 -52.5 -117 -91.5s-41 -83.5 -41 -133.5
c0 -34.667 7 -66.167 21 -94.5s34 -51.833 60 -70.5c-14.667 23.333 -22 49 -22 77c0 30 7 57 21 81s33.5 42.833 58.5 56.5s52.833 20.5 83.5 20.5c32 0 60.833 -6.83301 86.5 -20.5s45.667 -32.5 60 -56.5s21.5 -51.333 21.5 -82c0 -30 -7.16699 -57 -21.5 -81
s-34.333 -42.667 -60 -56s-54.5 -20 -86.5 -20c-54.667 0 -102.834 10.667 -144.501 32s-73.834 50.666 -96.501 87.999s-34 79.333 -34 126c0 58 16 110 48 156s77.5 82 136.5 108s127.167 39 204.5 39c93.333 0 177.333 -22.333 252 -67c58.667 44.667 128 67 208 67
c79.333 0 149 -22.667 209 -68c58.667 33.333 124.334 50 197.001 50h344l5 -40h-198zM1176 301.5c-16 40.333 -38.666 74.834 -67.999 103.501c-34.667 -27.333 -61.834 -61.333 -81.501 -102s-29.5 -84.667 -29.5 -132c0 -42.667 8.83301 -77.334 26.5 -104.001
s42.167 -40 73.5 -40s56.333 13.5 75 40.5s28 61.5 28 103.5c0 46.667 -8 90.167 -24 130.5zM786 302.501c-20 40.333 -48 74.5 -84 102.5c-28.667 -28.667 -50.667 -63.167 -66 -103.5s-23 -83.833 -23 -130.5c0 -42 9.33301 -76.5 28 -103.5s43.667 -40.5 75 -40.5
s55.833 13.333 73.5 40s26.5 61.334 26.5 104.001c0 47.333 -10 91.166 -30 131.499zM249 55.001c22 -22 50 -33 84 -33c34.667 0 63 11 85 33s33 50 33 84s-11 62.167 -33 84.5s-50.333 33.5 -85 33.5c-34 0 -62 -11 -84 -33s-33 -50 -33 -84c0 -34.667 11 -63 33 -85z" />
    <glyph glyph-name="tm_Ta" unicode="&#xba4;" horiz-adv-x="739" 
d="M592 262.5c31.333 -18.333 55.6641 -43.832 72.9971 -76.499s26 -69.667 26 -111c0 -46 -12 -87.167 -36 -123.5s-58 -64.666 -102 -84.999s-95 -30.5 -153 -30.5h-147c-38 0 -71.333 -7.16699 -100 -21.5s-50.667 -33.5 -66 -57.5l-39 22c16.667 28.667 42.5 52 77.5 70
s75.167 27 120.5 27h154c48.667 0 90.834 8.5 126.501 25.5s63.167 40.5 82.5 70.5s29 64.333 29 103c0 51.333 -14 93.333 -42 126s-65 49 -111 49h-27v-45c0 -70.667 -20.167 -125.5 -60.5 -164.5s-94.166 -58.5 -161.499 -58.5c-37.333 0 -70.166 6.66699 -98.499 20
s-50.333 31.666 -66 54.999s-23.5 49.666 -23.5 78.999c0 36 10.333 67 31 93s49.667 44 87 54v230h461l5 -40h-174v-183h26c40.667 0 76.667 -9.16699 108 -27.5zM228.998 290.001h179v183h-192v-183h13zM230.998 250.001c-41.333 0 -73.334 -10.5 -96.001 -31.5
s-34 -48.833 -34 -83.5c0 -32 12.333 -58 37 -78s57.334 -30 98.001 -30c52.667 0 94.5 15.5 125.5 46.5s46.5 74.833 46.5 131.5v45h-177z" />
    <glyph glyph-name="tm_Na" unicode="&#xba8;" horiz-adv-x="740" 
d="M639.5 288.5c28.333 -40.333 42.4971 -94.168 42.4971 -161.501c0 -55.333 -10.5 -105 -31.5 -149s-52.333 -78.667 -94 -104s-92.167 -38 -151.5 -38h-102c-38 0 -71.333 -7.16699 -100 -21.5s-50.667 -33.5 -66 -57.5l-39 22c16.667 28.667 42.5 52 77.5 70
s75.167 27 120.5 27h109c48.667 0 89.834 11 123.501 33s58.834 52 75.501 90s25 81 25 129c0 54 -9.5 96.833 -28.5 128.5s-47.833 47.5 -86.5 47.5c-35.333 0 -64.666 -13 -87.999 -39s-35 -58.667 -35 -98v-167h-49v473h-195v-473h-49v513h486l4 -40h-197v-184
c14.667 18.667 32.834 33.334 54.501 44.001s45.5 16 71.5 16c53.333 0 94.166 -20.167 122.499 -60.5z" />
    <glyph glyph-name="tm_Nnna" unicode="&#xba9;" horiz-adv-x="1288" 
d="M1080 473l0.00390625 -472.997h-49v473h-102c-66 0 -125 -16 -177 -48c37.333 -32.667 66.333 -70.834 87 -114.501s31 -90.167 31 -139.5c0 -56 -14 -101.5 -42 -136.5s-65.667 -52.5 -113 -52.5s-85 17.5 -113 52.5s-42 80.5 -42 136.5c0 50 10.167 96.833 30.5 140.5
s48.833 81.167 85.5 112.5c-66 41.333 -142.333 62 -229 62c-68 0 -127.333 -11 -178 -33s-89.667 -52.5 -117 -91.5s-41 -83.5 -41 -133.5c0 -34.667 7 -66.167 21 -94.5s34 -51.833 60 -70.5c-14.667 23.333 -22 49 -22 77c0 30 7 57 21 81s33.5 42.833 58.5 56.5
s52.833 20.5 83.5 20.5c32 0 60.833 -6.83301 86.5 -20.5s45.667 -32.5 60 -56.5s21.5 -51.333 21.5 -82c0 -30 -7.16699 -57 -21.5 -81s-34.333 -42.667 -60 -56s-54.5 -20 -86.5 -20c-54.667 0 -102.834 10.667 -144.501 32s-73.834 50.666 -96.501 87.999
s-34 79.333 -34 126c0 58 16 110 48 156s77.5 82 136.5 108s127.167 39 204.5 39c51.333 0 99.666 -6.83301 144.999 -20.5s86.333 -32.834 123 -57.501c63.333 40 134.666 60 213.999 60h345l4 -40h-198zM789.004 296.003c-18 38.667 -43.332 72 -75.999 100
c-32 -28 -56.667 -61.333 -74 -100s-26 -80.334 -26 -125.001c0 -42.667 9.16699 -77.334 27.5 -104.001s43.166 -40 74.499 -40s56 13.333 74 40s27 61.334 27 104.001c0 44.667 -9 86.334 -27 125.001zM249.005 55.0029c22 -22 50 -33 84 -33c34.667 0 63 11 85 33
s33 50 33 84s-11 62.167 -33 84.5s-50.333 33.5 -85 33.5c-34 0 -62 -11 -84 -33s-33 -50 -33 -84c0 -34.667 11 -63 33 -85z" />
    <glyph glyph-name="tm_Pa" unicode="&#xbaa;" horiz-adv-x="706" 
d="M98 0v513l49 5v-478h412v473h50v-513h-511z" />
    <glyph glyph-name="tm_Ma" unicode="&#xbae;" horiz-adv-x="796" 
d="M642.5 492.5c31 -25.667 54.667 -61.167 71 -106.5s24.5 -97 24.5 -155c0 -70 -16.167 -126 -48.5 -168s-80.833 -63 -145.5 -63h-446v513l49 5v-478h226v312c0 58.667 14.5 103.167 43.5 133.5s67.5 45.5 115.5 45.5c42.667 0 79.5 -12.833 110.5 -38.5zM651.5 91
c22.333 34 33.502 80.668 33.502 140.001c0 76 -13.333 137.5 -40 184.5s-63.334 70.5 -110.001 70.5c-34 0 -61.167 -10.833 -81.5 -32.5s-30.5 -54.834 -30.5 -99.501v-314h121c49.333 0 85.166 17 107.499 51z" />
    <glyph glyph-name="tm_Ya" unicode="&#xbaf;" horiz-adv-x="897" 
d="M799 0l-417 -0.000976562v51c-30 -46 -72.667 -69 -128 -69c-51.333 0 -91.833 16.333 -121.5 49s-44.5 82.334 -44.5 149.001v333l49 5v-338c0 -102 39 -153 117 -153c41.333 0 73 15.5 95 46.5s33 71.833 33 122.5v317h50v-473h317v473h50v-513z" />
    <glyph glyph-name="tm_Ra" unicode="&#xbb0;" horiz-adv-x="670" 
d="M463 26c0 -28 -1.66797 -49.833 -5.00098 -65.5s-9.66602 -29.167 -18.999 -40.5s-24 -23 -44 -35l-232 -135l-23 39l224 131c20.667 12.667 34.167 26.5 40.5 41.5s9.5 38.833 9.5 71.5v440h-267v-473h-49v513h558l4 -40h-197v-447z" />
    <glyph glyph-name="tm_Rra" unicode="&#xbb1;" horiz-adv-x="787" 
d="M679 449c34 -54.667 51.0029 -127.335 51.0029 -218.002c0 -78 -12 -146.667 -36 -206s-60.333 -105.666 -109 -138.999s-109 -50 -181 -50h-111c-38 0 -71.333 -7.16699 -100 -21.5s-50.667 -33.5 -66 -57.5l-39 22c16.667 28.667 42.5 52 77.5 70s75.167 27 120.5 27
h118c91.333 0 159.666 32.167 204.999 96.5s68 150.5 68 258.5c0 78 -12 140 -36 186s-60.333 69 -109 69c-33.333 0 -61.333 -12.333 -84 -37s-34 -59.667 -34 -105v-344h-49v317c-0.666992 51.333 -11.167 92.333 -31.5 123s-49.833 46 -88.5 46c-72 0 -108 -51 -108 -153
v-333h-49v333c0 64.667 13.833 113.834 41.5 147.501s65.5 50.5 113.5 50.5c32.667 0 61.167 -8.66699 85.5 -26s43.166 -41.333 56.499 -72c14 31.333 33.667 55.5 59 72.5s53.666 25.5 84.999 25.5c66 0 116 -27.333 150 -82z" />
    <glyph glyph-name="tm_La" unicode="&#xbb2;" horiz-adv-x="1005" 
d="M925.5 378.5c14.333 -53 21.499 -100.833 21.499 -143.5c0 -79.333 -15 -141.333 -45 -186s-74.667 -67 -134 -67c-56 0 -99.167 19.167 -129.5 57.5s-45.5 95.166 -45.5 170.499v47c0 70.667 -21 126.5 -63 167.5s-98 61.5 -168 61.5c-51.333 0 -96 -10.5 -134 -31.5
s-67 -50.167 -87 -87.5s-30 -80.333 -30 -129c0 -37.333 6.83301 -71 20.5 -101s33.834 -54.333 60.501 -73c-14.667 23.333 -22 48.666 -22 75.999c0 30 7 57 21 81s33.5 42.833 58.5 56.5s52.833 20.5 83.5 20.5c32 0 60.833 -6.83301 86.5 -20.5s45.667 -32.5 60 -56.5
s21.5 -51.333 21.5 -82c0 -30 -7.16699 -57 -21.5 -81s-34.333 -42.667 -60 -56s-54.5 -20 -86.5 -20c-56.667 0 -105.667 11 -147 33s-73 52.333 -95 91s-33 82.667 -33 132c0 56.667 12.333 107.167 37 151.5s60 79 106 104s99.667 37.5 161 37.5
c55.333 0 104.333 -11.167 147 -33.5s75.667 -54.166 99 -95.499s35 -89.666 35 -144.999v-47c0 -61.333 10.667 -107.166 32 -137.499s52.333 -45.5 93 -45.5c42 0 73.667 18.333 95 55s32 87 32 151c0 42.667 -7 90.667 -21 144s-34.333 98.666 -61 135.999l49 14
c28 -46 49.167 -95.5 63.5 -148.5zM248.999 55c22 -22 50 -33 84 -33c34.667 0 63 11 85 33s33 50 33 84s-11 62.167 -33 84.5s-50.333 33.5 -85 33.5c-34 0 -62 -11 -84 -33s-33 -50 -33 -84c0 -34.667 11 -63 33 -85z" />
    <glyph glyph-name="tm_Lla" unicode="&#xbb3;" horiz-adv-x="1201" 
d="M994 473v-473.002h-50v473h-267v-473h-49v228c0 49.333 -11.167 93.666 -33.5 132.999s-53 70 -92 92s-82.5 33 -130.5 33c-53.333 0 -99.666 -10.667 -138.999 -32s-69.5 -50.833 -90.5 -88.5s-31.5 -80.5 -31.5 -128.5c0 -37.333 7 -71.166 21 -101.499
s34 -54.833 60 -73.5c-14.667 24 -22 50 -22 78c0 30 7 57 21 81s33.5 42.833 58.5 56.5s52.833 20.5 83.5 20.5c32 0 60.833 -6.83301 86.5 -20.5s45.667 -32.5 60 -56.5s21.5 -51.333 21.5 -82c0 -30 -7.16699 -57 -21.5 -81s-34.333 -42.667 -60 -56s-54.5 -20 -86.5 -20
c-56.667 0 -105.667 10.833 -147 32.5s-73 51.834 -95 90.501s-33 82.667 -33 132c0 56.667 12.667 107.334 38 152.001s61.666 79.5 108.999 104.5s103 37.5 167 37.5c54.667 0 104.5 -12.667 149.5 -38s80.5 -60.333 106.5 -105v125h558l5 -40h-197zM249 54.998
c22 -22 50 -33 84 -33c34.667 0 63 11 85 33s33 50 33 84s-11 62.167 -33 84.5s-50.333 33.5 -85 33.5c-34 0 -62 -11 -84 -33s-33 -50 -33 -84c0 -34.667 11 -63 33 -85z" />
    <glyph glyph-name="tm_Llla" unicode="&#xbb4;" horiz-adv-x="796" 
d="M423 -50c0 -28 4.66699 -48.5 14 -61.5s24 -19.5 44 -19.5h173l4 -40h-180c-12 -39.333 -35.333 -71 -70 -95s-72.667 -36 -114 -36c-52.667 0 -93.667 13.833 -123 41.5s-44 64.167 -44 109.5h49c0 -32 10.167 -57.5 30.5 -76.5s49.833 -28.5 88.5 -28.5
c30 0 57.167 7.5 81.5 22.5s42.833 38.5 55.5 70.5c-24 10.667 -39.833 25.5 -47.5 44.5s-11.5 44.167 -11.5 75.5v43h-275v513l49 5v-478h226v312c0 58.667 14.5 103.167 43.5 133.5s67.5 45.5 115.5 45.5c42.667 0 79.5 -12.833 110.5 -38.5s54.667 -61.167 71 -106.5
s24.5 -97 24.5 -155c0 -70 -16.167 -126 -48.5 -168s-80.833 -63 -145.5 -63h-121v-50zM544 40c49.333 0 85.168 17.001 107.501 51.001s33.5 80.667 33.5 140c0 76 -13.333 137.5 -40 184.5s-63.334 70.5 -110.001 70.5c-34 0 -61.167 -10.833 -81.5 -32.5
s-30.5 -54.834 -30.5 -99.501v-314h121z" />
    <glyph glyph-name="tm_Va" unicode="&#xbb5;" horiz-adv-x="1019" 
d="M921 0l-375.998 -0.00390625v40c25.333 26.667 45.5 58.334 60.5 95.001s22.5 76.667 22.5 120c0 44 -10.333 83.5 -31 118.5s-49.834 62.5 -87.501 82.5s-81.834 30 -132.501 30c-54 0 -101.167 -10.667 -141.5 -32s-71.166 -50.833 -92.499 -88.5s-32 -80.5 -32 -128.5
c0 -37.333 7 -71.166 21 -101.499s34 -54.833 60 -73.5c-14.667 24 -22 50 -22 78c0 30 7 57 21 81s33.5 42.833 58.5 56.5s52.833 20.5 83.5 20.5c32 0 60.833 -6.83301 86.5 -20.5s45.667 -32.5 60 -56.5s21.5 -51.333 21.5 -82c0 -30 -7.16699 -57 -21.5 -81
s-34.333 -42.667 -60 -56s-54.5 -20 -86.5 -20c-56.667 0 -105.667 10.833 -147 32.5s-73 51.834 -95 90.501s-33 82.667 -33 132c0 56.667 13 107.334 39 152.001s63 79.5 111 104.5s104.333 37.5 169 37.5c58.667 0 111.167 -11.833 157.5 -35.5s82.333 -56.5 108 -98.5
s38.5 -89.333 38.5 -142c0 -40.667 -6.33301 -79.667 -19 -117s-30.334 -70 -53.001 -98h263v473h49v-513zM249.002 54.9961c22 -22 50 -33 84 -33c34.667 0 63 11 85 33s33 50 33 84s-11 62.167 -33 84.5s-50.333 33.5 -85 33.5c-34 0 -62 -11 -84 -33s-33 -50 -33 -84
c0 -34.667 11 -63 33 -85z" />
    <glyph glyph-name="tm_Sha" unicode="&#xbb6;" horiz-adv-x="1006" 
d="M899.5 450c32.333 -42 48.5 -98 48.5 -168c0 -58 -8.16699 -109.667 -24.5 -155s-40 -80.833 -71 -106.5s-67.833 -38.5 -110.5 -38.5c-48 0 -86.5 15.167 -115.5 45.5s-43.5 74.833 -43.5 133.5v312h-163v-293c0 -64.667 -15 -113.834 -45 -147.501
s-70.333 -50.5 -121 -50.5s-91 16.833 -121 50.5s-45 82.834 -45 147.501v333l49 5v-338c0 -51.333 10.5 -89.666 31.5 -114.999s49.5 -38 85.5 -38s64.5 12.667 85.5 38s31.5 63.666 31.5 114.999v333h383c64.667 0 113.167 -21 145.5 -63zM855.5 97.5
c26.333 47 39.499 108.501 39.499 184.501c0 59.333 -11.167 106 -33.5 140s-58.166 51 -107.499 51h-121v-314c0 -44.667 10.167 -77.834 30.5 -99.501s47.833 -32.5 82.5 -32.5c46.667 0 83.167 23.5 109.5 70.5z" />
    <glyph glyph-name="tm_Ssa" unicode="&#xbb7;" horiz-adv-x="1343" 
d="M1039 0l-0.000976562 -243.002h-50v243h-444v40c25.333 26.667 45.5 58.334 60.5 95.001s22.5 76.667 22.5 120c0 44 -10.5 83.5 -31.5 118.5s-50.5 62.5 -88.5 82.5s-81.667 30 -131 30c-54 0 -101.167 -10.667 -141.5 -32s-71.166 -50.833 -92.499 -88.5
s-32 -80.5 -32 -128.5c0 -37.333 7 -71.166 21 -101.499s34 -54.833 60 -73.5c-14.667 24 -22 50 -22 78c0 30 7 57 21 81s33.5 42.833 58.5 56.5s52.833 20.5 83.5 20.5c32 0 60.833 -6.83301 86.5 -20.5s45.667 -32.5 60 -56.5s21.5 -51.333 21.5 -82
c0 -30 -7.16699 -57 -21.5 -81s-34.333 -42.667 -60 -56s-54.5 -20 -86.5 -20c-56.667 0 -105.667 10.833 -147 32.5s-73 51.834 -95 90.501s-33 82.667 -33 132c0 56.667 13 107.334 39 152.001s63 79.5 111 104.5s104.333 37.5 169 37.5
c58.667 0 111.167 -11.833 157.5 -35.5s82.333 -56.5 108 -98.5s38.5 -89.333 38.5 -142c0 -40 -6.33301 -78.667 -19 -116s-30 -70.333 -52 -99h379v172c-22.667 -5.33301 -44.334 -8 -65.001 -8c-40 0 -75 7.33301 -105 22s-53.167 35 -69.5 61s-24.833 55 -25.5 87
c0 46 14.667 83.667 44 113s68.333 44 117 44c48 0 85.667 -14.833 113 -44.5s41 -68.834 41 -117.501v-86c32 19.333 61.333 45.666 88 78.999s49.334 70.333 68.001 111h50v-473h-206zM988.999 259.998l0.00195312 104c0 38 -8.83301 67.833 -26.5 89.5
s-43.5 32.5 -77.5 32.5c-32.667 0 -58.834 -10.333 -78.501 -31s-29.5 -47.667 -29.5 -81c0 -36.667 13.167 -66.667 39.5 -90s62.166 -35 107.499 -35c21.333 0 43 3.66699 65 11zM1195 376.998c-20 -32.667 -43.332 -61.5 -69.999 -86.5s-55.334 -44.833 -86.001 -59.5
v-191h156v337zM249.002 54.998c22 -22 50 -33 84 -33c34.667 0 63 11 85 33s33 50 33 84s-11 62.167 -33 84.5s-50.333 33.5 -85 33.5c-34 0 -62 -11 -84 -33s-33 -50 -33 -84c0 -34.667 11 -63 33 -85z" />
    <glyph glyph-name="tm_Sa" unicode="&#xbb8;" horiz-adv-x="1283" 
d="M1203.5 378.5c14.333 -53 21.499 -100.833 21.499 -143.5c0 -79.333 -15 -141.333 -45 -186s-74.667 -67 -134 -67c-56 0 -99.167 19.167 -129.5 57.5s-45.5 95.166 -45.5 170.499v128c0 48.667 -8.83301 85.334 -26.5 110.001s-43.167 37 -76.5 37
c-42 0 -73.333 -20.667 -94 -62s-31 -96.666 -31 -165.999v-257h-50v257c0 70.667 -21 126.5 -63 167.5s-98 61.5 -168 61.5c-51.333 0 -96 -10.5 -134 -31.5s-67 -50.167 -87 -87.5s-30 -80.333 -30 -129c0 -37.333 6.83301 -71 20.5 -101s33.834 -54.333 60.501 -73
c-14.667 23.333 -22 48.666 -22 75.999c0 30 7 57 21 81s33.5 42.833 58.5 56.5s52.833 20.5 83.5 20.5c32 0 60.833 -6.83301 86.5 -20.5s45.667 -32.5 60 -56.5s21.5 -51.333 21.5 -82c0 -30 -7.16699 -57 -21.5 -81s-34.333 -42.667 -60 -56s-54.5 -20 -86.5 -20
c-56.667 0 -105.667 11 -147 33s-73 52.333 -95 91s-33 82.667 -33 132c0 56.667 12.333 107.167 37 151.5s60 79 106 104s99.667 37.5 161 37.5c58 0 108.833 -12.167 152.5 -36.5s76.834 -58.833 99.501 -103.5c12 44 30.833 78.333 56.5 103s58.167 37 97.5 37
c47.333 0 84.666 -16.833 111.999 -50.5s41 -81.5 41 -143.5v-127c0 -61.333 10.667 -107.166 32 -137.499s52.333 -45.5 93 -45.5c42 0 73.667 18.167 95 54.5s32 86.833 32 151.5c0 42.667 -7 90.667 -21 144s-34.333 98.666 -61 135.999l49 14
c28 -46 49.167 -95.5 63.5 -148.5zM248.999 55c22 -22 50 -33 84 -33c34.667 0 63 11 85 33s33 50 33 84s-11 62.167 -33 84.5s-50.333 33.5 -85 33.5c-34 0 -62 -11 -84 -33s-33 -50 -33 -84c0 -34.667 11 -63 33 -85z" />
    <glyph glyph-name="tm_Ha" unicode="&#xbb9;" horiz-adv-x="1536" 
d="M1425.5 448.5c35 -55 52.498 -127.505 52.498 -217.505c0 -78 -12 -146.667 -36 -206s-60.333 -105.666 -109 -138.999s-108.667 -50 -180 -50h-891c-38 0 -71.167 -7.16699 -99.5 -21.5s-50.166 -33.5 -65.499 -57.5l-39 22c16.667 28.667 42.5 52 77.5 70
s75.167 27 120.5 27h897c91.333 0 159.5 32.167 204.5 96.5s67.5 150.5 67.5 258.5c0 77.333 -12.5 139 -37.5 185s-61.833 69 -110.5 69c-35.333 0 -63.333 -11.833 -84 -35.5s-31 -58.834 -31 -105.501v-344h-49v317c0 50.667 -10.5 91.5 -31.5 122.5
s-50.167 46.5 -87.5 46.5c-72.667 0 -109 -51 -109 -153v-333h-340v40c25.333 26.667 45.5 58.334 60.5 95.001s22.5 76.667 22.5 120c0 44 -10.5 83.5 -31.5 118.5s-50.5 62.5 -88.5 82.5s-81.667 30 -131 30c-54 0 -101.167 -10.667 -141.5 -32
s-71.166 -50.833 -92.499 -88.5s-32 -80.5 -32 -128.5c0 -37.333 7 -71.166 21 -101.499s34 -54.833 60 -73.5c-14.667 24 -22 50 -22 78c0 30 7 57 21 81s33.5 42.833 58.5 56.5s52.833 20.5 83.5 20.5c32 0 60.833 -6.83301 86.5 -20.5s45.667 -32.5 60 -56.5
s21.5 -51.333 21.5 -82c0 -30 -7.16699 -57 -21.5 -81s-34.333 -42.667 -60 -56s-54.5 -20 -86.5 -20c-56.667 0 -105.667 10.833 -147 32.5s-73 51.834 -95 90.501s-33 82.667 -33 132c0 56.667 13 107.334 39 152.001s63 79.5 111 104.5s104.333 37.5 169 37.5
c58.667 0 111.167 -11.833 157.5 -35.5s82.333 -56.5 108 -98.5s38.5 -89.333 38.5 -142c0 -40.667 -6.5 -79.834 -19.5 -117.501s-30.5 -70.167 -52.5 -97.5h227v293c0 64.667 13.833 113.834 41.5 147.501s65.5 50.5 113.5 50.5c32 0 59.833 -8.16699 83.5 -24.5
s42.5 -39.166 56.5 -68.499c13.333 30 32.5 53 57.5 69s53.167 24 84.5 24c66.667 0 117.5 -27.5 152.5 -82.5zM248.998 54.9951c22 -22 50 -33 84 -33c34.667 0 63 11 85 33s33 50 33 84s-11 62.167 -33 84.5s-50.333 33.5 -85 33.5c-34 0 -62 -11 -84 -33s-33 -50 -33 -84
c0 -34.667 11 -63 33 -85z" />
    <glyph glyph-name="tm_VowelAa" unicode="&#xbbe;" horiz-adv-x="650" 
d="M394 0v473h-247v-473h-49v513h538l4 -40h-197v-473h-49z" />
    <glyph glyph-name="tm_VowelI" unicode="&#xbbf;" horiz-adv-x="244" 
d="M11.5 759.5c43 -25 76.334 -59.834 100.001 -104.501s35.5 -95.334 35.5 -152.001v-503h-49v503c0 48.667 -9.66699 91.834 -29 129.501s-46.833 67 -82.5 88s-77.5 31.5 -125.5 31.5c-54 0 -96.667 -11.5 -128 -34.5s-47 -53.167 -47 -90.5
c0 -35.333 11.667 -63.166 35 -83.499s58 -30.5 104 -30.5h40v-40h-40c-60 0 -106.833 14.333 -140.5 43s-50.834 65.667 -51.501 111c0 32.667 9.33301 62 28 88s45.167 46.167 79.5 60.5s74.5 21.5 120.5 21.5c57.333 0 107.5 -12.5 150.5 -37.5z" />
    <glyph glyph-name="tm_VowelIi" unicode="&#xbc0;" horiz-adv-x="0" 
d="M-55.5 852c31 -17.333 55.1641 -40.3311 72.4971 -68.998s26 -59.334 26 -92.001c0 -29.333 -9.16699 -53.833 -27.5 -73.5s-41.5 -29.5 -69.5 -29.5c-28.667 0 -52.667 8.83301 -72 26.5s-29 39.834 -29 66.501s9.16699 48.5 27.5 65.5s41.833 25.5 70.5 25.5
c10 0 20.667 -1.66699 32 -5c-13.333 20.667 -31.666 36.667 -54.999 48s-50.666 17 -81.999 17c-48.667 0 -87.5 -14.833 -116.5 -44.5s-43.5 -68.167 -43.5 -115.5c0 -46 12.5 -84 37.5 -114s56.833 -45 95.5 -45v-39c-35.333 0 -67.166 8.5 -95.499 25.5
s-50.5 40.667 -66.5 71s-24 64.166 -24 101.499c0 39.333 8.83301 74.666 26.5 105.999s42.5 55.833 74.5 73.5s69.333 26.5 112 26.5c40 0 75.5 -8.66699 106.5 -26zM-16.0029 642.002c10 10 15 22.667 15 38c0 14.667 -5 27 -15 37s-22.667 15 -38 15
s-28.166 -5 -38.499 -15s-15.5 -22.333 -15.5 -37c0 -15.333 5.16699 -28 15.5 -38s23.166 -15 38.499 -15s28 5 38 15z" />
    <glyph glyph-name="tm_VowelU" unicode="&#xbc1;" horiz-adv-x="464" 
d="M344.5 493c25.667 -13.333 45.668 -32 60.001 -56s21.5 -51 21.5 -81s-7.16699 -57.167 -21.5 -81.5s-34.333 -43.333 -60 -57s-54.5 -20.5 -86.5 -20.5s-60.833 6.83301 -86.5 20.5s-45.667 32.5 -60 56.5s-21.5 51 -21.5 81c0 24 4.66699 46.167 14 66.5
s22.666 37.5 39.999 51.5h-291v40h405c32 0 60.833 -6.66699 86.5 -20zM340.501 271.5c21.667 22.333 32.5 50.5 32.5 84.5s-10.833 62 -32.5 84s-49.167 33 -82.5 33c-34.667 0 -63.167 -11 -85.5 -33s-33.5 -50.333 -33.5 -85c0 -34 11.167 -62 33.5 -84
s50.833 -33 85.5 -33c33.333 0 60.833 11.167 82.5 33.5z" />
    <glyph glyph-name="tm_VowelUu" unicode="&#xbc2;" horiz-adv-x="653" 
d="M492 579c38.667 -22 68.834 -52.3291 90.501 -90.9961s32.5 -82.334 32.5 -131.001c0 -50.667 -12.833 -96.334 -38.5 -137.001s-61 -72.5 -106 -95.5s-95.5 -34.5 -151.5 -34.5h-57v40h57c47.333 0 89.333 9.66699 126 29s65.167 46.333 85.5 81s30.5 73.667 30.5 117
c0 40.667 -8.5 77 -25.5 109s-40.5 56.833 -70.5 74.5s-64.333 26.5 -103 26.5c-64.667 0 -117.667 -18 -159 -54h50c50.667 0 91.834 -14.667 123.501 -44s47.5 -67 47.5 -113c0 -30 -7 -57.167 -21 -81.5s-33.5 -43.333 -58.5 -57s-53.167 -20.5 -84.5 -20.5
c-32.667 0 -61.834 7.16699 -87.501 21.5s-45.834 34.333 -60.501 60s-22 54.167 -22 85.5c0 39.333 8.33301 75.666 25 108.999h-262v40h287c24.667 31.333 56.167 55.666 94.5 72.999s80.833 26 127.5 26c48 0 91.333 -11 130 -33zM340 440.004
c-22 22 -51 32.999 -87 32.999h-84c-20 -31.333 -30 -67.666 -30 -108.999c0 -36 11.5 -66 34.5 -90s51.833 -36 86.5 -36c32.667 0 59.667 11.167 81 33.5s32 50.5 32 84.5s-11 62 -33 84z" />
    <glyph glyph-name="tm_VowelE" unicode="&#xbc6;" horiz-adv-x="777" 
d="M599 588c53.333 -58 80.001 -139.001 80.001 -243.001v-345h-50v345c0 91.333 -22 161.666 -66 210.999s-106 74 -186 74c-54 0 -101.167 -13.167 -141.5 -39.5s-71.166 -62.666 -92.499 -108.999s-32 -99.166 -32 -158.499c0 -43.333 5.5 -83.5 16.5 -120.5
s26.5 -68.833 46.5 -95.5c-2.66699 8.66699 -4 19.667 -4 33c0 30 7 57 21 81s33.5 42.833 58.5 56.5s52.833 20.5 83.5 20.5c32 0 60.833 -6.83301 86.5 -20.5s45.667 -32.5 60 -56.5s21.5 -51.333 21.5 -82c0 -30 -7.16699 -57 -21.5 -81s-34.333 -42.667 -60 -56
s-54.5 -20 -86.5 -20c-52.667 0 -99.834 14.667 -141.501 44s-74.334 69.833 -98.001 121.5s-35.5 110.167 -35.5 175.5c0 68 13 128.667 39 182s63.167 95 111.5 125s104.5 45 168.5 45c94.667 0 168.667 -29 222 -87zM249.001 223.999c-22 -22 -33 -50 -33 -84
c0 -34.667 11 -63 33 -85s50 -33 84 -33c34.667 0 63 11 85 33s33 50 33 84s-11 62.167 -33 84.5s-50.333 33.5 -85 33.5c-34 0 -62 -11 -84 -33z" />
    <glyph glyph-name="tm_VowelEe" unicode="&#xbc7;" horiz-adv-x="664" 
d="M566.5 229c26.333 -25.333 39.5 -57.3359 39.5 -96.0029c0 -29.333 -8.66699 -55.5 -26 -78.5s-41.833 -40.833 -73.5 -53.5s-67.834 -19 -108.501 -19c-68.667 0 -128.834 15.167 -180.501 45.5s-91.167 71.833 -118.5 124.5s-41 111.667 -41 177
c0 64.667 13.667 123.334 41 176.001s66.833 94.167 118.5 124.5s111.834 45.5 180.501 45.5c40.667 0 76.834 -6.33301 108.501 -19s56.167 -30.5 73.5 -53.5s26 -49.167 26 -78.5c0 -38.667 -13.167 -70.667 -39.5 -96s-59.5 -38 -99.5 -38c-39.333 0 -72 12.833 -98 38.5
s-39 57.834 -39 96.501c0 22.667 5.33301 43.334 16 62.001s25 34 43 46h-2c-54 -1.33301 -102 -15.5 -144 -42.5s-74.5 -63.5 -97.5 -109.5s-34.5 -96.667 -34.5 -152s11.5 -106 34.5 -152s55.5 -82.5 97.5 -109.5s90.333 -41.167 145 -42.5
c-18 11.333 -32.167 26.5 -42.5 45.5s-15.5 39.833 -15.5 62.5c0 38.667 13 70.667 39 96s58.667 38 98 38c40 0 73.167 -12.667 99.5 -38zM532 458.997c16.667 17.333 25 39 25 65c0 26.667 -8.33301 48.667 -25 66s-37.667 26 -63 26c-26 0 -47.5 -8.66699 -64.5 -26
s-25.5 -39 -25.5 -65c0 -26.667 8.5 -48.667 25.5 -66s38.167 -26 63.5 -26c26 0 47.333 8.66699 64 26zM404.5 197.997c-17 -17.333 -25.5 -39 -25.5 -65c0 -26.667 8.5 -48.667 25.5 -66s38.5 -26 64.5 -26c25.333 0 46.333 8.66699 63 26s25 39.333 25 66
c0 26 -8.33301 47.667 -25 65s-38 26 -64 26c-25.333 0 -46.5 -8.66699 -63.5 -26z" />
    <glyph glyph-name="tm_VowelAi" unicode="&#xbc8;" horiz-adv-x="1196" 
d="M1024 497.5c37.333 -22.333 65.6689 -53.166 85.002 -92.499s29 -84.666 29 -135.999c0 -42 -7 -88 -21 -138s-35.333 -98.333 -64 -145l-49 14c26.667 38 47 82.167 61 132.5s21 96.5 21 138.5c0 64.667 -16.833 116.667 -50.5 156s-82.5 59 -146.5 59
c-56 0 -106.667 -16.333 -152 -49c42 -32.667 74.667 -72 98 -118s35 -95.333 35 -148c0 -56 -14 -101.5 -42 -136.5s-65.333 -52.5 -112 -52.5c-47.333 0 -85.166 17.5 -113.499 52.5s-42.5 80.5 -42.5 136.5c0 50 9 97.667 27 143s43 84.666 75 117.999
c-60.667 36 -132.334 54 -215.001 54c-68 0 -127.333 -11 -178 -33s-89.667 -52.5 -117 -91.5s-41 -83.5 -41 -133.5c0 -34.667 7 -66.167 21 -94.5s34 -51.833 60 -70.5c-14.667 23.333 -22 49 -22 77c0 30 7 57 21 81s33.5 42.833 58.5 56.5s52.833 20.5 83.5 20.5
c32 0 60.833 -6.83301 86.5 -20.5s45.667 -32.5 60 -56.5s21.5 -51.333 21.5 -82c0 -30 -7.16699 -57 -21.5 -81s-34.333 -42.667 -60 -56s-54.5 -20 -86.5 -20c-54.667 0 -102.834 10.667 -144.501 32s-73.834 50.666 -96.501 87.999s-34 79.333 -34 126
c0 58 16 110 48 156s77.5 82 136.5 108s127.167 39 204.5 39c94.667 0 178 -22.333 250 -67c57.333 44.667 121.333 67 192 67c52.667 0 97.667 -11.167 135 -33.5zM786.003 302.5c-20 40.333 -48.333 74.835 -85 103.502c-28 -28.667 -49.667 -63.334 -65 -104.001
s-23 -84.334 -23 -131.001c0 -42 9.33301 -76.5 28 -103.5s43.667 -40.5 75 -40.5s55.833 13.333 73.5 40s26.5 61.334 26.5 104.001c0 47.333 -10 91.166 -30 131.499zM249.003 55.002c22 -22 50 -33 84 -33c34.667 0 63 11 85 33s33 50 33 84s-11 62.167 -33 84.5
s-50.333 33.5 -85 33.5c-34 0 -62 -11 -84 -33s-33 -50 -33 -84c0 -34.667 11 -63 33 -85z" />
    <glyph glyph-name="tm_VowelO" unicode="&#xbca;" horiz-adv-x="1905" 
d="M599 588c53.333 -58 80.001 -139.001 80.001 -243.001v-345h-50v345c0 91.333 -22 161.666 -66 210.999s-106 74 -186 74c-54 0 -101.167 -13.167 -141.5 -39.5s-71.166 -62.666 -92.499 -108.999s-32 -99.166 -32 -158.499c0 -43.333 5.5 -83.5 16.5 -120.5
s26.5 -68.833 46.5 -95.5c-2.66699 8.66699 -4 19.667 -4 33c0 30 7 57 21 81s33.5 42.833 58.5 56.5s52.833 20.5 83.5 20.5c32 0 60.833 -6.83301 86.5 -20.5s45.667 -32.5 60 -56.5s21.5 -51.333 21.5 -82c0 -30 -7.16699 -57 -21.5 -81s-34.333 -42.667 -60 -56
s-54.5 -20 -86.5 -20c-52.667 0 -99.834 14.667 -141.501 44s-74.334 69.833 -98.001 121.5s-35.5 110.167 -35.5 175.5c0 68 13 128.667 39 182s63.167 95 111.5 125s104.5 45 168.5 45c94.667 0 168.667 -29 222 -87zM249.001 223.999c-22 -22 -33 -50 -33 -84
c0 -34.667 11 -63 33 -85s50 -33 84 -33c34.667 0 63 11 85 33s33 50 33 84s-11 62.167 -33 84.5s-50.333 33.5 -85 33.5c-34 0 -62 -11 -84 -33zM1633 -0.000976562v473h-247v-473h-49v513h538l4 -40h-197v-473h-49zM1033 466.999c5.33301 5.33301 8 12.333 8 21
s-2.66699 15.834 -8 21.501s-12.333 8.5 -21 8.5s-15.667 -2.83301 -21 -8.5s-8 -12.834 -8 -21.501s2.66699 -15.667 8 -21s12.333 -8 21 -8s15.667 2.66699 21 8zM902.001 493.999c-5.33301 -5.33301 -8 -12.333 -8 -21s2.66699 -15.667 8 -21s12.333 -8 21 -8
s15.667 2.66699 21 8s8 12.333 8 21s-2.66699 15.667 -8 21s-12.333 8 -21 8s-15.667 -2.66699 -21 -8zM1123 451.999c5.33301 5.33301 8 12.333 8 21s-2.66699 15.667 -8 21s-12.333 8 -21 8s-15.667 -2.66699 -21 -8s-8 -12.333 -8 -21s2.66699 -15.667 8 -21
s12.333 -8 21 -8s15.667 2.66699 21 8zM825.501 443.499c-5.66699 -5.66699 -8.5 -12.834 -8.5 -21.501s2.83301 -15.667 8.5 -21s12.834 -8 21.501 -8s15.667 2.66699 21 8s8 12.333 8 21s-2.66699 15.834 -8 21.501s-12.333 8.5 -21 8.5s-15.834 -2.83301 -21.501 -8.5z
M1199.5 400.999c5.66699 5.33301 8.5 12.333 8.5 21s-2.83301 15.834 -8.5 21.501s-12.834 8.5 -21.501 8.5s-15.667 -2.83301 -21 -8.5s-8 -12.834 -8 -21.501s2.66699 -15.667 8 -21s12.333 -8 21 -8s15.834 2.66699 21.501 8zM777.501 364.499
c-5.66699 -5.66699 -8.5 -12.834 -8.5 -21.501s2.83301 -15.667 8.5 -21s12.834 -8 21.501 -8s15.667 2.66699 21 8s8 12.333 8 21s-2.66699 15.834 -8 21.501s-12.333 8.5 -21 8.5s-15.834 -2.83301 -21.501 -8.5zM1247 321.999c5.33301 5.33301 8 12.333 8 21
s-2.66699 15.834 -8 21.501s-12.333 8.5 -21 8.5s-15.667 -2.83301 -21 -8.5s-8 -12.834 -8 -21.501s2.66699 -15.667 8 -21s12.333 -8 21 -8s15.667 2.66699 21 8zM763.501 278.499c-5.66699 -5.66699 -8.5 -12.834 -8.5 -21.501s2.83301 -15.5 8.5 -20.5
s12.834 -7.5 21.501 -7.5s15.667 2.5 21 7.5s8 11.833 8 20.5s-2.66699 15.834 -8 21.501s-12.333 8.5 -21 8.5s-15.834 -2.83301 -21.501 -8.5zM1261.5 236.499c5.66699 5 8.5 11.833 8.5 20.5s-2.83301 15.834 -8.5 21.501s-12.834 8.5 -21.501 8.5
s-15.667 -2.83301 -21 -8.5s-8 -12.834 -8 -21.501s2.66699 -15.5 8 -20.5s12.333 -7.5 21 -7.5s15.834 2.5 21.501 7.5zM777.501 194.999c-5.66699 -5.33301 -8.5 -12.333 -8.5 -21s2.83301 -15.667 8.5 -21s12.834 -8 21.501 -8s15.667 2.66699 21 8s8 12.333 8 21
s-2.66699 15.667 -8 21s-12.333 8 -21 8s-15.834 -2.66699 -21.501 -8zM1247 152.999c5.33301 5.33301 8 12.333 8 21s-2.66699 15.667 -8 21s-12.333 8 -21 8s-15.667 -2.66699 -21 -8s-8 -12.333 -8 -21s2.66699 -15.667 8 -21s12.333 -8 21 -8s15.667 2.66699 21 8z
M824.501 114.999c-5.66699 -5.33301 -8.5 -12.333 -8.5 -21s2.83301 -15.667 8.5 -21s12.834 -8 21.501 -8s15.667 2.66699 21 8s8 12.333 8 21s-2.66699 15.667 -8 21s-12.333 8 -21 8s-15.834 -2.66699 -21.501 -8zM1200.5 72.999c5.66699 5.33301 8.5 12.333 8.5 21
s-2.83301 15.667 -8.5 21s-12.834 8 -21.501 8s-15.667 -2.66699 -21 -8s-8 -12.333 -8 -21s2.66699 -15.667 8 -21s12.333 -8 21 -8s15.834 2.66699 21.501 8zM902.001 65.499c-5.33301 -5.66699 -8 -12.834 -8 -21.501s2.66699 -15.667 8 -21s12.333 -8 21 -8
s15.667 2.66699 21 8s8 12.333 8 21s-2.66699 15.834 -8 21.501s-12.333 8.5 -21 8.5s-15.667 -2.83301 -21 -8.5zM1123 22.999c5.33301 5.33301 8 12.333 8 21s-2.66699 15.834 -8 21.501s-12.333 8.5 -21 8.5s-15.667 -2.83301 -21 -8.5s-8 -12.834 -8 -21.501
s2.66699 -15.667 8 -21s12.333 -8 21 -8s15.667 2.66699 21 8zM1033 7.99902c5.33301 5.33301 8 12.333 8 21s-2.66699 15.834 -8 21.501s-12.333 8.5 -21 8.5s-15.667 -2.83301 -21 -8.5s-8 -12.834 -8 -21.501s2.66699 -15.667 8 -21s12.333 -8 21 -8s15.667 2.66699 21 8
z" />
    </font>
</defs>
</svg>
