<?xml version="1.0" standalone="no"?>
<!DOCTYPE svg PUBLIC "-//W3C//DTD SVG 1.1//EN" "http://www.w3.org/Graphics/SVG/1.1/DTD/svg11.dtd" >
<svg>
<metadata>
Created by FontForge 20090914 at Fri Mar 31 17:22:13 2017
 By www-data
Copyright 2014 Pria Ravichandran (pria.ravichandran@gmail.com)
</metadata>
<defs>
<font id="Catamaran-Light" horiz-adv-x="516" >
  <font-face 
    font-family="Catamaran Light"
    font-weight="300"
    font-stretch="normal"
    units-per-em="1000"
    panose-1="0 0 4 0 0 0 0 0 0 0"
    ascent="770"
    descent="-230"
    x-height="485"
    cap-height="680"
    bbox="-535.002 -377.002 2503 1320"
    underline-thickness="50"
    underline-position="-75"
    unicode-range="U+000D-U+FB02"
  />
<missing-glyph horiz-adv-x="645" 
d="M550 0v696h-456v-696h456zM157 50v595h329l1 -595h-330z" />
    <glyph glyph-name=".notdef" horiz-adv-x="645" 
d="M550 0v696h-456v-696h456zM157 50v595h329l1 -595h-330z" />
    <glyph glyph-name="uni0000" horiz-adv-x="0" 
 />
    <glyph glyph-name="uni0000" horiz-adv-x="0" 
 />
    <glyph glyph-name="nonmarkingreturn" unicode="&#xd;" horiz-adv-x="0" 
 />
    <glyph glyph-name="space" unicode=" " horiz-adv-x="235" 
 />
    <glyph glyph-name="exclam" unicode="!" horiz-adv-x="156" 
d="M116 702h-74l16 -485l42 -21zM45 80c-10 -9.33301 -15 -20 -15 -32c0 -13.333 5 -24.666 15 -33.999s21.333 -14 34 -14c13.333 0 24.5 4.66699 33.5 14s13.5 20.666 13.5 33.999c0 12.667 -4.5 23.5 -13.5 32.5s-20.167 13.5 -33.5 13.5c-12.667 0 -24 -4.66699 -34 -14
z" />
    <glyph glyph-name="quotedbl" unicode="&#x22;" horiz-adv-x="306" 
d="M48 687.5c-9.33301 -9.66699 -14.002 -20.8359 -14.002 -33.5029c0 -12 4 -22.667 12 -32s18 -14.666 30 -15.999c-1.33301 -16.667 -6.66602 -31.167 -15.999 -43.5s-22.666 -24.166 -39.999 -35.499l18 -29c25.333 12.667 47 33.334 65 62.001s27 57.667 27 87
c0 16 -4.66699 29.167 -14 39.5s-20.333 15.5 -33 15.5c-14 0 -25.667 -4.83301 -35 -14.5zM194.998 687.498c-9.33301 -9.66699 -14.001 -20.8359 -14.001 -33.5029c0 -12 4 -22.667 12 -32s18.333 -14.666 31 -15.999c-1.33301 -16.667 -6.83301 -31.167 -16.5 -43.5
s-23.167 -24.166 -40.5 -35.499l18 -29c24.667 12.667 46 33.334 64 62.001s27 57.667 27 87c0 16 -4.66699 29.167 -14 39.5s-20.333 15.5 -33 15.5c-13.333 0 -24.666 -4.83301 -33.999 -14.5z" />
    <glyph glyph-name="numbersign" unicode="#" horiz-adv-x="497" 
d="M207 371l32 131h-51l-31 -131h-127l8 -49h106l-31 -132h-83l8 -50h63l-32 -134l50 -5l33 139h137l-32 -134l49 -5l33 139h128l-7 50h-109l31 132h85l-7 49h-65l32 131h-52l-31 -131h-137zM164 190l32 132h136l-32 -132h-136z" />
    <glyph glyph-name="dollar" unicode="$" horiz-adv-x="508" 
d="M56 29l15.002 48.0068c21.333 -10.667 46.666 -19.834 75.999 -27.501s59.333 -11.5 90 -11.5c56 0 99.5 11.333 130.5 34s46.5 52 46.5 88c0 25.333 -6.83301 47.166 -20.5 65.499s-33.334 35.166 -59.001 50.499s-60.834 32.333 -105.501 51
c-122.667 52 -184 119.667 -184 203c0 36.667 12 69 36 97s57 47.667 99 59v101l46 10v-102l31 1c8 0 20 -0.666992 36 -2v96l47 10v-113c30 -7.33301 58.333 -17.333 85 -30l-22 -47c-24 10.667 -46.333 19 -67 25s-46.334 9 -77.001 9c-48 0 -86 -10.333 -114 -31
s-42 -48.334 -42 -83.001c0 -25.333 6.83301 -47 20.5 -65s32.834 -34.333 57.501 -49s61 -33.334 109 -56.001c44.667 -20.667 79.667 -39.834 105 -57.501s44.666 -37.834 57.999 -60.501s20 -50 20 -82c0 -37.333 -11.667 -70 -35 -98s-56 -48.333 -98 -61v-112h-47v102
c-15.333 -2.66699 -33.666 -4 -54.999 -4h-12v-98h-46v103c-53.333 8 -94.666 20.333 -123.999 37z" />
    <glyph glyph-name="percent" unicode="%" horiz-adv-x="839" 
d="M294 -4l309 710l-59 4l-308 -710zM111.5 681c-23.667 -14 -42.334 -33.833 -56.001 -59.5s-20.5 -55.5 -20.5 -89.5c0 -53.333 14.167 -94.833 42.5 -124.5s66.5 -44.5 114.5 -44.5c44.667 0 81.667 15.333 111 46s44 71.667 44 123c0 53.333 -14.167 95 -42.5 125
s-66.166 45 -113.499 45c-29.333 0 -55.833 -7 -79.5 -21zM257.5 621c17.667 -20 26.5 -49.667 26.5 -89c0 -40 -9.16699 -69.667 -27.5 -89s-39.833 -29 -64.5 -29c-26.667 0 -49 9.83301 -67 29.5s-27 49.167 -27 88.5c0 40 9.16699 69.833 27.5 89.5
s40.166 29.5 65.499 29.5c26.667 0 48.834 -10 66.501 -30zM569.5 317c-23.667 -14 -42.332 -33.833 -55.999 -59.5s-20.5 -55.167 -20.5 -88.5c0 -53.333 14.167 -94.833 42.5 -124.5s66.166 -44.5 113.499 -44.5c44.667 -0 81.667 15.333 111 46s44 71.667 44 123
c0 52.667 -14.167 94 -42.5 124s-65.833 45 -112.5 45c-29.333 0 -55.833 -7 -79.5 -21zM714.502 258c17.667 -20 26.502 -49.667 26.502 -89s-9.16699 -68.833 -27.5 -88.5s-39.833 -29.5 -64.5 -29.5c-26.667 0 -48.834 9.83301 -66.501 29.5s-26.5 49.167 -26.5 88.5
c0 40.667 9.16699 70.667 27.5 90s40.166 29 65.499 29c26 0 47.833 -10 65.5 -30z" />
    <glyph glyph-name="ampersand" unicode="&#x26;" horiz-adv-x="663" 
d="M545 118c29.333 52 46.001 119.668 50.001 203.001l-46 18c-5.33301 -74.667 -21 -135.667 -47 -183l-210 198c-28.667 27.333 -49.834 48.333 -63.501 63s-24.334 30.834 -32.001 48.501s-11.5 37.834 -11.5 60.501c0 20 5 39 15 57s24.333 32.667 43 44s40 17 64 17
c27.333 0 49 -2.33301 65 -7s29.667 -9.83398 41 -15.501l23 -11.5l22 47c-24.667 12.667 -48.5 22.334 -71.5 29.001s-49.5 10 -79.5 10c-38 0 -70.5 -7.83301 -97.5 -23.5s-47.667 -37 -62 -64s-21.5 -56.5 -21.5 -88.5c0 -40 10.333 -75 31 -105
c-33.333 -20.667 -60.166 -49.334 -80.499 -86.001s-30.833 -77.334 -31.5 -122.001c0 -46.667 11 -86.5 33 -119.5s52.167 -57.833 90.5 -74.5s81.833 -25.334 130.5 -26.001c94.667 0 167 29.333 217 88l83 -75l29 41zM299.001 39.001
c-33.333 0 -64.668 6.33398 -94.001 19.001s-53 31.667 -71 57s-27 56.666 -27 93.999c0.666992 38 8.16699 71.667 22.5 101s34.5 51 60.5 65l32 -30l252 -230c-41.333 -50.667 -99.666 -76 -174.999 -76z" />
    <glyph glyph-name="quotesingle" unicode="'" horiz-adv-x="160" 
d="M48 687.5c-9.33301 -9.66699 -14.002 -20.8359 -14.002 -33.5029c0 -12 4 -22.667 12 -32s18 -14.666 30 -15.999c-1.33301 -16.667 -6.66602 -31.167 -15.999 -43.5s-22.666 -24.166 -39.999 -35.499l18 -29c25.333 12.667 47 33.334 65 62.001s27 57.667 27 87
c0 16 -4.66699 29.167 -14 39.5s-20.333 15.5 -33 15.5c-14 0 -25.667 -4.83301 -35 -14.5z" />
    <glyph glyph-name="parenleft" unicode="(" horiz-adv-x="251" 
d="M168 72c-16.667 41.333 -30 85.002 -40 131.002s-15 85.333 -15 118c0 32 5 70.667 15 116s23.333 88.333 40 129s34.334 71 53.001 91l-52 18c-39.333 -50 -69 -107.333 -89 -172s-30 -125.667 -30 -183c0 -58 10 -119.333 30 -184s49.667 -122.334 89 -173.001l52 18
c-18.667 19.333 -36.334 49.666 -53.001 90.999z" />
    <glyph glyph-name="parenright" unicode=")" horiz-adv-x="251" 
d="M82 565.5c16.667 -41 30.167 -84.333 40.5 -130s15.5 -84.5 15.5 -116.5s-5.16699 -71 -15.5 -117s-23.833 -89.5 -40.5 -130.5s-34 -71.167 -52 -90.5l52 -18c38.667 51.333 68.167 109.333 88.5 174s30.5 125.667 30.5 183c0 56 -10.167 116.5 -30.5 181.5
s-49.833 122.833 -88.5 173.5l-52 -18c18 -20 35.333 -50.5 52 -91.5z" />
    <glyph glyph-name="asterisk" unicode="*" horiz-adv-x="339" 
d="M144 659l-122 26l-12 -39l123 -24l-87 -124l36 -26l88 118l87 -118l35 26l-86 124l123 24l-13 39l-122 -26l-1 115h-48z" />
    <glyph glyph-name="plus" unicode="+" horiz-adv-x="535" 
d="M295 531l-57 3v-236h-208l8 -50h200v-240l57 -4v244h210l-10 50h-200v233z" />
    <glyph glyph-name="comma" unicode="," horiz-adv-x="160" 
d="M48.5 80.5c-9.66699 -9 -14.498 -19.833 -14.498 -32.5c0 -12 4.16699 -22.667 12.5 -32s18.5 -14.333 30.5 -15c-0.666992 -16.667 -5.83398 -31.167 -15.501 -43.5s-23.5 -24.5 -41.5 -36.5l18 -29c26 12.667 47.833 33.167 65.5 61.5s26.5 57.5 26.5 87.5
c0 16 -4.5 28.833 -13.5 38.5s-20.5 14.5 -34.5 14.5c-12.667 0 -23.834 -4.5 -33.501 -13.5z" />
    <glyph glyph-name="hyphen" unicode="-" horiz-adv-x="316" 
d="M38 248h248l-8 50h-248z" />
    <glyph glyph-name="period" unicode="." horiz-adv-x="155" 
d="M111 14c9.33301 9.33301 14 20.666 14 33.999c0 12.667 -4.66699 23.5 -14 32.5s-20.333 13.5 -33 13.5c-13.333 0 -24.666 -4.5 -33.999 -13.5s-14 -19.833 -14 -32.5c0 -13.333 4.66699 -24.666 14 -33.999s20.666 -14 33.999 -14c12.667 0 23.667 4.66699 33 14z" />
    <glyph glyph-name="slash" unicode="/" horiz-adv-x="385" 
d="M66 -4l309 710l-57 4l-308 -710z" />
    <glyph glyph-name="zero" unicode="0" horiz-adv-x="588" 
d="M68.5 133c22.333 -46 53.166 -81.834 92.499 -107.501s84 -38.5 134 -38.5c49.333 0 93.666 13 132.999 39s70 62 92 108s33 97.667 33 155c0 55.333 -11 105 -33 149s-52.667 78.5 -92 103.5s-83.666 37.5 -132.999 37.5c-50 0 -94.667 -12.5 -134 -37.5
s-70.166 -59.667 -92.499 -104s-33.5 -94.166 -33.5 -149.499c0 -57.333 11.167 -109 33.5 -155zM125 411.499c16.667 35.667 39.834 63.666 69.501 83.999s63.167 30.5 100.5 30.5c36.667 0 69.667 -10.333 99 -31s52.333 -49.167 69 -85.5s25 -77.5 25 -123.5
c0 -46.667 -8.33301 -88.667 -25 -126s-39.667 -66.5 -69 -87.5s-62.333 -31.5 -99 -31.5c-37.333 0 -70.833 10.667 -100.5 32s-52.834 51 -69.501 89s-25 81 -25 129c0 44.667 8.33301 84.834 25 120.501z" />
    <glyph glyph-name="one" unicode="1" horiz-adv-x="299" 
d="M182 566l-172 -77l26 -51l125 51v-489h63v566h-42z" />
    <glyph glyph-name="two" unicode="2" horiz-adv-x="476" 
d="M118.5 564c-29 -10 -55.832 -22.332 -80.499 -36.999l23 -51c28.667 16 54 28.5 76 37.5s49 13.5 81 13.5c44 0 78.667 -9.83301 104 -29.5s38 -47.167 38 -82.5c0 -31.333 -8.83301 -59.5 -26.5 -84.5s-49.834 -57.5 -96.501 -97.5l-212 -183v-50h431l-8 49l-342 1
l170 144c51.333 43.333 89 82.5 113 117.5s36 70.5 36 106.5c0 31.333 -8.33301 59.166 -25 83.499s-40.5 43.333 -71.5 57s-67.5 20.5 -109.5 20.5c-38 0 -71.5 -5 -100.5 -15z" />
    <glyph glyph-name="three" unicode="3" horiz-adv-x="456" 
d="M11 520l31.001 -41.001c50 32.667 103.333 49 160 49c27.333 0 51.333 -5.16699 72 -15.5s36.667 -24 48 -41s17 -35.5 17 -55.5c0 -38.667 -16 -69.5 -48 -92.5s-75.667 -34.5 -131 -34.5h-34l10 -45h18c67.333 0 117 -12.333 149 -37s48 -59 48 -103
c0 -26 -7.5 -48.833 -22.5 -68.5s-34.5 -34.667 -58.5 -45s-49.667 -15.5 -77 -15.5c-34 0 -62.667 3.66699 -86 11s-48 18.666 -74 33.999l-33 -44c26 -14.667 55.5 -27 88.5 -37s66.833 -15 101.5 -15c45.333 0 85.166 8 119.499 24s60.666 37.667 78.999 65
s27.5 58.333 27.5 93c0 40 -11.5 74.833 -34.5 104.5s-53.5 48.834 -91.5 57.501c32.667 10.667 59.834 29.5 81.501 56.5s32.5 57.833 32.5 92.5c0 28.667 -7.5 55.334 -22.5 80.001s-37.5 44.5 -67.5 59.5s-66.333 22.5 -109 22.5c-67.333 0 -132 -19.667 -194 -59z" />
    <glyph glyph-name="four" unicode="4" horiz-adv-x="512" 
d="M388 571h-41l-337 -446l9 -51h307v-143h62v143h96l8 51h-104v446zM77 125l249 331v-331h-249z" />
    <glyph glyph-name="five" unicode="5" horiz-adv-x="490" 
d="M251 279c41.333 0 74.665 -13.166 99.998 -39.499s38 -62.833 38 -109.5c0 -48 -14.667 -85.833 -44 -113.5s-68.333 -41.5 -117 -41.5c-33.333 0 -61.833 3.66699 -85.5 11s-48.5 18.666 -74.5 33.999l-33 -44c65.333 -34.667 128.333 -52 189 -52
c48.667 0 90.334 9.33301 125.001 28s61 43.5 79 74.5s27 65.5 27 103.5c-0.666992 58.667 -18.167 106.667 -52.5 144s-86.166 56 -155.499 56c-18.667 0 -38 -3.33301 -58 -10s-38.667 -15.667 -56 -27l10 221h265l8 52h-333l-15 -336h63c40.667 32.667 80.667 49 120 49z
" />
    <glyph glyph-name="six" unicode="6" horiz-adv-x="502" 
d="M372 359.5c31.333 -18.333 55.001 -42.498 71.001 -72.498s24 -62.333 24 -97c0 -38 -9.16699 -72.5 -27.5 -103.5s-43.333 -55.333 -75 -73s-66.834 -26.5 -105.501 -26.5c-42.667 0 -81 10.667 -115 32s-60.667 52.666 -80 93.999s-29 90.333 -29 147
c0 71.333 16.833 134 50.5 188s77 96.667 130 128s107.833 50.666 164.5 57.999l18 -48c-40.667 -2 -82.5 -14.167 -125.5 -36.5s-80.333 -53.5 -112 -93.5s-51.5 -85.667 -59.5 -137c46.667 45.333 99 68 157 68c44.667 0 82.667 -9.16699 114 -27.5zM336.501 60.002
c22.333 13.333 39.5 31 51.5 53s18 46 18 72c0 45.333 -13.167 82 -39.5 110s-62.5 42 -108.5 42c-31.333 0 -61.5 -8.16699 -90.5 -24.5s-52.5 -35.833 -70.5 -58.5c4 -142.667 57.333 -214 160 -214c30.667 0 57.167 6.66699 79.5 20z" />
    <glyph glyph-name="seven" unicode="7" horiz-adv-x="429" 
d="M387 566h-377l8 -52h323l-222 -563l60 -20l230 606z" />
    <glyph glyph-name="eight" unicode="8" horiz-adv-x="517" 
d="M153 620.5c-29.333 -15 -51.6699 -34.835 -67.0029 -59.502s-23 -51.334 -23 -80.001c0 -32 10.167 -60.5 30.5 -85.5s46.5 -43.833 78.5 -56.5c-24.667 -5.33301 -47.5 -17 -68.5 -35s-37.667 -39 -50 -63s-18.5 -48 -18.5 -72c0 -34 8.66699 -64.833 26 -92.5
s42.833 -49.5 76.5 -65.5s74.167 -24 121.5 -24c46.667 0 86.834 8.33301 120.501 25s59.167 38.834 76.5 66.501s26 57.834 26 90.501c0 40.667 -13.5 77 -40.5 109s-58.833 52.333 -95.5 61c30 13.333 55.5 32.5 76.5 57.5s31.5 53.167 31.5 84.5
c0 28.667 -7.5 55.334 -22.5 80.001s-37.167 44.5 -66.5 59.5s-64.666 22.5 -105.999 22.5s-76.666 -7.5 -105.999 -22.5zM356.996 560.498c23.333 -21.667 35 -48.833 35 -81.5c0 -28 -12 -53.333 -36 -76s-56.333 -37 -97 -43c-41.333 6 -73.833 20.167 -97.5 42.5
s-35.5 47.833 -35.5 76.5c0 32 11.167 59 33.5 81s54.5 33 96.5 33c44 0 77.667 -10.833 101 -32.5zM376.996 266.499c27.333 -27 41.002 -60.167 41.002 -99.5c0 -38 -15.333 -69 -46 -93s-68.334 -36 -113.001 -36c-46 0 -84.167 12 -114.5 36s-45.5 55 -45.5 93
c0 39.333 13.667 72.5 41 99.5s67 43.5 119 49.5c51.333 -6 90.666 -22.5 117.999 -49.5z" />
    <glyph glyph-name="nine" unicode="9" horiz-adv-x="502" 
d="M358 547c34 -21.333 60.666 -52.668 79.999 -94.001s29 -90.333 29 -147c0 -71.333 -16.833 -134 -50.5 -188s-77 -96.667 -130 -128s-107.833 -50.666 -164.5 -57.999l-18 48c40.667 2 82.5 14.167 125.5 36.5s80.333 53.5 112 93.5s51.5 85.667 59.5 137
c-46.667 -45.333 -99 -68 -157 -68c-44.667 0 -82.667 9.16699 -114 27.5s-55 42.5 -71 72.5s-24 62.333 -24 97c0 38 9.16699 72.5 27.5 103.5s43.333 55.333 75 73s66.834 26.5 105.501 26.5c42.667 0 81 -10.667 115 -32zM333.999 253.498
c29.333 16.333 53 35.833 71 58.5c-4 142.667 -57.333 214 -160 214c-30.667 0 -57.167 -6.66699 -79.5 -20s-39.5 -31 -51.5 -53s-18 -46 -18 -72c0 -45.333 13.167 -82 39.5 -110s62.5 -42 108.5 -42c30.667 0 60.667 8.16699 90 24.5z" />
    <glyph glyph-name="colon" unicode=":" horiz-adv-x="155" 
d="M111 369c9.33301 9.33301 14 20.333 14 33s-4.66699 24 -14 34s-20.666 15 -33.999 15c-12.667 0 -23.667 -5 -33 -15s-14 -21.333 -14 -34s4.66699 -23.667 14 -33s20.333 -14 33 -14c13.333 0 24.666 4.66699 33.999 14zM111 50c9.33301 9.33301 14 20.666 14 33.999
s-4.66699 24.666 -14 33.999s-20.666 14 -33.999 14c-12.667 0 -23.667 -4.66699 -33 -14s-14 -20.666 -14 -33.999s4.66699 -24.666 14 -33.999s20.333 -14 33 -14c13.333 0 24.666 4.66699 33.999 14z" />
    <glyph glyph-name="semicolon" unicode=";" horiz-adv-x="161" 
d="M117 369c9.33301 9.33301 14 20.333 14 33s-4.66699 24 -14 34s-20.666 15 -33.999 15s-24.666 -5 -33.999 -15s-14 -21.333 -14 -34s4.66699 -23.667 14 -33s20.666 -14 33.999 -14s24.666 4.66699 33.999 14zM48.5 118
c-9.66699 -9.33301 -14.498 -20.666 -14.498 -33.999c0 -12.667 4 -23.334 12 -32.001s18.333 -13.667 31 -15c-0.666992 -16 -5.83398 -30.333 -15.501 -43s-23.5 -25 -41.5 -37l18 -29c25.333 12 47 32.333 65 61s27 57.667 27 87c0 17.333 -4.5 31 -13.5 41
s-20.5 15 -34.5 15c-12.667 0 -23.834 -4.66699 -33.501 -14z" />
    <glyph glyph-name="less" unicode="&#x3c;" horiz-adv-x="322" 
d="M302 426l-23 44l-249 -201v-48l249 -202l23 45l-216 181z" />
    <glyph glyph-name="equal" unicode="=" horiz-adv-x="497" 
d="M38 322h429l-7 49h-430zM38 140h429l-7 50h-430z" />
    <glyph glyph-name="greater" unicode="&#x3e;" horiz-adv-x="323" 
d="M20 426l216 -181l-216 -181l23 -45l250 202v48l-250 201z" />
    <glyph glyph-name="question" unicode="?" horiz-adv-x="404" 
d="M97 687.5c-24 -9.66699 -53 -25.168 -87 -46.501l8 -54c30 21.333 56.833 36.833 80.5 46.5s52.167 14.5 85.5 14.5c42.667 0 74.167 -8.66699 94.5 -26s30.5 -45.666 30.5 -84.999c0 -37.333 -16.333 -71.5 -49 -102.5s-75.667 -54.833 -129 -71.5l8 -206l46 -18l8 193
c55.333 24.667 99.333 55.667 132 93s49 75 49 113c0 50.667 -15.5 90.667 -46.5 120s-78.167 44 -141.5 44c-35.333 0 -65 -4.83301 -89 -14.5zM127.5 80.499c-9 -9 -13.5 -19.833 -13.5 -32.5c0 -13.333 4.5 -24.666 13.5 -33.999s20.167 -14 33.5 -14
s24.666 4.66699 33.999 14s14 20.666 14 33.999c0 12.667 -4.66699 23.5 -14 32.5s-20.666 13.5 -33.999 13.5s-24.5 -4.5 -33.5 -13.5z" />
    <glyph glyph-name="at" unicode="@" horiz-adv-x="764" 
d="M446 409c-38.667 0 -74.9941 -8.33301 -108.994 -25s-61.333 -40 -82 -70s-31 -64.333 -31 -103c0 -44 13.667 -79.167 41 -105.5s67.666 -39.5 120.999 -39.5c16.667 0 33.667 3.33301 51 10s32.666 14.667 45.999 24c18.667 -23.333 45.667 -35 81 -35
c51.333 0 91.666 20.333 120.999 61s44 100 44 178c0 55.333 -13 105 -39 149s-62.167 78.5 -108.5 103.5s-99.166 37.5 -158.499 37.5c-78.667 0 -147.334 -17 -206.001 -51s-103.667 -80.167 -135 -138.5s-47 -122.166 -47 -191.499c0 -62 15 -117.333 45 -166
s69.333 -86.5 118 -113.5s100.667 -40.5 156 -40.5c74 0 137.333 13.667 190 41l-16 46c-20 -11.333 -44.833 -20 -74.5 -26s-59.167 -9 -88.5 -9c-50 0 -95.333 11 -136 33s-72.834 53.333 -96.501 94s-35.5 88 -35.5 142c0 66 14.833 124.167 44.5 174.5
s69.167 89.166 118.5 116.499s102.666 41 159.999 41c51.333 0 96.166 -10.667 134.499 -32s68 -50.833 89 -88.5s31.5 -80.5 31.5 -128.5c0 -56.667 -9.5 -101.667 -28.5 -135s-43.833 -50 -74.5 -50c-17.333 0 -31.833 5.5 -43.5 16.5s-16.5 29.167 -14.5 54.5l24 201
l-21 25h-71zM309.006 141.5c-16.667 19.667 -25 42.833 -25 69.5c0 31.333 7.16699 58.833 21.5 82.5s33.5 41.834 57.5 54.501s50 19 78 19h45l-23 -177c-1.33301 -10.667 -2 -18.334 -2 -23.001c0 -10 1 -19 3 -27c-8.66699 -8.66699 -20 -15.5 -34 -20.5
s-29 -7.5 -45 -7.5c-34 0 -59.333 9.83301 -76 29.5z" />
    <glyph glyph-name="A" unicode="A" horiz-adv-x="592" 
d="M69 0l75 204h297l80 -209l61 10l-260 675h-65l-247 -680h59zM290 600l133 -346h-262z" />
    <glyph glyph-name="B" unicode="B" horiz-adv-x="577" 
d="M472 44c46.667 29.333 70 77.332 70 143.999c0 45.333 -12.167 82.333 -36.5 111s-58.5 49.667 -102.5 63c30 14.667 54.333 33.834 73 57.501s28 51.5 28 83.5c0 64 -21.5 109.5 -64.5 136.5s-103.167 40.5 -180.5 40.5h-164v-680h191c77.333 0 139.333 14.667 186 44z
M397 600.999c30 -17.333 45 -50.334 45 -99.001c0 -81.333 -64.667 -122.666 -194 -123.999h-91v249h104c60.667 0 106 -8.66699 136 -26zM432.5 292.998c31.667 -22.667 47.499 -58.333 47.499 -107s-17.167 -83.167 -51.5 -103.5s-81.166 -30.5 -140.499 -30.5h-131v275
h142c57.333 0 101.833 -11.333 133.5 -34z" />
    <glyph glyph-name="C" unicode="C" horiz-adv-x="554" 
d="M452 684c-34.667 6.66699 -64.334 9.99805 -89.001 9.99805c-64 0 -120 -15.833 -168 -47.5s-85 -74.667 -111 -129s-39 -114.833 -39 -181.5c0 -63.333 11.833 -121.666 35.5 -174.999s59 -95.833 106 -127.5s103.833 -47.5 170.5 -47.5
c28.667 0 59.834 3.66699 93.501 11s59.834 16 78.501 26l-24 48c-21.333 -9.33301 -43.5 -16.666 -66.5 -21.999s-50.833 -8 -83.5 -8c-50 0 -93.5 13.167 -130.5 39.5s-65.167 62 -84.5 107s-29 94.833 -29 149.5c0 57.333 11.167 109 33.5 155
s52.666 82.167 90.999 108.5s81.166 39.5 128.499 39.5c32.667 0 58.834 -2.33301 78.501 -7s41.834 -12 66.501 -22l20 46c-16.667 11.333 -42.334 20.333 -77.001 27z" />
    <glyph glyph-name="D" unicode="D" horiz-adv-x="664" 
d="M482 45.5c45.333 30.333 79.5 71.5 102.5 123.5s34.5 110.333 34.5 175c0 100 -24 181 -72 243s-121.333 93 -220 93h-232v-680h223c64 0 118.667 15.167 164 45.5zM500.5 548.5c39 -52.333 58.5 -120.833 58.5 -205.5c0 -58 -10 -109 -30 -153s-48 -78 -84 -102
s-77.667 -36 -125 -36h-163v575h173c74.667 0 131.5 -26.167 170.5 -78.5z" />
    <glyph glyph-name="E" unicode="E" horiz-adv-x="503" 
d="M157 50v276h245l-5 45h-240v264h303l-5 45h-360v-680h388l-6 50h-320z" />
    <glyph glyph-name="F" unicode="F" horiz-adv-x="471" 
d="M157 635h294l-7 45h-349v-680h62v322h235l-6 45h-229v268z" />
    <glyph glyph-name="G" unicode="G" horiz-adv-x="626" 
d="M509 64c-42 -15.333 -82.665 -23.001 -121.998 -23.001c-52 0 -98.833 12 -140.5 36s-74.667 58.5 -99 103.5s-36.5 97.167 -36.5 156.5c0 62 13.5 115.833 40.5 161.5s62.333 80.5 106 104.5s89.834 36.333 138.501 37c32 0 58 -2.33301 78 -7s42.333 -12 67 -22l19 46
c-16.667 11.333 -42.334 20.333 -77.001 27s-64.334 10 -89.001 10c-64.667 0 -123.667 -15 -177 -45s-95.333 -72.167 -126 -126.5s-46 -116.5 -46 -186.5c0 -66 14.333 -125.667 43 -179s69 -95.166 121 -125.499s111.667 -45.5 179 -45.5
c31.333 0 64.666 4.33301 99.999 13s63 19.667 83 33v310h-209l-6 -45h153v-233z" />
    <glyph glyph-name="H" unicode="H" horiz-adv-x="651" 
d="M494 680v-311h-337v316l-62 -5v-680h62v319h337v-319h62v680h-62z" />
    <glyph glyph-name="I" unicode="I" horiz-adv-x="252" 
d="M95 680v-680h62v680h-62z" />
    <glyph glyph-name="J" unicode="J" horiz-adv-x="242" 
d="M88.5 -2c-5 -14 -13.166 -24.832 -24.499 -32.499s-29.333 -16.167 -54 -25.5l24 -42c32.667 10 57.667 21 75 33s29.666 26.667 36.999 44s11 39.666 11 66.999v638h-62v-621c0.666992 -26.667 -1.5 -47 -6.5 -61z" />
    <glyph glyph-name="K" unicode="K" horiz-adv-x="593" 
d="M157 257v-257h-62v680h62v-345l346 360l40 -38l-264 -274l304 -383h-74l-271 341z" />
    <glyph glyph-name="L" unicode="L" horiz-adv-x="497" 
d="M157 680h-62v-680h392l-5 50h-325v630z" />
    <glyph glyph-name="M" unicode="M" horiz-adv-x="760" 
d="M602 0h63v680h-41l-245 -358l-249 358h-35v-680h62v547l214 -317l20 4l211 318v-552z" />
    <glyph glyph-name="N" unicode="N" horiz-adv-x="685" 
d="M171 531l378 -531h41v680h-63v-551l-34 59l-357 492h-41v-680h62v560z" />
    <glyph glyph-name="O" unicode="O" horiz-adv-x="721" 
d="M199.5 647c-48.333 -31.333 -86.168 -73.999 -113.501 -127.999s-41 -114.667 -41 -182s13.333 -127.666 40 -180.999s63.834 -95 111.501 -125s101.167 -45 160.5 -45c60.667 0.666992 115.334 16.667 164.001 48s86.667 74.166 114 128.499s41 115.166 41 182.499
s-13.333 127.666 -40 180.999s-63.834 95 -111.501 125s-101.5 45 -161.5 45c-60.667 -1.33301 -115.167 -17.666 -163.5 -48.999zM143.498 493.001c21.667 46 51.667 82 90 108s81.833 39 130.5 39c46.667 0 88.5 -12.667 125.5 -38s66 -60.5 87 -105.5
s31.5 -95.833 31.5 -152.5c0 -58 -10.833 -110 -32.5 -156s-51.667 -82 -90 -108s-81.833 -39 -130.5 -39c-46.667 0 -88.5 12.833 -125.5 38.5s-66 61 -87 106s-31.5 95.833 -31.5 152.5c0 57.333 10.833 109 32.5 155z" />
    <glyph glyph-name="P" unicode="P" horiz-adv-x="551" 
d="M260 264c75.333 0 136.667 17.667 184 53s71.333 88 72 158c0 70.667 -22 122.5 -66 155.5s-103.667 49.5 -179 49.5h-176v-680h62v264h103zM407.001 592c30.667 -23.333 46 -62.667 46 -118c-0.666992 -54 -18.334 -93.667 -53.001 -119s-80.667 -38 -138 -38h-105v310
h116c58.667 0 103.334 -11.667 134.001 -35z" />
    <glyph glyph-name="Q" unicode="Q" horiz-adv-x="721" 
d="M647 189.5c-19.333 -47.667 -46.332 -87.833 -80.999 -120.5l52 -51l-37 -32l-55 52c-48.667 -33.333 -105 -50.666 -169 -51.999c-59.333 0 -112.833 15 -160.5 45s-84.834 71.667 -111.501 125s-40 113.666 -40 180.999s13.667 128 41 182s65.166 96.667 113.499 128
s102.833 47.666 163.5 48.999c60 0 113.833 -15 161.5 -45s84.834 -71.667 111.501 -125s40 -113.666 40 -180.999c0 -56 -9.66699 -107.833 -29 -155.5zM483.001 78.001l-115 108l44 33l111 -108c26.667 27.333 47.5 61 62.5 101s22.5 84 22.5 132
c0 56.667 -10.5 107.5 -31.5 152.5s-50 80.167 -87 105.5s-78.833 38 -125.5 38c-48.667 0 -92.167 -13 -130.5 -39s-68.333 -62 -90 -108s-32.5 -97.667 -32.5 -155c0 -56.667 10.5 -107.5 31.5 -152.5s50 -80.333 87 -106s78.833 -38.5 125.5 -38.5
c47.333 0 90 12.333 128 37z" />
    <glyph glyph-name="R" unicode="R" horiz-adv-x="580" 
d="M157 0l-0.000976562 286h103c24.667 0 51 1.66699 79 5l161 -291h70l-176 308c80.667 32 121.334 91.333 122.001 178c0 68 -21.833 117.333 -65.5 148s-103.5 46 -179.5 46h-176v-680h62zM406.499 596c31 -20.667 46.5 -57.999 46.5 -111.999
c-0.666992 -52.667 -18.5 -90.334 -53.5 -113.001s-80.833 -34 -137.5 -34h-105v290h116c58 0 102.5 -10.333 133.5 -31z" />
    <glyph glyph-name="S" unicode="S" horiz-adv-x="508" 
d="M142 -1c35.333 -8 67.3281 -12.0049 95.9951 -12.0049c48 0 89.833 7.33301 125.5 22s62.834 35.167 81.501 61.5s28 56.166 28 89.499c0 32 -6.66699 59.333 -20 82s-32.666 42.834 -57.999 60.501s-60.333 36.834 -105 57.501c-48 22.667 -84.333 41.334 -109 56.001
s-43.834 31 -57.501 49s-20.5 39.667 -20.5 65c0 34.667 14 62.334 42 83.001s66 31 114 31c30.667 0 56.334 -3 77.001 -9s43 -14.333 67 -25l22 47c-22.667 11.333 -48.5 20.666 -77.5 27.999s-59.167 11 -90.5 11c-42 0 -79 -7.33301 -111 -22s-56.833 -34.667 -74.5 -60
s-26.5 -53.333 -26.5 -84c0 -83.333 61.333 -151 184 -203c44.667 -18.667 79.834 -35.667 105.501 -51s45.334 -32.166 59.001 -50.499s20.5 -40.166 20.5 -65.499c0 -36 -15.5 -65.333 -46.5 -88s-74.5 -34 -130.5 -34c-30.667 0 -60.667 3.83301 -90 11.5
s-54.666 16.834 -75.999 27.501l-15 -48c22 -12 50.667 -22 86 -30z" />
    <glyph glyph-name="T" unicode="T" horiz-adv-x="553" 
d="M10 631h235v-631h63v631h235l-5 49h-528v-49z" />
    <glyph glyph-name="U" unicode="U" horiz-adv-x="673" 
d="M85 239c0 -48 10.335 -90.998 31.002 -128.998s50 -67.833 88 -89.5s82 -32.5 132 -32.5c50.667 0 95 10.833 133 32.5s67.333 51.5 88 89.5s31 81 31 129v441h-63v-432c0 -38.667 -7.5 -73.834 -22.5 -105.501s-36.833 -56.5 -65.5 -74.5s-62.334 -27 -101.001 -27
c-37.333 0 -70.333 9.16699 -99 27.5s-50.834 43.166 -66.501 74.499s-23.5 66.333 -23.5 105v432h-62v-441z" />
    <glyph glyph-name="V" unicode="V" horiz-adv-x="592" 
d="M270 0h65l247 680h-59l-221 -600l-231 605l-61 -10z" />
    <glyph glyph-name="W" unicode="W" horiz-adv-x="821" 
d="M569 0l-158 581l-146 -581h-65l-190 675l61 10l161 -599l151 594h59l159 -594l151 594h59l-177 -680h-65z" />
    <glyph glyph-name="X" unicode="X" horiz-adv-x="573" 
d="M480 0h69l-214 331l228 349h-68l-193 -303l-215 317l-54 -26l222 -324l-245 -344h69l210 297z" />
    <glyph glyph-name="Y" unicode="Y" horiz-adv-x="546" 
d="M536 680h-67l-203 -344l-201 359l-55 -31l225 -388l-1 -276h63l1 283z" />
    <glyph glyph-name="Z" unicode="Z" horiz-adv-x="559" 
d="M534 631l-5 49h-477l10 -49h405l-442 -581l6 -50h488l-5 50h-420z" />
    <glyph glyph-name="bracketleft" unicode="[" horiz-adv-x="273" 
d="M255 -44h-98v695h98l8 45h-163v-784h163z" />
    <glyph glyph-name="backslash" unicode="\" horiz-adv-x="385" 
d="M10 706l308 -710l57 4l-308 710z" />
    <glyph glyph-name="bracketright" unicode="]" horiz-adv-x="272" 
d="M18 651h97v-695h-97l-8 -44h162v784h-162z" />
    <glyph glyph-name="asciicircum" unicode="^" horiz-adv-x="411" 
d="M401 143l-166 247h-59l-166 -247h60l136 201l135 -201h60z" />
    <glyph glyph-name="underscore" unicode="_" horiz-adv-x="439" 
d="M38 0h371l-8 50h-371z" />
    <glyph glyph-name="grave" unicode="`" horiz-adv-x="145" 
d="M81 742h-71l85 -153l40 13z" />
    <glyph glyph-name="a" unicode="a" horiz-adv-x="483" 
d="M170.5 438c17.667 5.33301 42.165 8 73.498 8c38 0 66.833 -10.5 86.5 -31.5s29.5 -49.167 29.5 -84.5v-49h-135c-51.333 0.666992 -93 -12 -125 -38s-48 -61.667 -48 -107c0 -44 14 -79.833 42 -107.5s68.333 -41.5 121 -41.5c26.667 0 53.834 6.5 81.501 19.5
s49.834 28.167 66.501 45.5l8 -52h51v340c0 48 -16.333 86.333 -49 115s-76.667 43 -132 43c-22 0 -49 -4 -81 -12s-56.667 -18 -74 -30l19 -44c26 12 47.833 20.667 65.5 26zM141.998 210c19.333 20 46.333 30 81 30h137v-123c-18.667 -22.667 -40.5 -41.5 -65.5 -56.5
s-52.167 -22.5 -81.5 -22.5c-33.333 0 -58.333 9.83301 -75 29.5s-25 42.5 -25 68.5c0 29.333 9.66699 54 29 74z" />
    <glyph glyph-name="b" unicode="b" horiz-adv-x="520" 
d="M427 428c38.667 -46.667 58.0049 -108.666 58.0049 -185.999c-0.666992 -48.667 -9.83398 -92.334 -27.501 -131.001s-43.334 -69 -77.001 -91s-73.834 -33 -120.501 -33c-42.667 0 -86.334 18 -131.001 54l-13 -41h-41v696l62 10v-254
c39.333 30.667 81.666 46 126.999 46c70 0 124.333 -23.333 163 -70zM380.505 95.501c27 37.667 40.835 86.167 41.502 145.5c0 62.667 -13 112.5 -39 149.5s-65.333 55.5 -118 55.5c-26.667 0 -50.334 -5 -71.001 -15s-39.667 -24 -57 -42v-298
c18 -16 36.667 -28.667 56 -38s42.666 -14 69.999 -14c51.333 0 90.5 18.833 117.5 56.5z" />
    <glyph glyph-name="c" unicode="c" horiz-adv-x="451" 
d="M332.5 46.5c-16.333 -5 -40.1689 -7.49902 -71.502 -7.49902c-52.667 0 -93 19 -121 57s-42 88 -42 150c0.666992 58.667 15.834 106.667 45.501 144s70.5 56 122.5 56c30 0 53.833 -2.66699 71.5 -8s38.5 -14 62.5 -26l20 44c-18.667 12 -43.334 22 -74.001 30
s-56.334 12 -77.001 12c-46.667 0 -87.667 -10.833 -123 -32.5s-62.666 -51.834 -81.999 -90.501s-29 -82 -29 -130c0 -50.667 9 -95.5 27 -134.5s44.167 -69.333 78.5 -91s74.833 -32.5 121.5 -32.5c22 0 48.333 3.83301 79 11.5s55.334 17.5 74.001 29.5l-20 45
c-25.333 -12.667 -46.166 -21.5 -62.499 -26.5z" />
    <glyph glyph-name="d" unicode="d" 
d="M441 0l-41.0029 -0.000976562l-11 38c-19.333 -16 -40.333 -28.5 -63 -37.5s-46 -13.5 -70 -13.5c-70 0 -124.333 23.333 -163 70s-58 108.667 -58 186c0.666992 48.667 9.83398 92.334 27.501 131.001s43.334 69 77.001 91s73.834 33 120.501 33
c38.667 0 78 -14.667 118 -44v242l63 9v-705zM377.997 90.999v307.001c-16.667 15.333 -34.5 27.166 -53.5 35.499s-41.5 12.5 -67.5 12.5c-51.333 0 -90.5 -18.833 -117.5 -56.5s-40.833 -86.167 -41.5 -145.5c0 -62.667 13 -112.5 39 -149.5s65.333 -55.5 118 -55.5
c47.333 0 88.333 17.333 123 52z" />
    <glyph glyph-name="e" unicode="e" horiz-adv-x="493" 
d="M408 427.5c-33.333 47 -84.332 70.501 -152.999 70.501c-69.333 0 -123.166 -23.333 -161.499 -70s-57.833 -107.667 -58.5 -183c0 -78.667 20.667 -141.334 62 -188.001s102.666 -70 183.999 -70c34.667 0 64.5 3.83301 89.5 11.5s51.833 19.167 80.5 34.5l-21 46
c-26.667 -14 -52 -24.5 -76 -31.5s-49.333 -10.5 -76 -10.5c-62 0 -107.333 18.167 -136 54.5s-43.334 85.5 -44.001 147.5h360c0 78.667 -16.667 141.5 -50 188.5zM145.001 401.501c25.333 29.667 60.999 44.5 106.999 44.5c84.667 0 132.334 -54.667 143.001 -164h-295
c4.66699 50 19.667 89.833 45 119.5z" />
    <glyph glyph-name="f" unicode="f" horiz-adv-x="274" 
d="M90 0h62v428h109l-21 47h-88v88c0 54.667 23 82 69 82c6 0 13.333 -1 22 -3s15 -4 19 -6l12 53c-22.667 8.66699 -44.667 13 -66 13c-36 0 -64.667 -12.667 -86 -38s-32 -59 -32 -101v-88h-73l1 -47h72v-428z" />
    <glyph glyph-name="g" unicode="g" horiz-adv-x="512" 
d="M441 -62c0 -32 -8.33789 -60.668 -25.0049 -86.001s-40.667 -45.333 -72 -60s-67.666 -22 -108.999 -22c-22 0 -50.167 4 -84.5 12s-61.166 17.667 -80.499 29l19 46c21.333 -10 43 -18.167 65 -24.5s48.333 -9.83301 79 -10.5c42.667 0 77.5 10 104.5 30
s40.5 49 40.5 87v90c-38 -28 -78.667 -42 -122 -42c-70 0 -124.333 23.333 -163 70s-58 108.667 -58 186c0.666992 48.667 9.83398 92.334 27.501 131.001s43.334 69 77.001 91s73.834 33 120.501 33c40.667 0 82.667 -16.667 126 -50l14 37h41v-547zM377.995 90.999
v307.001c-16.667 15.333 -34.5 27.166 -53.5 35.499s-41.5 12.5 -67.5 12.5c-51.333 0 -90.5 -18.833 -117.5 -56.5s-40.833 -86.167 -41.5 -145.5c0 -62.667 13 -112.5 39 -149.5s65.333 -55.5 118 -55.5c47.333 0 88.333 17.333 123 52z" />
    <glyph glyph-name="h" unicode="h" horiz-adv-x="526" 
d="M428 454c24.667 -29.333 37 -68.333 37 -117v-336h-62v324c0 80 -31.333 120 -94 120c-25.333 0 -54.833 -9.5 -88.5 -28.5s-61.5 -42.5 -83.5 -70.5v-346h-62v696l62 10v-294c20.667 24 48.167 44.333 82.5 61s66.5 25 96.5 25c50 0 87.333 -14.667 112 -44z" />
    <glyph glyph-name="i" unicode="i" horiz-adv-x="193" 
d="M129.5 604.5c9.66699 9 14.5 20.167 14.5 33.5s-4.83301 24.5 -14.5 33.5s-20.834 13.5 -33.501 13.5c-14 0 -25.333 -4.5 -34 -13.5s-13 -20.167 -13 -33.5s4.33301 -24.5 13 -33.5s20 -13.5 34 -13.5c12.667 0 23.834 4.5 33.501 13.5zM65 485v-485h63v485h-63z" />
    <glyph glyph-name="j" unicode="j" horiz-adv-x="215" 
d="M72 604.5c-8.66699 9 -13 20.167 -13 33.5s4.33301 24.5 13 33.5s20 13.5 34 13.5c12.667 0 23.834 -4.5 33.501 -13.5s14.5 -20.167 14.5 -33.5s-4.83301 -24.5 -14.5 -33.5s-20.834 -13.5 -33.501 -13.5c-14 0 -25.333 4.5 -34 13.5zM129 -135
c-6 -18.667 -17.168 -34.833 -33.501 -48.5s-40.166 -25.5 -71.499 -35.5l-24 43c22.667 8.66699 39.167 17.667 49.5 27s17.333 21.5 21 36.5s5.16699 36.833 4.5 65.5v532h63v-547c0 -30 -3 -54.333 -9 -73z" />
    <glyph glyph-name="k" unicode="k" horiz-adv-x="457" 
d="M209 264l173 -264h75l-208 305l152 156l-39 37l-225 -232v440l-62 -10v-696h62v190z" />
    <glyph glyph-name="l" unicode="l" horiz-adv-x="212" 
d="M75 696v-696h62v706z" />
    <glyph glyph-name="m" unicode="m" horiz-adv-x="794" 
d="M699.5 454.5c22.333 -29 33.4951 -68.165 33.4951 -117.498v-336h-62v324c0 37.333 -6.16699 66.666 -18.5 87.999s-34.166 32 -65.499 32c-21.333 0 -46.666 -8.33301 -75.999 -25s-55 -37.667 -77 -63l1 -20v-336h-62v324c0 37.333 -6.16699 66.666 -18.5 87.999
s-34.166 32 -65.499 32c-22.667 0 -49.834 -9.5 -81.501 -28.5s-58.5 -42.5 -80.5 -70.5v-346h-62v485h51l10 -74c20.667 24 47.334 44.5 80.001 61.5s62.667 25.5 90 25.5c66.667 0 109.334 -29 128.001 -87c20.667 24 47.334 44.5 80.001 61.5s62.667 25.5 90 25.5
c48 0 83.167 -14.5 105.5 -43.5z" />
    <glyph glyph-name="n" unicode="n" 
d="M210.5 416.5c33.667 19 63.168 28.5 88.501 28.5c62.667 0 94 -40 94 -120v-324h62v336c0 48.667 -12.333 87.667 -37 117s-62 44 -112 44c-30 0 -62.333 -8.5 -97 -25.5s-62.334 -37.5 -83.001 -61.5l-10 74h-51v-485h62v346c22 28 49.833 51.5 83.5 70.5z" />
    <glyph glyph-name="o" unicode="o" horiz-adv-x="527" 
d="M463 109.5c-19.333 -38.333 -47 -68.332 -83 -89.999s-78 -32.5 -126 -32.5c-45.333 0 -84.5 11 -117.5 33s-58.167 52.5 -75.5 91.5s-26 83.5 -26 133.5c0.666992 48 10.334 91.167 29.001 129.5s45.5 68.5 80.5 90.5s75.833 33 122.5 33
c71.333 0 126.666 -22.833 165.999 -68.5s59 -108.834 59 -189.501c0 -48.667 -9.66699 -92.167 -29 -130.5zM383.5 95.001c29.667 37.333 44.834 85.333 45.501 144c0 62 -14 112 -42 150s-68.333 57 -121 57c-52 0 -92.833 -18.667 -122.5 -56
s-44.834 -85.333 -45.501 -144c0 -62 14 -112 42 -150s68.333 -57 121 -57c52 0 92.833 18.667 122.5 56z" />
    <glyph glyph-name="p" unicode="p" 
d="M423 428c38.667 -46.667 58.0029 -108.666 58.0029 -185.999c-0.666992 -48.667 -9.83398 -92.334 -27.501 -131.001s-43.334 -69 -77.001 -91s-73.834 -33 -120.501 -33c-40 0 -81 16 -123 48v-243l-62 -11v704h41l13 -40c19.333 16.667 40.5 29.667 63.5 39
s46.833 14 71.5 14c70 0 124.333 -23.333 163 -70zM376.503 95.501c27 37.667 40.835 86.167 41.502 145.5c0 62.667 -13 112.5 -39 149.5s-65.333 55.5 -118 55.5c-26.667 0 -50.334 -5 -71.001 -15s-39.667 -24 -57 -42v-298c18 -16 36.667 -28.667 56 -38
s42.666 -14 69.999 -14c51.333 0 90.5 18.833 117.5 56.5z" />
    <glyph glyph-name="q" unicode="q" horiz-adv-x="512" 
d="M441 -208l-63.0029 -11.001v248c-38 -28 -78.667 -42 -122 -42c-70 0 -124.333 23.333 -163 70s-58 108.667 -58 186c0.666992 48.667 9.83398 92.334 27.501 131.001s43.334 69 77.001 91s73.834 33 120.501 33c42 0 84 -16.667 126 -50l14 37h41v-693zM377.997 90.999
v307.001c-16.667 15.333 -34.5 27.166 -53.5 35.499s-41.5 12.5 -67.5 12.5c-51.333 0 -90.5 -18.833 -117.5 -56.5s-40.833 -86.167 -41.5 -145.5c0 -62.667 13 -112.5 39 -149.5s65.333 -55.5 118 -55.5c47.333 0 88.333 17.333 123 52z" />
    <glyph glyph-name="r" unicode="r" horiz-adv-x="310" 
d="M207.5 408c33 18.667 63.833 27.999 92.5 27.999l-17 49c-22.667 0 -49.167 -8.16699 -79.5 -24.5s-56.833 -33.833 -79.5 -52.5l-18 77h-41v-485h62v346c20.667 22.667 47.5 43.334 80.5 62.001z" />
    <glyph glyph-name="s" unicode="s" horiz-adv-x="419" 
d="M112.5 -2.5c30.333 -7 56.835 -10.498 79.502 -10.498c61.333 0 108.666 12.167 141.999 36.5s50 57.833 50 100.5c0 62 -54 112 -162 150c-40 13.333 -70.833 27.166 -92.5 41.499s-32.834 31.833 -33.501 52.5c0 23.333 11 42.5 33 57.5s50 22.5 84 22.5
c26 0 48.333 -3 67 -9s39 -14.333 61 -25l20 44c-15.333 11.333 -38 20.833 -68 28.5s-56 11.5 -78 11.5c-54.667 0 -98 -11.833 -130 -35.5s-48 -56.5 -48 -98.5c0 -34.667 14.5 -63 43.5 -85s66.833 -40.667 113.5 -56c88 -30.667 132 -65.334 132 -104.001
c0 -26.667 -11.667 -47 -35 -61s-55.666 -21 -96.999 -21c-42 0 -86.333 11.333 -133 34l-20 -46c17.333 -11.333 41.166 -20.5 71.499 -27.5z" />
    <glyph glyph-name="t" unicode="t" horiz-adv-x="298" 
d="M152 623l-62.999 -22.001v-126h-72l1 -47h71v-312c0 -41.333 10.667 -73.166 32 -95.499s50 -33.5 86 -33.5c19.333 0 34.666 1.83301 45.999 5.5l20 6.5l-12 51c-14 -6 -27.667 -9 -41 -9c-23.333 0 -40.5 7.33301 -51.5 22s-16.5 34.667 -16.5 60v305h109l-21 47h-88
v148z" />
    <glyph glyph-name="u" unicode="u" 
d="M305.5 69.5c-33.667 -19 -63.168 -28.5 -88.501 -28.5c-62.667 0 -94 40 -94 120v324h-62v-336c0 -48.667 12.333 -87.667 37 -117s62 -44 112 -44c30 0 62.333 8.5 97 25.5s62.334 37.5 83.001 61.5l10 -75h51v486h-62v-346c-22 -28 -49.833 -51.5 -83.5 -70.5z" />
    <glyph glyph-name="v" unicode="v" horiz-adv-x="438" 
d="M368 485l-150 -406l-156 419l-52 -26l175 -472h66l177 485h-60z" />
    <glyph glyph-name="w" unicode="w" horiz-adv-x="642" 
d="M571 485l-110 -402l-115 402h-59l-110 -402l-115 414l-52 -26l134 -471h67l104 393l114 -393h67l136 485h-61z" />
    <glyph glyph-name="x" unicode="x" horiz-adv-x="429" 
d="M337 0h68l-152 233l166 252h-68l-132 -206l-138 216l-55 -25l147 -225l-163 -245h70l127 199z" />
    <glyph glyph-name="y" unicode="y" horiz-adv-x="438" 
d="M129 -143.5c-12.667 -9.66699 -34 -21.5 -64 -35.5l17 -40c32 6.66699 59.667 19.334 83 38.001s40 41.667 50 69l213 597h-60l-150 -402l-159 414l-49 -26l182 -478l-32 -91c-8 -20.667 -18.333 -35.834 -31 -45.501z" />
    <glyph glyph-name="z" unicode="z" horiz-adv-x="432" 
d="M68 436h262l-307 -405l8 -31h372l-10 48h-295l311 405l-3 32h-354z" />
    <glyph glyph-name="braceleft" unicode="{" horiz-adv-x="265" 
d="M181.5 348c10.333 17.333 15.502 41.0049 15.502 71.0049c0 18.667 -6.33301 42 -19 70s-19 51.667 -19 71c0 15.333 6.16699 28.166 18.5 38.499s30.166 15.5 53.499 15.5h19l5 45h-26c-40.667 0 -71.5 -9.33301 -92.5 -28s-31.5 -44.334 -31.5 -77.001
c0 -20.667 6 -44.667 18 -72c12 -26.667 18 -50.667 18 -72c0 -24 -7.83301 -43.667 -23.5 -59s-33.834 -23 -54.501 -23h-33v-40h33c21.333 0 39.666 -7.33301 54.999 -22s23 -34.334 23 -59.001c0 -20 -6 -43.667 -18 -71c-12 -26.667 -18 -50.667 -18 -72
c0 -33.333 10.333 -59.333 31 -78s51.667 -28 93 -28h26l-5 45h-19c-23.333 0 -41.166 5.33301 -53.499 16s-18.5 23.667 -18.5 39c0 18.667 6.33301 42 19 70s19 51.667 19 71c0 27.333 -5.5 50.666 -16.5 69.999s-26.833 33.333 -47.5 42
c22 7.33301 38.167 19.666 48.5 36.999z" />
    <glyph glyph-name="bar" unicode="|" horiz-adv-x="252" 
d="M157 -4v710l-62 4v-710z" />
    <glyph glyph-name="braceright" unicode="}" horiz-adv-x="264" 
d="M67 199c0 -19.333 6.33398 -43 19.001 -71s19 -51.333 19 -70c0 -15.333 -6.16699 -28.333 -18.5 -39s-29.833 -16 -52.5 -16h-19l-5 -45h25c41.333 0 72.5 9.33301 93.5 28s31.5 44.667 31.5 78c0 21.333 -6 45.333 -18 72c-12.667 26 -19 49.667 -19 71
c0 24.667 7.83301 44.667 23.5 60s33.834 23 54.501 23h33v39h-33c-20.667 0 -38.834 7.66699 -54.501 23s-23.5 34.666 -23.5 57.999c0 22 6.33301 46 19 72c12 27.333 18 51.333 18 72c0 32.667 -10.5 58.334 -31.5 77.001s-52.167 28 -93.5 28h-25l5 -45h19
c22.667 0 40.167 -5.16699 52.5 -15.5s18.5 -23.166 18.5 -38.499c0 -19.333 -6.33301 -43 -19 -71s-19 -51.333 -19 -70c0 -28 5.66699 -51.667 17 -71s27.666 -33.333 48.999 -42c-44 -14.667 -66 -50.334 -66 -107.001z" />
    <glyph glyph-name="asciitilde" unicode="~" horiz-adv-x="382" 
d="M90.5 236.5c9 7 20.167 10.5 33.5 10.5c17.333 0 38.333 -8 63 -24c25.333 -16 49 -24 71 -24c28 0 50.667 7.16699 68 21.5s26 37.5 26 69.5h-47c-0.666992 -14.667 -5.5 -25.5 -14.5 -32.5s-20.167 -10.5 -33.5 -10.5c-18 0 -37.333 8 -58 24c-22 16 -47 24 -75 24
c-28.667 0 -51.5 -7 -68.5 -21s-25.5 -37 -25.5 -69h45c1.33301 14 6.5 24.5 15.5 31.5z" />
    <glyph glyph-name="uni00A0" unicode="&#xa0;" horiz-adv-x="236" 
 />
    <glyph glyph-name="exclamdown" unicode="&#xa1;" horiz-adv-x="156" 
d="M112 619.5c9.33301 9.66699 14 21.167 14 34.5c0 12.667 -4.66699 23.834 -14 33.501s-20.333 14.5 -33 14.5c-13.333 0 -24.833 -4.83301 -34.5 -14.5s-14.5 -20.834 -14.5 -33.501c0 -13.333 4.83301 -24.833 14.5 -34.5s21.167 -14.5 34.5 -14.5
c12.667 0 23.667 4.83301 33 14.5zM42 0h74l-16 485l-42 20z" />
    <glyph glyph-name="cent" unicode="&#xa2;" horiz-adv-x="451" 
d="M360.5 4c-21.667 -6.66699 -42.8301 -11.334 -63.4971 -14.001v-101h-51v98c-65.333 4 -116.833 29.5 -154.5 76.5s-56.5 107.5 -56.5 181.5c0 45.333 8.66699 86.5 26 123.5s41.833 66.833 73.5 89.5s68.834 35.667 111.501 39v98l51 10v-109
c21.333 -2.66699 43.5 -7.66699 66.5 -15s41.833 -15.666 56.5 -24.999l-20 -44c-24 12 -44.833 20.667 -62.5 26s-41.5 8 -71.5 8c-52 0 -92.833 -18.667 -122.5 -56s-44.834 -85.333 -45.501 -144c0 -62 14 -112 42 -150s68.333 -57 121 -57
c31.333 0 55.166 2.5 71.499 7.5s37.166 13.833 62.499 26.5l20 -45c-14.667 -9.33301 -32.834 -17.333 -54.501 -24z" />
    <glyph glyph-name="sterling" unicode="&#xa3;" horiz-adv-x="431" 
d="M415 50l-258.001 0.000976562c22.667 26 34 60.667 34 104v176h158l-22 46h-136v169c0 56 23 84 69 84c6 0 13.167 -1.16699 21.5 -3.5s14.5 -4.83301 18.5 -7.5l12 53c-8 2.66699 -18.167 5.5 -30.5 8.5s-24.166 4.5 -35.499 4.5c-35.333 0 -63.833 -12.667 -85.5 -38
s-32.5 -59 -32.5 -101v-169h-73l2 -46h71v-197c0 -54.667 -22.667 -82.334 -68 -83.001l5 -50h356z" />
    <glyph glyph-name="currency" unicode="&#xa4;" horiz-adv-x="664" 
d="M530 90c30 43.333 45.333 93.001 46 149.001c0 61.333 -15 113.333 -45 156l103 106l-34 42l-104 -106c-21.333 19.333 -45.5 34.333 -72.5 45s-56.167 16 -87.5 16c-61.333 -0.666992 -116 -21.667 -164 -63l-108 108l-34 -42l105 -107
c-30.667 -44.667 -46 -94.334 -46 -149.001c0 -60 14.667 -112.667 44 -158l-103 -105l34 -41l105 106c20 -18.667 43.333 -33.167 70 -43.5s55 -15.833 85 -16.5c33.333 0 64.5 5.33301 93.5 16s54.167 26 75.5 46l107 -108l34 41zM488.5 136.501
c-16.333 -30.333 -38.5 -53.998 -66.5 -70.998s-59.667 -25.5 -95 -25.5c-53.333 0 -95.833 19.167 -127.5 57.5s-47.5 87.833 -47.5 148.5c0 37.333 8 71.166 24 101.499s38 54.166 66 71.499s59.667 26 95 26c36 0 67.333 -9 94 -27s47 -42.667 61 -74s21 -66.333 21 -105
c0 -38 -8.16699 -72.167 -24.5 -102.5z" />
    <glyph glyph-name="yen" unicode="&#xa5;" horiz-adv-x="546" 
d="M297 127h186l9 -49h-195v-78h-63v78h-172l-8 49h180l1 132h-173l-8 50h162l-206 355l55 31l201 -359l203 344h67l-222 -371h169l9 -50h-194z" />
    <glyph glyph-name="brokenbar" unicode="&#xa6;" horiz-adv-x="252" 
d="M157 406v300l-62 4v-300zM157 -4v292l-62 4v-292z" />
    <glyph glyph-name="section" unicode="&#xa7;" horiz-adv-x="562" 
d="M510.5 174.5c-11 -21.667 -27.1621 -40.1641 -48.4951 -55.4971c7.33301 -20 11 -41.333 11 -64c0 -33.333 -9.33301 -63.166 -28 -89.499s-45.834 -46.833 -81.501 -61.5s-77.5 -22 -125.5 -22c-28.667 0 -60.667 4 -96 12s-64 18 -86 30l15 48
c21.333 -10.667 46.666 -19.834 75.999 -27.501s59.333 -11.5 90 -11.5c56 0 99.5 11.333 130.5 34s46.5 52 46.5 88c0 25.333 -6.83301 47.166 -20.5 65.499s-33.334 35.166 -59.001 50.499s-60.834 32.333 -105.501 51c-122.667 52 -184 119.667 -184 203
c0 24.667 6 47.834 18 69.501s28.667 40.167 50 55.5c-9.33301 20.667 -14 42.334 -14 65.001c0 30.667 8.83301 58.667 26.5 84s42.5 45.333 74.5 60s69 22 111 22c31.333 0 61.5 -3.66699 90.5 -11s54.833 -16.666 77.5 -27.999l-22 -47c-24 10.667 -46.333 19 -67 25
s-46.334 9 -77.001 9c-48 0 -86 -10.333 -114 -31s-42 -48.334 -42 -83.001c0 -25.333 6.83301 -47 20.5 -65s32.834 -34.333 57.501 -49s61 -33.334 109 -56.001c44.667 -20.667 79.667 -39.834 105 -57.501s44.666 -37.834 57.999 -60.501s20 -50 20 -82
c0 -25.333 -5.5 -48.833 -16.5 -70.5zM468.005 245.003c0 25.333 -6.83203 47.168 -20.499 65.501s-33.334 35.166 -59.001 50.499s-60.834 32.333 -105.501 51c-63.333 27.333 -110.333 58.666 -141 93.999c-26 -20.667 -39 -47.667 -39 -81
c0 -25.333 6.83301 -47 20.5 -65s32.834 -34.333 57.501 -49s61 -33.334 109 -56.001c34 -16 62.5 -31.167 85.5 -45.5s41.833 -29.166 56.5 -44.499c24 22.667 36 49.334 36 80.001z" />
    <glyph glyph-name="dieresis" unicode="&#xa8;" horiz-adv-x="263" 
d="M84.5 630.5c8.33301 8.33301 12.5 18.833 12.5 31.5c0 11.333 -4.16699 21.166 -12.5 29.499s-18.833 12.5 -31.5 12.5c-11.333 0 -21.333 -4.16699 -30 -12.5s-13 -18.166 -13 -29.499c0 -12 4.33301 -22.333 13 -31s18.667 -13 30 -13
c12.667 0 23.167 4.16699 31.5 12.5zM241 630.5c8 8.33301 12 18.832 12 31.499c0 12 -4 22 -12 30s-18.333 12 -31 12c-12 0 -22.167 -4.16699 -30.5 -12.5s-12.5 -18.166 -12.5 -29.499c0 -12.667 4.16699 -23.167 12.5 -31.5s18.5 -12.5 30.5 -12.5
c12.667 0 23 4.16699 31 12.5z" />
    <glyph glyph-name="copyright" unicode="&#xa9;" horiz-adv-x="791" 
d="M711.5 517.5c-29.667 54.333 -71.667 97.333 -126 129s-117.5 47.5 -189.5 47.5s-135.333 -15.833 -190 -47.5s-96.834 -74.667 -126.501 -129s-44.5 -114.833 -44.5 -181.5c0 -66 14.833 -126 44.5 -180s71.834 -96.833 126.501 -128.5s118 -47.5 190 -47.5
s135.167 15.833 189.5 47.5s96.333 74.5 126 128.5s44.5 114 44.5 180c0 66.667 -14.833 127.167 -44.5 181.5zM131 495c24.667 46.667 59.834 83.334 105.501 110.001s98.834 40 159.501 40s114 -13.333 160 -40s81.333 -63.334 106 -110.001s37 -99.334 37 -158.001
s-12.333 -111.334 -37 -158.001s-60 -83.334 -106 -110.001s-99.333 -40 -160 -40s-113.834 13.333 -159.501 40s-80.834 63.334 -105.501 110.001s-37 99.334 -37 158.001s12.333 111.334 37 158.001zM484 117.5c28.667 7.66699 52.332 17.834 70.999 30.501l-20 43
c-24 -12.667 -43.667 -21.5 -59 -26.5s-38 -7.5 -68 -7.5c-53.333 0 -91.666 15.667 -114.999 47s-35 78 -35 140c0 53.333 12.833 96.333 38.5 129s64.167 49 115.5 49c28.667 0 50.834 -2.33301 66.501 -7s29 -9.83398 40 -15.501s18.167 -9.5 21.5 -11.5l20 45
c-17.333 12.667 -40.333 22.667 -69 30s-54.334 11 -77.001 11c-46 0 -85.333 -10 -118 -30s-57.5 -47.5 -74.5 -82.5s-25.5 -74.833 -25.5 -119.5c0 -70.667 18.167 -127.667 54.5 -171s88.833 -65 157.5 -65c22 0 47.333 3.83301 76 11.5z" />
    <glyph glyph-name="ordfeminine" unicode="&#xaa;" horiz-adv-x="332" 
d="M90.5 639.5c10.333 4.33301 21.167 7.66797 32.5 10.001s24 3.5 38 3.5c26 0 45.833 -6.83301 59.5 -20.5s20.5 -32.167 20.5 -55.5v-18h-86c-35.333 0 -64.166 -8.5 -86.499 -25.5s-33.5 -40.5 -33.5 -70.5c0 -28.667 11 -52.5 33 -71.5s49.333 -28.5 82 -28.5
c18.667 0 36.167 4.5 52.5 13.5s30.166 19.5 41.499 31.5l11 -36h42v208c0 21.333 -5.66699 41.333 -17 60s-27.333 33.667 -48 45s-44.667 17 -72 17c-14.667 0 -32.5 -2.83301 -53.5 -8.5s-37.5 -12.5 -49.5 -20.5l12 -42c4 1.33301 11.167 4.16602 21.5 8.49902z
M112.001 503.002c14.667 10 32 15 52 15h77v-52c-11.333 -16 -25 -29.333 -41 -40s-32.667 -16 -50 -16c-18 0 -32.5 5.33301 -43.5 16s-16.5 23 -16.5 37c0 16.667 7.33301 30 22 40z" />
    <glyph glyph-name="guillemotleft" unicode="&#xab;" horiz-adv-x="363" 
d="M191 125l-112 120l112 120l-21 41l-140 -139v-44l140 -139zM343 125l-113 120l113 120l-21 41l-140 -139v-44l140 -139z" />
    <glyph glyph-name="logicalnot" unicode="&#xac;" horiz-adv-x="514" 
d="M18 356h408v-239l58 -5v244l-8 50h-466z" />
    <glyph glyph-name="softhyphen" unicode="&#xad;" horiz-adv-x="120" 
 />
    <glyph glyph-name="registered" unicode="&#xae;" horiz-adv-x="705" 
d="M631 647c-26 48 -63 85.833 -111 113.5s-103.667 41.5 -167 41.5c-64 0 -120 -13.833 -168 -41.5s-85 -65.5 -111 -113.5s-39 -101.333 -39 -160s13 -111.667 39 -159s63 -84.833 111 -112.5s104 -41.5 168 -41.5c63.333 0 119 13.833 167 41.5s85 65.167 111 112.5
s39 100.333 39 159s-13 112 -39 160zM121 626.5c21.333 40.333 51.833 71.834 91.5 94.501s86.5 34 140.5 34c53.333 0 99.833 -11.333 139.5 -34s70.167 -54.334 91.5 -95.001s32 -86.667 32 -138c0 -50.667 -10.667 -96.167 -32 -136.5s-51.833 -72.166 -91.5 -95.499
s-86.167 -35 -139.5 -35c-54 0 -100.833 11.667 -140.5 35s-70.167 55.166 -91.5 95.499s-32 85.833 -32 136.5c0 52 10.667 98.167 32 138.5zM475 572.001c0 37.333 -12.167 64.667 -36.5 82s-57.5 26 -99.5 26h-97v-376h50v158h42c16 0 25.667 0.333008 29 1l90 -159h58
l-100 171c42.667 18.667 64 51 64 97zM379.5 636.002c13.667 -2.66699 24.666 -9 32.999 -19s12.5 -25.333 12.5 -46c-0.666992 -28 -10 -46.667 -28 -56s-43.667 -14 -77 -14h-28v139h33c22.667 0 40.834 -1.33301 54.501 -4z" />
    <glyph glyph-name="macron" unicode="&#xaf;" horiz-adv-x="261" 
d="M245 689h-235v-49h241z" />
    <glyph glyph-name="degree" unicode="&#xb0;" horiz-adv-x="233" 
d="M41.5 671.5c-21 -20.333 -31.5 -44.5 -31.5 -72.5c0 -29.333 10.333 -53.5 31 -72.5s45.667 -28.5 75 -28.5c30 0 55.333 9.5 76 28.5s31 43.167 31 72.5c0 28.667 -10.5 53 -31.5 73s-46.167 30 -75.5 30c-28.667 0 -53.5 -10.167 -74.5 -30.5zM73 556
c-11.333 12 -17 26.333 -17 43s5.66699 30.834 17 42.501s25.666 17.5 42.999 17.5c16.667 0 31.167 -5.83301 43.5 -17.5s18.5 -25.834 18.5 -42.501s-6.16699 -31 -18.5 -43s-26.833 -18 -43.5 -18c-17.333 0 -31.666 6 -42.999 18z" />
    <glyph glyph-name="plusminus" unicode="&#xb1;" horiz-adv-x="492" 
d="M273 531l-56 3v-184h-187l8 -48h179v-189l56 -5v194h189l-8 48h-181v181zM38 1h424l-8 47h-424z" />
    <glyph glyph-name="twosuperior" unicode="&#xb2;" horiz-adv-x="352" 
d="M96 760.5c-26 -7 -48.332 -16.167 -66.999 -27.5l22 -44c15.333 10.667 34 19.5 56 26.5s43 10.5 63 10.5c31.333 0 54.666 -7.83301 69.999 -23.5s23 -34.167 23 -55.5c0 -22.667 -6.66699 -44 -20 -64s-34 -42.667 -62 -68l-156 -136v-43h307l-6 43h-237l119 102
c38.667 34 66.667 63.5 84 88.5s26 50.833 26 77.5c0 32.667 -12 61.5 -36 86.5s-60.667 37.5 -110 37.5c-24.667 0 -50 -3.5 -76 -10.5z" />
    <glyph glyph-name="threesuperior" unicode="&#xb3;" horiz-adv-x="354" 
d="M77.5 759.5c-23 -7.66699 -45.833 -18.5 -68.5 -32.5l22 -38c39.333 25.333 80.333 38 123 38c30 0 53.5 -7.16699 70.5 -21.5s25.5 -32.833 25.5 -55.5c0 -28.667 -11 -50.834 -33 -66.501s-53.667 -23.5 -95 -23.5h-26l7 -44h14c50.667 0 87.167 -8.5 109.5 -25.5
s33.5 -42.167 33.5 -75.5c0 -29.333 -10.833 -52 -32.5 -68s-48.5 -24 -80.5 -24c-26.667 0 -49 2.66699 -67 8s-36.667 13.666 -56 24.999l-24 -38c20 -11.333 42.333 -20.833 67 -28.5s50 -11.5 76 -11.5c34 0 64 6 90 18s46 28.5 60 49.5s21 44.5 21 70.5
c0 31.333 -8.5 57.833 -25.5 79.5s-39.833 35.834 -68.5 42.501c24 8 44.167 22.167 60.5 42.5s24.5 43.833 24.5 70.5c0 34.667 -13 63.334 -39 86.001s-63 34 -111 34c-28.667 0 -54.5 -3.83301 -77.5 -11.5z" />
    <glyph glyph-name="acute" unicode="&#xb4;" horiz-adv-x="145" 
d="M64 742l-54 -140l40 -13l85 153h-71z" />
    <glyph glyph-name="mu" unicode="&#xb5;" horiz-adv-x="526" 
d="M461 1h-50.999l-10 74c-20.667 -24 -48.334 -44.5 -83.001 -61.5s-67 -25.5 -97 -25.5c-34.667 0 -63.667 7.33301 -87 22v-218l-62 -11v704h62v-324c0 -80 31.333 -120 94 -120c25.333 0 54.833 9.5 88.5 28.5s61.5 42.5 83.5 70.5v346h62v-485z" />
    <glyph glyph-name="paragraph" unicode="&#xb6;" horiz-adv-x="813" 
d="M617 631l0.000976562 -631h62v631h99v49h-498c-76 0 -135.833 -16.5 -179.5 -49.5s-65.5 -84.833 -65.5 -155.5c0.666992 -70 24.667 -122.667 72 -158s108.666 -53 183.999 -53h38v-264h62v631h226z" />
    <glyph glyph-name="periodcentered" unicode="&#xb7;" horiz-adv-x="155" 
d="M111 228.5c9.33301 9.66699 14 20.834 14 33.501c0 13.333 -4.66699 24.5 -14 33.5s-20.333 13.5 -33 13.5c-13.333 0 -24.666 -4.5 -33.999 -13.5s-14 -20.167 -14 -33.5c0 -12.667 4.66699 -23.834 14 -33.501s20.666 -14.5 33.999 -14.5
c12.667 0 23.667 4.83301 33 14.5z" />
    <glyph glyph-name="cedilla" unicode="&#xb8;" horiz-adv-x="206" 
d="M116 -99.5c17.333 -9.66699 26.002 -21.167 26.002 -34.5c0 -12 -5.83301 -21.667 -17.5 -29s-25.167 -11 -40.5 -11c-16.667 0 -36.334 4.66699 -59.001 14l-15 -42c8.66699 -5.33301 20.167 -9.83301 34.5 -13.5s27.5 -5.5 39.5 -5.5c32 0 58.667 7.66699 80 23
s32 37.333 32 66c0 18 -7.83301 34.833 -23.5 50.5s-34.5 24.834 -56.5 27.501l26 67h-53l-37 -94c25.333 -2.66699 46.666 -8.83398 63.999 -18.501z" />
    <glyph glyph-name="onesuperior" unicode="&#xb9;" horiz-adv-x="247" 
d="M136 765l-126 -65l23 -37l84 42v-369h55v429h-36z" />
    <glyph glyph-name="ordmasculine" unicode="&#xba;" horiz-adv-x="382" 
d="M110.5 681c-23.667 -14 -42.167 -33.834 -55.5 -59.501s-20 -55.5 -20 -89.5c0 -53.333 14.167 -94.833 42.5 -124.5s65.833 -44.5 112.5 -44.5c29.333 0 56 6.83301 80 20.5s42.833 33.334 56.5 59.001s20.5 55.5 20.5 89.5c0 53.333 -14.333 95 -43 125
s-66.667 45 -114 45c-29.333 0 -55.833 -7 -79.5 -21zM257.5 621.499c18.333 -20.333 27.5 -50.168 27.5 -89.501c0 -40 -9.5 -70 -28.5 -90s-41.167 -30 -66.5 -30c-26 0 -48.333 10.333 -67 31s-28 50.334 -28 89.001c0 40 9.66699 70 29 90s41.333 30 66 30
c26.667 0 49.167 -10.167 67.5 -30.5z" />
    <glyph glyph-name="guillemotright" unicode="&#xbb;" horiz-adv-x="364" 
d="M20 365l113 -120l-113 -120l23 -41l140 139v44l-140 139zM172 365l114 -120l-114 -120l23 -41l139 139v44l-139 139z" />
    <glyph glyph-name="onequarter" unicode="&#xbc;" horiz-adv-x="724" 
d="M136 765l-126 -65l23 -37l84 42v-369h55v429h-36zM105 -134l491 834h-55l-496 -834h60zM704 -31h-77v352h-36l-254 -352l5 -44h233v-88h52v88h73zM395 -31l180 251v-251h-180z" />
    <glyph glyph-name="onehalf" unicode="&#xbd;" horiz-adv-x="741" 
d="M136 765l-126 -65l23 -37l84 42v-369h55v429h-36zM85 -134l491 834h-55l-496 -834h60zM485 314.5c-26 -7 -48.332 -16.167 -66.999 -27.5l22 -44c15.333 10.667 34 19.5 56 26.5s43 10.5 63 10.5c31.333 0 54.666 -7.83301 69.999 -23.5s23 -34.167 23 -55.5
c0 -22.667 -6.66699 -44 -20 -64s-34 -42.667 -62 -68l-156 -136v-43h307l-6 43h-237l119 102c38.667 34 66.667 63.5 84 88.5s26 50.833 26 77.5c0 32.667 -12 61.5 -36 86.5s-60.667 37.5 -110 37.5c-24.667 0 -50 -3.5 -76 -10.5z" />
    <glyph glyph-name="threequarters" unicode="&#xbe;" horiz-adv-x="759" 
d="M77.5 759.5c-23 -7.66699 -45.833 -18.5 -68.5 -32.5l22 -38c39.333 25.333 80.333 38 123 38c30 0 53.5 -7.16699 70.5 -21.5s25.5 -32.833 25.5 -55.5c0 -28.667 -11 -50.834 -33 -66.501s-53.667 -23.5 -95 -23.5h-26l7 -44h14c50.667 0 87.167 -8.5 109.5 -25.5
s33.5 -42.167 33.5 -75.5c0 -29.333 -10.833 -52 -32.5 -68s-48.5 -24 -80.5 -24c-26.667 0 -49 2.66699 -67 8s-36.667 13.666 -56 24.999l-24 -38c20 -11.333 42.333 -20.833 67 -28.5s50 -11.5 76 -11.5c34 0 64 6 90 18s46 28.5 60 49.5s21 44.5 21 70.5
c0 31.333 -8.5 57.833 -25.5 79.5s-39.833 35.834 -68.5 42.501c24 8 44.167 22.167 60.5 42.5s24.5 43.833 24.5 70.5c0 34.667 -13 63.334 -39 86.001s-63 34 -111 34c-28.667 0 -54.5 -3.83301 -77.5 -11.5zM174 -134l491 834h-55l-496 -834h60zM625 321l-253 -352l4 -44
h233v-88h52v88h74l4 44h-78v352h-36zM609 220v-251h-179z" />
    <glyph glyph-name="questiondown" unicode="&#xbf;" horiz-adv-x="404" 
d="M277 539.5c9.33301 9.66699 14 21.167 14 34.5c0 12.667 -4.66699 23.834 -14 33.501s-20.666 14.5 -33.999 14.5c-12.667 0 -23.834 -4.83301 -33.501 -14.5s-14.5 -20.834 -14.5 -33.501c0 -13.333 4.83301 -24.833 14.5 -34.5s20.834 -14.5 33.501 -14.5
c13.333 0 24.666 4.83301 33.999 14.5zM310 -65.5c25.333 9.66699 53.334 24.5 84.001 44.5l-8 56c-30 -21.333 -56.833 -36.833 -80.5 -46.5s-52.167 -14.5 -85.5 -14.5c-42.667 0 -74 8.5 -94 25.5s-30 45.167 -30 84.5c0 37.333 16.167 71.5 48.5 102.5
s75.166 54.833 128.499 71.5l-8 206l-46 19l-7 -193c-55.333 -24 -99.5 -55 -132.5 -93s-49.5 -76.333 -49.5 -115c0 -50 15.333 -89.5 46 -118.5s78 -43.5 142 -43.5c36 0 66.667 4.83301 92 14.5z" />
    <glyph glyph-name="Agrave" unicode="&#xc0;" horiz-adv-x="592" 
d="M69 0l75 204h297l80 -209l61 10l-260 675h-65l-247 -680h59zM290 600l133 -346h-262zM275 892h-71l85 -153l40 13z" />
    <glyph glyph-name="Aacute" unicode="&#xc1;" horiz-adv-x="592" 
d="M69 0l75 204h297l80 -209l61 10l-260 675h-65l-247 -680h59zM290 600l133 -346h-262zM299 892l-54 -140l40 -13l85 153h-71z" />
    <glyph glyph-name="Acircumflex" unicode="&#xc2;" horiz-adv-x="592" 
d="M69 0l75 204h297l80 -209l61 10l-260 675h-65l-247 -680h59zM290 600l133 -346h-262zM415 749l-102 143h-60l-100 -143l55 -10l75 109l74 -109z" />
    <glyph glyph-name="Atilde" unicode="&#xc3;" horiz-adv-x="592" 
d="M69 0l75 204h297l80 -209l61 10l-260 675h-65l-247 -680h59zM290 600l133 -346h-262zM364 816.5c-7.33301 -7 -15.668 -10.5 -25.001 -10.5c-17.333 0 -33.333 8 -48 24c-15.333 15.333 -37 23 -65 23c-55.333 0 -83 -30.333 -83 -91h45
c1.33301 14.667 5.83301 25.667 13.5 33s16.167 11 25.5 11c16.667 0 34 -8 52 -24c16.667 -16 36.667 -24 60 -24c56 0 84 30.333 84 91h-46c-1.33301 -14.667 -5.66602 -25.5 -12.999 -32.5z" />
    <glyph glyph-name="Adieresis" unicode="&#xc4;" horiz-adv-x="592" 
d="M69 0l75 204h297l80 -209l61 10l-260 675h-65l-247 -680h59zM290 600l133 -346h-262zM238.5 780.5c8.33301 8.33301 12.5 18.833 12.5 31.5c0 11.333 -4.16699 21.166 -12.5 29.499s-18.833 12.5 -31.5 12.5c-11.333 0 -21.333 -4.16699 -30 -12.5
s-13 -18.166 -13 -29.499c0 -12 4.33301 -22.333 13 -31s18.667 -13 30 -13c12.667 0 23.167 4.16699 31.5 12.5zM395 780.5c8 8.33301 12 18.832 12 31.499c0 12 -4 22 -12 30s-18.333 12 -31 12c-12 0 -22.167 -4.16699 -30.5 -12.5s-12.5 -18.166 -12.5 -29.499
c0 -12.667 4.16699 -23.167 12.5 -31.5s18.5 -12.5 30.5 -12.5c12.667 0 23 4.16699 31 12.5z" />
    <glyph glyph-name="Aring" unicode="&#xc5;" horiz-adv-x="592" 
d="M69 0l75 204h297l80 -209l61 10l-260 675h-65l-247 -680h59zM290 600l133 -346h-262zM228.5 885c-17.667 -16 -26.5 -36 -26.5 -60c0 -23.333 8.66699 -42.666 26 -57.999s38.333 -23 63 -23s45.5 7.66699 62.5 23s25.5 34.666 25.5 57.999c0 24 -8.66699 44 -26 60
s-38 24 -62 24s-44.833 -8 -62.5 -24zM260 795c-8.66699 8 -13 18 -13 30c0 12.667 4.33301 23.167 13 31.5s19 12.5 31 12.5s22.333 -4.16699 31 -12.5s13 -18.833 13 -31.5c0 -12 -4.33301 -22 -13 -30s-19 -12 -31 -12s-22.333 4 -31 12z" />
    <glyph glyph-name="AE" unicode="&#xc6;" horiz-adv-x="842" 
d="M818 50h-321v276h245l-6 45h-239v264h305l-6 45h-370l-416 -675l57 -10l126 209h241v-204h388zM224 254l210 341v-341h-210z" />
    <glyph glyph-name="Ccedilla" unicode="&#xc7;" horiz-adv-x="554" 
d="M461 -0.5c-29.333 -7 -57.6709 -11.167 -85.0039 -12.5l-16 -41c22 -2.66699 40.833 -11.834 56.5 -27.501s23.5 -32.5 23.5 -50.5c0 -28.667 -10.667 -50.667 -32 -66s-48 -23 -80 -23c-12 0 -25.167 1.83301 -39.5 5.5s-25.833 8.16699 -34.5 13.5l15 42
c22.667 -9.33301 42.334 -14 59.001 -14c14.667 0 28 3.66699 40 11s18 17 18 29c0 13.333 -8.66699 24.833 -26 34.5s-38.666 15.834 -63.999 18.501l27 69c-59.333 5.33301 -110 24.333 -152 57s-73.5 74.334 -94.5 125.001s-31.5 106 -31.5 166
c0 66.667 13 127.167 39 181.5s63 97.333 111 129s104 47.5 168 47.5c24.667 0 54.334 -3.33301 89.001 -10s60.334 -15.667 77.001 -27l-20 -46c-24.667 10 -46.834 17.333 -66.501 22s-45.834 7 -78.501 7c-47.333 0 -90.166 -13.167 -128.499 -39.5
s-68.666 -62.5 -90.999 -108.5s-33.5 -97.667 -33.5 -155c0 -54.667 9.66699 -104.5 29 -149.5s47.5 -80.667 84.5 -107s80.5 -39.5 130.5 -39.5c32.667 0 60.5 2.66699 83.5 8s45.167 12.666 66.5 21.999l24 -48c-16 -8.66699 -38.667 -16.5 -68 -23.5z" />
    <glyph glyph-name="Egrave" unicode="&#xc8;" horiz-adv-x="503" 
d="M157 50v276h245l-5 45h-240v264h303l-5 45h-360v-680h388l-6 50h-320zM263 892h-71l85 -153l40 13z" />
    <glyph glyph-name="Eacute" unicode="&#xc9;" horiz-adv-x="503" 
d="M157 50v276h245l-5 45h-240v264h303l-5 45h-360v-680h388l-6 50h-320zM287 892l-54 -140l40 -13l85 153h-71z" />
    <glyph glyph-name="Ecircumflex" unicode="&#xca;" horiz-adv-x="503" 
d="M157 50v276h245l-5 45h-240v264h303l-5 45h-360v-680h388l-6 50h-320zM403 749l-102 143h-60l-100 -143l55 -10l75 109l74 -109z" />
    <glyph glyph-name="Edieresis" unicode="&#xcb;" horiz-adv-x="503" 
d="M157 50v276h245l-5 45h-240v264h303l-5 45h-360v-680h388l-6 50h-320zM226.5 780.5c8.33301 8.33301 12.5 18.833 12.5 31.5c0 11.333 -4.16699 21.166 -12.5 29.499s-18.833 12.5 -31.5 12.5c-11.333 0 -21.333 -4.16699 -30 -12.5s-13 -18.166 -13 -29.499
c0 -12 4.33301 -22.333 13 -31s18.667 -13 30 -13c12.667 0 23.167 4.16699 31.5 12.5zM383 780.5c8 8.33301 12 18.832 12 31.499c0 12 -4 22 -12 30s-18.333 12 -31 12c-12 0 -22.167 -4.16699 -30.5 -12.5s-12.5 -18.166 -12.5 -29.499
c0 -12.667 4.16699 -23.167 12.5 -31.5s18.5 -12.5 30.5 -12.5c12.667 0 23 4.16699 31 12.5z" />
    <glyph glyph-name="Igrave" unicode="&#xcc;" horiz-adv-x="252" 
d="M95 680v-680h62v680h-62zM112 892h-71l85 -153l40 13z" />
    <glyph glyph-name="Iacute" unicode="&#xcd;" horiz-adv-x="252" 
d="M95 680v-680h62v680h-62zM136 892l-54 -140l40 -13l85 153h-71z" />
    <glyph glyph-name="Icircumflex" unicode="&#xce;" horiz-adv-x="252" 
d="M95 680v-680h62v680h-62zM252 749l-102 143h-60l-100 -143l55 -10l75 109l74 -109z" />
    <glyph glyph-name="Idieresis" unicode="&#xcf;" horiz-adv-x="252" 
d="M95 680v-680h62v680h-62zM75.5 780.5c8.33301 8.33301 12.5 18.833 12.5 31.5c0 11.333 -4.16699 21.166 -12.5 29.499s-18.833 12.5 -31.5 12.5c-11.333 0 -21.333 -4.16699 -30 -12.5s-13 -18.166 -13 -29.499c0 -12 4.33301 -22.333 13 -31s18.667 -13 30 -13
c12.667 0 23.167 4.16699 31.5 12.5zM232 780.5c8 8.33301 12 18.832 12 31.499c0 12 -4 22 -12 30s-18.333 12 -31 12c-12 0 -22.167 -4.16699 -30.5 -12.5s-12.5 -18.166 -12.5 -29.499c0 -12.667 4.16699 -23.167 12.5 -31.5s18.5 -12.5 30.5 -12.5
c12.667 0 23 4.16699 31 12.5z" />
    <glyph glyph-name="Eth" unicode="&#xd0;" horiz-adv-x="664" 
d="M547 587c48 -62 72 -143 72 -243c0 -64.667 -11.5 -123 -34.5 -175s-57.167 -93.167 -102.5 -123.5s-100 -45.5 -164 -45.5h-223v309h-66l-8 50h74v321h232c98.667 0 172 -31 220 -93zM445 88c36 24 64 58 84 102s30 95 30 153c0 84.667 -19.5 153.167 -58.5 205.5
s-95.833 78.5 -170.5 78.5h-173v-268h112l8 -50h-120v-257h163c47.333 0 89 12 125 36z" />
    <glyph glyph-name="Ntilde" unicode="&#xd1;" horiz-adv-x="685" 
d="M171 531l378 -531h41v680h-63v-551l-34 59l-357 492h-41v-680h62v560zM415 816.5c-7.33301 -7 -15.668 -10.5 -25.001 -10.5c-17.333 0 -33.333 8 -48 24c-15.333 15.333 -37 23 -65 23c-55.333 0 -83 -30.333 -83 -91h45c1.33301 14.667 5.83301 25.667 13.5 33
s16.167 11 25.5 11c16.667 0 34 -8 52 -24c16.667 -16 36.667 -24 60 -24c56 0 84 30.333 84 91h-46c-1.33301 -14.667 -5.66602 -25.5 -12.999 -32.5z" />
    <glyph glyph-name="Ograve" unicode="&#xd2;" horiz-adv-x="721" 
d="M199.5 647c-48.333 -31.333 -86.168 -73.999 -113.501 -127.999s-41 -114.667 -41 -182s13.333 -127.666 40 -180.999s63.834 -95 111.501 -125s101.167 -45 160.5 -45c60.667 0.666992 115.334 16.667 164.001 48s86.667 74.166 114 128.499s41 115.166 41 182.499
s-13.333 127.666 -40 180.999s-63.834 95 -111.501 125s-101.5 45 -161.5 45c-60.667 -1.33301 -115.167 -17.666 -163.5 -48.999zM143.498 493.001c21.667 46 51.667 82 90 108s81.833 39 130.5 39c46.667 0 88.5 -12.667 125.5 -38s66 -60.5 87 -105.5
s31.5 -95.833 31.5 -152.5c0 -58 -10.833 -110 -32.5 -156s-51.667 -82 -90 -108s-81.833 -39 -130.5 -39c-46.667 0 -88.5 12.833 -125.5 38.5s-66 61 -87 106s-31.5 95.833 -31.5 152.5c0 57.333 10.833 109 32.5 155zM347.998 892.001h-71l85 -153l40 13z" />
    <glyph glyph-name="Oacute" unicode="&#xd3;" horiz-adv-x="721" 
d="M199.5 647c-48.333 -31.333 -86.168 -73.999 -113.501 -127.999s-41 -114.667 -41 -182s13.333 -127.666 40 -180.999s63.834 -95 111.501 -125s101.167 -45 160.5 -45c60.667 0.666992 115.334 16.667 164.001 48s86.667 74.166 114 128.499s41 115.166 41 182.499
s-13.333 127.666 -40 180.999s-63.834 95 -111.501 125s-101.5 45 -161.5 45c-60.667 -1.33301 -115.167 -17.666 -163.5 -48.999zM143.498 493.001c21.667 46 51.667 82 90 108s81.833 39 130.5 39c46.667 0 88.5 -12.667 125.5 -38s66 -60.5 87 -105.5
s31.5 -95.833 31.5 -152.5c0 -58 -10.833 -110 -32.5 -156s-51.667 -82 -90 -108s-81.833 -39 -130.5 -39c-46.667 0 -88.5 12.833 -125.5 38.5s-66 61 -87 106s-31.5 95.833 -31.5 152.5c0 57.333 10.833 109 32.5 155zM371.998 892.001l-54 -140l40 -13l85 153h-71z" />
    <glyph glyph-name="Ocircumflex" unicode="&#xd4;" horiz-adv-x="721" 
d="M199.5 647c-48.333 -31.333 -86.168 -73.999 -113.501 -127.999s-41 -114.667 -41 -182s13.333 -127.666 40 -180.999s63.834 -95 111.501 -125s101.167 -45 160.5 -45c60.667 0.666992 115.334 16.667 164.001 48s86.667 74.166 114 128.499s41 115.166 41 182.499
s-13.333 127.666 -40 180.999s-63.834 95 -111.501 125s-101.5 45 -161.5 45c-60.667 -1.33301 -115.167 -17.666 -163.5 -48.999zM143.498 493.001c21.667 46 51.667 82 90 108s81.833 39 130.5 39c46.667 0 88.5 -12.667 125.5 -38s66 -60.5 87 -105.5
s31.5 -95.833 31.5 -152.5c0 -58 -10.833 -110 -32.5 -156s-51.667 -82 -90 -108s-81.833 -39 -130.5 -39c-46.667 0 -88.5 12.833 -125.5 38.5s-66 61 -87 106s-31.5 95.833 -31.5 152.5c0 57.333 10.833 109 32.5 155zM487.998 749.001l-102 143h-60l-100 -143l55 -10
l75 109l74 -109z" />
    <glyph glyph-name="Otilde" unicode="&#xd5;" horiz-adv-x="721" 
d="M199.5 647c-48.333 -31.333 -86.168 -73.999 -113.501 -127.999s-41 -114.667 -41 -182s13.333 -127.666 40 -180.999s63.834 -95 111.501 -125s101.167 -45 160.5 -45c60.667 0.666992 115.334 16.667 164.001 48s86.667 74.166 114 128.499s41 115.166 41 182.499
s-13.333 127.666 -40 180.999s-63.834 95 -111.501 125s-101.5 45 -161.5 45c-60.667 -1.33301 -115.167 -17.666 -163.5 -48.999zM143.498 493.001c21.667 46 51.667 82 90 108s81.833 39 130.5 39c46.667 0 88.5 -12.667 125.5 -38s66 -60.5 87 -105.5
s31.5 -95.833 31.5 -152.5c0 -58 -10.833 -110 -32.5 -156s-51.667 -82 -90 -108s-81.833 -39 -130.5 -39c-46.667 0 -88.5 12.833 -125.5 38.5s-66 61 -87 106s-31.5 95.833 -31.5 152.5c0 57.333 10.833 109 32.5 155zM436.998 816.501
c-7.33301 -7 -15.668 -10.5 -25.001 -10.5c-17.333 0 -33.333 8 -48 24c-15.333 15.333 -37 23 -65 23c-55.333 0 -83 -30.333 -83 -91h45c1.33301 14.667 5.83301 25.667 13.5 33s16.167 11 25.5 11c16.667 0 34 -8 52 -24c16.667 -16 36.667 -24 60 -24
c56 0 84 30.333 84 91h-46c-1.33301 -14.667 -5.66602 -25.5 -12.999 -32.5z" />
    <glyph glyph-name="Odieresis" unicode="&#xd6;" horiz-adv-x="721" 
d="M199.5 647c-48.333 -31.333 -86.168 -73.999 -113.501 -127.999s-41 -114.667 -41 -182s13.333 -127.666 40 -180.999s63.834 -95 111.501 -125s101.167 -45 160.5 -45c60.667 0.666992 115.334 16.667 164.001 48s86.667 74.166 114 128.499s41 115.166 41 182.499
s-13.333 127.666 -40 180.999s-63.834 95 -111.501 125s-101.5 45 -161.5 45c-60.667 -1.33301 -115.167 -17.666 -163.5 -48.999zM143.498 493.001c21.667 46 51.667 82 90 108s81.833 39 130.5 39c46.667 0 88.5 -12.667 125.5 -38s66 -60.5 87 -105.5
s31.5 -95.833 31.5 -152.5c0 -58 -10.833 -110 -32.5 -156s-51.667 -82 -90 -108s-81.833 -39 -130.5 -39c-46.667 0 -88.5 12.833 -125.5 38.5s-66 61 -87 106s-31.5 95.833 -31.5 152.5c0 57.333 10.833 109 32.5 155zM311.498 780.501
c8.33301 8.33301 12.5 18.833 12.5 31.5c0 11.333 -4.16699 21.166 -12.5 29.499s-18.833 12.5 -31.5 12.5c-11.333 0 -21.333 -4.16699 -30 -12.5s-13 -18.166 -13 -29.499c0 -12 4.33301 -22.333 13 -31s18.667 -13 30 -13c12.667 0 23.167 4.16699 31.5 12.5z
M467.998 780.501c8 8.33301 12 18.832 12 31.499c0 12 -4 22 -12 30s-18.333 12 -31 12c-12 0 -22.167 -4.16699 -30.5 -12.5s-12.5 -18.166 -12.5 -29.499c0 -12.667 4.16699 -23.167 12.5 -31.5s18.5 -12.5 30.5 -12.5c12.667 0 23 4.16699 31 12.5z" />
    <glyph glyph-name="multiply" unicode="&#xd7;" horiz-adv-x="488" 
d="M379 31l-135 172l-151 -172h-63l184 218l-168 215h63l135 -172l151 172h63l-184 -218l168 -215h-63z" />
    <glyph glyph-name="Oslash" unicode="&#xd8;" horiz-adv-x="721" 
d="M524.5 651c47.667 -30 84.8359 -71.668 111.503 -125.001s40 -113.666 40 -180.999s-13.667 -128.166 -41 -182.499s-65.333 -97.166 -114 -128.499s-103.334 -47.333 -164.001 -48c-59.333 0 -112.833 15 -160.5 45s-84.834 71.667 -111.501 125
s-40 113.666 -40 180.999s13.667 128 41 182s65.166 96.667 113.499 128s102.833 47.666 163.5 48.999c60 0 113.833 -15 161.5 -45zM140.002 190.999c19.333 -44 45.999 -79 79.999 -105l235 535c-29.333 12.667 -59.666 19 -90.999 19c-48.667 0 -92.167 -13 -130.5 -39
s-68.333 -62 -90 -108s-32.5 -97.667 -32.5 -155c0 -54 9.66699 -103 29 -147zM485.501 79.999c38.333 26 68.333 62 90 108s32.5 98 32.5 156c0 54 -9.5 102.5 -28.5 145.5s-45.167 77.5 -78.5 103.5l-233 -535c28 -11.333 57 -17 87 -17c48.667 0 92.167 13 130.5 39z" />
    <glyph glyph-name="Ugrave" unicode="&#xd9;" horiz-adv-x="673" 
d="M85 239c0 -48 10.335 -90.998 31.002 -128.998s50 -67.833 88 -89.5s82 -32.5 132 -32.5c50.667 0 95 10.833 133 32.5s67.333 51.5 88 89.5s31 81 31 129v441h-63v-432c0 -38.667 -7.5 -73.834 -22.5 -105.501s-36.833 -56.5 -65.5 -74.5s-62.334 -27 -101.001 -27
c-37.333 0 -70.333 9.16699 -99 27.5s-50.834 43.166 -66.501 74.499s-23.5 66.333 -23.5 105v432h-62v-441zM321.002 892.002h-71l85 -153l40 13z" />
    <glyph glyph-name="Uacute" unicode="&#xda;" horiz-adv-x="673" 
d="M85 239c0 -48 10.335 -90.998 31.002 -128.998s50 -67.833 88 -89.5s82 -32.5 132 -32.5c50.667 0 95 10.833 133 32.5s67.333 51.5 88 89.5s31 81 31 129v441h-63v-432c0 -38.667 -7.5 -73.834 -22.5 -105.501s-36.833 -56.5 -65.5 -74.5s-62.334 -27 -101.001 -27
c-37.333 0 -70.333 9.16699 -99 27.5s-50.834 43.166 -66.501 74.499s-23.5 66.333 -23.5 105v432h-62v-441zM345.002 892.002l-54 -140l40 -13l85 153h-71z" />
    <glyph glyph-name="Ucircumflex" unicode="&#xdb;" horiz-adv-x="673" 
d="M85 239c0 -48 10.335 -90.998 31.002 -128.998s50 -67.833 88 -89.5s82 -32.5 132 -32.5c50.667 0 95 10.833 133 32.5s67.333 51.5 88 89.5s31 81 31 129v441h-63v-432c0 -38.667 -7.5 -73.834 -22.5 -105.501s-36.833 -56.5 -65.5 -74.5s-62.334 -27 -101.001 -27
c-37.333 0 -70.333 9.16699 -99 27.5s-50.834 43.166 -66.501 74.499s-23.5 66.333 -23.5 105v432h-62v-441zM461.002 749.002l-102 143h-60l-100 -143l55 -10l75 109l74 -109z" />
    <glyph glyph-name="Udieresis" unicode="&#xdc;" horiz-adv-x="673" 
d="M85 239c0 -48 10.335 -90.998 31.002 -128.998s50 -67.833 88 -89.5s82 -32.5 132 -32.5c50.667 0 95 10.833 133 32.5s67.333 51.5 88 89.5s31 81 31 129v441h-63v-432c0 -38.667 -7.5 -73.834 -22.5 -105.501s-36.833 -56.5 -65.5 -74.5s-62.334 -27 -101.001 -27
c-37.333 0 -70.333 9.16699 -99 27.5s-50.834 43.166 -66.501 74.499s-23.5 66.333 -23.5 105v432h-62v-441zM284.502 780.502c8.33301 8.33301 12.5 18.833 12.5 31.5c0 11.333 -4.16699 21.166 -12.5 29.499s-18.833 12.5 -31.5 12.5
c-11.333 0 -21.333 -4.16699 -30 -12.5s-13 -18.166 -13 -29.499c0 -12 4.33301 -22.333 13 -31s18.667 -13 30 -13c12.667 0 23.167 4.16699 31.5 12.5zM441.002 780.502c8 8.33301 12 18.832 12 31.499c0 12 -4 22 -12 30s-18.333 12 -31 12
c-12 0 -22.167 -4.16699 -30.5 -12.5s-12.5 -18.166 -12.5 -29.499c0 -12.667 4.16699 -23.167 12.5 -31.5s18.5 -12.5 30.5 -12.5c12.667 0 23 4.16699 31 12.5z" />
    <glyph glyph-name="Yacute" unicode="&#xdd;" horiz-adv-x="546" 
d="M536 680h-67l-203 -344l-201 359l-55 -31l225 -388l-1 -276h63l1 283zM275 892l-54 -140l40 -13l85 153h-71z" />
    <glyph glyph-name="Thorn" unicode="&#xde;" horiz-adv-x="551" 
d="M450 550.5c44 -33 65.999 -84.833 65.999 -155.5c-0.666992 -70 -24.667 -122.667 -72 -158s-108.666 -53 -183.999 -53h-103v-184h-62v680h62v-80h114c75.333 0 135 -16.5 179 -49.5zM399.999 275c34.667 25.333 52.334 65.001 53.001 119.001
c0 55.333 -15.333 94.666 -46 117.999s-75.334 35 -134.001 35h-116v-310h105c57.333 0 103.333 12.667 138 38z" />
    <glyph glyph-name="germandbls" unicode="&#xdf;" horiz-adv-x="557" 
d="M137 473c0 46.667 12.834 84.002 38.501 112.002s62.5 42 110.5 42c38.667 0 70.667 -10.5 96 -31.5s38 -52.167 38 -93.5c0 -42.667 -12.833 -74 -38.5 -94s-67.834 -30 -126.501 -30h-27v-51h45c57.333 0 101.833 -11.333 133.5 -34s47.5 -58.334 47.5 -107.001
c0 -49.333 -17 -84 -51 -104s-80.667 -30 -140 -30h-51v-52h49c78 0 140.167 14.667 186.5 44s69.5 77.333 69.5 144c0 80 -40 136 -120 168c56.667 28.667 85 77.667 85 147c0 57.333 -18.5 101.166 -55.5 131.499s-83.167 45.5 -138.5 45.5c-64 0 -115.5 -18 -154.5 -54
s-58.5 -87 -58.5 -153v-473h62v473z" />
    <glyph glyph-name="agrave" unicode="&#xe0;" horiz-adv-x="483" 
d="M170.5 438c17.667 5.33301 42.165 8 73.498 8c38 0 66.833 -10.5 86.5 -31.5s29.5 -49.167 29.5 -84.5v-49h-135c-51.333 0.666992 -93 -12 -125 -38s-48 -61.667 -48 -107c0 -44 14 -79.833 42 -107.5s68.333 -41.5 121 -41.5c26.667 0 53.834 6.5 81.501 19.5
s49.834 28.167 66.501 45.5l8 -52h51v340c0 48 -16.333 86.333 -49 115s-76.667 43 -132 43c-22 0 -49 -4 -81 -12s-56.667 -18 -74 -30l19 -44c26 12 47.833 20.667 65.5 26zM141.998 210c19.333 20 46.333 30 81 30h137v-123c-18.667 -22.667 -40.5 -41.5 -65.5 -56.5
s-52.167 -22.5 -81.5 -22.5c-33.333 0 -58.333 9.83301 -75 29.5s-25 42.5 -25 68.5c0 29.333 9.66699 54 29 74zM237.998 742h-71l85 -153l40 13z" />
    <glyph glyph-name="aacute" unicode="&#xe1;" horiz-adv-x="483" 
d="M170.5 438c17.667 5.33301 42.165 8 73.498 8c38 0 66.833 -10.5 86.5 -31.5s29.5 -49.167 29.5 -84.5v-49h-135c-51.333 0.666992 -93 -12 -125 -38s-48 -61.667 -48 -107c0 -44 14 -79.833 42 -107.5s68.333 -41.5 121 -41.5c26.667 0 53.834 6.5 81.501 19.5
s49.834 28.167 66.501 45.5l8 -52h51v340c0 48 -16.333 86.333 -49 115s-76.667 43 -132 43c-22 0 -49 -4 -81 -12s-56.667 -18 -74 -30l19 -44c26 12 47.833 20.667 65.5 26zM141.998 210c19.333 20 46.333 30 81 30h137v-123c-18.667 -22.667 -40.5 -41.5 -65.5 -56.5
s-52.167 -22.5 -81.5 -22.5c-33.333 0 -58.333 9.83301 -75 29.5s-25 42.5 -25 68.5c0 29.333 9.66699 54 29 74zM255.998 742l-54 -140l40 -13l85 153h-71z" />
    <glyph glyph-name="acircumflex" unicode="&#xe2;" horiz-adv-x="483" 
d="M170.5 438c17.667 5.33301 42.165 8 73.498 8c38 0 66.833 -10.5 86.5 -31.5s29.5 -49.167 29.5 -84.5v-49h-135c-51.333 0.666992 -93 -12 -125 -38s-48 -61.667 -48 -107c0 -44 14 -79.833 42 -107.5s68.333 -41.5 121 -41.5c26.667 0 53.834 6.5 81.501 19.5
s49.834 28.167 66.501 45.5l8 -52h51v340c0 48 -16.333 86.333 -49 115s-76.667 43 -132 43c-22 0 -49 -4 -81 -12s-56.667 -18 -74 -30l19 -44c26 12 47.833 20.667 65.5 26zM141.998 210c19.333 20 46.333 30 81 30h137v-123c-18.667 -22.667 -40.5 -41.5 -65.5 -56.5
s-52.167 -22.5 -81.5 -22.5c-33.333 0 -58.333 9.83301 -75 29.5s-25 42.5 -25 68.5c0 29.333 9.66699 54 29 74zM377.998 599l-102 143h-60l-100 -143l55 -10l75 109l74 -109z" />
    <glyph glyph-name="atilde" unicode="&#xe3;" horiz-adv-x="483" 
d="M170.5 438c17.667 5.33301 42.165 8 73.498 8c38 0 66.833 -10.5 86.5 -31.5s29.5 -49.167 29.5 -84.5v-49h-135c-51.333 0.666992 -93 -12 -125 -38s-48 -61.667 -48 -107c0 -44 14 -79.833 42 -107.5s68.333 -41.5 121 -41.5c26.667 0 53.834 6.5 81.501 19.5
s49.834 28.167 66.501 45.5l8 -52h51v340c0 48 -16.333 86.333 -49 115s-76.667 43 -132 43c-22 0 -49 -4 -81 -12s-56.667 -18 -74 -30l19 -44c26 12 47.833 20.667 65.5 26zM141.998 210c19.333 20 46.333 30 81 30h137v-123c-18.667 -22.667 -40.5 -41.5 -65.5 -56.5
s-52.167 -22.5 -81.5 -22.5c-33.333 0 -58.333 9.83301 -75 29.5s-25 42.5 -25 68.5c0 29.333 9.66699 54 29 74zM315.998 666.5c-7.33301 -7 -15.668 -10.5 -25.001 -10.5c-17.333 0 -33.333 8 -48 24c-15.333 15.333 -37 23 -65 23c-55.333 0 -83 -30.333 -83 -91h45
c1.33301 14.667 5.83301 25.667 13.5 33s16.167 11 25.5 11c16.667 0 34 -8 52 -24c16.667 -16 36.667 -24 60 -24c56 0 84 30.333 84 91h-46c-1.33301 -14.667 -5.66602 -25.5 -12.999 -32.5z" />
    <glyph glyph-name="adieresis" unicode="&#xe4;" horiz-adv-x="483" 
d="M170.5 438c17.667 5.33301 42.165 8 73.498 8c38 0 66.833 -10.5 86.5 -31.5s29.5 -49.167 29.5 -84.5v-49h-135c-51.333 0.666992 -93 -12 -125 -38s-48 -61.667 -48 -107c0 -44 14 -79.833 42 -107.5s68.333 -41.5 121 -41.5c26.667 0 53.834 6.5 81.501 19.5
s49.834 28.167 66.501 45.5l8 -52h51v340c0 48 -16.333 86.333 -49 115s-76.667 43 -132 43c-22 0 -49 -4 -81 -12s-56.667 -18 -74 -30l19 -44c26 12 47.833 20.667 65.5 26zM141.998 210c19.333 20 46.333 30 81 30h137v-123c-18.667 -22.667 -40.5 -41.5 -65.5 -56.5
s-52.167 -22.5 -81.5 -22.5c-33.333 0 -58.333 9.83301 -75 29.5s-25 42.5 -25 68.5c0 29.333 9.66699 54 29 74zM198.498 630.5c8.33301 8.33301 12.5 18.833 12.5 31.5c0 11.333 -4.16699 21.166 -12.5 29.499s-18.833 12.5 -31.5 12.5
c-11.333 0 -21.333 -4.16699 -30 -12.5s-13 -18.166 -13 -29.499c0 -12 4.33301 -22.333 13 -31s18.667 -13 30 -13c12.667 0 23.167 4.16699 31.5 12.5zM354.998 630.5c8 8.33301 12 18.832 12 31.499c0 12 -4 22 -12 30s-18.333 12 -31 12
c-12 0 -22.167 -4.16699 -30.5 -12.5s-12.5 -18.166 -12.5 -29.499c0 -12.667 4.16699 -23.167 12.5 -31.5s18.5 -12.5 30.5 -12.5c12.667 0 23 4.16699 31 12.5z" />
    <glyph glyph-name="aring" unicode="&#xe5;" horiz-adv-x="483" 
d="M170.5 438c17.667 5.33301 42.165 8 73.498 8c38 0 66.833 -10.5 86.5 -31.5s29.5 -49.167 29.5 -84.5v-49h-135c-51.333 0.666992 -93 -12 -125 -38s-48 -61.667 -48 -107c0 -44 14 -79.833 42 -107.5s68.333 -41.5 121 -41.5c26.667 0 53.834 6.5 81.501 19.5
s49.834 28.167 66.501 45.5l8 -52h51v340c0 48 -16.333 86.333 -49 115s-76.667 43 -132 43c-22 0 -49 -4 -81 -12s-56.667 -18 -74 -30l19 -44c26 12 47.833 20.667 65.5 26zM141.998 210c19.333 20 46.333 30 81 30h137v-123c-18.667 -22.667 -40.5 -41.5 -65.5 -56.5
s-52.167 -22.5 -81.5 -22.5c-33.333 0 -58.333 9.83301 -75 29.5s-25 42.5 -25 68.5c0 29.333 9.66699 54 29 74zM187.498 735c-17.667 -16 -26.5 -36 -26.5 -60c0 -23.333 8.66699 -42.666 26 -57.999s38.333 -23 63 -23s45.5 7.66699 62.5 23s25.5 34.666 25.5 57.999
c0 24 -8.66699 44 -26 60s-38 24 -62 24s-44.833 -8 -62.5 -24zM218.998 645c-8.66699 8 -13 18 -13 30c0 12.667 4.33301 23.167 13 31.5s19 12.5 31 12.5s22.333 -4.16699 31 -12.5s13 -18.833 13 -31.5c0 -12 -4.33301 -22 -13 -30s-19 -12 -31 -12s-22.333 4 -31 12z
" />
    <glyph glyph-name="ae" unicode="&#xe6;" horiz-adv-x="817" 
d="M678 48.5c24 7 49.3359 17.5 76.0029 31.5l21 -46c-28.667 -15.333 -55.5 -26.833 -80.5 -34.5s-54.833 -11.5 -89.5 -11.5c-46.667 0 -87 8 -121 24s-61 39 -81 69c-24.667 -27.333 -51.334 -49.833 -80.001 -67.5s-64.667 -26.5 -108 -26.5
c-52.667 0 -93 13.833 -121 41.5s-42 63.5 -42 107.5c0 45.333 16 81 48 107s73.667 38.667 125 38h135v49c0 35.333 -9.83301 63.5 -29.5 84.5s-48.5 31.5 -86.5 31.5c-31.333 0 -55.833 -2.66699 -73.5 -8s-39.5 -14 -65.5 -26l-19 44c17.333 12 42 22 74 30s59 12 81 12
c39.333 0 73.166 -7.5 101.499 -22.5s49.166 -35.833 62.499 -62.5c19.333 27.333 43.666 48.5 72.999 63.5s63 22.5 101 22.5c68.667 0 119.667 -23.5 153 -70.5s50 -109.833 50 -188.5h-360c0.666992 -62 15.334 -111.167 44.001 -147.5s74 -54.5 136 -54.5
c26.667 0 52 3.5 76 10.5zM469.003 402.5c-25.333 -29.667 -40.332 -69.5 -44.999 -119.5h295c-10.667 109.333 -58.334 164 -143.001 164c-46 0 -81.667 -14.833 -107 -44.5zM291.504 51c21 8.66699 37.499 19.167 49.499 31.5s24.333 27.5 37 45.5
c-11.333 32 -17.666 69.333 -18.999 112h-136c-34.667 0 -61.667 -10 -81 -30s-29 -44.667 -29 -74c0 -26 8.33301 -48.833 25 -68.5s41.667 -29.5 75 -29.5c31.333 0 57.5 4.33301 78.5 13z" />
    <glyph glyph-name="ccedilla" unicode="&#xe7;" horiz-adv-x="451" 
d="M353 2c-25.333 -7.33301 -49.001 -12 -71.001 -14l-16 -42c22 -2.66699 40.833 -11.834 56.5 -27.501s23.5 -32.5 23.5 -50.5c0 -28.667 -10.667 -50.667 -32 -66s-48 -23 -80 -23c-12 0 -25.167 1.83301 -39.5 5.5s-25.833 8.16699 -34.5 13.5l15 42
c22.667 -9.33301 42.334 -14 59.001 -14c14.667 0 28 3.66699 40 11s18 17 18 29c0 13.333 -8.66699 24.833 -26 34.5s-38.666 15.834 -63.999 18.501l28 70c-61.333 7.33301 -109.166 34.166 -143.499 80.499s-51.5 104.833 -51.5 175.5c0 48 9.66699 91.333 29 130
s46.666 68.834 81.999 90.501s76.333 32.5 123 32.5c20.667 0 46.334 -4 77.001 -12s55.334 -18 74.001 -30l-20 -44c-24 12 -44.833 20.667 -62.5 26s-41.5 8 -71.5 8c-52 0 -92.833 -18.667 -122.5 -56s-44.834 -85.333 -45.501 -144c0 -62 14 -112 42 -150
s68.333 -57 121 -57c31.333 0 55.166 2.5 71.499 7.5s37.166 13.833 62.499 26.5l20 -45c-16 -10 -36.667 -18.667 -62 -26z" />
    <glyph glyph-name="egrave" unicode="&#xe8;" horiz-adv-x="493" 
d="M408 427.5c-33.333 47 -84.332 70.501 -152.999 70.501c-69.333 0 -123.166 -23.333 -161.499 -70s-57.833 -107.667 -58.5 -183c0 -78.667 20.667 -141.334 62 -188.001s102.666 -70 183.999 -70c34.667 0 64.5 3.83301 89.5 11.5s51.833 19.167 80.5 34.5l-21 46
c-26.667 -14 -52 -24.5 -76 -31.5s-49.333 -10.5 -76 -10.5c-62 0 -107.333 18.167 -136 54.5s-43.334 85.5 -44.001 147.5h360c0 78.667 -16.667 141.5 -50 188.5zM145.001 401.501c25.333 29.667 60.999 44.5 106.999 44.5c84.667 0 132.334 -54.667 143.001 -164h-295
c4.66699 50 19.667 89.833 45 119.5zM243 742.001h-71l85 -153l40 13z" />
    <glyph glyph-name="eacute" unicode="&#xe9;" horiz-adv-x="493" 
d="M408 427.5c-33.333 47 -84.332 70.501 -152.999 70.501c-69.333 0 -123.166 -23.333 -161.499 -70s-57.833 -107.667 -58.5 -183c0 -78.667 20.667 -141.334 62 -188.001s102.666 -70 183.999 -70c34.667 0 64.5 3.83301 89.5 11.5s51.833 19.167 80.5 34.5l-21 46
c-26.667 -14 -52 -24.5 -76 -31.5s-49.333 -10.5 -76 -10.5c-62 0 -107.333 18.167 -136 54.5s-43.334 85.5 -44.001 147.5h360c0 78.667 -16.667 141.5 -50 188.5zM145.001 401.501c25.333 29.667 60.999 44.5 106.999 44.5c84.667 0 132.334 -54.667 143.001 -164h-295
c4.66699 50 19.667 89.833 45 119.5zM261 742.001l-54 -140l40 -13l85 153h-71z" />
    <glyph glyph-name="ecircumflex" unicode="&#xea;" horiz-adv-x="493" 
d="M408 427.5c-33.333 47 -84.332 70.501 -152.999 70.501c-69.333 0 -123.166 -23.333 -161.499 -70s-57.833 -107.667 -58.5 -183c0 -78.667 20.667 -141.334 62 -188.001s102.666 -70 183.999 -70c34.667 0 64.5 3.83301 89.5 11.5s51.833 19.167 80.5 34.5l-21 46
c-26.667 -14 -52 -24.5 -76 -31.5s-49.333 -10.5 -76 -10.5c-62 0 -107.333 18.167 -136 54.5s-43.334 85.5 -44.001 147.5h360c0 78.667 -16.667 141.5 -50 188.5zM145.001 401.501c25.333 29.667 60.999 44.5 106.999 44.5c84.667 0 132.334 -54.667 143.001 -164h-295
c4.66699 50 19.667 89.833 45 119.5zM383 599.001l-102 143h-60l-100 -143l55 -10l75 109l74 -109z" />
    <glyph glyph-name="edieresis" unicode="&#xeb;" horiz-adv-x="493" 
d="M408 427.5c-33.333 47 -84.332 70.501 -152.999 70.501c-69.333 0 -123.166 -23.333 -161.499 -70s-57.833 -107.667 -58.5 -183c0 -78.667 20.667 -141.334 62 -188.001s102.666 -70 183.999 -70c34.667 0 64.5 3.83301 89.5 11.5s51.833 19.167 80.5 34.5l-21 46
c-26.667 -14 -52 -24.5 -76 -31.5s-49.333 -10.5 -76 -10.5c-62 0 -107.333 18.167 -136 54.5s-43.334 85.5 -44.001 147.5h360c0 78.667 -16.667 141.5 -50 188.5zM145.001 401.501c25.333 29.667 60.999 44.5 106.999 44.5c84.667 0 132.334 -54.667 143.001 -164h-295
c4.66699 50 19.667 89.833 45 119.5zM203.5 630.501c8.33301 8.33301 12.5 18.833 12.5 31.5c0 11.333 -4.16699 21.166 -12.5 29.499s-18.833 12.5 -31.5 12.5c-11.333 0 -21.333 -4.16699 -30 -12.5s-13 -18.166 -13 -29.499c0 -12 4.33301 -22.333 13 -31
s18.667 -13 30 -13c12.667 0 23.167 4.16699 31.5 12.5zM360 630.501c8 8.33301 12 18.832 12 31.499c0 12 -4 22 -12 30s-18.333 12 -31 12c-12 0 -22.167 -4.16699 -30.5 -12.5s-12.5 -18.166 -12.5 -29.499c0 -12.667 4.16699 -23.167 12.5 -31.5s18.5 -12.5 30.5 -12.5
c12.667 0 23 4.16699 31 12.5z" />
    <glyph glyph-name="igrave" unicode="&#xec;" horiz-adv-x="193" 
d="M65 485v-485h63v485h-63zM87 742h-71l85 -153l40 13z" />
    <glyph glyph-name="iacute" unicode="&#xed;" horiz-adv-x="193" 
d="M65 485v-485h63v485h-63zM105 742l-54 -140l40 -13l85 153h-71z" />
    <glyph glyph-name="icircumflex" unicode="&#xee;" horiz-adv-x="193" 
d="M65 485v-485h63v485h-63zM227 599l-102 143h-60l-100 -143l55 -10l75 109l74 -109z" />
    <glyph glyph-name="idieresis" unicode="&#xef;" horiz-adv-x="193" 
d="M65 485v-485h63v485h-63zM47.5 630.5c8.33301 8.33301 12.5 18.833 12.5 31.5c0 11.333 -4.16699 21.166 -12.5 29.499s-18.833 12.5 -31.5 12.5c-11.333 0 -21.333 -4.16699 -30 -12.5s-13 -18.166 -13 -29.499c0 -12 4.33301 -22.333 13 -31s18.667 -13 30 -13
c12.667 0 23.167 4.16699 31.5 12.5zM204 630.5c8 8.33301 12 18.832 12 31.499c0 12 -4 22 -12 30s-18.333 12 -31 12c-12 0 -22.167 -4.16699 -30.5 -12.5s-12.5 -18.166 -12.5 -29.499c0 -12.667 4.16699 -23.167 12.5 -31.5s18.5 -12.5 30.5 -12.5
c12.667 0 23 4.16699 31 12.5z" />
    <glyph glyph-name="eth" unicode="&#xf0;" horiz-adv-x="527" 
d="M445 478c31.333 -70 46.999 -149.334 46.999 -238.001c0 -48.667 -9.66699 -92.167 -29 -130.5s-47 -68.333 -83 -90s-78 -32.5 -126 -32.5c-45.333 0 -84.5 11 -117.5 33s-58.167 52.5 -75.5 91.5s-26 83.5 -26 133.5c0.666992 48 10.334 91.167 29.001 129.5
s45.5 68.5 80.5 90.5s75.833 33 122.5 33c46 0 87 -13 123 -39c-30.667 68.667 -80.667 126.667 -150 174l-124 -63l-26 40l104 51c-25.333 14.667 -58.333 30.334 -99 47.001l18 42c49.333 -17.333 94.333 -38 135 -62l110 54l25 -37l-90 -46
c70 -50.667 120.667 -111 152 -181zM383.499 94.999c29.667 37.333 44.834 85.332 45.501 143.999c0 52.667 -4.66699 100.334 -14 143.001c-18 20.667 -39.833 36.5 -65.5 47.5s-53.5 16.5 -83.5 16.5c-52 0 -92.833 -18.667 -122.5 -56s-44.834 -85.333 -45.501 -144
c0 -62 14 -112 42 -150s68.333 -57 121 -57c52 0 92.833 18.667 122.5 56z" />
    <glyph glyph-name="ntilde" unicode="&#xf1;" 
d="M210.5 416.5c33.667 19 63.168 28.5 88.501 28.5c62.667 0 94 -40 94 -120v-324h62v336c0 48.667 -12.333 87.667 -37 117s-62 44 -112 44c-30 0 -62.333 -8.5 -97 -25.5s-62.334 -37.5 -83.001 -61.5l-10 74h-51v-485h62v346c22 28 49.833 51.5 83.5 70.5z
M336.001 666.5c-7.33301 -7 -15.668 -10.5 -25.001 -10.5c-17.333 0 -33.333 8 -48 24c-15.333 15.333 -37 23 -65 23c-55.333 0 -83 -30.333 -83 -91h45c1.33301 14.667 5.83301 25.667 13.5 33s16.167 11 25.5 11c16.667 0 34 -8 52 -24c16.667 -16 36.667 -24 60 -24
c56 0 84 30.333 84 91h-46c-1.33301 -14.667 -5.66602 -25.5 -12.999 -32.5z" />
    <glyph glyph-name="ograve" unicode="&#xf2;" horiz-adv-x="527" 
d="M463 109.5c-19.333 -38.333 -47 -68.332 -83 -89.999s-78 -32.5 -126 -32.5c-45.333 0 -84.5 11 -117.5 33s-58.167 52.5 -75.5 91.5s-26 83.5 -26 133.5c0.666992 48 10.334 91.167 29.001 129.5s45.5 68.5 80.5 90.5s75.833 33 122.5 33
c71.333 0 126.666 -22.833 165.999 -68.5s59 -108.834 59 -189.501c0 -48.667 -9.66699 -92.167 -29 -130.5zM383.5 95.001c29.667 37.333 44.834 85.333 45.501 144c0 62 -14 112 -42 150s-68.333 57 -121 57c-52 0 -92.833 -18.667 -122.5 -56
s-44.834 -85.333 -45.501 -144c0 -62 14 -112 42 -150s68.333 -57 121 -57c52 0 92.833 18.667 122.5 56zM254 742.001h-71l85 -153l40 13z" />
    <glyph glyph-name="oacute" unicode="&#xf3;" horiz-adv-x="527" 
d="M463 109.5c-19.333 -38.333 -47 -68.332 -83 -89.999s-78 -32.5 -126 -32.5c-45.333 0 -84.5 11 -117.5 33s-58.167 52.5 -75.5 91.5s-26 83.5 -26 133.5c0.666992 48 10.334 91.167 29.001 129.5s45.5 68.5 80.5 90.5s75.833 33 122.5 33
c71.333 0 126.666 -22.833 165.999 -68.5s59 -108.834 59 -189.501c0 -48.667 -9.66699 -92.167 -29 -130.5zM383.5 95.001c29.667 37.333 44.834 85.333 45.501 144c0 62 -14 112 -42 150s-68.333 57 -121 57c-52 0 -92.833 -18.667 -122.5 -56
s-44.834 -85.333 -45.501 -144c0 -62 14 -112 42 -150s68.333 -57 121 -57c52 0 92.833 18.667 122.5 56zM272 742.001l-54 -140l40 -13l85 153h-71z" />
    <glyph glyph-name="ocircumflex" unicode="&#xf4;" horiz-adv-x="527" 
d="M463 109.5c-19.333 -38.333 -47 -68.332 -83 -89.999s-78 -32.5 -126 -32.5c-45.333 0 -84.5 11 -117.5 33s-58.167 52.5 -75.5 91.5s-26 83.5 -26 133.5c0.666992 48 10.334 91.167 29.001 129.5s45.5 68.5 80.5 90.5s75.833 33 122.5 33
c71.333 0 126.666 -22.833 165.999 -68.5s59 -108.834 59 -189.501c0 -48.667 -9.66699 -92.167 -29 -130.5zM383.5 95.001c29.667 37.333 44.834 85.333 45.501 144c0 62 -14 112 -42 150s-68.333 57 -121 57c-52 0 -92.833 -18.667 -122.5 -56
s-44.834 -85.333 -45.501 -144c0 -62 14 -112 42 -150s68.333 -57 121 -57c52 0 92.833 18.667 122.5 56zM394 599.001l-102 143h-60l-100 -143l55 -10l75 109l74 -109z" />
    <glyph glyph-name="otilde" unicode="&#xf5;" horiz-adv-x="527" 
d="M463 109.5c-19.333 -38.333 -47 -68.332 -83 -89.999s-78 -32.5 -126 -32.5c-45.333 0 -84.5 11 -117.5 33s-58.167 52.5 -75.5 91.5s-26 83.5 -26 133.5c0.666992 48 10.334 91.167 29.001 129.5s45.5 68.5 80.5 90.5s75.833 33 122.5 33
c71.333 0 126.666 -22.833 165.999 -68.5s59 -108.834 59 -189.501c0 -48.667 -9.66699 -92.167 -29 -130.5zM383.5 95.001c29.667 37.333 44.834 85.333 45.501 144c0 62 -14 112 -42 150s-68.333 57 -121 57c-52 0 -92.833 -18.667 -122.5 -56
s-44.834 -85.333 -45.501 -144c0 -62 14 -112 42 -150s68.333 -57 121 -57c52 0 92.833 18.667 122.5 56zM332 666.501c-7.33301 -7 -15.668 -10.5 -25.001 -10.5c-17.333 0 -33.333 8 -48 24c-15.333 15.333 -37 23 -65 23c-55.333 0 -83 -30.333 -83 -91h45
c1.33301 14.667 5.83301 25.667 13.5 33s16.167 11 25.5 11c16.667 0 34 -8 52 -24c16.667 -16 36.667 -24 60 -24c56 0 84 30.333 84 91h-46c-1.33301 -14.667 -5.66602 -25.5 -12.999 -32.5z" />
    <glyph glyph-name="odieresis" unicode="&#xf6;" horiz-adv-x="527" 
d="M463 109.5c-19.333 -38.333 -47 -68.332 -83 -89.999s-78 -32.5 -126 -32.5c-45.333 0 -84.5 11 -117.5 33s-58.167 52.5 -75.5 91.5s-26 83.5 -26 133.5c0.666992 48 10.334 91.167 29.001 129.5s45.5 68.5 80.5 90.5s75.833 33 122.5 33
c71.333 0 126.666 -22.833 165.999 -68.5s59 -108.834 59 -189.501c0 -48.667 -9.66699 -92.167 -29 -130.5zM383.5 95.001c29.667 37.333 44.834 85.333 45.501 144c0 62 -14 112 -42 150s-68.333 57 -121 57c-52 0 -92.833 -18.667 -122.5 -56
s-44.834 -85.333 -45.501 -144c0 -62 14 -112 42 -150s68.333 -57 121 -57c52 0 92.833 18.667 122.5 56zM214.5 630.501c8.33301 8.33301 12.5 18.833 12.5 31.5c0 11.333 -4.16699 21.166 -12.5 29.499s-18.833 12.5 -31.5 12.5c-11.333 0 -21.333 -4.16699 -30 -12.5
s-13 -18.166 -13 -29.499c0 -12 4.33301 -22.333 13 -31s18.667 -13 30 -13c12.667 0 23.167 4.16699 31.5 12.5zM371 630.501c8 8.33301 12 18.832 12 31.499c0 12 -4 22 -12 30s-18.333 12 -31 12c-12 0 -22.167 -4.16699 -30.5 -12.5s-12.5 -18.166 -12.5 -29.499
c0 -12.667 4.16699 -23.167 12.5 -31.5s18.5 -12.5 30.5 -12.5c12.667 0 23 4.16699 31 12.5z" />
    <glyph glyph-name="divide" unicode="&#xf7;" horiz-adv-x="497" 
d="M287 377c10.667 11.333 16.001 24.333 16.001 39c0 16 -5.33301 29.333 -16 40s-23.667 16 -39 16c-16.667 0 -30.334 -5.33301 -41.001 -16s-16 -24 -16 -40c0 -14.667 5.5 -27.667 16.5 -39s24.5 -17 40.5 -17c15.333 0 28.333 5.66699 39 17zM38.001 248h429l-7 50
h-430zM289.501 74c11 11.333 16.5 24.667 16.5 40s-5.5 28.5 -16.5 39.5s-24.167 16.5 -39.5 16.5c-16 0 -29.333 -5.5 -40 -16.5s-16 -24.167 -16 -39.5c0 -16 5.33301 -29.5 16 -40.5s24 -16.5 40 -16.5c15.333 0 28.5 5.66699 39.5 17z" />
    <glyph glyph-name="oslash" unicode="&#xf8;" horiz-adv-x="527" 
d="M433 429.5c39.333 -45.667 59 -108.833 59 -189.5c0 -48.667 -9.66699 -92.167 -29 -130.5s-47 -68.333 -83 -90s-78 -32.5 -126 -32.5c-45.333 0 -84.5 11 -117.5 33s-58.167 52.5 -75.5 91.5s-26 83.5 -26 133.5c0.666992 48 10.334 91.167 29.001 129.5
s45.5 68.5 80.5 90.5s75.833 33 122.5 33c71.333 0 126.666 -22.833 165.999 -68.5zM113 148.001c10 -28.667 24.668 -52.332 44.001 -70.999l182 353c-22.667 10.667 -47 16 -73 16c-52 0 -92.833 -18.667 -122.5 -56s-44.834 -85.333 -45.501 -144
c0 -36.667 5 -69.334 15 -98.001zM383.501 95.0029c29.667 37.333 44.833 85.333 45.5 144c0 32.667 -4 62.5 -12 89.5s-20 49.5 -36 67.5l-178 -347c16 -6.66699 35.333 -10 58 -10c52 0 92.833 18.667 122.5 56z" />
    <glyph glyph-name="ugrave" unicode="&#xf9;" 
d="M305.5 69.5c-33.667 -19 -63.168 -28.5 -88.501 -28.5c-62.667 0 -94 40 -94 120v324h-62v-336c0 -48.667 12.333 -87.667 37 -117s62 -44 112 -44c30 0 62.333 8.5 97 25.5s62.334 37.5 83.001 61.5l10 -75h51v486h-62v-346c-22 -28 -49.833 -51.5 -83.5 -70.5z
M239.999 742h-71l85 -153l40 13z" />
    <glyph glyph-name="uacute" unicode="&#xfa;" 
d="M305.5 69.5c-33.667 -19 -63.168 -28.5 -88.501 -28.5c-62.667 0 -94 40 -94 120v324h-62v-336c0 -48.667 12.333 -87.667 37 -117s62 -44 112 -44c30 0 62.333 8.5 97 25.5s62.334 37.5 83.001 61.5l10 -75h51v486h-62v-346c-22 -28 -49.833 -51.5 -83.5 -70.5z
M257.999 742l-54 -140l40 -13l85 153h-71z" />
    <glyph glyph-name="ucircumflex" unicode="&#xfb;" 
d="M305.5 69.5c-33.667 -19 -63.168 -28.5 -88.501 -28.5c-62.667 0 -94 40 -94 120v324h-62v-336c0 -48.667 12.333 -87.667 37 -117s62 -44 112 -44c30 0 62.333 8.5 97 25.5s62.334 37.5 83.001 61.5l10 -75h51v486h-62v-346c-22 -28 -49.833 -51.5 -83.5 -70.5z
M379.999 599l-102 143h-60l-100 -143l55 -10l75 109l74 -109z" />
    <glyph glyph-name="udieresis" unicode="&#xfc;" 
d="M305.5 69.5c-33.667 -19 -63.168 -28.5 -88.501 -28.5c-62.667 0 -94 40 -94 120v324h-62v-336c0 -48.667 12.333 -87.667 37 -117s62 -44 112 -44c30 0 62.333 8.5 97 25.5s62.334 37.5 83.001 61.5l10 -75h51v486h-62v-346c-22 -28 -49.833 -51.5 -83.5 -70.5z
M200.499 630.5c8.33301 8.33301 12.5 18.833 12.5 31.5c0 11.333 -4.16699 21.166 -12.5 29.499s-18.833 12.5 -31.5 12.5c-11.333 0 -21.333 -4.16699 -30 -12.5s-13 -18.166 -13 -29.499c0 -12 4.33301 -22.333 13 -31s18.667 -13 30 -13
c12.667 0 23.167 4.16699 31.5 12.5zM356.999 630.5c8 8.33301 12 18.832 12 31.499c0 12 -4 22 -12 30s-18.333 12 -31 12c-12 0 -22.167 -4.16699 -30.5 -12.5s-12.5 -18.166 -12.5 -29.499c0 -12.667 4.16699 -23.167 12.5 -31.5s18.5 -12.5 30.5 -12.5
c12.667 0 23 4.16699 31 12.5z" />
    <glyph glyph-name="yacute" unicode="&#xfd;" horiz-adv-x="438" 
d="M129 -143.5c-12.667 -9.66699 -34 -21.5 -64 -35.5l17 -40c32 6.66699 59.667 19.334 83 38.001s40 41.667 50 69l213 597h-60l-150 -402l-159 414l-49 -26l182 -478l-32 -91c-8 -20.667 -18.333 -35.834 -31 -45.501zM224 742l-54 -140l40 -13l85 153h-71z" />
    <glyph glyph-name="thorn" unicode="&#xfe;" 
d="M423 428c38.667 -46.667 58.0039 -108.666 58.0039 -185.999c-0.666992 -48.667 -9.83398 -92.334 -27.501 -131.001s-43.334 -69 -77.001 -91s-73.834 -33 -120.501 -33c-40 0 -81 16 -123 48v-243l-62 -11v915l62 10v-254c39.333 30.667 81.666 46 126.999 46
c70 0 124.333 -23.333 163 -70zM376.504 95.501c27 37.667 40.835 86.167 41.502 145.5c0 62.667 -13 112.5 -39 149.5s-65.333 55.5 -118 55.5c-26.667 0 -50.334 -5 -71.001 -15s-39.667 -24 -57 -42v-298c18 -16 36.667 -28.667 56 -38s42.666 -14 69.999 -14
c51.333 0 90.5 18.833 117.5 56.5z" />
    <glyph glyph-name="ydieresis" unicode="&#xff;" horiz-adv-x="438" 
d="M129 -143.5c-12.667 -9.66699 -34 -21.5 -64 -35.5l17 -40c32 6.66699 59.667 19.334 83 38.001s40 41.667 50 69l213 597h-60l-150 -402l-159 414l-49 -26l182 -478l-32 -91c-8 -20.667 -18.333 -35.834 -31 -45.501zM166.5 630.5
c8.33301 8.33301 12.5 18.833 12.5 31.5c0 11.333 -4.16699 21.166 -12.5 29.499s-18.833 12.5 -31.5 12.5c-11.333 0 -21.333 -4.16699 -30 -12.5s-13 -18.166 -13 -29.499c0 -12 4.33301 -22.333 13 -31s18.667 -13 30 -13c12.667 0 23.167 4.16699 31.5 12.5zM323 630.5
c8 8.33301 12 18.832 12 31.499c0 12 -4 22 -12 30s-18.333 12 -31 12c-12 0 -22.167 -4.16699 -30.5 -12.5s-12.5 -18.166 -12.5 -29.499c0 -12.667 4.16699 -23.167 12.5 -31.5s18.5 -12.5 30.5 -12.5c12.667 0 23 4.16699 31 12.5z" />
    <glyph glyph-name="Amacron" unicode="&#x100;" horiz-adv-x="592" 
d="M69 0l75 204h297l80 -209l61 10l-260 675h-65l-247 -680h59zM290 600l133 -346h-262zM404 839h-235v-49h241z" />
    <glyph glyph-name="amacron" unicode="&#x101;" horiz-adv-x="483" 
d="M170.5 438c17.667 5.33301 42.165 8 73.498 8c38 0 66.833 -10.5 86.5 -31.5s29.5 -49.167 29.5 -84.5v-49h-135c-51.333 0.666992 -93 -12 -125 -38s-48 -61.667 -48 -107c0 -44 14 -79.833 42 -107.5s68.333 -41.5 121 -41.5c26.667 0 53.834 6.5 81.501 19.5
s49.834 28.167 66.501 45.5l8 -52h51v340c0 48 -16.333 86.333 -49 115s-76.667 43 -132 43c-22 0 -49 -4 -81 -12s-56.667 -18 -74 -30l19 -44c26 12 47.833 20.667 65.5 26zM141.998 210c19.333 20 46.333 30 81 30h137v-123c-18.667 -22.667 -40.5 -41.5 -65.5 -56.5
s-52.167 -22.5 -81.5 -22.5c-33.333 0 -58.333 9.83301 -75 29.5s-25 42.5 -25 68.5c0 29.333 9.66699 54 29 74zM354.998 689h-235v-49h241z" />
    <glyph glyph-name="Abreve" unicode="&#x102;" horiz-adv-x="592" 
d="M69 0l75 204h297l80 -209l61 10l-260 675h-65l-247 -680h59zM290 600l133 -346h-262zM348 824.5c-15.333 -17 -35.333 -25.5 -60 -25.5c-26 0 -46.5 8.5 -61.5 25.5s-22.5 35.833 -22.5 56.5h-46c0 -36.667 10.833 -67.334 32.5 -92.001s54.167 -37.334 97.5 -38.001
c43.333 0.666992 75.833 13.334 97.5 38.001s32.5 55.334 32.5 92.001h-47c0 -20.667 -7.66699 -39.5 -23 -56.5z" />
    <glyph glyph-name="abreve" unicode="&#x103;" horiz-adv-x="483" 
d="M170.5 438c17.667 5.33301 42.165 8 73.498 8c38 0 66.833 -10.5 86.5 -31.5s29.5 -49.167 29.5 -84.5v-49h-135c-51.333 0.666992 -93 -12 -125 -38s-48 -61.667 -48 -107c0 -44 14 -79.833 42 -107.5s68.333 -41.5 121 -41.5c26.667 0 53.834 6.5 81.501 19.5
s49.834 28.167 66.501 45.5l8 -52h51v340c0 48 -16.333 86.333 -49 115s-76.667 43 -132 43c-22 0 -49 -4 -81 -12s-56.667 -18 -74 -30l19 -44c26 12 47.833 20.667 65.5 26zM141.998 210c19.333 20 46.333 30 81 30h137v-123c-18.667 -22.667 -40.5 -41.5 -65.5 -56.5
s-52.167 -22.5 -81.5 -22.5c-33.333 0 -58.333 9.83301 -75 29.5s-25 42.5 -25 68.5c0 29.333 9.66699 54 29 74zM302.998 674.5c-15.333 -17 -35.333 -25.5 -60 -25.5c-26 0 -46.5 8.5 -61.5 25.5s-22.5 35.833 -22.5 56.5h-46c0 -36.667 10.833 -67.334 32.5 -92.001
s54.167 -37.334 97.5 -38.001c43.333 0.666992 75.833 13.334 97.5 38.001s32.5 55.334 32.5 92.001h-47c0 -20.667 -7.66699 -39.5 -23 -56.5z" />
    <glyph glyph-name="Aogonek" unicode="&#x104;" horiz-adv-x="592" 
d="M612.5 -198.5c-14.333 -5.66699 -29.499 -8.5 -45.499 -8.5c-30 0 -54.833 9 -74.5 27s-29.5 41 -29.5 69c0 16.667 5.33301 34.834 16 54.501s24.667 37.167 42 52.5l-80 208h-297l-75 -204h-59l247 680h65l260 -675l-21 -4l18 -1
c-17.333 -12 -31.833 -28.167 -43.5 -48.5s-17.5 -39.833 -17.5 -58.5s5 -32.167 15 -40.5s22.333 -12.5 37 -12.5c19.333 0 37.666 7 54.999 21l22 -38c-8.66699 -8.66699 -20.167 -15.834 -34.5 -21.501zM290.001 600l-129 -346h262z" />
    <glyph glyph-name="aogonek" unicode="&#x105;" horiz-adv-x="483" 
d="M461.5 -198.5c-14.333 -5.66699 -29.4971 -8.49902 -45.4971 -8.49902c-30 0 -54.833 9 -74.5 27s-29.5 41 -29.5 69c0 16.667 5.83301 35.5 17.5 56.5s26.5 39.167 44.5 54.5h-3l-8 52c-16.667 -17.333 -38.834 -32.5 -66.501 -45.5s-54.834 -19.5 -81.501 -19.5
c-52.667 0 -93 13.833 -121 41.5s-42 63.5 -42 107.5c0 45.333 16 81 48 107s73.667 38.667 125 38h135v49c0 35.333 -9.83301 63.5 -29.5 84.5s-48.5 31.5 -86.5 31.5c-31.333 0 -55.833 -2.66699 -73.5 -8s-39.5 -14 -65.5 -26l-19 44c17.333 12 42 22 74 30s59 12 81 12
c55.333 0 99.333 -14.333 132 -43s49 -67 49 -115v-340h6c-17.333 -12 -31.833 -28.167 -43.5 -48.5s-17.5 -39.833 -17.5 -58.5s5 -32.167 15 -40.5s22.333 -12.5 37 -12.5c19.333 0 37.666 7 54.999 21l22 -38c-8.66699 -8.66699 -20.167 -15.834 -34.5 -21.501z
M223.003 240.001c-34.667 0 -61.667 -10 -81 -30s-29 -44.667 -29 -74c0 -26 8.33301 -48.833 25 -68.5s41.667 -29.5 75 -29.5c29.333 0 56.5 7.5 81.5 22.5s46.833 33.833 65.5 56.5v123h-137z" />
    <glyph glyph-name="Cacute" unicode="&#x106;" horiz-adv-x="554" 
d="M452 684c-34.667 6.66699 -64.334 9.99805 -89.001 9.99805c-64 0 -120 -15.833 -168 -47.5s-85 -74.667 -111 -129s-39 -114.833 -39 -181.5c0 -63.333 11.833 -121.666 35.5 -174.999s59 -95.833 106 -127.5s103.833 -47.5 170.5 -47.5
c28.667 0 59.834 3.66699 93.501 11s59.834 16 78.501 26l-24 48c-21.333 -9.33301 -43.5 -16.666 -66.5 -21.999s-50.833 -8 -83.5 -8c-50 0 -93.5 13.167 -130.5 39.5s-65.167 62 -84.5 107s-29 94.833 -29 149.5c0 57.333 11.167 109 33.5 155
s52.666 82.167 90.999 108.5s81.166 39.5 128.499 39.5c32.667 0 58.834 -2.33301 78.501 -7s41.834 -12 66.501 -22l20 46c-16.667 11.333 -42.334 20.333 -77.001 27zM372 891.998l-54 -140l40 -13l85 153h-71z" />
    <glyph glyph-name="cacute" unicode="&#x107;" horiz-adv-x="451" 
d="M332.5 46.5c-16.333 -5 -40.1689 -7.49902 -71.502 -7.49902c-52.667 0 -93 19 -121 57s-42 88 -42 150c0.666992 58.667 15.834 106.667 45.501 144s70.5 56 122.5 56c30 0 53.833 -2.66699 71.5 -8s38.5 -14 62.5 -26l20 44c-18.667 12 -43.334 22 -74.001 30
s-56.334 12 -77.001 12c-46.667 0 -87.667 -10.833 -123 -32.5s-62.666 -51.834 -81.999 -90.501s-29 -82 -29 -130c0 -50.667 9 -95.5 27 -134.5s44.167 -69.333 78.5 -91s74.833 -32.5 121.5 -32.5c22 0 48.333 3.83301 79 11.5s55.334 17.5 74.001 29.5l-20 45
c-25.333 -12.667 -46.166 -21.5 -62.499 -26.5zM272.997 742.001l-54 -140l40 -13l85 153h-71z" />
    <glyph glyph-name="Ccaron" unicode="&#x10c;" horiz-adv-x="554" 
d="M452 684c-34.667 6.66699 -64.334 9.99805 -89.001 9.99805c-64 0 -120 -15.833 -168 -47.5s-85 -74.667 -111 -129s-39 -114.833 -39 -181.5c0 -63.333 11.833 -121.666 35.5 -174.999s59 -95.833 106 -127.5s103.833 -47.5 170.5 -47.5
c28.667 0 59.834 3.66699 93.501 11s59.834 16 78.501 26l-24 48c-21.333 -9.33301 -43.5 -16.666 -66.5 -21.999s-50.833 -8 -83.5 -8c-50 0 -93.5 13.167 -130.5 39.5s-65.167 62 -84.5 107s-29 94.833 -29 149.5c0 57.333 11.167 109 33.5 155
s52.666 82.167 90.999 108.5s81.166 39.5 128.499 39.5c32.667 0 58.834 -2.33301 78.501 -7s41.834 -12 66.501 -22l20 46c-16.667 11.333 -42.334 20.333 -77.001 27zM231 881.998l102 -143h60l100 143l-55 10l-75 -109l-74 109z" />
    <glyph glyph-name="ccaron" unicode="&#x10d;" horiz-adv-x="451" 
d="M332.5 46.5c-16.333 -5 -40.1689 -7.49902 -71.502 -7.49902c-52.667 0 -93 19 -121 57s-42 88 -42 150c0.666992 58.667 15.834 106.667 45.501 144s70.5 56 122.5 56c30 0 53.833 -2.66699 71.5 -8s38.5 -14 62.5 -26l20 44c-18.667 12 -43.334 22 -74.001 30
s-56.334 12 -77.001 12c-46.667 0 -87.667 -10.833 -123 -32.5s-62.666 -51.834 -81.999 -90.501s-29 -82 -29 -130c0 -50.667 9 -95.5 27 -134.5s44.167 -69.333 78.5 -91s74.833 -32.5 121.5 -32.5c22 0 48.333 3.83301 79 11.5s55.334 17.5 74.001 29.5l-20 45
c-25.333 -12.667 -46.166 -21.5 -62.499 -26.5zM135.997 732.001l102 -143h60l100 143l-55 10l-75 -109l-74 109z" />
    <glyph glyph-name="Dcaron" unicode="&#x10e;" horiz-adv-x="664" 
d="M482 45.5c45.333 30.333 79.5 71.5 102.5 123.5s34.5 110.333 34.5 175c0 100 -24 181 -72 243s-121.333 93 -220 93h-232v-680h223c64 0 118.667 15.167 164 45.5zM500.5 548.5c39 -52.333 58.5 -120.833 58.5 -205.5c0 -58 -10 -109 -30 -153s-48 -78 -84 -102
s-77.667 -36 -125 -36h-163v575h173c74.667 0 131.5 -26.167 170.5 -78.5zM186 882l102 -143h60l100 143l-55 10l-75 -109l-74 109z" />
    <glyph glyph-name="dcaron" unicode="&#x10f;" horiz-adv-x="647" 
d="M441 705l-0.00292969 -705.001h-41l-11 38c-19.333 -16 -40.333 -28.5 -63 -37.5s-46 -13.5 -70 -13.5c-70 0 -124.333 23.333 -163 70s-58 108.667 -58 186c0.666992 48.667 9.83398 92.334 27.501 131.001s43.334 69 77.001 91s73.834 33 120.501 33
c38.667 0 78 -14.667 118 -44v242zM602.997 686.499c9.33301 -10.333 14.002 -23.498 14.002 -39.498c0 -29.333 -9 -58.333 -27 -87s-39.667 -49.334 -65 -62.001l-18 29c17.333 11.333 30.666 23.166 39.999 35.499s14.666 26.833 15.999 43.5
c-12 1.33301 -22 6.66602 -30 15.999s-12 20 -12 32c0 12.667 4.66699 23.834 14 33.501s21 14.5 35 14.5c12.667 0 23.667 -5.16699 33 -15.5zM377.999 91.001v307.001c-16.667 15.333 -34.5 27.166 -53.5 35.499s-41.5 12.5 -67.5 12.5
c-51.333 0 -90.5 -18.833 -117.5 -56.5s-40.833 -86.167 -41.5 -145.5c0 -62.667 13 -112.5 39 -149.5s65.333 -55.5 118 -55.5c47.333 0 88.333 17.333 123 52z" />
    <glyph glyph-name="Dcroat" unicode="&#x110;" horiz-adv-x="664" 
d="M547 587c48 -62 72 -143 72 -243c0 -64.667 -11.5 -123 -34.5 -175s-57.167 -93.167 -102.5 -123.5s-100 -45.5 -164 -45.5h-223v309h-66l-8 50h74v321h232c98.667 0 172 -31 220 -93zM445 88c36 24 64 58 84 102s30 95 30 153c0 84.667 -19.5 153.167 -58.5 205.5
s-95.833 78.5 -170.5 78.5h-173v-268h112l8 -50h-120v-257h163c47.333 0 89 12 125 36z" />
    <glyph glyph-name="dcroat" unicode="&#x111;" 
d="M441 566l-0.00292969 -566.001h-41l-11 38c-19.333 -16 -40.333 -28.5 -63 -37.5s-46 -13.5 -70 -13.5c-70 0 -124.333 23.333 -163 70s-58 108.667 -58 186c0.666992 48.667 9.83398 92.334 27.501 131.001s43.334 69 77.001 91s73.834 33 120.501 33
c38.667 0 78 -14.667 118 -44v112h-104l-7 45h111v85l63 9v-94h74l7 -45h-81zM377.997 90.999v307.001c-16.667 15.333 -34.5 27.166 -53.5 35.499s-41.5 12.5 -67.5 12.5c-51.333 0 -90.5 -18.833 -117.5 -56.5s-40.833 -86.167 -41.5 -145.5
c0 -62.667 13 -112.5 39 -149.5s65.333 -55.5 118 -55.5c47.333 0 88.333 17.333 123 52z" />
    <glyph glyph-name="Emacron" unicode="&#x112;" horiz-adv-x="503" 
d="M157 50v276h245l-5 45h-240v264h303l-5 45h-360v-680h388l-6 50h-320zM392 839h-235v-49h241z" />
    <glyph glyph-name="emacron" unicode="&#x113;" horiz-adv-x="493" 
d="M408 427.5c-33.333 47 -84.332 70.501 -152.999 70.501c-69.333 0 -123.166 -23.333 -161.499 -70s-57.833 -107.667 -58.5 -183c0 -78.667 20.667 -141.334 62 -188.001s102.666 -70 183.999 -70c34.667 0 64.5 3.83301 89.5 11.5s51.833 19.167 80.5 34.5l-21 46
c-26.667 -14 -52 -24.5 -76 -31.5s-49.333 -10.5 -76 -10.5c-62 0 -107.333 18.167 -136 54.5s-43.334 85.5 -44.001 147.5h360c0 78.667 -16.667 141.5 -50 188.5zM145.001 401.501c25.333 29.667 60.999 44.5 106.999 44.5c84.667 0 132.334 -54.667 143.001 -164h-295
c4.66699 50 19.667 89.833 45 119.5zM360 689.001h-235v-49h241z" />
    <glyph glyph-name="Edotaccent" unicode="&#x116;" horiz-adv-x="503" 
d="M157 50v276h245l-5 45h-240v264h303l-5 45h-360v-680h388l-6 50h-320zM310 782c9.33301 9.33301 14 20.666 14 33.999c0 12.667 -4.66699 23.834 -14 33.501s-20.333 14.5 -33 14.5c-13.333 0 -24.666 -4.83301 -33.999 -14.5s-14 -20.834 -14 -33.501
c0 -13.333 4.66699 -24.666 14 -33.999s20.666 -14 33.999 -14c12.667 0 23.667 4.66699 33 14z" />
    <glyph glyph-name="edotaccent" unicode="&#x117;" horiz-adv-x="493" 
d="M408 427.5c-33.333 47 -84.332 70.501 -152.999 70.501c-69.333 0 -123.166 -23.333 -161.499 -70s-57.833 -107.667 -58.5 -183c0 -78.667 20.667 -141.334 62 -188.001s102.666 -70 183.999 -70c34.667 0 64.5 3.83301 89.5 11.5s51.833 19.167 80.5 34.5l-21 46
c-26.667 -14 -52 -24.5 -76 -31.5s-49.333 -10.5 -76 -10.5c-62 0 -107.333 18.167 -136 54.5s-43.334 85.5 -44.001 147.5h360c0 78.667 -16.667 141.5 -50 188.5zM145.001 401.501c25.333 29.667 60.999 44.5 106.999 44.5c84.667 0 132.334 -54.667 143.001 -164h-295
c4.66699 50 19.667 89.833 45 119.5zM287 632.001c9.33301 9.33301 14 20.666 14 33.999c0 12.667 -4.66699 23.834 -14 33.501s-20.333 14.5 -33 14.5c-13.333 0 -24.666 -4.83301 -33.999 -14.5s-14 -20.834 -14 -33.501c0 -13.333 4.66699 -24.666 14 -33.999
s20.666 -14 33.999 -14c12.667 0 23.667 4.66699 33 14z" />
    <glyph glyph-name="Eogonek" unicode="&#x118;" horiz-adv-x="503" 
d="M453.5 -198.5c-14.333 -5.66699 -29.499 -8.49902 -45.499 -8.49902c-30 0 -54.833 9 -74.5 27s-29.5 41 -29.5 69c0 16.667 5.83301 35.5 17.5 56.5s26.5 39.167 44.5 54.5h-271v680h360l5 -45h-303v-264h240l5 -45h-245v-276h320l6 -50h-63
c-17.333 -12 -31.833 -28.167 -43.5 -48.5s-17.5 -39.833 -17.5 -58.5s5 -32.167 15 -40.5s22.333 -12.5 37 -12.5c19.333 0 37.666 7 54.999 21l22 -38c-8.66699 -8.66699 -20.167 -15.834 -34.5 -21.501z" />
    <glyph glyph-name="eogonek" unicode="&#x119;" horiz-adv-x="493" 
d="M318.5 -51.5c-10.333 -19 -15.5 -37.5 -15.5 -55.5c0 -18.667 5 -32.167 15 -40.5s22.333 -12.5 37 -12.5c19.333 0 37.666 7 54.999 21l22 -38c-8.66699 -8.66699 -20.167 -15.834 -34.5 -21.501s-29.5 -8.5 -45.5 -8.5c-30 0 -54.833 9 -74.5 27s-29.5 41 -29.5 69
c0 15.333 4.5 31.833 13.5 49.5s20.833 33.834 35.5 48.501h-16c-81.333 0 -142.666 23.333 -183.999 70s-62 109.334 -62 188.001c0.666992 75.333 20.167 136.333 58.5 183s92.166 70 161.499 70c68.667 0 119.667 -23.5 153 -70.5s50 -109.833 50 -188.5h-360
c0.666992 -62 15.334 -111.167 44.001 -147.5s74 -54.5 136 -54.5c26.667 0 52 3.5 76 10.5s49.333 17.5 76 31.5l21 -46c-36 -18.667 -67 -31.334 -93 -38.001c-16 -12 -29.167 -27.5 -39.5 -46.5zM145 401.5c-25.333 -29.667 -40.332 -69.5 -44.999 -119.5h295
c-10.667 109.333 -58.334 164 -143.001 164c-46 0 -81.667 -14.833 -107 -44.5z" />
    <glyph glyph-name="Ecaron" unicode="&#x11a;" horiz-adv-x="503" 
d="M157 50v276h245l-5 45h-240v264h303l-5 45h-360v-680h388l-6 50h-320zM146 882l102 -143h60l100 143l-55 10l-75 -109l-74 109z" />
    <glyph glyph-name="ecaron" unicode="&#x11b;" horiz-adv-x="493" 
d="M408 427.5c-33.333 47 -84.332 70.501 -152.999 70.501c-69.333 0 -123.166 -23.333 -161.499 -70s-57.833 -107.667 -58.5 -183c0 -78.667 20.667 -141.334 62 -188.001s102.666 -70 183.999 -70c34.667 0 64.5 3.83301 89.5 11.5s51.833 19.167 80.5 34.5l-21 46
c-26.667 -14 -52 -24.5 -76 -31.5s-49.333 -10.5 -76 -10.5c-62 0 -107.333 18.167 -136 54.5s-43.334 85.5 -44.001 147.5h360c0 78.667 -16.667 141.5 -50 188.5zM145.001 401.501c25.333 29.667 60.999 44.5 106.999 44.5c84.667 0 132.334 -54.667 143.001 -164h-295
c4.66699 50 19.667 89.833 45 119.5zM124 732.001l102 -143h60l100 143l-55 10l-75 -109l-74 109z" />
    <glyph glyph-name="Gbreve" unicode="&#x11e;" horiz-adv-x="626" 
d="M509 64c-42 -15.333 -82.665 -23.001 -121.998 -23.001c-52 0 -98.833 12 -140.5 36s-74.667 58.5 -99 103.5s-36.5 97.167 -36.5 156.5c0 62 13.5 115.833 40.5 161.5s62.333 80.5 106 104.5s89.834 36.333 138.501 37c32 0 58 -2.33301 78 -7s42.333 -12 67 -22l19 46
c-16.667 11.333 -42.334 20.333 -77.001 27s-64.334 10 -89.001 10c-64.667 0 -123.667 -15 -177 -45s-95.333 -72.167 -126 -126.5s-46 -116.5 -46 -186.5c0 -66 14.333 -125.667 43 -179s69 -95.166 121 -125.499s111.667 -45.5 179 -45.5
c31.333 0 64.666 4.33301 99.999 13s63 19.667 83 33v310h-209l-6 -45h153v-233zM431.002 824.499c-15.333 -17 -35.333 -25.5 -60 -25.5c-26 0 -46.5 8.5 -61.5 25.5s-22.5 35.833 -22.5 56.5h-46c0 -36.667 10.833 -67.334 32.5 -92.001s54.167 -37.334 97.5 -38.001
c43.333 0.666992 75.833 13.334 97.5 38.001s32.5 55.334 32.5 92.001h-47c0 -20.667 -7.66699 -39.5 -23 -56.5z" />
    <glyph glyph-name="gbreve" unicode="&#x11f;" horiz-adv-x="512" 
d="M441 -62c0 -32 -8.33789 -60.668 -25.0049 -86.001s-40.667 -45.333 -72 -60s-67.666 -22 -108.999 -22c-22 0 -50.167 4 -84.5 12s-61.166 17.667 -80.499 29l19 46c21.333 -10 43 -18.167 65 -24.5s48.333 -9.83301 79 -10.5c42.667 0 77.5 10 104.5 30
s40.5 49 40.5 87v90c-38 -28 -78.667 -42 -122 -42c-70 0 -124.333 23.333 -163 70s-58 108.667 -58 186c0.666992 48.667 9.83398 92.334 27.501 131.001s43.334 69 77.001 91s73.834 33 120.501 33c40.667 0 82.667 -16.667 126 -50l14 37h41v-547zM377.995 90.999
v307.001c-16.667 15.333 -34.5 27.166 -53.5 35.499s-41.5 12.5 -67.5 12.5c-51.333 0 -90.5 -18.833 -117.5 -56.5s-40.833 -86.167 -41.5 -145.5c0 -62.667 13 -112.5 39 -149.5s65.333 -55.5 118 -55.5c47.333 0 88.333 17.333 123 52zM310.995 674.5
c-15.333 -17 -35.333 -25.5 -60 -25.5c-26 0 -46.5 8.5 -61.5 25.5s-22.5 35.833 -22.5 56.5h-46c0 -36.667 10.833 -67.334 32.5 -92.001s54.167 -37.334 97.5 -38.001c43.333 0.666992 75.833 13.334 97.5 38.001s32.5 55.334 32.5 92.001h-47
c0 -20.667 -7.66699 -39.5 -23 -56.5z" />
    <glyph glyph-name="Gcommaaccent" unicode="&#x122;" horiz-adv-x="626" 
d="M509 64c-42 -15.333 -82.665 -23.001 -121.998 -23.001c-52 0 -98.833 12 -140.5 36s-74.667 58.5 -99 103.5s-36.5 97.167 -36.5 156.5c0 62 13.5 115.833 40.5 161.5s62.333 80.5 106 104.5s89.834 36.333 138.501 37c32 0 58 -2.33301 78 -7s42.333 -12 67 -22l19 46
c-16.667 11.333 -42.334 20.333 -77.001 27s-64.334 10 -89.001 10c-64.667 0 -123.667 -15 -177 -45s-95.333 -72.167 -126 -126.5s-46 -116.5 -46 -186.5c0 -66 14.333 -125.667 43 -179s69 -95.166 121 -125.499s111.667 -45.5 179 -45.5
c31.333 0 64.666 4.33301 99.999 13s63 19.667 83 33v310h-209l-6 -45h153v-233zM355.502 -35.001c-9.66699 -9.33301 -14.498 -20.6699 -14.498 -34.0029c0 -11.333 4 -21.666 12 -30.999s18.333 -14.666 31 -15.999c-0.666992 -16 -5.83398 -30.167 -15.501 -42.5
s-23.5 -24.5 -41.5 -36.5l18 -30c26 12.667 47.833 33.334 65.5 62.001s26.5 58 26.5 88c0 16 -4.5 29 -13.5 39s-20.5 15 -34.5 15c-12.667 0 -23.834 -4.66699 -33.501 -14z" />
    <glyph glyph-name="gcommaaccent" unicode="&#x123;" horiz-adv-x="512" 
d="M226 581c-8.66699 10 -13 23.6631 -13 40.9961c0 29.333 9 58.333 27 87s39.333 49.334 64 62.001l19 -30c-17.333 -11.333 -31 -23.166 -41 -35.499s-15.667 -26.833 -17 -43.5c12.667 -1.33301 23 -6.66602 31 -15.999s12 -19.666 12 -30.999
c0 -14 -4.5 -25.667 -13.5 -35s-20.5 -14 -34.5 -14s-25.333 5 -34 15zM441 -62.0039c0 -32 -8.33789 -60.668 -25.0049 -86.001s-40.667 -45.333 -72 -60s-67.666 -22 -108.999 -22c-22 0 -50.167 4 -84.5 12s-61.166 17.667 -80.499 29l19 46
c21.333 -10 43 -18.167 65 -24.5s48.333 -9.83301 79 -10.5c42.667 0 77.5 10 104.5 30s40.5 49 40.5 87v90c-38 -28 -78.667 -42 -122 -42c-70 0 -124.333 23.333 -163 70s-58 108.667 -58 186c0.666992 48.667 9.83398 92.334 27.501 131.001s43.334 69 77.001 91
s73.834 33 120.501 33c40.667 0 82.667 -16.667 126 -50l14 37h41v-547zM377.995 90.9951v307.001c-16.667 15.333 -34.5 27.166 -53.5 35.499s-41.5 12.5 -67.5 12.5c-51.333 0 -90.5 -18.833 -117.5 -56.5s-40.833 -86.167 -41.5 -145.5c0 -62.667 13 -112.5 39 -149.5
s65.333 -55.5 118 -55.5c47.333 0 88.333 17.333 123 52z" />
    <glyph glyph-name="Imacron" unicode="&#x12a;" horiz-adv-x="252" 
d="M95 680v-680h62v680h-62zM241 839h-235v-49h241z" />
    <glyph glyph-name="imacron" unicode="&#x12b;" horiz-adv-x="193" 
d="M65 485v-485h63v485h-63zM204 689h-235v-49h241z" />
    <glyph glyph-name="Iogonek" unicode="&#x12e;" horiz-adv-x="252" 
d="M188.5 -198.5c-14.333 -5.66699 -29.499 -8.49902 -45.499 -8.49902c-30 0 -54.833 9 -74.5 27s-29.5 41 -29.5 69c0 16.667 5.83301 35.5 17.5 56.5s26.5 39.167 44.5 54.5h-6v680h62v-680h-2c-17.333 -12 -31.833 -28.167 -43.5 -48.5s-17.5 -39.833 -17.5 -58.5
s5 -32.167 15 -40.5s22.333 -12.5 37 -12.5c19.333 0 37.666 7 54.999 21l22 -38c-8.66699 -8.66699 -20.167 -15.834 -34.5 -21.501z" />
    <glyph glyph-name="iogonek" unicode="&#x12f;" horiz-adv-x="193" 
d="M64 632c-9.33301 9.33301 -14 20.666 -14 33.999c0 12.667 4.66699 23.834 14 33.501s20.666 14.5 33.999 14.5c12.667 0 23.667 -4.83301 33 -14.5s14 -20.834 14 -33.501c0 -13.333 -4.66699 -24.666 -14 -33.999s-20.333 -14 -33 -14
c-13.333 0 -24.666 4.66699 -33.999 14zM159.5 -198.5c-14.333 -5.66699 -29.499 -8.49902 -45.499 -8.49902c-30 0 -54.833 9 -74.5 27s-29.5 41 -29.5 69c0 16.667 5.83301 35.5 17.5 56.5s26.5 39.167 44.5 54.5h-7v485h63v-485h-2
c-17.333 -12 -31.833 -28.167 -43.5 -48.5s-17.5 -39.833 -17.5 -58.5s5 -32.167 15 -40.5s22.333 -12.5 37 -12.5c19.333 0 37.666 7 54.999 21l22 -38c-8.66699 -8.66699 -20.167 -15.834 -34.5 -21.501z" />
    <glyph glyph-name="Idotaccent" unicode="&#x130;" horiz-adv-x="252" 
d="M95 680v-680h62v680h-62zM159 782c9.33301 9.33301 14 20.666 14 33.999c0 12.667 -4.66699 23.834 -14 33.501s-20.333 14.5 -33 14.5c-13.333 0 -24.666 -4.83301 -33.999 -14.5s-14 -20.834 -14 -33.501c0 -13.333 4.66699 -24.666 14 -33.999s20.666 -14 33.999 -14
c12.667 0 23.667 4.66699 33 14z" />
    <glyph glyph-name="dotlessi" unicode="&#x131;" horiz-adv-x="193" 
d="M65 485v-485h63v485h-63z" />
    <glyph glyph-name="Kcommaaccent" unicode="&#x136;" horiz-adv-x="593" 
d="M157 257v-257h-62v680h62v-345l346 360l40 -38l-264 -274l304 -383h-74l-271 341zM304.5 -35c-9.66699 -9.33301 -14.498 -20.6699 -14.498 -34.0029c0 -11.333 4 -21.666 12 -30.999s18.333 -14.666 31 -15.999c-0.666992 -16 -5.83398 -30.167 -15.501 -42.5
s-23.5 -24.5 -41.5 -36.5l18 -30c26 12.667 47.833 33.334 65.5 62.001s26.5 58 26.5 88c0 16 -4.5 29 -13.5 39s-20.5 15 -34.5 15c-12.667 0 -23.834 -4.66699 -33.501 -14z" />
    <glyph glyph-name="kcommaaccent" unicode="&#x137;" horiz-adv-x="457" 
d="M209 264l173 -264h75l-208 305l152 156l-39 37l-225 -232v440l-62 -10v-696h62v190zM221.5 -35c-9.66699 -9.33301 -14.498 -20.6699 -14.498 -34.0029c0 -11.333 4 -21.666 12 -30.999s18.333 -14.666 31 -15.999c-0.666992 -16 -5.83398 -30.167 -15.501 -42.5
s-23.5 -24.5 -41.5 -36.5l18 -30c26 12.667 47.833 33.334 65.5 62.001s26.5 58 26.5 88c0 16 -4.5 29 -13.5 39s-20.5 15 -34.5 15c-12.667 0 -23.834 -4.66699 -33.501 -14z" />
    <glyph glyph-name="Lacute" unicode="&#x139;" horiz-adv-x="497" 
d="M157 680h-62v-680h392l-5 50h-325v630zM196 892l-54 -140l40 -13l85 153h-71z" />
    <glyph glyph-name="lacute" unicode="&#x13a;" horiz-adv-x="212" 
d="M137 892l-54 -140l40 -13l85 153h-71zM75 673v-673h62v685z" />
    <glyph glyph-name="Lcommaaccent" unicode="&#x13b;" horiz-adv-x="497" 
d="M157 680h-62v-680h392l-5 50h-325v630zM313.5 -35c-9.66699 -9.33301 -14.498 -20.6699 -14.498 -34.0029c0 -11.333 4 -21.666 12 -30.999s18.333 -14.666 31 -15.999c-0.666992 -16 -5.83398 -30.167 -15.501 -42.5s-23.5 -24.5 -41.5 -36.5l18 -30
c26 12.667 47.833 33.334 65.5 62.001s26.5 58 26.5 88c0 16 -4.5 29 -13.5 39s-20.5 15 -34.5 15c-12.667 0 -23.834 -4.66699 -33.501 -14z" />
    <glyph glyph-name="lcommaaccent" unicode="&#x13c;" horiz-adv-x="212" 
d="M75 696v-696h62v706zM72.5 -35c-9.66699 -9.33301 -14.498 -20.6699 -14.498 -34.0029c0 -11.333 4 -21.666 12 -30.999s18.333 -14.666 31 -15.999c-0.666992 -16 -5.83398 -30.167 -15.501 -42.5s-23.5 -24.5 -41.5 -36.5l18 -30c26 12.667 47.833 33.334 65.5 62.001
s26.5 58 26.5 88c0 16 -4.5 29 -13.5 39s-20.5 15 -34.5 15c-12.667 0 -23.834 -4.66699 -33.501 -14z" />
    <glyph glyph-name="Lcaron" unicode="&#x13d;" horiz-adv-x="497" 
d="M157 680h-62v-680h392l-5 50h-325v630zM341 687.5c-9.33301 -9.66699 -14.002 -20.8359 -14.002 -33.5029c0 -12 4 -22.667 12 -32s18 -14.666 30 -15.999c-1.33301 -16.667 -6.66602 -31.167 -15.999 -43.5s-22.666 -24.166 -39.999 -35.499l18 -29
c25.333 12.667 47 33.334 65 62.001s27 57.667 27 87c0 16 -4.66699 29.167 -14 39.5s-20.333 15.5 -33 15.5c-14 0 -25.667 -4.83301 -35 -14.5z" />
    <glyph glyph-name="lcaron" unicode="&#x13e;" horiz-adv-x="343" 
d="M75 696v-696h62v706zM231 687.5c-9.33301 -9.66699 -14.002 -20.8359 -14.002 -33.5029c0 -12 4 -22.667 12 -32s18 -14.666 30 -15.999c-1.33301 -16.667 -6.66602 -31.167 -15.999 -43.5s-22.666 -24.166 -39.999 -35.499l18 -29c25.333 12.667 47 33.334 65 62.001
s27 57.667 27 87c0 16 -4.66699 29.167 -14 39.5s-20.333 15.5 -33 15.5c-14 0 -25.667 -4.83301 -35 -14.5z" />
    <glyph glyph-name="Lslash" unicode="&#x141;" horiz-adv-x="487" 
d="M45 216l-30 39l70 61v364h62v-310l117 102l30 -37l-147 -129v-256h325l5 -50h-392v251z" />
    <glyph glyph-name="lslash" unicode="&#x142;" horiz-adv-x="277" 
d="M170 706l-62 -10v-326l-108 -94l30 -39l78 69v-306h62v360l107 95l-29 39l-78 -70v282z" />
    <glyph glyph-name="Nacute" unicode="&#x143;" horiz-adv-x="685" 
d="M171 531l378 -531h41v680h-63v-551l-34 59l-357 492h-41v-680h62v560zM350 892l-54 -140l40 -13l85 153h-71z" />
    <glyph glyph-name="nacute" unicode="&#x144;" 
d="M210.5 416.5c33.667 19 63.168 28.5 88.501 28.5c62.667 0 94 -40 94 -120v-324h62v336c0 48.667 -12.333 87.667 -37 117s-62 44 -112 44c-30 0 -62.333 -8.5 -97 -25.5s-62.334 -37.5 -83.001 -61.5l-10 74h-51v-485h62v346c22 28 49.833 51.5 83.5 70.5zM276.001 742
l-54 -140l40 -13l85 153h-71z" />
    <glyph glyph-name="Ncommaaccent" unicode="&#x145;" horiz-adv-x="685" 
d="M171 531l378 -531h41v680h-63v-551l-34 59l-357 492h-41v-680h62v560zM320.5 -35c-9.66699 -9.33301 -14.498 -20.6699 -14.498 -34.0029c0 -11.333 4 -21.666 12 -30.999s18.333 -14.666 31 -15.999c-0.666992 -16 -5.83398 -30.167 -15.501 -42.5
s-23.5 -24.5 -41.5 -36.5l18 -30c26 12.667 47.833 33.334 65.5 62.001s26.5 58 26.5 88c0 16 -4.5 29 -13.5 39s-20.5 15 -34.5 15c-12.667 0 -23.834 -4.66699 -33.501 -14z" />
    <glyph glyph-name="ncommaaccent" unicode="&#x146;" 
d="M210.5 416.5c33.667 19 63.168 28.5 88.501 28.5c62.667 0 94 -40 94 -120v-324h62v336c0 48.667 -12.333 87.667 -37 117s-62 44 -112 44c-30 0 -62.333 -8.5 -97 -25.5s-62.334 -37.5 -83.001 -61.5l-10 74h-51v-485h62v346c22 28 49.833 51.5 83.5 70.5zM232.501 -35
c-9.66699 -9.33301 -14.498 -20.6699 -14.498 -34.0029c0 -11.333 4 -21.666 12 -30.999s18.333 -14.666 31 -15.999c-0.666992 -16 -5.83398 -30.167 -15.501 -42.5s-23.5 -24.5 -41.5 -36.5l18 -30c26 12.667 47.833 33.334 65.5 62.001s26.5 58 26.5 88
c0 16 -4.5 29 -13.5 39s-20.5 15 -34.5 15c-12.667 0 -23.834 -4.66699 -33.501 -14z" />
    <glyph glyph-name="Ncaron" unicode="&#x147;" horiz-adv-x="685" 
d="M171 531l378 -531h41v680h-63v-551l-34 59l-357 492h-41v-680h62v560zM209 882l102 -143h60l100 143l-55 10l-75 -109l-74 109z" />
    <glyph glyph-name="ncaron" unicode="&#x148;" 
d="M210.5 416.5c33.667 19 63.168 28.5 88.501 28.5c62.667 0 94 -40 94 -120v-324h62v336c0 48.667 -12.333 87.667 -37 117s-62 44 -112 44c-30 0 -62.333 -8.5 -97 -25.5s-62.334 -37.5 -83.001 -61.5l-10 74h-51v-485h62v346c22 28 49.833 51.5 83.5 70.5zM139.001 732
l102 -143h60l100 143l-55 10l-75 -109l-74 109z" />
    <glyph glyph-name="Omacron" unicode="&#x14c;" horiz-adv-x="721" 
d="M199.5 647c-48.333 -31.333 -86.168 -73.999 -113.501 -127.999s-41 -114.667 -41 -182s13.333 -127.666 40 -180.999s63.834 -95 111.501 -125s101.167 -45 160.5 -45c60.667 0.666992 115.334 16.667 164.001 48s86.667 74.166 114 128.499s41 115.166 41 182.499
s-13.333 127.666 -40 180.999s-63.834 95 -111.501 125s-101.5 45 -161.5 45c-60.667 -1.33301 -115.167 -17.666 -163.5 -48.999zM143.498 493.001c21.667 46 51.667 82 90 108s81.833 39 130.5 39c46.667 0 88.5 -12.667 125.5 -38s66 -60.5 87 -105.5
s31.5 -95.833 31.5 -152.5c0 -58 -10.833 -110 -32.5 -156s-51.667 -82 -90 -108s-81.833 -39 -130.5 -39c-46.667 0 -88.5 12.833 -125.5 38.5s-66 61 -87 106s-31.5 95.833 -31.5 152.5c0 57.333 10.833 109 32.5 155zM476.998 839.001h-235v-49h241z" />
    <glyph glyph-name="omacron" unicode="&#x14d;" horiz-adv-x="527" 
d="M463 109.5c-19.333 -38.333 -47 -68.332 -83 -89.999s-78 -32.5 -126 -32.5c-45.333 0 -84.5 11 -117.5 33s-58.167 52.5 -75.5 91.5s-26 83.5 -26 133.5c0.666992 48 10.334 91.167 29.001 129.5s45.5 68.5 80.5 90.5s75.833 33 122.5 33
c71.333 0 126.666 -22.833 165.999 -68.5s59 -108.834 59 -189.501c0 -48.667 -9.66699 -92.167 -29 -130.5zM383.5 95.001c29.667 37.333 44.834 85.333 45.501 144c0 62 -14 112 -42 150s-68.333 57 -121 57c-52 0 -92.833 -18.667 -122.5 -56
s-44.834 -85.333 -45.501 -144c0 -62 14 -112 42 -150s68.333 -57 121 -57c52 0 92.833 18.667 122.5 56zM371 689.001h-235v-49h241z" />
    <glyph glyph-name="Ohungarumlaut" unicode="&#x150;" horiz-adv-x="721" 
d="M199.5 647c-48.333 -31.333 -86.168 -73.999 -113.501 -127.999s-41 -114.667 -41 -182s13.333 -127.666 40 -180.999s63.834 -95 111.501 -125s101.167 -45 160.5 -45c60.667 0.666992 115.334 16.667 164.001 48s86.667 74.166 114 128.499s41 115.166 41 182.499
s-13.333 127.666 -40 180.999s-63.834 95 -111.501 125s-101.5 45 -161.5 45c-60.667 -1.33301 -115.167 -17.666 -163.5 -48.999zM143.498 493.001c21.667 46 51.667 82 90 108s81.833 39 130.5 39c46.667 0 88.5 -12.667 125.5 -38s66 -60.5 87 -105.5
s31.5 -95.833 31.5 -152.5c0 -58 -10.833 -110 -32.5 -156s-51.667 -82 -90 -108s-81.833 -39 -130.5 -39c-46.667 0 -88.5 12.833 -125.5 38.5s-66 61 -87 106s-31.5 95.833 -31.5 152.5c0 57.333 10.833 109 32.5 155zM311.998 892.001l-54 -140l40 -13l85 153h-71z
M451.998 892.001l-54 -140l40 -13l85 153h-71z" />
    <glyph glyph-name="ohungarumlaut" unicode="&#x151;" horiz-adv-x="527" 
d="M463 109.5c-19.333 -38.333 -47 -68.332 -83 -89.999s-78 -32.5 -126 -32.5c-45.333 0 -84.5 11 -117.5 33s-58.167 52.5 -75.5 91.5s-26 83.5 -26 133.5c0.666992 48 10.334 91.167 29.001 129.5s45.5 68.5 80.5 90.5s75.833 33 122.5 33
c71.333 0 126.666 -22.833 165.999 -68.5s59 -108.834 59 -189.501c0 -48.667 -9.66699 -92.167 -29 -130.5zM383.5 95.001c29.667 37.333 44.834 85.333 45.501 144c0 62 -14 112 -42 150s-68.333 57 -121 57c-52 0 -92.833 -18.667 -122.5 -56
s-44.834 -85.333 -45.501 -144c0 -62 14 -112 42 -150s68.333 -57 121 -57c52 0 92.833 18.667 122.5 56zM213 742.001l-54 -140l40 -13l85 153h-71zM353 742.001l-54 -140l40 -13l85 153h-71z" />
    <glyph glyph-name="OE" unicode="&#x152;" horiz-adv-x="911" 
d="M503 12c-20.667 -7.33301 -44.5 -13.5 -71.5 -18.5s-51.833 -7.5 -74.5 -7.5c-66.667 0 -123.5 15.833 -170.5 47.5s-82.333 74.167 -106 127.5s-35.5 111.666 -35.5 174.999c0 66.667 13 127.167 39 181.5s63 97.333 111 129s104 47.5 168 47.5
c18.667 0 41.667 -2.16699 69 -6.5s51 -10.166 71 -17.499v10h360l5 -45h-303v-264h240l5 -45h-245v-276h320l6 -50h-388v12zM438 48.5c22.667 5 44.3301 12.168 64.9971 21.501v543c-22 9.33301 -42.833 16.166 -62.5 20.499s-45.167 6.5 -76.5 6.5
c-47.333 0 -90.166 -13.167 -128.499 -39.5s-68.666 -62.5 -90.999 -108.5s-33.5 -97.667 -33.5 -155c0 -54.667 9.66699 -104.5 29 -149.5s47.5 -80.667 84.5 -107s80.5 -39.5 130.5 -39.5c32.667 0 60.334 2.5 83.001 7.5z" />
    <glyph glyph-name="oe" unicode="&#x153;" horiz-adv-x="776" 
d="M637 47.5c24 7 49.335 17.499 76.002 31.499l21 -46c-28.667 -15.333 -55.5 -26.833 -80.5 -34.5s-54.833 -11.5 -89.5 -11.5c-59.333 0 -109.333 13.333 -150 40c-19.333 -11.333 -44 -20.833 -74 -28.5s-56 -11.5 -78 -11.5c-46.667 0 -87.167 10.833 -121.5 32.5
s-60.5 52 -78.5 91s-27 83.833 -27 134.5c0 48 9.66699 91.333 29 130s46.666 68.834 81.999 90.501s76.333 32.5 123 32.5c19.333 0 43.166 -3.5 71.499 -10.5s52.166 -15.833 71.499 -26.5c34 24.667 76 37 126 37c68.667 0 119.667 -23.5 153 -70.5
s50 -109.833 50 -188.5h-360c0.666992 -62 15.334 -111.167 44.001 -147.5s74 -54.5 136 -54.5c26.667 0 52 3.5 76 10.5zM325.002 44.999c16.667 4 33.334 9.99902 50.001 17.999c-38 44 -57 104.667 -57 182c0 36 4.66699 69.333 14 100s23.333 57.334 42 80.001
c-33.333 14 -69.333 21 -108 21c-52 0 -92.833 -18.667 -122.5 -56s-44.834 -85.333 -45.501 -144c0 -62 14 -112 42 -150s68.333 -57 121 -57c26 0 47.333 2 64 6zM428.002 401.498c-25.333 -29.667 -40.332 -69.5 -44.999 -119.5h295
c-10.667 109.333 -58.334 164 -143.001 164c-46 0 -81.667 -14.833 -107 -44.5z" />
    <glyph glyph-name="Racute" unicode="&#x154;" horiz-adv-x="580" 
d="M157 0l-0.000976562 286h103c24.667 0 51 1.66699 79 5l161 -291h70l-176 308c80.667 32 121.334 91.333 122.001 178c0 68 -21.833 117.333 -65.5 148s-103.5 46 -179.5 46h-176v-680h62zM406.499 596c31 -20.667 46.5 -57.999 46.5 -111.999
c-0.666992 -52.667 -18.5 -90.334 -53.5 -113.001s-80.833 -34 -137.5 -34h-105v290h116c58 0 102.5 -10.333 133.5 -31zM279.999 892.001l-54 -140l40 -13l85 153h-71z" />
    <glyph glyph-name="racute" unicode="&#x155;" horiz-adv-x="310" 
d="M207.5 408c33 18.667 63.833 27.999 92.5 27.999l-17 49c-22.667 0 -49.167 -8.16699 -79.5 -24.5s-56.833 -33.833 -79.5 -52.5l-18 77h-41v-485h62v346c20.667 22.667 47.5 43.334 80.5 62.001zM162 741.999l-54 -140l40 -13l85 153h-71z" />
    <glyph glyph-name="Rcommaaccent" unicode="&#x156;" horiz-adv-x="580" 
d="M157 0l-0.000976562 286h103c24.667 0 51 1.66699 79 5l161 -291h70l-176 308c80.667 32 121.334 91.333 122.001 178c0 68 -21.833 117.333 -65.5 148s-103.5 46 -179.5 46h-176v-680h62zM406.499 596c31 -20.667 46.5 -57.999 46.5 -111.999
c-0.666992 -52.667 -18.5 -90.334 -53.5 -113.001s-80.833 -34 -137.5 -34h-105v290h116c58 0 102.5 -10.333 133.5 -31zM294.499 -34.999c-9.66699 -9.33301 -14.498 -20.6699 -14.498 -34.0029c0 -11.333 4 -21.666 12 -30.999s18.333 -14.666 31 -15.999
c-0.666992 -16 -5.83398 -30.167 -15.501 -42.5s-23.5 -24.5 -41.5 -36.5l18 -30c26 12.667 47.833 33.334 65.5 62.001s26.5 58 26.5 88c0 16 -4.5 29 -13.5 39s-20.5 15 -34.5 15c-12.667 0 -23.834 -4.66699 -33.501 -14z" />
    <glyph glyph-name="rcommaaccent" unicode="&#x157;" horiz-adv-x="310" 
d="M207.5 408c33 18.667 63.833 27.999 92.5 27.999l-17 49c-22.667 0 -49.167 -8.16699 -79.5 -24.5s-56.833 -33.833 -79.5 -52.5l-18 77h-41v-485h62v346c20.667 22.667 47.5 43.334 80.5 62.001zM64.5 -35.001c-9.66699 -9.33301 -14.498 -20.6699 -14.498 -34.0029
c0 -11.333 4 -21.666 12 -30.999s18.333 -14.666 31 -15.999c-0.666992 -16 -5.83398 -30.167 -15.501 -42.5s-23.5 -24.5 -41.5 -36.5l18 -30c26 12.667 47.833 33.334 65.5 62.001s26.5 58 26.5 88c0 16 -4.5 29 -13.5 39s-20.5 15 -34.5 15
c-12.667 0 -23.834 -4.66699 -33.501 -14z" />
    <glyph glyph-name="Rcaron" unicode="&#x158;" horiz-adv-x="580" 
d="M157 0l-0.000976562 286h103c24.667 0 51 1.66699 79 5l161 -291h70l-176 308c80.667 32 121.334 91.333 122.001 178c0 68 -21.833 117.333 -65.5 148s-103.5 46 -179.5 46h-176v-680h62zM406.499 596c31 -20.667 46.5 -57.999 46.5 -111.999
c-0.666992 -52.667 -18.5 -90.334 -53.5 -113.001s-80.833 -34 -137.5 -34h-105v290h116c58 0 102.5 -10.333 133.5 -31zM138.999 882.001l102 -143h60l100 143l-55 10l-75 -109l-74 109z" />
    <glyph glyph-name="rcaron" unicode="&#x159;" horiz-adv-x="310" 
d="M207.5 408c33 18.667 63.833 27.999 92.5 27.999l-17 49c-22.667 0 -49.167 -8.16699 -79.5 -24.5s-56.833 -33.833 -79.5 -52.5l-18 77h-41v-485h62v346c20.667 22.667 47.5 43.334 80.5 62.001zM25 731.999l102 -143h60l100 143l-55 10l-75 -109l-74 109z" />
    <glyph glyph-name="Sacute" unicode="&#x15a;" horiz-adv-x="508" 
d="M142 -1c35.333 -8 67.3281 -12.0049 95.9951 -12.0049c48 0 89.833 7.33301 125.5 22s62.834 35.167 81.501 61.5s28 56.166 28 89.499c0 32 -6.66699 59.333 -20 82s-32.666 42.834 -57.999 60.501s-60.333 36.834 -105 57.501c-48 22.667 -84.333 41.334 -109 56.001
s-43.834 31 -57.501 49s-20.5 39.667 -20.5 65c0 34.667 14 62.334 42 83.001s66 31 114 31c30.667 0 56.334 -3 77.001 -9s43 -14.333 67 -25l22 47c-22.667 11.333 -48.5 20.666 -77.5 27.999s-59.167 11 -90.5 11c-42 0 -79 -7.33301 -111 -22s-56.833 -34.667 -74.5 -60
s-26.5 -53.333 -26.5 -84c0 -83.333 61.333 -151 184 -203c44.667 -18.667 79.834 -35.667 105.501 -51s45.334 -32.166 59.001 -50.499s20.5 -40.166 20.5 -65.499c0 -36 -15.5 -65.333 -46.5 -88s-74.5 -34 -130.5 -34c-30.667 0 -60.667 3.83301 -90 11.5
s-54.666 16.834 -75.999 27.501l-15 -48c22 -12 50.667 -22 86 -30zM265.995 891.995l-54 -140l40 -13l85 153h-71z" />
    <glyph glyph-name="sacute" unicode="&#x15b;" horiz-adv-x="419" 
d="M112.5 -2.5c30.333 -7 56.835 -10.498 79.502 -10.498c61.333 0 108.666 12.167 141.999 36.5s50 57.833 50 100.5c0 62 -54 112 -162 150c-40 13.333 -70.833 27.166 -92.5 41.499s-32.834 31.833 -33.501 52.5c0 23.333 11 42.5 33 57.5s50 22.5 84 22.5
c26 0 48.333 -3 67 -9s39 -14.333 61 -25l20 44c-15.333 11.333 -38 20.833 -68 28.5s-56 11.5 -78 11.5c-54.667 0 -98 -11.833 -130 -35.5s-48 -56.5 -48 -98.5c0 -34.667 14.5 -63 43.5 -85s66.833 -40.667 113.5 -56c88 -30.667 132 -65.334 132 -104.001
c0 -26.667 -11.667 -47 -35 -61s-55.666 -21 -96.999 -21c-42 0 -86.333 11.333 -133 34l-20 -46c17.333 -11.333 41.166 -20.5 71.499 -27.5zM222.002 742.002l-54 -140l40 -13l85 153h-71z" />
    <glyph glyph-name="Scedilla" unicode="&#x15e;" horiz-adv-x="508" 
d="M415.5 39.5c-38.333 -31.667 -90.8301 -49.1602 -157.497 -52.4932l-16 -41c22 -2.66699 40.833 -11.834 56.5 -27.501s23.5 -32.5 23.5 -50.5c0 -28.667 -10.667 -50.667 -32 -66s-48 -23 -80 -23c-12 0 -25.167 1.83301 -39.5 5.5s-25.833 8.16699 -34.5 13.5l15 42
c22.667 -9.33301 42.334 -14 59.001 -14c14.667 0 28 3.66699 40 11s18 17 18 29c0 13.333 -8.66699 24.833 -26 34.5s-38.666 15.834 -63.999 18.501l27 70c-26.667 2.66699 -53.834 7.5 -81.501 14.5s-50.167 15.5 -67.5 25.5l15 48
c21.333 -10.667 46.666 -19.834 75.999 -27.501s59.333 -11.5 90 -11.5c56 0 99.5 11.333 130.5 34s46.5 52 46.5 88c0 25.333 -6.83301 47.166 -20.5 65.499s-33.334 35.166 -59.001 50.499s-60.834 32.333 -105.501 51c-122.667 52 -184 119.667 -184 203
c0 30.667 8.83301 58.667 26.5 84s42.5 45.333 74.5 60s69 22 111 22c31.333 0 61.5 -3.66699 90.5 -11s54.833 -16.666 77.5 -27.999l-22 -47c-24 10.667 -46.333 19 -67 25s-46.334 9 -77.001 9c-48 0 -86 -10.333 -114 -31s-42 -48.334 -42 -83.001
c0 -25.333 6.83301 -47 20.5 -65s32.834 -34.333 57.501 -49s61 -33.334 109 -56.001c44.667 -20.667 79.667 -39.834 105 -57.501s44.666 -37.834 57.999 -60.501s20 -50 20 -82c0 -48.667 -19.167 -88.834 -57.5 -120.501z" />
    <glyph glyph-name="scedilla" unicode="&#x15f;" horiz-adv-x="419" 
d="M340.5 28c-29 -24 -70.168 -37.334 -123.501 -40.001l-16 -42c22 -2.66699 40.833 -11.834 56.5 -27.501s23.5 -32.5 23.5 -50.5c0 -28.667 -10.667 -50.667 -32 -66s-48 -23 -80 -23c-12 0 -25.167 1.83301 -39.5 5.5s-25.833 8.16699 -34.5 13.5l15 42
c22.667 -9.33301 42.334 -14 59.001 -14c15.333 0 28.833 3.66699 40.5 11s17.5 17 17.5 29c0 13.333 -8.66699 24.833 -26 34.5s-38.666 15.834 -63.999 18.501l27 70c-22.667 2 -45.334 6.16699 -68.001 12.5s-41 14.166 -55 23.499l20 46c46.667 -22.667 91 -34 133 -34
c41.333 0 73.666 7 96.999 21s35 34.333 35 61c0 38.667 -44 73.334 -132 104.001c-46.667 15.333 -84.5 34 -113.5 56s-43.5 50.333 -43.5 85c0 42 16 74.833 48 98.5s75.333 35.5 130 35.5c22 0 48 -3.83301 78 -11.5s52.667 -17.167 68 -28.5l-20 -44
c-22 10.667 -42.333 19 -61 25s-41 9 -67 9c-34 0 -62 -7.5 -84 -22.5s-33 -34.167 -33 -57.5c0.666992 -20.667 11.834 -38.167 33.501 -52.5s52.5 -28.166 92.5 -41.499c108 -38 162 -88 162 -150c0 -40 -14.5 -72 -43.5 -96z" />
    <glyph glyph-name="Scaron" unicode="&#x160;" horiz-adv-x="508" 
d="M142 -1c35.333 -8 67.3281 -12.0049 95.9951 -12.0049c48 0 89.833 7.33301 125.5 22s62.834 35.167 81.501 61.5s28 56.166 28 89.499c0 32 -6.66699 59.333 -20 82s-32.666 42.834 -57.999 60.501s-60.333 36.834 -105 57.501c-48 22.667 -84.333 41.334 -109 56.001
s-43.834 31 -57.501 49s-20.5 39.667 -20.5 65c0 34.667 14 62.334 42 83.001s66 31 114 31c30.667 0 56.334 -3 77.001 -9s43 -14.333 67 -25l22 47c-22.667 11.333 -48.5 20.666 -77.5 27.999s-59.167 11 -90.5 11c-42 0 -79 -7.33301 -111 -22s-56.833 -34.667 -74.5 -60
s-26.5 -53.333 -26.5 -84c0 -83.333 61.333 -151 184 -203c44.667 -18.667 79.834 -35.667 105.501 -51s45.334 -32.166 59.001 -50.499s20.5 -40.166 20.5 -65.499c0 -36 -15.5 -65.333 -46.5 -88s-74.5 -34 -130.5 -34c-30.667 0 -60.667 3.83301 -90 11.5
s-54.666 16.834 -75.999 27.501l-15 -48c22 -12 50.667 -22 86 -30zM124.995 881.995l102 -143h60l100 143l-55 10l-75 -109l-74 109z" />
    <glyph glyph-name="scaron" unicode="&#x161;" horiz-adv-x="419" 
d="M112.5 -2.5c30.333 -7 56.835 -10.498 79.502 -10.498c61.333 0 108.666 12.167 141.999 36.5s50 57.833 50 100.5c0 62 -54 112 -162 150c-40 13.333 -70.833 27.166 -92.5 41.499s-32.834 31.833 -33.501 52.5c0 23.333 11 42.5 33 57.5s50 22.5 84 22.5
c26 0 48.333 -3 67 -9s39 -14.333 61 -25l20 44c-15.333 11.333 -38 20.833 -68 28.5s-56 11.5 -78 11.5c-54.667 0 -98 -11.833 -130 -35.5s-48 -56.5 -48 -98.5c0 -34.667 14.5 -63 43.5 -85s66.833 -40.667 113.5 -56c88 -30.667 132 -65.334 132 -104.001
c0 -26.667 -11.667 -47 -35 -61s-55.666 -21 -96.999 -21c-42 0 -86.333 11.333 -133 34l-20 -46c17.333 -11.333 41.166 -20.5 71.499 -27.5zM85.002 732.002l102 -143h60l100 143l-55 10l-75 -109l-74 109z" />
    <glyph glyph-name="Tcedilla" unicode="&#x162;" horiz-adv-x="553" 
d="M339.5 -81.5c15.667 -15.667 23.498 -32.5 23.498 -50.5c0 -28.667 -10.667 -50.667 -32 -66s-48 -23 -80 -23c-12 0 -25.167 1.83301 -39.5 5.5s-25.833 8.16699 -34.5 13.5l15 42c22.667 -9.33301 42.334 -14 59.001 -14c15.333 0 28.833 3.66699 40.5 11
s17.5 17 17.5 29c0 13.333 -8.66699 24.833 -26 34.5s-38.666 15.834 -63.999 18.501l32 81h-6v631h-235v49h528l5 -49h-235v-618h1l-1 -3v-10h-4l-21 -54c22 -2.66699 40.833 -11.834 56.5 -27.501z" />
    <glyph glyph-name="tcedilla" unicode="&#x163;" horiz-adv-x="298" 
d="M236.5 -81.5c15.667 -15.667 23.4971 -32.5 23.4971 -50.5c0 -28.667 -10.667 -50.667 -32 -66s-48 -23 -80 -23c-12 0 -25.167 1.83301 -39.5 5.5s-25.833 8.16699 -34.5 13.5l15 42c22.667 -9.33301 42.334 -14 59.001 -14c15.333 0 28.833 3.66699 40.5 11
s17.5 17 17.5 29c0 13.333 -8.66699 24.833 -26 34.5s-38.666 15.834 -63.999 18.501l32 81c-18.667 10 -33.167 24.667 -43.5 44s-15.5 43.333 -15.5 72v312h-71l-1 47h72v126l63 22v-148h88l21 -47h-109v-305c0 -25.333 5.5 -45.333 16.5 -60s28.167 -22 51.5 -22
c13.333 0 27 3 41 9l12 -51l-20 -6.5c-11.333 -3.66699 -26.666 -5.5 -45.999 -5.5h-11l-16 -41c22 -2.66699 40.833 -11.834 56.5 -27.501z" />
    <glyph glyph-name="Tcaron" unicode="&#x164;" horiz-adv-x="553" 
d="M10 631h235v-631h63v631h235l-5 49h-528v-49zM146 882l102 -143h60l100 143l-55 10l-75 -109l-74 109z" />
    <glyph glyph-name="tcaron" unicode="&#x165;" horiz-adv-x="406" 
d="M294 687.5c-9.33301 -9.66699 -14.002 -20.8359 -14.002 -33.5029c0 -12 4 -22.667 12 -32s18 -14.666 30 -15.999c-1.33301 -16.667 -6.66602 -31.167 -15.999 -43.5s-22.666 -24.166 -39.999 -35.499l18 -29c25.333 12.667 47 33.334 65 62.001s27 57.667 27 87
c0 16 -4.66699 29.167 -14 39.5s-20.333 15.5 -33 15.5c-14 0 -25.667 -4.83301 -35 -14.5zM151.998 622.998l-62.999 -22.001v-126h-72l1 -47h71v-312c0 -41.333 10.667 -73.166 32 -95.499s50 -33.5 86 -33.5c19.333 0 34.666 1.83301 45.999 5.5l20 6.5l-12 51
c-14 -6 -27.667 -9 -41 -9c-23.333 0 -40.5 7.33301 -51.5 22s-16.5 34.667 -16.5 60v305h109l-21 47h-88v148z" />
    <glyph glyph-name="Umacron" unicode="&#x16a;" horiz-adv-x="673" 
d="M85 239c0 -48 10.335 -90.998 31.002 -128.998s50 -67.833 88 -89.5s82 -32.5 132 -32.5c50.667 0 95 10.833 133 32.5s67.333 51.5 88 89.5s31 81 31 129v441h-63v-432c0 -38.667 -7.5 -73.834 -22.5 -105.501s-36.833 -56.5 -65.5 -74.5s-62.334 -27 -101.001 -27
c-37.333 0 -70.333 9.16699 -99 27.5s-50.834 43.166 -66.501 74.499s-23.5 66.333 -23.5 105v432h-62v-441zM450.002 839.002h-235v-49h241z" />
    <glyph glyph-name="umacron" unicode="&#x16b;" 
d="M305.5 69.5c-33.667 -19 -63.168 -28.5 -88.501 -28.5c-62.667 0 -94 40 -94 120v324h-62v-336c0 -48.667 12.333 -87.667 37 -117s62 -44 112 -44c30 0 62.333 8.5 97 25.5s62.334 37.5 83.001 61.5l10 -75h51v486h-62v-346c-22 -28 -49.833 -51.5 -83.5 -70.5z
M356.999 689h-235v-49h241z" />
    <glyph glyph-name="Uring" unicode="&#x16e;" horiz-adv-x="673" 
d="M85 239c0 -48 10.335 -90.998 31.002 -128.998s50 -67.833 88 -89.5s82 -32.5 132 -32.5c50.667 0 95 10.833 133 32.5s67.333 51.5 88 89.5s31 81 31 129v441h-63v-432c0 -38.667 -7.5 -73.834 -22.5 -105.501s-36.833 -56.5 -65.5 -74.5s-62.334 -27 -101.001 -27
c-37.333 0 -70.333 9.16699 -99 27.5s-50.834 43.166 -66.501 74.499s-23.5 66.333 -23.5 105v432h-62v-441zM274.502 885.002c-17.667 -16 -26.5 -36 -26.5 -60c0 -23.333 8.66699 -42.666 26 -57.999s38.333 -23 63 -23s45.5 7.66699 62.5 23s25.5 34.666 25.5 57.999
c0 24 -8.66699 44 -26 60s-38 24 -62 24s-44.833 -8 -62.5 -24zM306.002 795.002c-8.66699 8 -13 18 -13 30c0 12.667 4.33301 23.167 13 31.5s19 12.5 31 12.5s22.333 -4.16699 31 -12.5s13 -18.833 13 -31.5c0 -12 -4.33301 -22 -13 -30s-19 -12 -31 -12s-22.333 4 -31 12
z" />
    <glyph glyph-name="uring" unicode="&#x16f;" 
d="M305.5 69.5c-33.667 -19 -63.168 -28.5 -88.501 -28.5c-62.667 0 -94 40 -94 120v324h-62v-336c0 -48.667 12.333 -87.667 37 -117s62 -44 112 -44c30 0 62.333 8.5 97 25.5s62.334 37.5 83.001 61.5l10 -75h51v486h-62v-346c-22 -28 -49.833 -51.5 -83.5 -70.5z
M189.499 735c-17.667 -16 -26.5 -36 -26.5 -60c0 -23.333 8.66699 -42.666 26 -57.999s38.333 -23 63 -23s45.5 7.66699 62.5 23s25.5 34.666 25.5 57.999c0 24 -8.66699 44 -26 60s-38 24 -62 24s-44.833 -8 -62.5 -24zM220.999 645c-8.66699 8 -13 18 -13 30
c0 12.667 4.33301 23.167 13 31.5s19 12.5 31 12.5s22.333 -4.16699 31 -12.5s13 -18.833 13 -31.5c0 -12 -4.33301 -22 -13 -30s-19 -12 -31 -12s-22.333 4 -31 12z" />
    <glyph glyph-name="Uhungarumlaut" unicode="&#x170;" horiz-adv-x="673" 
d="M85 239c0 -48 10.335 -90.998 31.002 -128.998s50 -67.833 88 -89.5s82 -32.5 132 -32.5c50.667 0 95 10.833 133 32.5s67.333 51.5 88 89.5s31 81 31 129v441h-63v-432c0 -38.667 -7.5 -73.834 -22.5 -105.501s-36.833 -56.5 -65.5 -74.5s-62.334 -27 -101.001 -27
c-37.333 0 -70.333 9.16699 -99 27.5s-50.834 43.166 -66.501 74.499s-23.5 66.333 -23.5 105v432h-62v-441zM285.002 892.002l-54 -140l40 -13l85 153h-71zM425.002 892.002l-54 -140l40 -13l85 153h-71z" />
    <glyph glyph-name="uhungarumlaut" unicode="&#x171;" 
d="M305.5 69.5c-33.667 -19 -63.168 -28.5 -88.501 -28.5c-62.667 0 -94 40 -94 120v324h-62v-336c0 -48.667 12.333 -87.667 37 -117s62 -44 112 -44c30 0 62.333 8.5 97 25.5s62.334 37.5 83.001 61.5l10 -75h51v486h-62v-346c-22 -28 -49.833 -51.5 -83.5 -70.5z
M198.999 742l-54 -140l40 -13l85 153h-71zM338.999 742l-54 -140l40 -13l85 153h-71z" />
    <glyph glyph-name="Uogonek" unicode="&#x172;" horiz-adv-x="673" 
d="M588 239c0 -46.667 -9.83398 -88.666 -29.501 -125.999s-47.5 -67 -83.5 -89s-78.333 -34 -127 -36c-13.333 -12.667 -24.333 -27.667 -33 -45s-13 -34 -13 -50c0 -18.667 5 -32.167 15 -40.5s22.333 -12.5 37 -12.5c19.333 0 37.666 7 54.999 21l22 -38
c-8.66699 -8.66699 -20.167 -15.834 -34.5 -21.501s-29.5 -8.5 -45.5 -8.5c-30 0 -54.833 9 -74.5 27s-29.5 41 -29.5 69c0 15.333 4.83301 32.166 14.5 50.499s22.167 35.166 37.5 50.499c-65.333 8.66699 -117.333 35.667 -156 81s-58 101.333 -58 168v441h62v-432
c0 -38.667 7.83301 -73.667 23.5 -105s37.834 -56.166 66.501 -74.499s61.667 -27.5 99 -27.5c38.667 0 72.334 9 101.001 27s50.5 42.833 65.5 74.5s22.5 66.834 22.5 105.501v432h63v-441z" />
    <glyph glyph-name="uogonek" unicode="&#x173;" 
d="M485.5 -198.5c-14.333 -5.66699 -29.498 -8.49902 -45.498 -8.49902c-30 0 -54.833 9 -74.5 27s-29.5 41 -29.5 69c0 17.333 6 36.5 18 57.5s27.333 39.167 46 54.5l-10 74c-20.667 -24 -48.334 -44.5 -83.001 -61.5s-67 -25.5 -97 -25.5c-50 0 -87.333 14.667 -112 44
s-37 68.333 -37 117v336h62v-324c0 -80 31.333 -120 94 -120c25.333 0 54.833 9.5 88.5 28.5s61.5 42.5 83.5 70.5v346h62v-486h1c-17.333 -12 -31.833 -28.167 -43.5 -48.5s-17.5 -39.833 -17.5 -58.5s5 -32.167 15 -40.5s22.333 -12.5 37 -12.5
c19.333 0 37.666 7 54.999 21l22 -38c-8.66699 -8.66699 -20.167 -15.834 -34.5 -21.501z" />
    <glyph glyph-name="Ydieresis" unicode="&#x178;" horiz-adv-x="546" 
d="M536 680h-67l-203 -344l-201 359l-55 -31l225 -388l-1 -276h63l1 283zM214.5 780.5c8.33301 8.33301 12.5 18.833 12.5 31.5c0 11.333 -4.16699 21.166 -12.5 29.499s-18.833 12.5 -31.5 12.5c-11.333 0 -21.333 -4.16699 -30 -12.5s-13 -18.166 -13 -29.499
c0 -12 4.33301 -22.333 13 -31s18.667 -13 30 -13c12.667 0 23.167 4.16699 31.5 12.5zM371 780.5c8 8.33301 12 18.832 12 31.499c0 12 -4 22 -12 30s-18.333 12 -31 12c-12 0 -22.167 -4.16699 -30.5 -12.5s-12.5 -18.166 -12.5 -29.499
c0 -12.667 4.16699 -23.167 12.5 -31.5s18.5 -12.5 30.5 -12.5c12.667 0 23 4.16699 31 12.5z" />
    <glyph glyph-name="Zacute" unicode="&#x179;" horiz-adv-x="559" 
d="M534 631l-5 49h-477l10 -49h405l-442 -581l6 -50h488l-5 50h-420zM295 892l-54 -140l40 -13l85 153h-71z" />
    <glyph glyph-name="zacute" unicode="&#x17a;" horiz-adv-x="432" 
d="M68 436h262l-307 -405l8 -31h372l-10 48h-295l311 405l-3 32h-354zM234 742l-54 -140l40 -13l85 153h-71z" />
    <glyph glyph-name="Zdotaccent" unicode="&#x17b;" horiz-adv-x="559" 
d="M534 631l-5 49h-477l10 -49h405l-442 -581l6 -50h488l-5 50h-420zM318 782c9.33301 9.33301 14 20.666 14 33.999c0 12.667 -4.66699 23.834 -14 33.501s-20.333 14.5 -33 14.5c-13.333 0 -24.666 -4.83301 -33.999 -14.5s-14 -20.834 -14 -33.501
c0 -13.333 4.66699 -24.666 14 -33.999s20.666 -14 33.999 -14c12.667 0 23.667 4.66699 33 14z" />
    <glyph glyph-name="zdotaccent" unicode="&#x17c;" horiz-adv-x="432" 
d="M68 436h262l-307 -405l8 -31h372l-10 48h-295l311 405l-3 32h-354zM260 632c9.33301 9.33301 14 20.666 14 33.999c0 12.667 -4.66699 23.834 -14 33.501s-20.333 14.5 -33 14.5c-13.333 0 -24.666 -4.83301 -33.999 -14.5s-14 -20.834 -14 -33.501
c0 -13.333 4.66699 -24.666 14 -33.999s20.666 -14 33.999 -14c12.667 0 23.667 4.66699 33 14z" />
    <glyph glyph-name="Zcaron" unicode="&#x17d;" horiz-adv-x="559" 
d="M534 631l-5 49h-477l10 -49h405l-442 -581l6 -50h488l-5 50h-420zM154 882l102 -143h60l100 143l-55 10l-75 -109l-74 109z" />
    <glyph glyph-name="zcaron" unicode="&#x17e;" horiz-adv-x="432" 
d="M68 436h262l-307 -405l8 -31h372l-10 48h-295l311 405l-3 32h-354zM97 732l102 -143h60l100 143l-55 10l-75 -109l-74 109z" />
    <glyph glyph-name="florin" unicode="&#x192;" horiz-adv-x="305" 
d="M121 428v-355c0 -54.667 -23.333 -82 -70 -82c-6 0 -13.167 1 -21.5 3s-14.5 4 -18.5 6l-11 -53c24 -8 46.333 -12 67 -12c35.333 0 63.5 12.667 84.5 38s31.5 59 31.5 101v354h109l-21 47h-88v88c0 54.667 23 82 69 82c6 0 13.333 -1 22 -3s15 -4 19 -6l12 53
c-22.667 8.66699 -44.667 13 -66 13c-36 0 -64.667 -12.667 -86 -38s-32 -59 -32 -101v-88h-73l1 -47h72z" />
    <glyph glyph-name="Scommaaccent" unicode="&#x218;" horiz-adv-x="508" 
d="M142 -1c35.333 -8 67.3281 -12.0049 95.9951 -12.0049c48 0 89.833 7.33301 125.5 22s62.834 35.167 81.501 61.5s28 56.166 28 89.499c0 32 -6.66699 59.333 -20 82s-32.666 42.834 -57.999 60.501s-60.333 36.834 -105 57.501c-48 22.667 -84.333 41.334 -109 56.001
s-43.834 31 -57.501 49s-20.5 39.667 -20.5 65c0 34.667 14 62.334 42 83.001s66 31 114 31c30.667 0 56.334 -3 77.001 -9s43 -14.333 67 -25l22 47c-22.667 11.333 -48.5 20.666 -77.5 27.999s-59.167 11 -90.5 11c-42 0 -79 -7.33301 -111 -22s-56.833 -34.667 -74.5 -60
s-26.5 -53.333 -26.5 -84c0 -83.333 61.333 -151 184 -203c44.667 -18.667 79.834 -35.667 105.501 -51s45.334 -32.166 59.001 -50.499s20.5 -40.166 20.5 -65.499c0 -36 -15.5 -65.333 -46.5 -88s-74.5 -34 -130.5 -34c-30.667 0 -60.667 3.83301 -90 11.5
s-54.666 16.834 -75.999 27.501l-15 -48c22 -12 50.667 -22 86 -30zM205.495 -35.0049c-9.66699 -9.33301 -14.498 -20.6699 -14.498 -34.0029c0 -11.333 4 -21.666 12 -30.999s18.333 -14.666 31 -15.999c-0.666992 -16 -5.83398 -30.167 -15.501 -42.5
s-23.5 -24.5 -41.5 -36.5l18 -30c26 12.667 47.833 33.334 65.5 62.001s26.5 58 26.5 88c0 16 -4.5 29 -13.5 39s-20.5 15 -34.5 15c-12.667 0 -23.834 -4.66699 -33.501 -14z" />
    <glyph glyph-name="scommaaccent" unicode="&#x219;" horiz-adv-x="419" 
d="M112.5 -2.5c30.333 -7 56.835 -10.498 79.502 -10.498c61.333 0 108.666 12.167 141.999 36.5s50 57.833 50 100.5c0 62 -54 112 -162 150c-40 13.333 -70.833 27.166 -92.5 41.499s-32.834 31.833 -33.501 52.5c0 23.333 11 42.5 33 57.5s50 22.5 84 22.5
c26 0 48.333 -3 67 -9s39 -14.333 61 -25l20 44c-15.333 11.333 -38 20.833 -68 28.5s-56 11.5 -78 11.5c-54.667 0 -98 -11.833 -130 -35.5s-48 -56.5 -48 -98.5c0 -34.667 14.5 -63 43.5 -85s66.833 -40.667 113.5 -56c88 -30.667 132 -65.334 132 -104.001
c0 -26.667 -11.667 -47 -35 -61s-55.666 -21 -96.999 -21c-42 0 -86.333 11.333 -133 34l-20 -46c17.333 -11.333 41.166 -20.5 71.499 -27.5zM164.502 -34.998c-9.66699 -9.33301 -14.498 -20.6699 -14.498 -34.0029c0 -11.333 4 -21.666 12 -30.999
s18.333 -14.666 31 -15.999c-0.666992 -16 -5.83398 -30.167 -15.501 -42.5s-23.5 -24.5 -41.5 -36.5l18 -30c26 12.667 47.833 33.334 65.5 62.001s26.5 58 26.5 88c0 16 -4.5 29 -13.5 39s-20.5 15 -34.5 15c-12.667 0 -23.834 -4.66699 -33.501 -14z" />
    <glyph glyph-name="Tcommaaccent" unicode="&#x21a;" horiz-adv-x="553" 
d="M10 631h235v-631h63v631h235l-5 49h-528v-49zM246.5 -35c-9.66699 -9.33301 -14.498 -20.6699 -14.498 -34.0029c0 -11.333 4 -21.666 12 -30.999s18.333 -14.666 31 -15.999c-0.666992 -16 -5.83398 -30.167 -15.501 -42.5s-23.5 -24.5 -41.5 -36.5l18 -30
c26 12.667 47.833 33.334 65.5 62.001s26.5 58 26.5 88c0 16 -4.5 29 -13.5 39s-20.5 15 -34.5 15c-12.667 0 -23.834 -4.66699 -33.501 -14z" />
    <glyph glyph-name="tcommaaccent" unicode="&#x21b;" horiz-adv-x="298" 
d="M152 623l-62.999 -22.001v-126h-72l1 -47h71v-312c0 -41.333 10.667 -73.166 32 -95.499s50 -33.5 86 -33.5c19.333 0 34.666 1.83301 45.999 5.5l20 6.5l-12 51c-14 -6 -27.667 -9 -41 -9c-23.333 0 -40.5 7.33301 -51.5 22s-16.5 34.667 -16.5 60v305h109l-21 47h-88
v148zM143.501 -35.001c-9.66699 -9.33301 -14.498 -20.6699 -14.498 -34.0029c0 -11.333 4 -21.666 12 -30.999s18.333 -14.666 31 -15.999c-0.666992 -16 -5.83398 -30.167 -15.501 -42.5s-23.5 -24.5 -41.5 -36.5l18 -30c26 12.667 47.833 33.334 65.5 62.001
s26.5 58 26.5 88c0 16 -4.5 29 -13.5 39s-20.5 15 -34.5 15c-12.667 0 -23.834 -4.66699 -33.501 -14z" />
    <glyph glyph-name="circumflex" unicode="&#x2c6;" horiz-adv-x="282" 
d="M272 599l-102 143h-60l-100 -143l55 -10l75 109l74 -109z" />
    <glyph glyph-name="caron" unicode="&#x2c7;" horiz-adv-x="282" 
d="M10 732l102 -143h60l100 143l-55 10l-75 -109l-74 109z" />
    <glyph glyph-name="uni02C9" unicode="&#x2c9;" horiz-adv-x="261" 
d="M246 689h-236v-49h241z" />
    <glyph glyph-name="breve" unicode="&#x2d8;" horiz-adv-x="280" 
d="M200 674.5c-15.333 -17 -35.333 -25.5 -60 -25.5c-26 0 -46.5 8.5 -61.5 25.5s-22.5 35.833 -22.5 56.5h-46c0 -36.667 10.833 -67.334 32.5 -92.001s54.167 -37.334 97.5 -38.001c43.333 0.666992 75.833 13.334 97.5 38.001s32.5 55.334 32.5 92.001h-47
c0 -20.667 -7.66699 -39.5 -23 -56.5z" />
    <glyph glyph-name="dotaccent" unicode="&#x2d9;" horiz-adv-x="115" 
d="M91 632c9.33301 9.33301 14 20.666 14 33.999c0 12.667 -4.66699 23.834 -14 33.501s-20.333 14.5 -33 14.5c-13.333 0 -24.666 -4.83301 -33.999 -14.5s-14 -20.834 -14 -33.501c0 -13.333 4.66699 -24.666 14 -33.999s20.666 -14 33.999 -14
c12.667 0 23.667 4.66699 33 14z" />
    <glyph glyph-name="ring" unicode="&#x2da;" horiz-adv-x="197" 
d="M36.5 735c-17.667 -16 -26.5 -36 -26.5 -60c0 -23.333 8.66699 -42.666 26 -57.999s38.333 -23 63 -23s45.5 7.66699 62.5 23s25.5 34.666 25.5 57.999c0 24 -8.66699 44 -26 60s-38 24 -62 24s-44.833 -8 -62.5 -24zM68 645c-8.66699 8 -13 18 -13 30
c0 12.667 4.33301 23.167 13 31.5s19 12.5 31 12.5s22.333 -4.16699 31 -12.5s13 -18.833 13 -31.5c0 -12 -4.33301 -22 -13 -30s-19 -12 -31 -12s-22.333 4 -31 12z" />
    <glyph glyph-name="ogonek" unicode="&#x2db;" horiz-adv-x="204" 
d="M29 -51.5c-12.667 -21.667 -19.001 -41.501 -19.001 -59.501c0 -28 9.83301 -51 29.5 -69s44.5 -27 74.5 -27c16 0 31.167 2.83301 45.5 8.5s25.833 12.834 34.5 21.501l-22 38c-17.333 -14 -35.666 -21 -54.999 -21c-14.667 0 -27 4.16699 -37 12.5s-15 21.833 -15 40.5
s5.83301 38.167 17.5 58.5s26.167 36.5 43.5 48.5l-49 4c-19.333 -15.333 -35.333 -33.833 -48 -55.5z" />
    <glyph glyph-name="tilde" unicode="&#x2dc;" horiz-adv-x="305" 
d="M231 666.5c-7.33301 -7 -15.668 -10.5 -25.001 -10.5c-17.333 0 -33.333 8 -48 24c-15.333 15.333 -37 23 -65 23c-55.333 0 -83 -30.333 -83 -91h45c1.33301 14.667 5.83301 25.667 13.5 33s16.167 11 25.5 11c16.667 0 34 -8 52 -24c16.667 -16 36.667 -24 60 -24
c56 0 84 30.333 84 91h-46c-1.33301 -14.667 -5.66602 -25.5 -12.999 -32.5z" />
    <glyph glyph-name="hungarumlaut" unicode="&#x2dd;" horiz-adv-x="285" 
d="M64 742l-54 -140l40 -13l85 153h-71zM204 742l-54 -140l40 -13l85 153h-71z" />
    <glyph glyph-name="pi" unicode="&#x3c0;" horiz-adv-x="569" 
d="M396 435v-435h63v435h100v50h-549v-50h99v-435h63v435h224z" />
    <glyph glyph-name="tm_Anusvara" unicode="&#xb82;" horiz-adv-x="0" 
d="M78.5 668c21.667 20 32.499 45 32.499 75c0 30.667 -11 56.167 -33 76.5s-48 30.5 -78 30.5s-55.833 -10.167 -77.5 -30.5s-32.5 -45.833 -32.5 -76.5c0 -30 10.667 -55 32 -75s47.333 -30 78 -30s56.834 10 78.501 30zM-43.001 701.5c-11.333 11 -17 24.833 -17 41.5
c0 17.333 5.66699 31.666 17 42.999s25.666 17 42.999 17s31.5 -5.66699 42.5 -17s16.5 -25.666 16.5 -42.999c0 -16.667 -5.5 -30.5 -16.5 -41.5s-25.167 -16.5 -42.5 -16.5s-31.666 5.5 -42.999 16.5z" />
    <glyph glyph-name="tm_Visarga" unicode="&#xb83;" horiz-adv-x="674" 
d="M414.5 345c21.667 20 32.5 45 32.5 75c0 30.667 -10.833 56.167 -32.5 76.5s-47.834 30.5 -78.501 30.5c-30 0 -55.833 -10.167 -77.5 -30.5s-32.5 -45.833 -32.5 -76.5c0 -30 10.667 -55 32 -75s47.333 -30 78 -30s56.834 10 78.501 30zM294.5 378.5
c-11 11 -16.5 24.833 -16.5 41.5c0 17.333 5.5 31.666 16.5 42.999s25.167 17 42.5 17s31.666 -5.66699 42.999 -17s17 -25.666 17 -42.999c0 -16.667 -5.66699 -30.5 -17 -41.5s-25.666 -16.5 -42.999 -16.5s-31.5 5.5 -42.5 16.5zM243 16.5
c21.333 20.333 32.002 45.5 32.002 75.5c0 30.667 -10.833 56 -32.5 76s-47.834 30 -78.501 30c-30 0 -55.667 -10 -77 -30s-32 -45.333 -32 -76c0 -30 10.667 -55.167 32 -75.5s47 -30.5 77 -30.5c31.333 0 57.666 10.167 78.999 30.5zM586.502 16.5
c21.667 20.333 32.5 45.5 32.5 75.5c0 30.667 -10.833 56 -32.5 76s-47.834 30 -78.501 30c-30 0 -55.833 -10 -77.5 -30s-32.5 -45.333 -32.5 -76c0 -30 10.667 -55.167 32 -75.5s47.333 -30.5 78 -30.5s56.834 10.167 78.501 30.5zM123.002 50
c-11.333 11.333 -17 25.333 -17 42c0 17.333 5.66699 31.5 17 42.5s25.333 16.5 42 16.5c17.333 0 31.666 -5.66699 42.999 -17s17 -25.333 17 -42s-5.66699 -30.667 -17 -42s-25.666 -17 -42.999 -17c-16.667 0 -30.667 5.66699 -42 17zM467.002 50
c-11.333 11.333 -17 25.333 -17 42c0 17.333 5.66699 31.5 17 42.5s25.333 16.5 42 16.5c17.333 0 31.5 -5.5 42.5 -16.5s16.5 -25.167 16.5 -42.5c0 -16.667 -5.5 -30.667 -16.5 -42s-25.167 -17 -42.5 -17c-16.667 0 -30.667 5.66699 -42 17z" />
    <glyph glyph-name="tm_A" unicode="&#xb85;" horiz-adv-x="1057" 
d="M962 -126l-56.001 -0.00195312v206h-182c-30.667 -69.333 -80.5 -124 -149.5 -164s-150.167 -60 -243.5 -60c-58 0 -109.5 7.5 -154.5 22.5s-79.833 35.5 -104.5 61.5s-37 54.667 -37 86c0 30.667 9.83301 54.834 29.5 72.501s48.167 26.5 85.5 26.5h528
c10.667 35.333 16 70.333 16 105c0 48 -9.33301 91.167 -28 129.5s-45.167 68.333 -79.5 90s-74.5 32.5 -120.5 32.5c-54 0 -98.333 -12.333 -133 -37c9.33301 1.33301 17 2 23 2c36 0 65.667 -11 89 -33s35 -49.667 35 -83c0 -35.333 -12 -64.5 -36 -87.5
s-54.667 -34.5 -92 -34.5c-36.667 0 -67.667 11.333 -93 34s-38 51.334 -38 86.001c0 38 11 72.333 33 103s51.833 54.834 89.5 72.501s78.5 26.5 122.5 26.5c57.333 0 107.833 -12.833 151.5 -38.5s77.334 -61.334 101.001 -107.001s35.5 -97.5 35.5 -155.5
c0 -36 -4.66699 -71 -14 -105h166v388h56v-639zM404.999 382.498c-14 13.667 -32 20.5 -54 20.5s-40.167 -6.83301 -54.5 -20.5s-21.5 -31.5 -21.5 -53.5s7 -40 21 -54s32 -21 54 -21c22.667 0 41 7 55 21s21 32 21 54s-7 39.833 -21 53.5zM530.499 -48.502
c57 31 99.833 73.834 128.5 128.501h-506c-39.333 0 -59 -18 -59 -54c0 -20 9.83301 -39.333 29.5 -58s47.667 -33.834 84 -45.501s77.5 -17.5 123.5 -17.5c76 0 142.5 15.5 199.5 46.5z" />
    <glyph glyph-name="tm_Aa" unicode="&#xb86;" horiz-adv-x="1266" 
d="M1209 44c31.333 -32.667 46.9961 -74.6689 46.9961 -126.002c0 -56 -15.833 -106.5 -47.5 -151.5s-75.5 -80.167 -131.5 -105.5s-119.333 -38 -190 -38c-42 0 -79.667 5.66699 -113 17s-59.666 27.166 -78.999 47.499s-29 43.833 -29 70.5
c0 32.667 11.833 59.834 35.5 81.501s54.834 32.5 93.501 32.5h21v-45h-21c-21.333 0 -38.166 -6.5 -50.499 -19.5s-18.5 -29.5 -18.5 -49.5c0 -25.333 15 -46.166 45 -62.499s68.667 -24.5 116 -24.5c59.333 0 112.5 10.667 159.5 32s83.667 50.666 110 87.999
s39.5 79.666 39.5 126.999c0 36.667 -10.167 66.834 -30.5 90.501s-48.166 35.5 -83.499 35.5c-34.667 0 -63.334 -13 -86.001 -39s-34 -59.333 -34 -100v-31h-56v206h-182c-30.667 -69.333 -80.5 -124 -149.5 -164s-150.167 -60 -243.5 -60c-58 0 -109.5 7.5 -154.5 22.5
s-79.833 35.5 -104.5 61.5s-37 54.667 -37 86c0 30.667 9.83301 54.834 29.5 72.501s48.167 26.5 85.5 26.5h528c10.667 35.333 16 70.333 16 105c0 48 -9.33301 91.167 -28 129.5s-45.167 68.333 -79.5 90s-74.5 32.5 -120.5 32.5c-54 0 -98.333 -12.333 -133 -37
c9.33301 1.33301 17 2 23 2c36 0 65.667 -11 89 -33s35 -49.667 35 -83c0 -35.333 -12 -64.5 -36 -87.5s-54.667 -34.5 -92 -34.5c-36.667 0 -67.667 11.333 -93 34s-38 51.334 -38 86.001c0 38 11 72.333 33 103s51.833 54.834 89.5 72.501s78.5 26.5 122.5 26.5
c57.333 0 107.833 -12.833 151.5 -38.5s77.334 -61.334 101.001 -107.001s35.5 -97.5 35.5 -155.5c0 -36 -4.66699 -71 -14 -105h166v388h56v-479c14.667 18.667 32.334 33.167 53.001 43.5s44 15.5 70 15.5c51.333 0 92.666 -16.333 123.999 -49zM404.996 382.498
c-14 13.667 -32 20.5 -54 20.5s-40.167 -6.83301 -54.5 -20.5s-21.5 -31.5 -21.5 -53.5s7 -40 21 -54s32 -21 54 -21c22.667 0 41 7 55 21s21 32 21 54s-7 39.833 -21 53.5zM530.496 -48.502c57 31 99.833 73.834 128.5 128.501h-506c-39.333 0 -59 -18 -59 -54
c0 -20 9.83301 -39.333 29.5 -58s47.667 -33.834 84 -45.501s77.5 -17.5 123.5 -17.5c76 0 142.5 15.5 199.5 46.5z" />
    <glyph glyph-name="tm_I" unicode="&#xb87;" horiz-adv-x="1036" 
d="M741.5 667c61.667 -29.333 110.33 -70.834 145.997 -124.501s53.5 -115.167 53.5 -184.5v-506h-56v504c0 62 -15 116.167 -45 162.5s-71.5 81.833 -124.5 106.5s-112.5 37 -178.5 37c-72 0 -135 -12 -189 -36s-96.167 -59.5 -126.5 -106.5s-45.5 -103.833 -45.5 -170.5
c0 -82 19.333 -159 58 -231c62.667 22.667 131 34 205 34c49.333 0 96.666 -7 141.999 -21c42 70 63 133 63 189c0 48 -14.167 87 -42.5 117s-67.166 45 -116.499 45c-55.333 0 -98 -13.333 -128 -40c12 3.33301 24 5 36 5c36 0 65.667 -11 89 -33s35 -49.667 35 -83
c0 -35.333 -12 -64.5 -36 -87.5s-54.667 -34.5 -92 -34.5c-36.667 0 -67.667 11.333 -93 34s-38 51.334 -38 86.001c0 38 9.66699 72.5 29 103.5s46.166 55.167 80.499 72.5s73.5 26 117.5 26c44.667 0 83.334 -9 116.001 -27s57.834 -43 75.501 -75s26.5 -68.333 26.5 -109
c0 -62 -23.667 -131.333 -71 -208c50 -22 90 -51.167 120 -87.5s45 -76.166 45 -119.499c0 -32 -12.833 -57.167 -38.5 -75.5s-60.5 -27.5 -104.5 -27.5c-91.333 0 -178 23.667 -260 71c-76.667 -47.333 -148.667 -71 -216 -71c-44 0 -78.833 9.16699 -104.5 27.5
s-38.5 43.5 -38.5 75.5c0 38.667 13 74.5 39 107.5s61.667 60.833 107 83.5c-42.667 79.333 -64 163.666 -64 252.999c0 74.667 18 139.167 54 193.5s85.833 96 149.5 125s135.834 43.5 216.501 43.5c74.667 0 142.834 -14.667 204.501 -44zM441.996 382.499
c-14 13.667 -32 20.5 -54 20.5s-40.167 -6.83301 -54.5 -20.5s-21.5 -31.5 -21.5 -53.5s7 -40 21 -54s32 -21 54 -21c22.667 0 41 7 55 21s21 32 21 54s-7 39.833 -21 53.5zM258.996 74.999c37.333 -56.667 83.333 -103.667 138 -141c58.667 42.667 110.334 94 155.001 154
c-38.667 10.667 -76.334 16 -113.001 16c-63.333 0 -123.333 -9.66699 -180 -29zM700.996 -0.500977c-24.667 29 -57.332 52.5 -97.999 70.5c-44.667 -62 -98.334 -116.667 -161.001 -164c68 -36.667 138.667 -55 212 -55c56 0 84 18 84 54c0 34 -12.333 65.5 -37 94.5z
M348.998 -97.001c-55.333 40 -102.667 89.667 -142 149c-35.333 -18.667 -63 -40.5 -83 -65.5s-30 -52.167 -30 -81.5c0 -36 28 -54 84 -54c53.333 0 110.333 17.333 171 52z" />
    <glyph glyph-name="tm_Ii" unicode="&#xb88;" horiz-adv-x="740" 
d="M427 468h-277v-468h-55v513h630l5 -45h-248v-468h-55v468zM318.5 199.5c8.33301 8.33301 12.5 18.5 12.5 30.5s-4.16699 22 -12.5 30s-18.5 12 -30.5 12c-12.667 0 -22.834 -4 -30.501 -12s-11.5 -18 -11.5 -30c0 -12.667 3.83301 -23 11.5 -31s17.834 -12 30.501 -12
c12 0 22.167 4.16699 30.5 12.5zM650.5 199.5c8.33301 8.33301 12.5 18.5 12.5 30.5s-4.16699 22 -12.5 30s-18.5 12 -30.5 12c-12.667 0 -22.834 -4 -30.501 -12s-11.5 -18 -11.5 -30c0 -12.667 3.83301 -23 11.5 -31s17.834 -12 30.501 -12c12 0 22.167 4.16699 30.5 12.5
z" />
    <glyph glyph-name="tm_U" unicode="&#xb89;" horiz-adv-x="981" 
d="M971 0l-892.001 0.000976562v45h232c43.333 0 82.333 9.66699 117 29s61.834 46.333 81.501 81s29.5 74 29.5 118c0 39.333 -9.16699 75 -27.5 107s-44.333 57 -78 75s-72.834 27 -117.501 27c-39.333 0 -75 -7.16699 -107 -21.5s-58 -34.833 -78 -61.5
c18 8.66699 39.667 13 65 13c44 0 80.333 -13.333 109 -40s43 -60.334 43 -101.001c0 -42 -14.333 -76.5 -43 -103.5s-65 -40.5 -109 -40.5c-46.667 0 -85.167 13.833 -115.5 41.5s-45.5 63.167 -45.5 106.5c0 48.667 12 92.5 36 131.5s57.333 69.5 100 91.5s91 33 145 33
c56 0 105.333 -11 148 -33s75.834 -52.667 99.501 -92s35.5 -83.666 35.5 -132.999c0 -50 -10.5 -94.833 -31.5 -134.5s-51.167 -70.834 -90.5 -93.501h494v-45zM120.999 340.501c-19.333 -17 -29 -38.833 -29 -65.5c0 -29.333 9.66699 -53.333 29 -72s44.333 -28 75 -28
c27.333 0 50.166 9 68.499 27s27.5 41 27.5 69c0 27.333 -9.16699 50 -27.5 68s-41.166 27 -68.499 27c-30.667 0 -55.667 -8.5 -75 -25.5z" />
    <glyph glyph-name="tm_Uu" unicode="&#xb8a;" horiz-adv-x="1608" 
d="M1598 0h-1519v45h232c43.333 0 82.333 9.66699 117 29s61.834 46.333 81.501 81s29.5 74 29.5 118c0 39.333 -9.16699 75 -27.5 107s-44.333 57 -78 75s-72.834 27 -117.501 27c-39.333 0 -75 -7.16699 -107 -21.5s-58 -34.833 -78 -61.5c18 8.66699 39.667 13 65 13
c44 0 80.333 -13.333 109 -40s43 -60.334 43 -101.001c0 -42 -14.333 -76.5 -43 -103.5s-65 -40.5 -109 -40.5c-46.667 0 -85.167 13.833 -115.5 41.5s-45.5 63.167 -45.5 106.5c0 48.667 12 92.5 36 131.5s57.333 69.5 100 91.5s91 33 145 33c56 0 105.333 -11 148 -33
s75.834 -52.667 99.501 -92s35.5 -83.666 35.5 -132.999c0 -50.667 -10.5 -95.667 -31.5 -135s-51.5 -70.333 -91.5 -93h1122v-45zM790.999 116c-34 18 -60.668 43.001 -80.001 75.001s-29 68.333 -29 109c0 42.667 10.5 81.667 31.5 117s50.167 63.166 87.5 83.499
s80 30.5 128 30.5c40.667 0 77.5 -7.66699 110.5 -23s59.833 -37 80.5 -65v70h422l5 -45h-114v-361h-56v361h-201v-361h-56v202c0 31.333 -8.16699 60.166 -24.5 86.499s-39.166 47.333 -68.499 63s-62 23.5 -98 23.5c-36.667 0 -69.5 -8 -98.5 -24s-51.5 -38 -67.5 -66
s-24 -58.667 -24 -92c0 -23.333 4 -45 12 -65s19 -37.333 33 -52c-4 10.667 -6 22.667 -6 36c0 37.333 12.167 67.833 36.5 91.5s55.5 35.5 93.5 35.5c40 0 72.833 -12 98.5 -36s38.5 -54.667 38.5 -92s-13 -68.166 -39 -92.499s-59.333 -36.5 -100 -36.5
c-42.667 0 -81 9 -115 27zM120.998 340.501c-19.333 -17 -29 -38.833 -29 -65.5c0 -29.333 9.66699 -53.333 29 -72s44.333 -28 75 -28c27.333 0 50.166 9 68.499 27s27.5 41 27.5 69c0 27.333 -9.16699 50 -27.5 68s-41.166 27 -68.499 27
c-30.667 0 -55.667 -8.5 -75 -25.5zM847.998 279.001c-16 -16 -24 -36.333 -24 -61s8 -45.167 24 -61.5s36.333 -24.5 61 -24.5c25.333 0 46 8.16699 62 24.5s24 36.833 24 61.5s-8.16699 45 -24.5 61s-36.833 24 -61.5 24s-45 -8 -61 -24z" />
    <glyph glyph-name="tm_E" unicode="&#xb8e;" horiz-adv-x="856" 
d="M652 468l-0.000976562 -467.999h-56v468h-213c-90 0 -157.333 -20.833 -202 -62.5s-67 -97.834 -67 -168.501c0 -71.333 22.333 -126 67 -164c-11.333 20.667 -17 43.334 -17 68.001c0 30.667 7 58.167 21 82.5s33.333 43.333 58 57s52.334 20.5 83.001 20.5
c32 0 60.833 -6.83301 86.5 -20.5s45.834 -32.667 60.501 -57s22 -51.833 22 -82.5c0 -30 -7.33301 -57.167 -22 -81.5s-34.834 -43.333 -60.501 -57s-54.5 -20.5 -86.5 -20.5c-57.333 0 -106.333 10.833 -147 32.5s-71.5 51.667 -92.5 90s-31.5 82.5 -31.5 132.5
c0 83.333 26.833 150.166 80.5 200.499s133.167 75.5 238.5 75.5h467l5 -45h-194zM244.999 59.501c21.333 -21.667 48.333 -32.498 81 -32.498c33.333 0 60.833 10.667 82.5 32s32.5 48.666 32.5 81.999s-10.833 60.833 -32.5 82.5s-49.167 32.5 -82.5 32.5
c-32.667 0 -59.667 -10.833 -81 -32.5s-32 -49.167 -32 -82.5c0 -32.667 10.667 -59.834 32 -81.501z" />
    <glyph glyph-name="tm_Ee" unicode="&#xb8f;" horiz-adv-x="856" 
d="M652 468l-0.00195312 -441.999c0 -42 -4.16699 -73 -12.5 -93s-26.833 -36 -55.5 -48l-329 -135l-25 40l315 131c20.667 8.66699 34.334 21 41.001 37s10 41 10 75v435h-213c-90 0 -157.333 -20.833 -202 -62.5s-67 -97.834 -67 -168.501c0 -71.333 22.333 -126 67 -164
c-11.333 20.667 -17 43.334 -17 68.001c0 30.667 7 58.167 21 82.5s33.333 43.333 58 57s52.334 20.5 83.001 20.5c32 0 60.833 -6.83301 86.5 -20.5s45.834 -32.667 60.501 -57s22 -51.833 22 -82.5c0 -30 -7.33301 -57.167 -22 -81.5s-34.834 -43.333 -60.501 -57
s-54.5 -20.5 -86.5 -20.5c-57.333 0 -106.333 10.833 -147 32.5s-71.5 51.667 -92.5 90s-31.5 82.5 -31.5 132.5c0 83.333 26.833 150.166 80.5 200.499s133.167 75.5 238.5 75.5h467l5 -45h-194zM244.998 59.501c21.333 -21.667 48.333 -32.498 81 -32.498
c33.333 0 60.833 10.667 82.5 32s32.5 48.666 32.5 81.999s-10.833 60.833 -32.5 82.5s-49.167 32.5 -82.5 32.5c-32.667 0 -59.667 -10.833 -81 -32.5s-32 -49.167 -32 -82.5c0 -32.667 10.667 -59.834 32 -81.501z" />
    <glyph glyph-name="tm_Ai" unicode="&#xb90;" horiz-adv-x="830" 
d="M752 25.5c6 -22.333 8.99707 -47.5 8.99707 -75.5c0 -29.333 -7.5 -55.833 -22.5 -79.5s-35.833 -42.167 -62.5 -55.5s-56.667 -20 -90 -20c-36 0 -68.333 7.83301 -97 23.5s-51.334 37.5 -68.001 65.5c-16.667 -27.333 -40.5 -49 -71.5 -65s-66.167 -24 -105.5 -24
c-36 0 -68.333 7.5 -97 22.5s-51.167 35.667 -67.5 62s-24.5 55.833 -24.5 88.5c0 114.667 90 184 270 208l180 24c74.667 10 128.334 28.667 161.001 56s49.334 61.333 50.001 102c0 35.333 -11 64.833 -33 88.5s-49.667 35.5 -83 35.5c-39.333 0 -72 -13.333 -98 -40
s-39 -59.667 -39 -99v-69h-56v69c0 40 -13.333 73.167 -40 99.5s-60.667 39.5 -102 39.5c-52 0 -91.667 -15.667 -119 -47c9.33301 1.33301 17 2 23 2c29.333 0 53.5 -9 72.5 -27s28.5 -41.333 28.5 -70c0 -27.333 -9.83301 -50 -29.5 -68s-44.5 -27 -74.5 -27
s-54.833 9 -74.5 27s-29.5 41.333 -29.5 70c0 36 8.66699 68.333 26 97s41.5 51.167 72.5 67.5s65.833 24.5 104.5 24.5c36.667 0 69.334 -8.33301 98.001 -25s52.667 -39.667 72 -69c40 62.667 95 94 165 94c33.333 0 63.333 -7.5 90 -22.5s47.5 -35.667 62.5 -62
s22.5 -55.833 22.5 -88.5c0 -114.667 -90 -184 -270 -208l-180 -24c-139.333 -18.667 -209.666 -71.334 -210.999 -158.001c0 -36 12.167 -65.833 36.5 -89.5s55.5 -35.5 93.5 -35.5c28 0 53.333 6.16699 76 18.5s40.5 29.166 53.5 50.499s19.5 45 19.5 71v69h55v-69
c0 -40 13 -73.333 39 -100s59 -40 99 -40c33.333 0 61 10.167 83 30.5s33 45.833 33 76.5c0 20.667 -3.16699 44.334 -9.5 71.001s-14.833 51.334 -25.5 74.001l56 6c13.333 -28 23 -53.167 29 -75.5zM129.997 379c-10.667 -8.66699 -16.3311 -20 -16.998 -34v-5
c0 -14.667 5.16699 -26.667 15.5 -36s23.166 -14 38.499 -14c14.667 0 27 4.66699 37 14s15.333 21 16 35c0 15.333 -4.83301 28 -14.5 38s-21.834 15 -36.501 15c-15.333 0 -28.333 -4.33301 -39 -13z" />
    <glyph glyph-name="tm_O" unicode="&#xb92;" horiz-adv-x="808" 
d="M568 41.5c21.333 -21 52.333 -31.5 93 -31.5h63v-45h-63c-23.333 0 -44 2.33301 -62 7v-22c0 -32 -8.16699 -60.833 -24.5 -86.5s-39 -45.834 -68 -60.501s-61.833 -22 -98.5 -22s-69.5 7.33301 -98.5 22s-51.667 34.834 -68 60.501s-24.5 54.5 -24.5 86.5v50h56v-50
c0 -34.667 12.667 -63.334 38 -86.001s57.666 -34 96.999 -34s71.833 11.333 97.5 34s38.5 51.334 38.5 86.001v47c-19.333 14 -34.166 32.5 -44.499 55.5s-15.5 49.833 -15.5 80.5v136h52c0.666992 -26.667 8.66699 -49 24 -67s35 -27 59 -27s42.5 9.83301 55.5 29.5
s19.5 45.5 19.5 77.5c0 38.667 -12.667 73.5 -38 104.5s-60 55.167 -104 72.5s-93.333 26 -148 26c-56 0 -106.333 -9.33301 -151 -28s-79.5 -44.334 -104.5 -77.001s-37.5 -69.667 -37.5 -111v-1c8 22 21.833 39.5 41.5 52.5s42.834 19.5 69.501 19.5
c37.333 0 68 -11 92 -33s36 -50.333 36 -85c0 -35.333 -12.167 -64.166 -36.5 -86.499s-55.5 -33.5 -93.5 -33.5c-30 0 -57.667 7.16699 -83 21.5s-45.333 34.333 -60 60s-22 54.167 -22 85.5c0 50.667 15 96.167 45 136.5s71.5 71.833 124.5 94.5s112.833 34 179.5 34
s126.5 -10.833 179.5 -32.5s94.5 -51.667 124.5 -90s45 -81.5 45 -129.5c0 -46 -12 -83.5 -36 -112.5s-56.667 -43.5 -98 -43.5c-32.667 0 -60.334 10.333 -83.001 31v-24c0 -40 10.667 -70.5 32 -91.5zM166.5 275.5c-14.333 -13.667 -21.499 -31.5 -21.499 -53.5
c0 -21.333 6.83301 -39 20.5 -53s31.5 -21.333 53.5 -22v0h1c21.333 0 39.166 7 53.499 21s21.833 32 22.5 54c0 22 -7 39.833 -21 53.5s-32 20.5 -54 20.5s-40.167 -6.83301 -54.5 -20.5z" />
    <glyph glyph-name="tm_Oo" unicode="&#xb93;" horiz-adv-x="808" 
d="M568 41.5c21.333 -21 52.334 -31.5 93.001 -31.5h63v-45h-63c-23.333 0 -44 2.33301 -62 7v-22c0 -32 -8.66699 -60.833 -26 -86.5s-41.166 -45.834 -71.499 -60.501s-64.5 -22 -102.5 -22c-37.333 0 -70.833 5.66699 -100.5 17s-52.834 27 -69.501 47s-25 42.667 -25 68
c0 34 12.167 62.167 36.5 84.5s55.166 33.5 92.499 33.5h20v-45h-20c-20.667 0 -37.5 -6.83301 -50.5 -20.5s-19.5 -31.167 -19.5 -52.5c0 -24 12.833 -43.833 38.5 -59.5s58.167 -23.5 97.5 -23.5c42 0 76.667 11.333 104 34s41 51.334 41 86.001v47
c-40 30 -60 75.333 -60 136v136h52c0.666992 -26.667 8.66699 -49 24 -67s35 -27 59 -27s42.5 9.83301 55.5 29.5s19.5 45.5 19.5 77.5c0 38.667 -12.667 73.5 -38 104.5s-60 55.167 -104 72.5s-93.333 26 -148 26c-56 0 -106.333 -9.33301 -151 -28
s-79.5 -44.334 -104.5 -77.001s-37.5 -69.667 -37.5 -111v-1c8 22 21.833 39.5 41.5 52.5s42.834 19.5 69.501 19.5c37.333 0 68 -11 92 -33s36 -50.333 36 -85c0 -35.333 -12.167 -64.166 -36.5 -86.499s-55.5 -33.5 -93.5 -33.5c-30 0 -57.667 7.16699 -83 21.5
s-45.333 34.333 -60 60s-22 54.167 -22 85.5c0 50.667 15 96.167 45 136.5s71.5 71.833 124.5 94.5s112.833 34 179.5 34s126.5 -10.833 179.5 -32.5s94.5 -51.667 124.5 -90s45 -81.5 45 -129.5c0 -46 -12 -83.5 -36 -112.5s-56.667 -43.5 -98 -43.5
c-32.667 0 -60.334 10.333 -83.001 31v-24c0 -40 10.667 -70.5 32 -91.5zM166.501 275.5c-14.333 -13.667 -21.499 -31.5 -21.499 -53.5c0 -21.333 6.83301 -39 20.5 -53s31.5 -21.333 53.5 -22v0h1c21.333 0 39.166 7 53.499 21s21.833 32 22.5 54c0 22 -7 39.833 -21 53.5
s-32 20.5 -54 20.5s-40.167 -6.83301 -54.5 -20.5z" />
    <glyph glyph-name="tm_Au" unicode="&#xb94;" horiz-adv-x="2011" 
d="M568 41.5c21.333 -21 52.333 -31.5 93 -31.5h63v-45h-63c-23.333 0 -44 2.33301 -62 7v-22c0 -32 -8.16699 -60.833 -24.5 -86.5s-39 -45.834 -68 -60.501s-61.833 -22 -98.5 -22s-69.5 7.33301 -98.5 22s-51.667 34.834 -68 60.501s-24.5 54.5 -24.5 86.5v50h56v-50
c0 -34.667 12.667 -63.334 38 -86.001s57.666 -34 96.999 -34s71.833 11.333 97.5 34s38.5 51.334 38.5 86.001v47c-19.333 14 -34.166 32.5 -44.499 55.5s-15.5 49.833 -15.5 80.5v136h52c0.666992 -26.667 8.66699 -49 24 -67s35 -27 59 -27s42.5 9.83301 55.5 29.5
s19.5 45.5 19.5 77.5c0 38.667 -12.667 73.5 -38 104.5s-60 55.167 -104 72.5s-93.333 26 -148 26c-56 0 -106.333 -9.33301 -151 -28s-79.5 -44.334 -104.5 -77.001s-37.5 -69.667 -37.5 -111v-1c8 22 21.833 39.5 41.5 52.5s42.834 19.5 69.501 19.5
c37.333 0 68 -11 92 -33s36 -50.333 36 -85c0 -35.333 -12.167 -64.166 -36.5 -86.499s-55.5 -33.5 -93.5 -33.5c-30 0 -57.667 7.16699 -83 21.5s-45.333 34.333 -60 60s-22 54.167 -22 85.5c0 50.667 15 96.167 45 136.5s71.5 71.833 124.5 94.5s112.833 34 179.5 34
s126.5 -10.833 179.5 -32.5s94.5 -51.667 124.5 -90s45 -81.5 45 -129.5c0 -46 -12 -83.5 -36 -112.5s-56.667 -43.5 -98 -43.5c-32.667 0 -60.334 10.333 -83.001 31v-24c0 -40 10.667 -70.5 32 -91.5zM166.5 275.5c-14.333 -13.667 -21.499 -31.5 -21.499 -53.5
c0 -21.333 6.83301 -39 20.5 -53s31.5 -21.333 53.5 -22v0h1c21.333 0 39.166 7 53.499 21s21.833 32 22.5 54c0 22 -7 39.833 -21 53.5s-32 20.5 -54 20.5s-40.167 -6.83301 -54.5 -20.5zM1808 468l-0.00195312 -468.004h-56v468h-263v-468h-56v228
c0 48.667 -11.167 92.334 -33.5 131.001s-52.666 68.834 -90.999 90.501s-80.5 32.5 -126.5 32.5c-52.667 0 -98.667 -10.5 -138 -31.5s-69.5 -50 -90.5 -87s-31.5 -79.167 -31.5 -126.5c0 -71.333 22.333 -126 67 -164c-11.333 20.667 -17 43.334 -17 68.001
c0 30.667 7 58.167 21 82.5s33.333 43.333 58 57s52.334 20.5 83.001 20.5c32 0 60.833 -6.83301 86.5 -20.5s45.834 -32.667 60.501 -57s22 -51.833 22 -82.5c0 -30 -7.33301 -57.167 -22 -81.5s-34.834 -43.333 -60.501 -57s-54.5 -20.5 -86.5 -20.5
c-57.333 0 -106.333 10.833 -147 32.5s-71.5 51.667 -92.5 90s-31.5 82.5 -31.5 132.5c0 56.667 13 107.334 39 152.001s63.167 79.5 111.5 104.5s104.5 37.5 168.5 37.5c52 0 100.333 -12.333 145 -37s80 -58.667 106 -102v121h564l4 -45h-193zM1053 59.4961
c21.333 -21.667 48.333 -32.498 81 -32.498c33.333 0 60.833 10.667 82.5 32s32.5 48.666 32.5 81.999s-10.833 60.833 -32.5 82.5s-49.167 32.5 -82.5 32.5c-32.667 0 -59.667 -10.833 -81 -32.5s-32 -49.167 -32 -82.5c0 -32.667 10.667 -59.834 32 -81.501z" />
    <glyph glyph-name="tm_Ka" unicode="&#xb95;" horiz-adv-x="736" 
d="M649 250.5c34.667 -28.333 52 -65.1641 52 -110.497c0 -30.667 -8.33301 -57.834 -25 -81.501s-40.5 -42.334 -71.5 -56.001s-67.5 -20.5 -109.5 -20.5v45c46 0 81.833 10.5 107.5 31.5s38.5 48.167 38.5 81.5c0 32.667 -11.667 58.834 -35 78.501s-56 29.5 -98 29.5h-45
v-43c0 -69.333 -20 -123.833 -60 -163.5s-95.333 -59.5 -166 -59.5c-37.333 0 -70.5 6.66699 -99.5 20s-51.667 31.666 -68 54.999s-24.5 49.666 -24.5 78.999c0 36.667 10.5 68 31.5 94s50.5 44 88.5 54v229h467l5 -45h-174v-175h44c60 0 107.333 -14.167 142 -42.5z
M234 293.002h173v175h-186v-175h13zM236 248.002c-42 0 -74.5 -10.501 -97.5 -31.501s-34.5 -48.167 -34.5 -81.5c0 -30 12.333 -54.833 37 -74.5s56.667 -29.5 96 -29.5c54 0 95.833 15.333 125.5 46s44.5 73.334 44.5 128.001v43h-171z" />
    <glyph glyph-name="tm_Nga" unicode="&#xb99;" horiz-adv-x="954" 
d="M859 0l-518 -0.000976562v45h130c50 0 89.333 13.833 118 41.5s43 63.834 43 108.501c0 36.667 -9.5 66.167 -28.5 88.5s-46.167 33.5 -81.5 33.5c-36.667 0 -66.667 -13.167 -90 -39.5s-35 -59.5 -35 -99.5v-27h-56v317h-191v-468h-55v513h491l4 -45h-193v-162
c16 18.667 34.833 33.167 56.5 43.5s45.5 15.5 71.5 15.5c51.333 0 91.833 -15.667 121.5 -47s44.5 -72.333 44.5 -123c0 -31.333 -6.66699 -60 -20 -86s-32.333 -47.333 -57 -64h189v468h56v-513z" />
    <glyph glyph-name="tm_Ca" unicode="&#xb9a;" horiz-adv-x="672" 
d="M463 248v-42.998c0 -69.333 -20 -123.833 -60 -163.5s-95.333 -59.5 -166 -59.5c-37.333 0 -70.5 6.66699 -99.5 20s-51.667 31.666 -68 54.999s-24.5 49.666 -24.5 78.999c0 36.667 10.5 68 31.5 94s50.5 44 88.5 54v229h467l5 -45h-174v-175h169l5 -45h-174z
M234 293.002h173v175h-186v-175h13zM236 248.002c-42 0 -74.5 -10.501 -97.5 -31.501s-34.5 -48.167 -34.5 -81.5c0 -30 12.333 -54.833 37 -74.5s56.667 -29.5 96 -29.5c54 0 95.833 15.333 125.5 46s44.5 73.334 44.5 128.001v43h-171z" />
    <glyph glyph-name="tm_Ja" unicode="&#xb9c;" horiz-adv-x="830" 
d="M736.5 33c25.667 -24.667 38.498 -57 38.498 -97c0 -26 -7.33301 -49.5 -22 -70.5s-35 -37.5 -61 -49.5s-55.333 -18 -88 -18h-122v45h122c34 0 61.167 8.66699 81.5 26s30.5 39.666 30.5 66.999c0 26 -6.83301 46.833 -20.5 62.5s-35.5 23.5 -65.5 23.5
c-27.333 0 -53.333 -8.33301 -78 -25s-56.334 -42.667 -95.001 -78c-29.333 -27.333 -54.333 -49.166 -75 -65.499s-43.5 -30.166 -68.5 -41.499s-51.167 -17 -78.5 -17c-54 0 -97.5 16.167 -130.5 48.5s-49.5 73.833 -49.5 124.5c0 114.667 90 184 270 208l180 24
c74.667 10 128.334 28.667 161.001 56s49.334 61.333 50.001 102c0 35.333 -11 64.833 -33 88.5s-49.667 35.5 -83 35.5c-39.333 0 -72 -13.333 -98 -40s-39 -59.667 -39 -99v-69h-56v69c0 40 -13.333 73.167 -40 99.5s-60.667 39.5 -102 39.5
c-52 0 -91.667 -15.667 -119 -47c9.33301 1.33301 17 2 23 2c29.333 0 53.5 -9 72.5 -27s28.5 -41.333 28.5 -70c0 -27.333 -9.83301 -50 -29.5 -68s-44.5 -27 -74.5 -27s-54.833 9 -74.5 27s-29.5 41.333 -29.5 70c0 36 8.66699 68.333 26 97s41.5 51.167 72.5 67.5
s65.833 24.5 104.5 24.5c36.667 0 69.334 -8.33301 98.001 -25s52.667 -39.667 72 -69c40 62.667 95 94 165 94c33.333 0 63.333 -7.5 90 -22.5s47.5 -35.667 62.5 -62s22.5 -55.833 22.5 -88.5c0 -114.667 -90 -184 -270 -208l-180 -24
c-139.333 -18.667 -209.666 -71.334 -210.999 -158.001c0 -36.667 10.833 -66.667 32.5 -90s51.167 -35 88.5 -35c29.333 0 57.666 9 84.999 27s61.333 45.333 102 82c30 26.667 54.667 47.667 74 63s40.5 28.333 63.5 39s46.5 16 70.5 16
c45.333 0 80.833 -12.333 106.5 -37zM129.998 379c-10.667 -8.66699 -16.3311 -20 -16.998 -34v-5c0 -14.667 5.16699 -26.667 15.5 -36s23.166 -14 38.499 -14c14.667 0 27 4.66699 37 14s15.333 21 16 35c0 15.333 -4.83301 28 -14.5 38s-21.834 15 -36.501 15
c-15.333 0 -28.333 -4.33301 -39 -13z" />
    <glyph glyph-name="tm_Nya" unicode="&#xb9e;" horiz-adv-x="1208" 
d="M1109 294.5c29.333 -41 44 -95.498 44 -163.498c0 -82.667 -21.667 -153 -65 -211s-104 -101.833 -182 -131.5s-168.333 -44.5 -271 -44.5c-112 0 -210.167 16.5 -294.5 49.5s-149.666 81.5 -195.999 145.5s-69.5 141 -69.5 231c0 63.333 13.667 128.166 41 194.499
s62 119.166 104 158.499l57 -10c-41.333 -33.333 -75.5 -82.5 -102.5 -147.5s-40.5 -130.833 -40.5 -197.5c0 -80 20.667 -148.167 62 -204.5s99.666 -98.833 174.999 -127.5s163.333 -43 264 -43c91.333 0 171.333 12.833 240 38.5s122.167 63.834 160.5 114.501
s57.5 112.334 57.5 185.001c0 54 -9.16699 97 -27.5 129s-47.166 48 -86.499 48c-34.667 0 -63.5 -13.167 -86.5 -39.5s-34.5 -59.5 -34.5 -99.5v-169h-55v468h-187c-90 0 -157.333 -20.833 -202 -62.5s-67 -97.834 -67 -168.501c0 -34.667 5.83301 -66.167 17.5 -94.5
s28.5 -51.833 50.5 -70.5c-11.333 20.667 -17 43.667 -17 69c0 30.667 7 58.167 21 82.5s33.333 43.333 58 57s52.334 20.5 83.001 20.5c32 0 60.833 -6.83301 86.5 -20.5s45.667 -32.667 60 -57s21.5 -51.833 21.5 -82.5c0 -30 -7.16699 -57.167 -21.5 -81.5
s-34.333 -43.333 -60 -57s-54.5 -20.5 -86.5 -20.5c-57.333 0 -106.5 10.833 -147.5 32.5s-72 51.667 -93 90s-31.5 82.5 -31.5 132.5c0 83.333 27 150.166 81 200.499s133.333 75.5 238 75.5h440l5 -45h-194v-170c31.333 38.667 72.666 58 123.999 58
c55.333 0 97.666 -20.5 126.999 -61.5zM478.5 59.502c21.667 -21.667 48.832 -32.5 81.499 -32.5c33.333 0 60.666 10.833 81.999 32.5s32 48.834 32 81.501c0 33.333 -10.667 60.833 -32 82.5s-48.666 32.5 -81.999 32.5s-60.666 -10.833 -81.999 -32.5
s-32 -49.167 -32 -82.5c0 -32.667 10.833 -59.834 32.5 -81.501z" />
    <glyph glyph-name="tm_Tta" unicode="&#xb9f;" horiz-adv-x="717" 
d="M150 518l-55 -5v-513h612l-4 45h-553v473z" />
    <glyph glyph-name="tm_Nna" unicode="&#xba3;" horiz-adv-x="1676" 
d="M1472 468v-467.995h-56v468h-104c-59.333 0 -112.666 -12.333 -159.999 -37c32 -32.667 56.667 -71.167 74 -115.5s26 -92.5 26 -144.5c0 -56.667 -13.833 -102.334 -41.5 -137.001s-65.167 -52 -112.5 -52s-85 17.333 -113 52s-42 80.334 -42 137.001
c0 52.667 11 101.667 33 147s52.667 83.666 92 114.999c-47.333 32.667 -101.333 49 -162 49c-64 0 -119 -15.667 -165 -47c40.667 -32.667 72.167 -71.834 94.5 -117.501s33.5 -94.5 33.5 -146.5c0 -56.667 -14 -102.334 -42 -137.001s-65.667 -52 -113 -52
c-46.667 0 -84.167 17.5 -112.5 52.5s-42.5 80.5 -42.5 136.5c0 50 8.66699 97.5 26 142.5s42 84.167 74 117.5c-60 34 -131 51 -213 51c-66 0 -124.167 -11 -174.5 -33s-89.166 -52.167 -116.499 -90.5s-41 -81.833 -41 -130.5c0 -32.667 5.83301 -62.334 17.5 -89.001
s28.5 -49 50.5 -67c-12 20 -18 43 -18 69c0 30.667 7 58.167 21 82.5s33.333 43.333 58 57s52.334 20.5 83.001 20.5c32 0 60.833 -6.83301 86.5 -20.5s45.834 -32.667 60.501 -57s22 -51.833 22 -82.5c0 -30 -7.33301 -57.167 -22 -81.5s-34.834 -43.333 -60.501 -57
s-54.5 -20.5 -86.5 -20.5c-56.667 0 -105.5 10.667 -146.5 32s-72 50.666 -93 87.999s-31.5 79.333 -31.5 126c0 58 16.167 110 48.5 156s78.166 82 137.499 108s127.666 39 204.999 39c96 0 180 -22 252 -66c59.333 44 128.666 66 207.999 66c80 0 149.667 -22.333 209 -67
c59.333 32.667 125 49 197 49h349l5 -45h-194zM782 301.005c-18.667 39.333 -45.333 73.001 -80 101.001c-27.333 -28 -48 -62 -62 -102s-21 -83 -21 -129c0 -40.667 8.66699 -74.167 26 -100.5s40.333 -39.5 69 -39.5c30 0 53.5 13 70.5 39s25.5 59.667 25.5 101
c0 47.333 -9.33301 90.666 -28 129.999zM1170 299.006c-15.333 39.333 -36.666 73.3311 -63.999 101.998c-33.333 -27.333 -59 -60.666 -77 -99.999s-27 -82.666 -27 -129.999c0 -40.667 8.66699 -74.167 26 -100.5s40.666 -39.5 69.999 -39.5s52.5 13 69.5 39
s25.5 59.667 25.5 101c0 46 -7.66699 88.667 -23 128zM245.001 59.5039c21.333 -21.667 48.333 -32.498 81 -32.498c33.333 0 60.833 10.667 82.5 32s32.5 48.666 32.5 81.999s-10.833 60.833 -32.5 82.5s-49.167 32.5 -82.5 32.5c-32.667 0 -59.667 -10.833 -81 -32.5
s-32 -49.167 -32 -82.5c0 -32.667 10.667 -59.834 32 -81.501z" />
    <glyph glyph-name="tm_Ta" unicode="&#xba4;" horiz-adv-x="746" 
d="M604 265c31.333 -18.667 55.3311 -44.665 71.998 -77.998s25 -71.333 25 -114c0 -46 -11.833 -87 -35.5 -123s-57.667 -64 -102 -84s-95.833 -30 -154.5 -30h-153c-38 0 -71.333 -7.16699 -100 -21.5s-50.667 -33.5 -66 -57.5l-45 24
c17.333 29.333 42.833 53.333 76.5 72s73.834 28 120.501 28h167c48 0 89.333 8.16699 124 24.5s61.334 39 80.001 68s28 62.167 28 99.5c0 52 -13 94.167 -39 126.5s-61.667 48.5 -107 48.5h-32v-43c0 -69.333 -20 -123.833 -60 -163.5s-95.333 -59.5 -166 -59.5
c-37.333 0 -70.5 6.66699 -99.5 20s-51.667 31.666 -68 54.999s-24.5 49.666 -24.5 78.999c0 36.667 10.5 68 31.5 94s50.5 44 88.5 54v229h467l5 -45h-174v-175h31c42 0 78.667 -9.33301 110 -28zM233.998 293.002h173v175h-186v-175h13zM235.998 248.002
c-42 0 -74.5 -10.501 -97.5 -31.501s-34.5 -48.167 -34.5 -81.5c0 -30 12.333 -54.833 37 -74.5s56.667 -29.5 96 -29.5c54 0 95.833 15.333 125.5 46s44.5 73.334 44.5 128.001v43h-171z" />
    <glyph glyph-name="tm_Na" unicode="&#xba8;" horiz-adv-x="746" 
d="M647.5 294.5c29 -41 43.5 -95.5 43.5 -163.5c0 -57.333 -10.833 -108.333 -32.5 -153s-53.334 -79.5 -95.001 -104.5s-91.5 -37.5 -149.5 -37.5h-108c-38 0 -71.333 -7.16699 -100 -21.5s-50.667 -33.5 -66 -57.5l-45 24c17.333 29.333 42.833 53.333 76.5 72
s73.834 28 120.501 28h122c70 0 123.833 22.833 161.5 68.5s56.5 106.167 56.5 181.5c0 54 -9.33301 97 -28 129s-47.334 48 -86.001 48c-34.667 0 -63.5 -13.167 -86.5 -39.5s-34.5 -59.5 -34.5 -99.5v-169h-56v468h-191v-468h-55v513h491l4 -45h-193v-170
c14.667 18.667 32.334 33 53.001 43s44 15 70 15c56 0 98.5 -20.5 127.5 -61.5z" />
    <glyph glyph-name="tm_Nnna" unicode="&#xba9;" horiz-adv-x="1292" 
d="M1089 468l0.000976562 -467.997h-56v468h-105c-66.667 0 -124.667 -15 -174 -45c36.667 -32 65 -69.667 85 -113s30 -89.666 30 -138.999c0 -56.667 -14 -102.334 -42 -137.001s-65.667 -52 -113 -52c-46.667 0 -84.167 17.5 -112.5 52.5s-42.5 80.5 -42.5 136.5
c0 50 9.83301 96.667 29.5 140s47.5 80.666 83.5 111.999c-64 39.333 -139.333 59 -226 59c-66 0 -124.167 -11 -174.5 -33s-89.166 -52.167 -116.499 -90.5s-41 -81.833 -41 -130.5c0 -32.667 5.83301 -62.334 17.5 -89.001s28.5 -49 50.5 -67c-12 20 -18 43 -18 69
c0 30.667 7 58.167 21 82.5s33.333 43.333 58 57s52.334 20.5 83.001 20.5c32 0 60.833 -6.83301 86.5 -20.5s45.834 -32.667 60.501 -57s22 -51.833 22 -82.5c0 -30 -7.33301 -57.167 -22 -81.5s-34.834 -43.333 -60.501 -57s-54.5 -20.5 -86.5 -20.5
c-56.667 0 -105.5 10.667 -146.5 32s-72 50.666 -93 87.999s-31.5 79.333 -31.5 126c0 58 16.167 110 48.5 156s78.166 82 137.499 108s127.666 39 204.999 39c52 0 100.667 -6.66699 146 -20s86 -32.333 122 -57c61.333 39.333 132.666 59 213.999 59h350l4 -45h-193z
M785.001 294.503c-16.667 37.667 -40.667 70.499 -72 98.499c-30 -27.333 -53.167 -60 -69.5 -98s-24.5 -79.333 -24.5 -124c0 -40.667 8.66699 -74.167 26 -100.5s40.333 -39.5 69 -39.5c30 0 53.5 13 70.5 39s25.5 59.667 25.5 101c0 44.667 -8.33301 85.834 -25 123.501z
M245.001 59.502c21.333 -21.667 48.333 -32.498 81 -32.498c33.333 0 60.833 10.667 82.5 32s32.5 48.666 32.5 81.999s-10.833 60.833 -32.5 82.5s-49.167 32.5 -82.5 32.5c-32.667 0 -59.667 -10.833 -81 -32.5s-32 -49.167 -32 -82.5
c0 -32.667 10.667 -59.834 32 -81.501z" />
    <glyph glyph-name="tm_Pa" unicode="&#xbaa;" horiz-adv-x="707" 
d="M95 0v513l55 5v-473h406v468h56v-513h-517z" />
    <glyph glyph-name="tm_Ma" unicode="&#xbae;" horiz-adv-x="808" 
d="M655 493c32 -25.333 56.334 -60.668 73.001 -106.001s25 -97.333 25 -156c0 -69.333 -17.5 -125.166 -52.5 -167.499s-84.5 -63.5 -148.5 -63.5h-457v513l55 5v-473h225v304c0 58.667 15.167 103.667 45.5 135s70.166 47 119.499 47c44.667 0 83 -12.667 115 -38z
M657.501 95.998c24.333 34 36.501 79 36.501 135c0 74.667 -13.333 135.167 -40 181.5s-63.334 69.5 -110.001 69.5c-34 0 -61.333 -11.167 -82 -33.5s-31 -54.833 -31 -97.5v-306h121c46 0 81.167 17 105.5 51z" />
    <glyph glyph-name="tm_Ya" unicode="&#xbaf;" horiz-adv-x="909" 
d="M814 0l-428 -0.000976562v52c-14.667 -22 -33 -39.167 -55 -51.5s-47 -18.5 -75 -18.5c-52 0 -93.5 16.833 -124.5 50.5s-46.5 84.167 -46.5 151.5v329l55 5v-333c0 -102.667 38.667 -154 116 -154c42.667 0 75 15.333 97 46s33 71.334 33 122.001v314h56v-468h316v468
h56v-513z" />
    <glyph glyph-name="tm_Ra" unicode="&#xbb0;" horiz-adv-x="672" 
d="M469 26c0 -28 -1.66895 -49.832 -5.00195 -65.499s-9.66602 -29.334 -18.999 -41.001s-24 -23.167 -44 -34.5l-239 -135l-25 44l225 127c20.667 12 34.334 25.5 41.001 40.5s10 38.833 10 71.5v435h-263v-468h-55v513h563l4 -45h-193v-442z" />
    <glyph glyph-name="tm_Rra" unicode="&#xbb1;" horiz-adv-x="802" 
d="M696 449.5c34 -54.333 51 -127.165 51 -218.498c0 -76.667 -13.167 -144.834 -39.5 -204.501s-64.666 -106.334 -114.999 -140.001s-110.166 -50.5 -179.499 -50.5h-117c-38 0 -71.333 -7.16699 -100 -21.5s-50.667 -33.5 -66 -57.5l-45 24
c17.333 29.333 42.833 53.333 76.5 72s73.834 28 120.501 28h131c58 0 107.667 14.833 149 44.5s72.666 71 93.999 124s32 113.5 32 181.5c0 167.333 -47.333 251 -142 251c-20 0 -39.167 -5 -57.5 -15s-33.5 -24.833 -45.5 -44.5s-18 -43.5 -18 -71.5v-351h-56v314
c-0.666992 52 -11 93 -31 123s-50.333 45 -91 45c-36 0 -62.833 -12 -80.5 -36s-26.5 -63.333 -26.5 -118v-328h-55v329c0 68 14.167 118.667 42.5 152s68.166 50 119.499 50c33.333 0 62.333 -8.5 87 -25.5s44 -40.833 58 -71.5c14.667 30 35.167 53.667 61.5 71
s56.166 26 89.499 26c68 0 119 -27.167 153 -81.5z" />
    <glyph glyph-name="tm_La" unicode="&#xbb2;" horiz-adv-x="1002" 
d="M926 378.5c14 -53 20.999 -100.831 20.999 -143.498c0 -168.667 -61 -253 -183 -253c-61.333 0 -107 19.667 -137 59s-45 95.666 -45 168.999v49c0 70 -20.167 124.667 -60.5 164s-95.5 59 -165.5 59c-48 0 -90.333 -10.167 -127 -30.5s-65 -48.833 -85 -85.5
s-30 -78.667 -30 -126c0 -34 5.5 -65 16.5 -93s27.167 -51.667 48.5 -71c-10 19.333 -15 41 -15 65c0 30.667 7 58.167 21 82.5s33.333 43.333 58 57s52.334 20.5 83.001 20.5c32 0 60.833 -6.83301 86.5 -20.5s45.834 -32.667 60.501 -57s22 -51.833 22 -82.5
c0 -30 -7.33301 -57.167 -22 -81.5s-34.834 -43.333 -60.501 -57s-54.5 -20.5 -86.5 -20.5c-56.667 0 -105.5 11.167 -146.5 33.5s-72 53 -93 92s-31.5 83.167 -31.5 132.5c0 56.667 12.5 107 37.5 151s60.167 78.333 105.5 103s98 37 158 37
c56.667 0 106.334 -11 149.001 -33s75.5 -53.333 98.5 -94s34.5 -89 34.5 -145v-49c0 -58.667 10.167 -103.167 30.5 -133.5s52.166 -45.5 95.499 -45.5c84 0 126 67.333 126 202c0 42.667 -7 90.667 -21 144s-34.333 98.666 -61 135.999l55 14c28 -46 49 -95.5 63 -148.5z
M244.999 59.502c21.333 -21.667 48.333 -32.498 81 -32.498c33.333 0 60.833 10.667 82.5 32s32.5 48.666 32.5 81.999s-10.833 60.833 -32.5 82.5s-49.167 32.5 -82.5 32.5c-32.667 0 -59.667 -10.833 -81 -32.5s-32 -49.167 -32 -82.5
c0 -32.667 10.667 -59.834 32 -81.501z" />
    <glyph glyph-name="tm_Lla" unicode="&#xbb3;" horiz-adv-x="1203" 
d="M1000 468l-0.00195312 -468.004h-56v468h-263v-468h-56v228c0 48.667 -11.167 92.334 -33.5 131.001s-52.666 68.834 -90.999 90.501s-80.5 32.5 -126.5 32.5c-52.667 0 -98.667 -10.5 -138 -31.5s-69.5 -50 -90.5 -87s-31.5 -79.167 -31.5 -126.5
c0 -71.333 22.333 -126 67 -164c-11.333 20.667 -17 43.334 -17 68.001c0 30.667 7 58.167 21 82.5s33.333 43.333 58 57s52.334 20.5 83.001 20.5c32 0 60.833 -6.83301 86.5 -20.5s45.834 -32.667 60.501 -57s22 -51.833 22 -82.5c0 -30 -7.33301 -57.167 -22 -81.5
s-34.834 -43.333 -60.501 -57s-54.5 -20.5 -86.5 -20.5c-57.333 0 -106.333 10.833 -147 32.5s-71.5 51.667 -92.5 90s-31.5 82.5 -31.5 132.5c0 56.667 13 107.334 39 152.001s63.167 79.5 111.5 104.5s104.5 37.5 168.5 37.5c52 0 100.333 -12.333 145 -37
s80 -58.667 106 -102v121h564l4 -45h-193zM244.998 59.4961c21.333 -21.667 48.333 -32.498 81 -32.498c33.333 0 60.833 10.667 82.5 32s32.5 48.666 32.5 81.999s-10.833 60.833 -32.5 82.5s-49.167 32.5 -82.5 32.5c-32.667 0 -59.667 -10.833 -81 -32.5
s-32 -49.167 -32 -82.5c0 -32.667 10.667 -59.834 32 -81.501z" />
    <glyph glyph-name="tm_Llla" unicode="&#xbb4;" horiz-adv-x="808" 
d="M431 -45c0 -28 4.66895 -48.502 14.002 -61.502s24.333 -19.5 45 -19.5h177l4 -45h-182c-12 -39.333 -36 -71 -72 -95s-75.333 -36 -118 -36c-51.333 0 -92.5 14.333 -123.5 43s-46.5 65.334 -46.5 110.001h56c0 -30.667 10.167 -55.667 30.5 -75s48.166 -29 83.499 -29
c29.333 0 56 7.16699 80 21.5s42.333 37.166 55 68.499c-24 10.667 -39.833 25.5 -47.5 44.5s-11.5 44.167 -11.5 75.5v43h-280v513l55 5v-473h225v304c0 58.667 15.167 103.667 45.5 135s70.166 47 119.499 47c44.667 0 83 -12.667 115 -38s56.333 -60.666 73 -105.999
s25 -97.333 25 -156c0 -69.333 -17.5 -125.166 -52.5 -167.499s-84.5 -63.5 -148.5 -63.5h-121v-45zM552.002 44.998c46 0 81.168 17 105.501 51s36.5 79 36.5 135c0 74.667 -13.333 135.167 -40 181.5s-63.334 69.5 -110.001 69.5c-34 0 -61.333 -11.167 -82 -33.5
s-31 -54.833 -31 -97.5v-306h121z" />
    <glyph glyph-name="tm_Va" unicode="&#xbb5;" horiz-adv-x="1010" 
d="M915 0l-378.001 -0.00195312l1 45c24 26.667 43 58 57 94s21 74.667 21 116c0 42.667 -10.5 81.334 -31.5 116.001s-49.833 61.834 -86.5 81.501s-78 29.5 -124 29.5c-54 0 -100.5 -10.5 -139.5 -31.5s-68.833 -50 -89.5 -87s-31 -79.167 -31 -126.5
c0 -71.333 22.333 -126 67 -164c-11.333 20.667 -17 43.334 -17 68.001c0 30.667 7 58.167 21 82.5s33.333 43.333 58 57s52.334 20.5 83.001 20.5c32 0 60.833 -6.83301 86.5 -20.5s45.834 -32.667 60.501 -57s22 -51.833 22 -82.5c0 -30 -7.33301 -57.167 -22 -81.5
s-34.834 -43.333 -60.501 -57s-54.5 -20.5 -86.5 -20.5c-57.333 0 -106.333 10.833 -147 32.5s-71.5 51.667 -92.5 90s-31.5 82.5 -31.5 132.5c0 57.333 12.833 108.166 38.5 152.499s62.5 79 110.5 104s104.667 37.5 170 37.5c56.667 0 108 -11.833 154 -35.5
s82.167 -56.5 108.5 -98.5s39.5 -89.333 39.5 -142c0 -39.333 -6.16699 -77 -18.5 -113s-29.5 -68.333 -51.5 -97h253v468h56v-513zM244.999 59.498c21.333 -21.667 48.333 -32.498 81 -32.498c33.333 0 60.833 10.667 82.5 32s32.5 48.666 32.5 81.999
s-10.833 60.833 -32.5 82.5s-49.167 32.5 -82.5 32.5c-32.667 0 -59.667 -10.833 -81 -32.5s-32 -49.167 -32 -82.5c0 -32.667 10.667 -59.834 32 -81.501z" />
    <glyph glyph-name="tm_Sha" unicode="&#xbb6;" horiz-adv-x="1015" 
d="M907.5 449.5c35 -42.333 52.499 -98.168 52.499 -167.501c0 -58.667 -8.33301 -110.667 -25 -156s-41 -80.666 -73 -105.999s-70.333 -38 -115 -38c-49.333 0 -89.166 15.667 -119.499 47s-45.5 76.333 -45.5 135v304h-154v-284c0 -67.333 -15.5 -117.833 -46.5 -151.5
s-72.833 -50.5 -125.5 -50.5c-52 0 -93.5 16.833 -124.5 50.5s-46.5 84.167 -46.5 151.5v329l55 5v-333c0 -102.667 38.667 -154 116 -154c78 0 117 51.333 117 154v328h386c64 0 113.5 -21.167 148.5 -63.5zM860.999 100.498c26.667 46.333 39.999 106.833 39.999 181.5
c0 56 -12.167 101 -36.5 135s-59.5 51 -105.5 51h-121v-306c0 -42.667 10.333 -75.167 31 -97.5s48 -33.5 82 -33.5c46.667 0 83.334 23.167 110.001 69.5z" />
    <glyph glyph-name="tm_Ssa" unicode="&#xbb7;" horiz-adv-x="1341" 
d="M1040 0v-243.002h-56v243h-447l1 45c24 26.667 43 58 57 94s21 74.667 21 116c0 42.667 -10.5 81.334 -31.5 116.001s-49.833 61.834 -86.5 81.501s-78 29.5 -124 29.5c-54 0 -100.5 -10.5 -139.5 -31.5s-68.833 -50 -89.5 -87s-31 -79.167 -31 -126.5
c0 -71.333 22.333 -126 67 -164c-11.333 20.667 -17 43.334 -17 68.001c0 30.667 7 58.167 21 82.5s33.333 43.333 58 57s52.334 20.5 83.001 20.5c32 0 60.833 -6.83301 86.5 -20.5s45.834 -32.667 60.501 -57s22 -51.833 22 -82.5c0 -30 -7.33301 -57.167 -22 -81.5
s-34.834 -43.333 -60.501 -57s-54.5 -20.5 -86.5 -20.5c-57.333 0 -106.333 10.833 -147 32.5s-71.5 51.667 -92.5 90s-31.5 82.5 -31.5 132.5c0 57.333 12.833 108.166 38.5 152.499s62.5 79 110.5 104s104.667 37.5 170 37.5c56.667 0 108 -11.833 154 -35.5
s82.167 -56.5 108.5 -98.5s39.5 -89.333 39.5 -142c0 -38 -6.33301 -75.333 -19 -112s-29.334 -69.334 -50.001 -98.001h377v162c-22.667 -5.33301 -44.334 -8 -65.001 -8c-39.333 0 -74.166 7.16699 -104.499 21.5s-53.833 34.333 -70.5 60s-25 54.834 -25 87.501
c0 48 15 87.167 45 117.5s69.333 45.5 118 45.5c49.333 0 88 -14.5 116 -43.5s42 -68.5 42 -118.5v-85c52.667 34.667 102.667 96 150 184h56v-468h-206zM984 257.998l-0.00195312 105.999c0 37.333 -8.66699 66.333 -26 87s-42.666 31 -75.999 31
c-31.333 0 -56.5 -10.5 -75.5 -31.5s-28.5 -48.5 -28.5 -82.5c0 -35.333 12.833 -64.166 38.5 -86.499s59.834 -33.5 102.501 -33.5c24 0 45.667 3.33301 65 10zM1190 368.997c-42 -66 -92 -113.333 -150 -142v-182h150v324zM244.998 59.4971
c21.333 -21.667 48.333 -32.498 81 -32.498c33.333 0 60.833 10.667 82.5 32s32.5 48.666 32.5 81.999s-10.833 60.833 -32.5 82.5s-49.167 32.5 -82.5 32.5c-32.667 0 -59.667 -10.833 -81 -32.5s-32 -49.167 -32 -82.5c0 -32.667 10.667 -59.834 32 -81.501z" />
    <glyph glyph-name="tm_Sa" unicode="&#xbb8;" horiz-adv-x="1289" 
d="M1212.5 378.5c14.333 -53 21.498 -100.831 21.498 -143.498c0 -80.667 -14.833 -143 -44.5 -187s-76.167 -66 -139.5 -66c-61.333 0 -107 19.667 -137 59s-45 95.666 -45 168.999v128c0 43.333 -8.33301 77.833 -25 103.5s-42.334 38.5 -77.001 38.5
c-41.333 0 -73 -20.167 -95 -60.5s-33 -93.833 -33 -160.5v-259h-56v259c0 70 -20.167 124.667 -60.5 164s-95.5 59 -165.5 59c-48 0 -90.333 -10.167 -127 -30.5s-65 -48.833 -85 -85.5s-30 -78.667 -30 -126c0 -34 5.5 -65 16.5 -93s27.167 -51.667 48.5 -71
c-10 19.333 -15 41 -15 65c0 30.667 7 58.167 21 82.5s33.333 43.333 58 57s52.334 20.5 83.001 20.5c32 0 60.833 -6.83301 86.5 -20.5s45.834 -32.667 60.501 -57s22 -51.833 22 -82.5c0 -30 -7.33301 -57.167 -22 -81.5s-34.834 -43.333 -60.501 -57
s-54.5 -20.5 -86.5 -20.5c-56.667 0 -105.5 11.167 -146.5 33.5s-72 53 -93 92s-31.5 83.167 -31.5 132.5c0 56.667 12.5 107 37.5 151s60.167 78.333 105.5 103s98 37 158 37c59.333 0 110.833 -11.833 154.5 -35.5s76.5 -57.5 98.5 -101.5
c12.667 43.333 32.334 77 59.001 101s59.334 36 98.001 36c50.667 0 89.667 -17.833 117 -53.5s41 -82.5 41 -140.5v-127c0 -58.667 10.167 -103.167 30.5 -133.5s52.166 -45.5 95.499 -45.5c44.667 0 76.834 17.5 96.501 52.5s29.5 84.833 29.5 149.5
c0 42.667 -7 90.667 -21 144s-34.333 98.666 -61 135.999l55 14c28 -46 49.167 -95.5 63.5 -148.5zM244.998 59.502c21.333 -21.667 48.333 -32.498 81 -32.498c33.333 0 60.833 10.667 82.5 32s32.5 48.666 32.5 81.999s-10.833 60.833 -32.5 82.5s-49.167 32.5 -82.5 32.5
c-32.667 0 -59.667 -10.833 -81 -32.5s-32 -49.167 -32 -82.5c0 -32.667 10.667 -59.834 32 -81.501z" />
    <glyph glyph-name="tm_Ha" unicode="&#xbb9;" horiz-adv-x="1541" 
d="M1430.5 448.5c37 -55 55.499 -127.501 55.499 -217.501c0 -76.667 -13.333 -144.834 -40 -204.501s-65.167 -106.334 -115.5 -140.001s-109.833 -50.5 -178.5 -50.5h-887c-38 0 -71.167 -7.16699 -99.5 -21.5s-50.166 -33.5 -65.499 -57.5l-45 24
c17.333 29.333 42.833 53.333 76.5 72s73.834 28 120.501 28h900c57.333 0 106.666 14.833 147.999 44.5s72.666 71 93.999 124s32 113.5 32 181.5c0 76 -12.333 136.5 -37 181.5s-62.334 67.5 -113.001 67.5c-34 0 -61.333 -10.833 -82 -32.5s-31 -53.834 -31 -96.501v-351
h-55l-1 314c0 50.667 -10.167 91.334 -30.5 122.001s-50.5 46 -90.5 46c-36 0 -62.833 -12 -80.5 -36s-26.5 -63.333 -26.5 -118v-328h-342l1 45c24 26.667 43 58 57 94s21 74.667 21 116c0 42.667 -10.5 81.334 -31.5 116.001s-49.833 61.834 -86.5 81.501
s-78 29.5 -124 29.5c-54 0 -100.5 -10.5 -139.5 -31.5s-68.833 -50 -89.5 -87s-31 -79.167 -31 -126.5c0 -71.333 22.333 -126 67 -164c-11.333 20.667 -17 43.334 -17 68.001c0 30.667 7 58.167 21 82.5s33.333 43.333 58 57s52.334 20.5 83.001 20.5
c32 0 60.833 -6.83301 86.5 -20.5s45.834 -32.667 60.501 -57s22 -51.833 22 -82.5c0 -30 -7.33301 -57.167 -22 -81.5s-34.834 -43.333 -60.501 -57s-54.5 -20.5 -86.5 -20.5c-57.333 0 -106.333 10.833 -147 32.5s-71.5 51.667 -92.5 90s-31.5 82.5 -31.5 132.5
c0 57.333 12.833 108.166 38.5 152.499s62.5 79 110.5 104s104.667 37.5 170 37.5c56.667 0 108 -11.833 154 -35.5s82.167 -56.5 108.5 -98.5s39.5 -89.333 39.5 -142c0 -38.667 -6.33301 -76.5 -19 -113.5s-29.667 -69.167 -51 -96.5h217v284
c0 68 14.167 118.667 42.5 152s68.5 50 120.5 50c32 0 59.833 -7.66699 83.5 -23s42.5 -36.666 56.5 -63.999c13.333 28 32.833 49.5 58.5 64.5s54.834 22.5 87.501 22.5c68.667 0 121.5 -27.5 158.5 -82.5zM244.999 59.499c21.333 -21.667 48.333 -32.498 81 -32.498
c33.333 0 60.833 10.667 82.5 32s32.5 48.666 32.5 81.999s-10.833 60.833 -32.5 82.5s-49.167 32.5 -82.5 32.5c-32.667 0 -59.667 -10.833 -81 -32.5s-32 -49.167 -32 -82.5c0 -32.667 10.667 -59.834 32 -81.501z" />
    <glyph glyph-name="tm_VowelAa" unicode="&#xbbe;" horiz-adv-x="652" 
d="M393 0v468h-243v-468h-55v513h543l4 -45h-193v-468h-56z" />
    <glyph glyph-name="tm_VowelI" unicode="&#xbbf;" horiz-adv-x="245" 
d="M11.5 759.5c44.333 -25 78.5 -59.8301 102.5 -104.497s36 -95.334 36 -152.001v-503h-55v503c0 47.333 -9.66699 89.666 -29 126.999s-46.833 66.5 -82.5 87.5s-77.5 31.5 -125.5 31.5c-52.667 0 -94.167 -11.333 -124.5 -34s-45.5 -52 -45.5 -88
c0 -76 41.333 -114 124 -114h67v-36h-67c-60 0 -105.5 13.667 -136.5 41s-46.833 63.666 -47.5 108.999c0 32.667 9.33301 62 28 88s45.5 46.167 80.5 60.5s75.5 21.5 121.5 21.5c58 0 109.167 -12.5 153.5 -37.5z" />
    <glyph glyph-name="tm_VowelIi" unicode="&#xbc0;" horiz-adv-x="0" 
d="M-55 851.5c32 -17.667 57.167 -40.833 75.5 -69.5s27.5 -59.334 27.5 -92.001c0 -29.333 -9.5 -53.666 -28.5 -72.999s-42.833 -29 -71.5 -29s-52.667 8.83301 -72 26.5s-29 39.834 -29 66.501s9.16699 48.5 27.5 65.5s41.833 25.5 70.5 25.5c8.66699 0 17 -1 25 -3
c-14 18.667 -32.167 33.334 -54.5 44.001s-47.5 16 -75.5 16c-46.667 0 -85 -14.833 -115 -44.5s-45 -67.167 -45 -112.5c0 -46.667 12 -84.834 36 -114.501s56 -44.5 96 -44.5v-40c-36.667 0 -69.5 8.5 -98.5 25.5s-51.667 40.667 -68 71s-24.5 64.5 -24.5 102.5
c0 39.333 9.33301 74.666 28 105.999s44.5 55.833 77.5 73.5s70.833 26.5 113.5 26.5c38 0 73 -8.83301 105 -26.5zM-15.5 643.501c9.66699 9.66699 14.5 21.834 14.5 36.501c0 14 -4.83301 25.833 -14.5 35.5s-21.834 14.5 -36.501 14.5s-26.834 -4.83301 -36.501 -14.5
s-14.5 -21.5 -14.5 -35.5c0 -14.667 4.83301 -26.834 14.5 -36.501s21.834 -14.5 36.501 -14.5s26.834 4.83301 36.501 14.5z" />
    <glyph glyph-name="tm_VowelU" unicode="&#xbc1;" horiz-adv-x="469" 
d="M351.5 492.5c25.667 -13.667 45.834 -32.667 60.501 -57s22 -51.5 22 -81.5c0 -30.667 -7.33301 -58.167 -22 -82.5s-34.834 -43.333 -60.501 -57s-54.834 -20.5 -87.501 -20.5s-62.167 6.83301 -88.5 20.5s-46.833 32.667 -61.5 57s-22 51.833 -22 82.5
c0 46.667 16.667 84.667 50 114h-293v45h415c32.667 0 61.834 -6.83301 87.501 -20.5zM343 271.5c20.667 21.667 31 49.167 31 82.5s-10.333 60.666 -31 81.999s-47 32 -79 32c-33.333 0 -60.833 -10.667 -82.5 -32s-32.5 -48.666 -32.5 -81.999s10.833 -60.833 32.5 -82.5
s49.167 -32.5 82.5 -32.5c32 0 58.333 10.833 79 32.5z" />
    <glyph glyph-name="tm_VowelUu" unicode="&#xbc2;" horiz-adv-x="652" 
d="M494 579c38.667 -22 68.833 -52.6689 90.5 -92.002s32.5 -83.333 32.5 -132c0 -51.333 -12.667 -97.666 -38 -138.999s-60.666 -73.5 -105.999 -96.5s-96 -34.5 -152 -34.5h-57v45h57c46 0 86.833 9.66699 122.5 29s63.5 46 83.5 80s30 72.667 30 116
c0 40 -8.33301 75.833 -25 107.5s-39.667 56.334 -69 74.001s-62.333 26.5 -99 26.5c-62.667 0 -113.334 -16.667 -152.001 -50h52c32.667 0 61.834 -6.83301 87.501 -20.5s45.834 -32.667 60.501 -57s22 -51.5 22 -81.5c0 -30.667 -7.33301 -58.167 -22 -82.5
s-34.834 -43.333 -60.501 -57s-54.834 -20.5 -87.501 -20.5s-62.167 7.33301 -88.5 22s-46.833 34.834 -61.5 60.501s-22 54.5 -22 86.5c0 37.333 7.33301 72.333 22 105h-265v45h293c24.667 31.333 56.167 55.666 94.5 72.999s80.833 26 127.5 26c48 0 91.333 -11 130 -33z
M342.999 435.998c-20.667 21.333 -47 32.001 -79 32.001h-89c-17.333 -30.667 -26 -65.667 -26 -105c0 -35.333 10.833 -64.833 32.5 -88.5s49.167 -35.5 82.5 -35.5c32 0 58.333 10.833 79 32.5s31 49.167 31 82.5s-10.333 60.666 -31 81.999z" />
    <glyph glyph-name="tm_VowelE" unicode="&#xbc6;" horiz-adv-x="769" 
d="M596 588.5c52 -57.667 77.998 -138.834 77.998 -243.501v-345h-56v345c0 90.667 -20.833 160.167 -62.5 208.5s-102.167 72.5 -181.5 72.5c-53.333 0 -99.666 -13.167 -138.999 -39.5s-69.333 -62.833 -90 -109.5s-31 -99.667 -31 -159c0 -38.667 4.5 -74.667 13.5 -108
s21.5 -62.666 37.5 -87.999c-0.666992 4 -1 10.333 -1 19c0 30.667 7 58.167 21 82.5s33.333 43.333 58 57s52.334 20.5 83.001 20.5c32 0 60.833 -6.83301 86.5 -20.5s45.834 -32.667 60.501 -57s22 -51.833 22 -82.5c0 -30 -7.33301 -57.167 -22 -81.5
s-34.834 -43.333 -60.501 -57s-54.5 -20.5 -86.5 -20.5c-52 0 -98.5 14.5 -139.5 43.5s-73.167 69 -96.5 120s-35 108.5 -35 172.5c0 69.333 12.833 131 38.5 185s62.667 96.167 111 126.5s104.833 45.5 169.5 45.5c96 0 170 -28.833 222 -86.5zM244.998 223.5
c-21.333 -21.667 -32 -49.165 -32 -82.498c0 -32.667 10.667 -59.834 32 -81.501s48.333 -32.5 81 -32.5c33.333 0 60.833 10.667 82.5 32s32.5 48.666 32.5 81.999s-10.833 60.833 -32.5 82.5s-49.167 32.5 -82.5 32.5c-32.667 0 -59.667 -10.833 -81 -32.5z" />
    <glyph glyph-name="tm_VowelEe" unicode="&#xbc7;" horiz-adv-x="663" 
d="M568.5 233c26.333 -26 39.499 -58.6689 39.499 -98.002c0 -28.667 -8.83301 -54.667 -26.5 -78s-42.667 -41.666 -75 -54.999s-69.833 -20 -112.5 -20c-70.667 0 -131.5 15 -182.5 45s-89.833 71.167 -116.5 123.5s-40 111.833 -40 178.5c0 66 13.333 125.167 40 177.5
s65.5 93.5 116.5 123.5s111.833 45 182.5 45c42.667 0 80.167 -6.66699 112.5 -20s57.333 -31.666 75 -54.999s26.5 -49.333 26.5 -78c0 -39.333 -13.167 -72 -39.5 -98s-59.833 -39 -100.5 -39s-74.5 13 -101.5 39s-40.5 58.667 -40.5 98c0 23.333 5.83301 44.333 17.5 63
s27.5 34 47.5 46l-12 -1c-53.333 -2.66699 -100 -17.667 -140 -45s-70.833 -63.333 -92.5 -108s-32.5 -94 -32.5 -148s10.833 -103.5 32.5 -148.5s52.5 -81.167 92.5 -108.5s86.667 -42.333 140 -45l12 -1c-20 12 -35.667 27.333 -47 46s-17 39.667 -17 63
c0 39.333 13.333 72 40 98s60.334 39 101.001 39s74.167 -13 100.5 -39zM531.499 458.998c16.333 16.667 24.5 37.665 24.5 62.998c0 24.667 -8.16699 45.334 -24.5 62.001s-37.166 25 -62.499 25s-46.333 -8.16699 -63 -24.5s-25 -37.166 -25 -62.499
s8.33301 -46.333 25 -63s37.667 -25 63 -25s46.166 8.33301 62.499 25zM405.999 197.996c-16.667 -16.667 -25 -37.667 -25 -63s8.33301 -46.166 25 -62.499s37.667 -24.5 63 -24.5s46.166 8.16699 62.499 24.5s24.5 37.166 24.5 62.499s-8.16699 46.333 -24.5 63
s-37.166 25 -62.499 25s-46.333 -8.33301 -63 -25z" />
    <glyph glyph-name="tm_VowelAi" unicode="&#xbc8;" horiz-adv-x="1195" 
d="M1025 497.5c38 -22.333 66.667 -53.165 86 -92.498s29 -84.666 29 -135.999c0 -42 -7 -88 -21 -138s-35.333 -98.333 -64 -145l-55 14c26.667 38 47 82.167 61 132.5s21 96.5 21 138.5c0 63.333 -16.667 114.333 -50 153s-81.333 58 -144 58
c-54.667 0 -104 -15.667 -148 -47c41.333 -32.667 73.166 -71.667 95.499 -117s33.5 -94.333 33.5 -147c0 -56.667 -14 -102.334 -42 -137.001s-65.667 -52 -113 -52c-46.667 0 -84.167 17.5 -112.5 52.5s-42.5 80.5 -42.5 136.5c0 50.667 8.83301 98.334 26.5 143.001
s42.167 83.667 73.5 117c-60 34 -131 51 -213 51c-66 0 -124.167 -11 -174.5 -33s-89.166 -52.167 -116.499 -90.5s-41 -81.833 -41 -130.5c0 -32.667 5.83301 -62.334 17.5 -89.001s28.5 -49 50.5 -67c-12 20 -18 43 -18 69c0 30.667 7 58.167 21 82.5s33.333 43.333 58 57
s52.334 20.5 83.001 20.5c32 0 60.833 -6.83301 86.5 -20.5s45.834 -32.667 60.501 -57s22 -51.833 22 -82.5c0 -30 -7.33301 -57.167 -22 -81.5s-34.834 -43.333 -60.501 -57s-54.5 -20.5 -86.5 -20.5c-56.667 0 -105.5 10.667 -146.5 32s-72 50.666 -93 87.999
s-31.5 79.333 -31.5 126c0 58 16.167 110 48.5 156s78.166 82 137.499 108s127.666 39 204.999 39c95.333 0 179 -22 251 -66c26.667 21.333 56.334 37.666 89.001 48.999s66.667 17 102 17c53.333 0 99 -11.167 137 -33.5zM782 301.001
c-18.667 39.333 -45.333 73.001 -80 101.001c-26.667 -28.667 -47.167 -62.667 -61.5 -102s-21.5 -82.333 -21.5 -129c0 -40.667 8.66699 -74.167 26 -100.5s40.333 -39.5 69 -39.5c30 0 53.5 13 70.5 39s25.5 59.667 25.5 101c0 47.333 -9.33301 90.666 -28 129.999z
M245.001 59.502c21.333 -21.667 48.333 -32.498 81 -32.498c33.333 0 60.833 10.667 82.5 32s32.5 48.666 32.5 81.999s-10.833 60.833 -32.5 82.5s-49.167 32.5 -82.5 32.5c-32.667 0 -59.667 -10.833 -81 -32.5s-32 -49.167 -32 -82.5
c0 -32.667 10.667 -59.834 32 -81.501z" />
    <glyph glyph-name="tm_VowelO" unicode="&#xbca;" horiz-adv-x="1901" 
d="M596 588.5c52 -57.667 77.998 -138.834 77.998 -243.501v-345h-56v345c0 90.667 -20.833 160.167 -62.5 208.5s-102.167 72.5 -181.5 72.5c-53.333 0 -99.666 -13.167 -138.999 -39.5s-69.333 -62.833 -90 -109.5s-31 -99.667 -31 -159c0 -38.667 4.5 -74.667 13.5 -108
s21.5 -62.666 37.5 -87.999c-0.666992 4 -1 10.333 -1 19c0 30.667 7 58.167 21 82.5s33.333 43.333 58 57s52.334 20.5 83.001 20.5c32 0 60.833 -6.83301 86.5 -20.5s45.834 -32.667 60.501 -57s22 -51.833 22 -82.5c0 -30 -7.33301 -57.167 -22 -81.5
s-34.834 -43.333 -60.501 -57s-54.5 -20.5 -86.5 -20.5c-52 0 -98.5 14.5 -139.5 43.5s-73.167 69 -96.5 120s-35 108.5 -35 172.5c0 69.333 12.833 131 38.5 185s62.667 96.167 111 126.5s104.833 45.5 169.5 45.5c96 0 170 -28.833 222 -86.5zM244.998 223.5
c-21.333 -21.667 -32 -49.165 -32 -82.498c0 -32.667 10.667 -59.834 32 -81.501s48.333 -32.5 81 -32.5c33.333 0 60.833 10.667 82.5 32s32.5 48.666 32.5 81.999s-10.833 60.833 -32.5 82.5s-49.167 32.5 -82.5 32.5c-32.667 0 -59.667 -10.833 -81 -32.5z
M1631 0.00195312v468h-243v-468h-55v513h543l4 -45h-193v-468h-56zM1025 467.002c5.33301 5.33301 8 12.333 8 21s-2.66699 15.834 -8 21.501s-12.333 8.5 -21 8.5s-15.667 -2.83301 -21 -8.5s-8 -12.834 -8 -21.501s2.66699 -15.667 8 -21s12.333 -8 21 -8
s15.667 2.66699 21 8zM893.998 494.002c-5.33301 -5.33301 -8 -12.333 -8 -21s2.66699 -15.667 8 -21s12.333 -8 21 -8s15.667 2.66699 21 8s8 12.333 8 21s-2.66699 15.667 -8 21s-12.333 8 -21 8s-15.667 -2.66699 -21 -8zM1115 452.002c5.33301 5.33301 8 12.333 8 21
s-2.66699 15.667 -8 21s-12.333 8 -21 8s-15.667 -2.66699 -21 -8s-8 -12.333 -8 -21s2.66699 -15.667 8 -21s12.333 -8 21 -8s15.667 2.66699 21 8zM817.498 443.502c-5.66699 -5.66699 -8.5 -12.834 -8.5 -21.501s2.83301 -15.667 8.5 -21s12.834 -8 21.501 -8
s15.667 2.66699 21 8s8 12.333 8 21s-2.66699 15.834 -8 21.501s-12.333 8.5 -21 8.5s-15.834 -2.83301 -21.501 -8.5zM1191.5 401.002c5.66699 5.33301 8.5 12.333 8.5 21s-2.83301 15.834 -8.5 21.501s-12.834 8.5 -21.501 8.5s-15.667 -2.83301 -21 -8.5
s-8 -12.834 -8 -21.501s2.66699 -15.667 8 -21s12.333 -8 21 -8s15.834 2.66699 21.501 8zM769.498 364.502c-5.66699 -5.66699 -8.5 -12.834 -8.5 -21.501s2.83301 -15.667 8.5 -21s12.834 -8 21.501 -8s15.667 2.66699 21 8s8 12.333 8 21s-2.66699 15.834 -8 21.501
s-12.333 8.5 -21 8.5s-15.834 -2.83301 -21.501 -8.5zM1239 322.002c5.33301 5.33301 8 12.333 8 21s-2.66699 15.834 -8 21.501s-12.333 8.5 -21 8.5s-15.667 -2.83301 -21 -8.5s-8 -12.834 -8 -21.501s2.66699 -15.667 8 -21s12.333 -8 21 -8s15.667 2.66699 21 8z
M755.498 278.502c-5.66699 -5.66699 -8.5 -12.834 -8.5 -21.501s2.83301 -15.5 8.5 -20.5s12.834 -7.5 21.501 -7.5s15.667 2.5 21 7.5s8 11.833 8 20.5s-2.66699 15.834 -8 21.501s-12.333 8.5 -21 8.5s-15.834 -2.83301 -21.501 -8.5zM1253.5 236.502
c5.66699 5 8.5 11.833 8.5 20.5s-2.83301 15.834 -8.5 21.501s-12.834 8.5 -21.501 8.5s-15.667 -2.83301 -21 -8.5s-8 -12.834 -8 -21.501s2.66699 -15.5 8 -20.5s12.333 -7.5 21 -7.5s15.834 2.5 21.501 7.5zM769.498 195.002c-5.66699 -5.33301 -8.5 -12.333 -8.5 -21
s2.83301 -15.667 8.5 -21s12.834 -8 21.501 -8s15.667 2.66699 21 8s8 12.333 8 21s-2.66699 15.667 -8 21s-12.333 8 -21 8s-15.834 -2.66699 -21.501 -8zM1239 153.002c5.33301 5.33301 8 12.333 8 21s-2.66699 15.667 -8 21s-12.333 8 -21 8s-15.667 -2.66699 -21 -8
s-8 -12.333 -8 -21s2.66699 -15.667 8 -21s12.333 -8 21 -8s15.667 2.66699 21 8zM816.498 115.002c-5.66699 -5.33301 -8.5 -12.333 -8.5 -21s2.83301 -15.667 8.5 -21s12.834 -8 21.501 -8s15.667 2.66699 21 8s8 12.333 8 21s-2.66699 15.667 -8 21s-12.333 8 -21 8
s-15.834 -2.66699 -21.501 -8zM1192.5 73.002c5.66699 5.33301 8.5 12.333 8.5 21s-2.83301 15.667 -8.5 21s-12.834 8 -21.501 8s-15.667 -2.66699 -21 -8s-8 -12.333 -8 -21s2.66699 -15.667 8 -21s12.333 -8 21 -8s15.834 2.66699 21.501 8zM893.998 65.502
c-5.33301 -5.66699 -8 -12.834 -8 -21.501s2.66699 -15.667 8 -21s12.333 -8 21 -8s15.667 2.66699 21 8s8 12.333 8 21s-2.66699 15.834 -8 21.501s-12.333 8.5 -21 8.5s-15.667 -2.83301 -21 -8.5zM1115 23.002c5.33301 5.33301 8 12.333 8 21s-2.66699 15.834 -8 21.501
s-12.333 8.5 -21 8.5s-15.667 -2.83301 -21 -8.5s-8 -12.834 -8 -21.501s2.66699 -15.667 8 -21s12.333 -8 21 -8s15.667 2.66699 21 8zM1025 8.00195c5.33301 5.33301 8 12.333 8 21s-2.66699 15.834 -8 21.501s-12.333 8.5 -21 8.5s-15.667 -2.83301 -21 -8.5
s-8 -12.834 -8 -21.501s2.66699 -15.667 8 -21s12.333 -8 21 -8s15.667 2.66699 21 8z" />
    </font>
</defs>
</svg>
