<?xml version="1.0" standalone="no"?>
<!DOCTYPE svg PUBLIC "-//W3C//DTD SVG 1.1//EN" "http://www.w3.org/Graphics/SVG/1.1/DTD/svg11.dtd" >
<svg>
<metadata>
Created by FontForge 20090914 at Fri Mar 31 17:22:33 2017
 By www-data
Copyright 2014 Pria Ravichandran (pria.ravichandran@gmail.com)
</metadata>
<defs>
<font id="Catamaran-Medium" horiz-adv-x="541" >
  <font-face 
    font-family="Catamaran Medium"
    font-weight="500"
    font-stretch="normal"
    units-per-em="1000"
    panose-1="0 0 6 0 0 0 0 0 0 0"
    ascent="770"
    descent="-230"
    x-height="485"
    cap-height="680"
    bbox="-544.001 -377 2532 1320"
    underline-thickness="50"
    underline-position="-75"
    unicode-range="U+000D-U+FB02"
  />
<missing-glyph horiz-adv-x="671" 
d="M576 0v696h-482v-696h482zM191 76v543h287l1 -543h-288z" />
    <glyph glyph-name=".notdef" horiz-adv-x="671" 
d="M576 0v696h-482v-696h482zM191 76v543h287l1 -543h-288z" />
    <glyph glyph-name="uni0000" horiz-adv-x="0" 
 />
    <glyph glyph-name="uni0000" horiz-adv-x="0" 
 />
    <glyph glyph-name="nonmarkingreturn" unicode="&#xd;" horiz-adv-x="0" 
 />
    <glyph glyph-name="space" unicode=" " horiz-adv-x="230" 
 />
    <glyph glyph-name="exclam" unicode="!" horiz-adv-x="181" 
d="M143 702h-105l17 -472l73 -34zM48 102.5c-12 -11.667 -18 -25.834 -18 -42.501s6 -30.834 18 -42.501s26.333 -17.5 43 -17.5s30.834 5.83301 42.501 17.5s17.5 25.834 17.5 42.501s-5.83301 30.834 -17.5 42.501s-25.834 17.5 -42.501 17.5s-31 -5.83301 -43 -17.5z" />
    <glyph glyph-name="quotedbl" unicode="&#x22;" horiz-adv-x="350" 
d="M50.5 702.5c-12.333 -13 -18.5 -26.835 -18.5 -41.502s5.16699 -28.167 15.5 -40.5s21.5 -18.833 33.5 -19.5c-2 -18 -8 -33.167 -18 -45.5s-24.333 -25.833 -43 -40.5l23 -45c31.333 16.667 57.833 42.334 79.5 77.001s32.5 69 32.5 103
c0 20.667 -6.16699 37.834 -18.5 51.501s-26.833 20.5 -43.5 20.5c-16 0 -30.167 -6.5 -42.5 -19.5zM216.5 702.498c-12.333 -13 -18.499 -26.833 -18.499 -41.5s5.16699 -28.167 15.5 -40.5s21.833 -18.833 34.5 -19.5c-3.33301 -18 -10 -33.333 -20 -46
s-24.333 -26 -43 -40l24 -45c31.333 16.667 57.666 42.334 78.999 77.001s32 69 32 103c0 21.333 -6 38.666 -18 51.999s-26.333 20 -43 20c-16 0 -30.167 -6.5 -42.5 -19.5z" />
    <glyph glyph-name="numbersign" unicode="#" horiz-adv-x="540" 
d="M237 389l29 120l-81 2l-29 -122h-126l9 -73h99l-28 -122h-80l9 -73h54l-28 -123l80 -5l30 128h128l-28 -123l80 -5l29 128h126l-8 73h-101l29 122h80l-8 73h-55l28 120l-82 2l-28 -122h-128zM192 194l29 122h127l-29 -122h-127z" />
    <glyph glyph-name="dollar" unicode="$" horiz-adv-x="518" 
d="M443 651l-31.998 -76.0049c-23.333 11.333 -45.5 20.166 -66.5 26.499s-45.833 9.5 -74.5 9.5c-40 0 -72.333 -7.66699 -97 -23s-37 -37.333 -37 -66c0 -22 6.33301 -41.167 19 -57.5s30.667 -31.166 54 -44.499s57.666 -30.333 102.999 -51
c60.667 -27.333 105.167 -55.666 133.5 -84.999s42.5 -67.333 42.5 -114c0 -38 -10.833 -71.333 -32.5 -100s-52.5 -50 -92.5 -64v-125h-68v109c-16 -2 -31.333 -3 -46 -3h-16v-106h-67v115c-46.667 10 -84.667 23.667 -114 41l22 76
c21.333 -11.333 47.666 -21.333 78.999 -30s61 -13 89 -13c47.333 0 84 8.83301 110 26.5s39 41.5 39 71.5c0 21.333 -6.5 40.166 -19.5 56.499s-31.5 31.333 -55.5 45s-57.333 29.834 -100 48.501c-42 18.667 -75.5 36.834 -100.5 54.501s-43.833 38.334 -56.5 62.001
s-19 52.167 -19 85.5c0 36.667 11 69.334 33 98.001s53 49.667 93 63v113l67 10v-108h17c15.333 0 30.333 -0.666992 45 -2v100l68 10v-122c30 -9.33301 56.667 -19.666 80 -30.999z" />
    <glyph glyph-name="percent" unicode="%" horiz-adv-x="885" 
d="M337 -4l303 710l-95 4l-303 -710zM51.5 441.5c14.333 -25.667 33.667 -45.166 58 -58.499s51.5 -20 81.5 -20c28.667 0 55.334 7 80.001 21s44.334 33.833 59.001 59.5s22 55.167 22 88.5c0 52.667 -15.333 94.167 -46 124.5s-69 45.5 -115 45.5
c-28.667 0 -55.334 -7 -80.001 -21s-44.334 -34 -59.001 -60s-22 -55.667 -22 -89c0 -34.667 7.16699 -64.834 21.5 -90.501zM138.001 604.501c14.667 16.333 32.335 24.501 53.002 24.501c21.333 0 39.166 -8.16699 53.499 -24.5s21.5 -40.5 21.5 -72.5
s-7.33301 -56.167 -22 -72.5s-32.334 -24.5 -53.001 -24.5c-22 0 -40 8.16699 -54 24.5s-21 40.833 -21 73.5c0 31.333 7.33301 55.166 22 71.499zM581.002 45.502c30.667 -30.333 68.999 -45.5 114.999 -45.5c28 0 54.167 7 78.5 21s43.833 33.833 58.5 59.5
s22 55.167 22 88.5c0 52.667 -15 94 -45 124s-68 45 -114 45c-29.333 0 -56.166 -7 -80.499 -21s-43.833 -33.833 -58.5 -59.5s-22 -55.167 -22 -88.5c0 -52 15.333 -93.167 46 -123.5zM642.501 241.502c15 16.333 32.833 24.5 53.5 24.5s38.167 -8.5 52.5 -25.5
s21.5 -40.833 21.5 -71.5c0 -32 -7.33301 -56.333 -22 -73s-32 -25 -52 -25c-22 0 -40.167 8.33301 -54.5 25s-21.5 41.334 -21.5 74.001c0 31.333 7.5 55.166 22.5 71.499z" />
    <glyph glyph-name="ampersand" unicode="&#x26;" horiz-adv-x="673" 
d="M396 684c-26.667 8 -55.3301 11.999 -85.9971 11.999c-40 0 -74.833 -8.33301 -104.5 -25s-52.334 -39 -68.001 -67s-23.5 -58.667 -23.5 -92c0 -36.667 10 -69.667 30 -99c-31.333 -22.667 -56.333 -51.667 -75 -87s-28.334 -73 -29.001 -113
c0 -48 11.5 -88.833 34.5 -122.5s54 -59 93 -76s83.167 -25.833 132.5 -26.5c88.667 0 158.667 25.667 210 77l79 -73l54 69l-81 73c28 54.667 44 120 48 196l-82 32c-4 -64 -16.667 -118.667 -38 -164l-185 172c-34.667 31.333 -59 57.333 -73 78s-21 44 -21 70
s9.16699 48.333 27.5 67s42.5 28 72.5 28c24.667 0 45.5 -2.66699 62.5 -8s32.167 -11.166 45.5 -17.499s22.333 -10.5 27 -12.5l33 76c-28.667 14 -56.334 25 -83.001 33zM300.004 71.999c-44.667 0 -82.665 12.167 -113.998 36.5s-47 59.833 -47 106.5
c0.666992 28 6.66699 53.833 18 77.5s26.666 42.834 45.999 57.501c11.333 -12.667 25.666 -27.334 42.999 -44.001l196 -179c-36.667 -36.667 -84 -55 -142 -55z" />
    <glyph glyph-name="quotesingle" unicode="'" horiz-adv-x="185" 
d="M50.5 702.5c-12.333 -13 -18.5 -26.835 -18.5 -41.502s5.16699 -28.167 15.5 -40.5s21.5 -18.833 33.5 -19.5c-2 -18 -8 -33.167 -18 -45.5s-24.333 -25.833 -43 -40.5l23 -45c31.333 16.667 57.833 42.334 79.5 77.001s32.5 69 32.5 103
c0 20.667 -6.16699 37.834 -18.5 51.501s-26.833 20.5 -43.5 20.5c-16 0 -30.167 -6.5 -42.5 -19.5z" />
    <glyph glyph-name="parenleft" unicode="(" horiz-adv-x="279" 
d="M196 80.5c-16.667 39.667 -29.998 81.499 -39.998 125.499s-15 82.333 -15 115c0 49.333 11 107.833 33 175.5s47 119.167 75 154.5l-76 27c-40.667 -54 -71.334 -112.167 -92.001 -174.5s-31 -123.5 -31 -183.5c0 -61.333 10.5 -123.5 31.5 -186.5
s51.5 -120.167 91.5 -171.5l76 28c-18.667 20.667 -36.334 50.834 -53.001 90.501z" />
    <glyph glyph-name="parenright" unicode=")" horiz-adv-x="279" 
d="M82.5 559.5c16.333 -39.667 29.499 -81.3311 39.499 -124.998s15 -81.834 15 -114.501c0 -49.333 -10.833 -108.166 -32.5 -176.499s-46.5 -119.833 -74.5 -154.5l76 -27c40 55.333 70.5 114.166 91.5 176.499s31.5 122.833 31.5 181.5c0 60.667 -10.667 122.5 -32 185.5
s-51.666 120.5 -90.999 172.5l-76 -28c18.667 -20.667 36.167 -50.834 52.5 -90.501z" />
    <glyph glyph-name="asterisk" unicode="*" horiz-adv-x="363" 
d="M142 663l-111 24l-21 -65l112 -22l-78 -111l57 -43l81 108l80 -108l57 43l-78 111l112 22l-21 65l-112 -24l-1 107h-75z" />
    <glyph glyph-name="plus" unicode="+" horiz-adv-x="537" 
d="M315 531l-89 3v-223h-196l8 -75h188v-228l89 -4v232h192l-10 75h-182v220z" />
    <glyph glyph-name="comma" unicode="," horiz-adv-x="185" 
d="M51 102c-12 -12 -18 -25.999 -18 -41.999c0 -14.667 5.16699 -28.167 15.5 -40.5s21.5 -18.833 33.5 -19.5c-2 -18 -8 -33.167 -18 -45.5s-24.667 -25.833 -44 -40.5l23 -45c32 16.667 58.667 42.167 80 76.5s32 68.5 32 102.5c0 21.333 -5.83301 38.666 -17.5 51.999
s-26.5 20 -44.5 20c-16 0 -30 -6 -42 -18z" />
    <glyph glyph-name="hyphen" unicode="-" horiz-adv-x="324" 
d="M39 235h255l-9 76h-255z" />
    <glyph glyph-name="period" unicode="." horiz-adv-x="180" 
d="M133 17.5c11.333 11.667 17 25.834 17 42.501s-5.66699 30.834 -17 42.501s-25.333 17.5 -42 17.5c-17.333 0 -31.833 -5.83301 -43.5 -17.5s-17.5 -25.834 -17.5 -42.501s5.83301 -30.834 17.5 -42.501s26.167 -17.5 43.5 -17.5c16.667 -0 30.667 5.83301 42 17.5z" />
    <glyph glyph-name="slash" unicode="/" horiz-adv-x="419" 
d="M105 -4l304 710l-96 4l-303 -710z" />
    <glyph glyph-name="zero" unicode="0" horiz-adv-x="597" 
d="M64.5 132.5c23 -45.667 55 -81.3311 96 -106.998s87.167 -38.5 138.5 -38.5s97.333 12.833 138 38.5s72.5 61.5 95.5 107.5s34.5 97.667 34.5 155c0 55.333 -11.5 105.166 -34.5 149.499s-54.833 79 -95.5 104s-86.667 37.5 -138 37.5s-97.5 -12.5 -138.5 -37.5
s-73 -59.833 -96 -104.5s-34.5 -95 -34.5 -151c0 -56.667 11.5 -107.834 34.5 -153.501zM144.5 396.503c15 31.667 36 56.332 63 73.999s57.5 26.5 91.5 26.5s64.5 -9.16699 91.5 -27.5s48 -43.666 63 -75.999s22.5 -68.833 22.5 -109.5c0 -41.333 -7.5 -78.333 -22.5 -111
s-36 -58.167 -63 -76.5s-57.5 -27.5 -91.5 -27.5s-64.5 9.5 -91.5 28.5s-48 45.167 -63 78.5s-22.5 71 -22.5 113c0 40 7.5 75.833 22.5 107.5z" />
    <glyph glyph-name="one" unicode="1" horiz-adv-x="325" 
d="M191 566l-181 -88l44 -76l105 56v-458h96v566h-64z" />
    <glyph glyph-name="two" unicode="2" horiz-adv-x="481" 
d="M118.5 564.5c-27.667 -9.66699 -54.5 -22.166 -80.5 -37.499l23 -77c28.667 16 54 28.5 76 37.5s49 13.5 81 13.5c38.667 0 69 -7.83301 91 -23.5s33 -39.834 33 -72.501c0 -24.667 -8.66699 -49 -26 -73s-44 -52 -80 -84l-211 -185v-63h436l-18 74h-289l127 106
c56.667 47.333 95.667 88.833 117 124.5s32 73.5 32 113.5c0 51.333 -18.833 91 -56.5 119s-89.167 42 -154.5 42c-39.333 0 -72.833 -4.83301 -100.5 -14.5z" />
    <glyph glyph-name="three" unicode="3" horiz-adv-x="470" 
d="M15 514l46.0029 -64c20 14 43.333 26 70 36s54.667 15 84 15c34.667 0 62.667 -9 84 -27s32 -39.667 32 -65c0 -31.333 -14 -56.5 -42 -75.5s-66 -28.5 -114 -28.5h-50l14 -73h30c59.333 0 103.166 -10.667 131.499 -32s42.5 -50.666 42.5 -87.999
c0 -32.667 -13.667 -59.167 -41 -79.5s-59.333 -30.5 -96 -30.5c-30.667 0 -58 3.66699 -82 11s-49 18.666 -75 33.999l-49 -66c30.667 -16 63.667 -29.5 99 -40.5s70.333 -16.5 105 -16.5c46 0 86.5 8.16699 121.5 24.5s62 39 81 68s28.5 61.167 28.5 96.5
c0 40 -10.833 74.5 -32.5 103.5s-47.5 46.833 -77.5 53.5c26.667 10 49.667 28 69 54s29 55 29 87c0 30 -7.83301 57.833 -23.5 83.5s-38.834 46.167 -69.501 61.5s-68 23 -112 23c-68.667 0 -136.334 -21.667 -203.001 -65z" />
    <glyph glyph-name="four" unicode="4" horiz-adv-x="536" 
d="M411 571h-69l-332 -426l13 -79h292v-135h96v135h94l11 79h-105v426zM113 145l202 264v-264h-202z" />
    <glyph glyph-name="five" unicode="5" horiz-adv-x="501" 
d="M198.5 251c18.333 10 38.833 15 61.5 15c35.333 0 64 -11.333 86 -34s33 -54 33 -94c0 -40.667 -13.167 -73.167 -39.5 -97.5s-60.833 -36.5 -103.5 -36.5c-32 0 -59.833 3.5 -83.5 10.5s-48.5 18.167 -74.5 33.5l-48 -67c30 -16 62.667 -29.5 98 -40.5
s70 -16.5 104 -16.5c49.333 0 92 9.33301 128 28s63.5 44.167 82.5 76.5s28.5 68.833 28.5 109.5c-0.666992 59.333 -19.167 108.333 -55.5 147s-89.833 58 -160.5 58c-33.333 0 -64.666 -8.66699 -93.999 -26l8 170h254l11 79h-350l-16 -348h89
c9.33301 12 23.166 23 41.499 33z" />
    <glyph glyph-name="six" unicode="6" horiz-adv-x="520" 
d="M385 362c33.333 -16.667 59.167 -39.833 77.5 -69.5s27.5 -63.834 27.5 -102.501s-9.16699 -73.5 -27.5 -104.5s-44 -55.167 -77 -72.5s-70.167 -26 -111.5 -26c-47.333 0 -89.333 10.167 -126 30.5s-65.5 50.333 -86.5 90s-31.5 87.834 -31.5 144.501
c0 73.333 19.167 137.666 57.5 192.999s86.333 98.833 144 130.5s115.5 51.167 173.5 58.5l18 -76c-65.333 -12.667 -125.5 -36.667 -180.5 -72s-91.5 -83.666 -109.5 -144.999c21.333 14.667 43 26 65 34s46.333 12 73 12c42.667 0 80.667 -8.33301 114 -25z
M364.001 100.501c24.667 22.333 36.999 50.5 36.999 84.5c0 38 -12 68.333 -36 91s-56.333 34 -97 34c-46.667 0 -95.334 -21.667 -146.001 -65c2.66699 -56.667 17.834 -100.5 45.501 -131.5s61.834 -46.5 102.501 -46.5c38 0 69.333 11.167 94 33.5z" />
    <glyph glyph-name="seven" unicode="7" horiz-adv-x="451" 
d="M401 566h-391l12 -79h300l-194 -529l90 -27l213 594z" />
    <glyph glyph-name="eight" unicode="8" horiz-adv-x="515" 
d="M150.5 620c-30.333 -15.333 -53.501 -36 -69.501 -62s-24 -54 -24 -84s9 -56.833 27 -80.5s41.333 -41.834 70 -54.501c-21.333 -5.33301 -41.5 -16.5 -60.5 -33.5s-34.333 -37 -46 -60s-17.5 -45.833 -17.5 -68.5c0 -35.333 9 -67.333 27 -96s44.167 -51.5 78.5 -68.5
s75.166 -25.5 122.499 -25.5c46.667 0 87.167 8.5 121.5 25.5s60.5 40 78.5 69s27 60.833 27 95.5c0 24.667 -5.83301 48.334 -17.5 71.001s-27 42 -46 58s-39.167 27 -60.5 33c28 12.667 51.333 31.167 70 55.5s28 50.833 28 79.5c0 30 -8 58 -24 84
s-39.167 46.667 -69.5 62s-66.166 23 -107.499 23s-77.166 -7.66699 -107.499 -23zM338.499 538.5c20.333 -17.667 30.499 -39.5 30.499 -65.5c0 -25.333 -9.66699 -47.166 -29 -65.499s-46.666 -30.166 -81.999 -35.499c-35.333 5.33301 -62.833 17.166 -82.5 35.499
s-29.5 40.166 -29.5 65.499s10 47 30 65s46.667 27 80 27c34.667 0 62.167 -8.83301 82.5 -26.5zM359.498 258c23.667 -23.333 35.5 -51 35.5 -83c0 -32.667 -13.5 -59.167 -40.5 -79.5s-59.167 -30.5 -96.5 -30.5c-38.667 0 -71.334 10 -98.001 30s-40 46.667 -40 80
c0 32 11.833 59.667 35.5 83s57.834 38 102.501 44c44 -6 77.833 -20.667 101.5 -44z" />
    <glyph glyph-name="nine" unicode="9" horiz-adv-x="520" 
d="M372 548.5c36.667 -20.333 65.499 -50.334 86.499 -90.001s31.5 -87.834 31.5 -144.501c0 -73.333 -19.167 -137.666 -57.5 -192.999s-86.333 -98.833 -144 -130.5s-115.5 -51.167 -173.5 -58.5l-18 76c65.333 12.667 125.5 36.667 180.5 72s91.5 83.666 109.5 144.999
c-21.333 -14.667 -43 -26 -65 -34s-46.333 -12 -73 -12c-42.667 0 -80.667 8.33301 -114 25s-59.166 39.834 -77.499 69.501s-27.5 63.834 -27.5 102.501s9.16699 73.5 27.5 104.5s44 55.167 77 72.5s70.167 26 111.5 26c47.333 0 89.333 -10.167 126 -30.5z
M154.999 289.999c24 -22.667 56.334 -34 97.001 -34c46.667 0 95.334 21.667 146.001 65c-2.66699 56.667 -17.834 100.5 -45.501 131.5s-61.834 46.5 -102.501 46.5c-38 0 -69.333 -11.167 -94 -33.5s-37 -50.5 -37 -84.5c0 -38 12 -68.333 36 -91z" />
    <glyph glyph-name="colon" unicode=":" horiz-adv-x="180" 
d="M132.5 358.5c11.667 11.667 17.5 25.834 17.5 42.501s-5.83301 31 -17.5 43s-25.834 18 -42.501 18s-30.834 -6 -42.501 -18s-17.5 -26.333 -17.5 -43s5.83301 -30.834 17.5 -42.501s25.834 -17.5 42.501 -17.5s30.834 5.83301 42.501 17.5zM132.5 35.5
c11.667 11.667 17.5 25.834 17.5 42.501c0 17.333 -5.83301 31.833 -17.5 43.5s-25.834 17.5 -42.501 17.5s-30.834 -5.83301 -42.501 -17.5s-17.5 -26.167 -17.5 -43.5c0 -16.667 5.83301 -30.834 17.5 -42.501s25.834 -17.5 42.501 -17.5s30.834 5.83301 42.501 17.5z" />
    <glyph glyph-name="semicolon" unicode=";" horiz-adv-x="186" 
d="M52 444c-12 -12 -18 -26.333 -18 -43s6 -30.834 18 -42.501s26.667 -17.5 44 -17.5c16.667 0 30.834 5.83301 42.501 17.5s17.5 25.834 17.5 42.501s-5.83301 31 -17.5 43s-25.834 18 -42.501 18c-17.333 0 -32 -6 -44 -18zM51 120.5c-12 -12.333 -18 -26.5 -18 -42.5
c0 -15.333 5.16699 -29 15.5 -41s21.5 -18.333 33.5 -19c-2 -18 -8 -33.167 -18 -45.5s-24.667 -25.833 -44 -40.5l23 -45c32 16.667 58.667 42.167 80 76.5s32 68.5 32 102.5c0 22 -5.83301 39.667 -17.5 53s-26.5 20 -44.5 20c-16 0 -30 -6.16699 -42 -18.5z" />
    <glyph glyph-name="less" unicode="&#x3c;" horiz-adv-x="335" 
d="M315 394l-23 76l-262 -199v-53l262 -199l23 76l-192 150z" />
    <glyph glyph-name="equal" unicode="=" horiz-adv-x="506" 
d="M39 316h437l-8 73h-438zM39 121h437l-8 73h-438z" />
    <glyph glyph-name="greater" unicode="&#x3e;" horiz-adv-x="335" 
d="M20 394l192 -149l-192 -150l23 -76l262 199v53l-262 199z" />
    <glyph glyph-name="question" unicode="?" horiz-adv-x="419" 
d="M99 686.5c-28 -9.66699 -57.666 -24.168 -88.999 -43.501l12 -85c30.667 20.667 59.667 36.167 87 46.5s55 15.5 83 15.5c33.333 0 59.166 -7.66699 77.499 -23s27.5 -38.333 27.5 -69c0 -32 -15.667 -61.667 -47 -89s-72.333 -49.333 -123 -66l8 -186l69 -28l12 165
c52 24.667 93.833 55.834 125.5 93.501s47.5 75.167 47.5 112.5c0 52 -16.333 93.5 -49 124.5s-81 46.5 -145 46.5c-36 0 -68 -4.83301 -96 -14.5zM122.501 102.499c-11.667 -11.667 -17.5 -25.834 -17.5 -42.501s5.83301 -30.834 17.5 -42.501s25.834 -17.5 42.501 -17.5
s31 5.83301 43 17.5s18 25.834 18 42.501s-6 30.834 -18 42.501s-26.333 17.5 -43 17.5s-30.834 -5.83301 -42.501 -17.5z" />
    <glyph glyph-name="at" unicode="@" horiz-adv-x="764" 
d="M443 421c-39.333 0 -76.332 -8.50098 -110.999 -25.501s-62.667 -41 -84 -72s-32 -66.5 -32 -106.5c0 -47.333 14.333 -84.833 43 -112.5s71 -41.5 127 -41.5c30 0 60.333 9.66699 91 29c20 -20 46.667 -30 80 -30c53.333 0 96.166 20.833 128.499 62.5
s48.5 101.834 48.5 180.501c0 56 -13.333 106.167 -40 150.5s-63.834 79.166 -111.501 104.499s-101.5 38 -161.5 38c-78 0 -146.667 -17 -206 -51s-105 -80 -137 -138s-48 -121.333 -48 -190c0 -62.667 15.333 -118.334 46 -167.001s71 -86.5 121 -113.5
s102.667 -40.5 158 -40.5c79.333 0 146 14 200 42l-24 72c-23.333 -12 -49.666 -20.833 -78.999 -26.5s-58 -8.5 -86 -8.5c-45.333 0 -86.833 9.83301 -124.5 29.5s-67.667 47.834 -90 84.501s-33.5 79.334 -33.5 128.001c0 60 14 113 42 159s65 81.5 111 106.5
s95.333 37.5 148 37.5c46 0 86.667 -9.5 122 -28.5s62.833 -45.333 82.5 -79s29.5 -72.167 29.5 -115.5c0 -48.667 -8.5 -87.834 -25.5 -117.501s-38.167 -44.5 -63.5 -44.5c-10.667 0 -20.5 3.83301 -29.5 11.5s-12.5 18.834 -10.5 33.501l23 204l-28 35h-76z
M323.001 160.499c-13.333 15.667 -20 34.499 -20 56.499c0 42.667 14.167 75.834 42.5 99.501s62.833 35.5 103.5 35.5h16l-21 -165c-2.66699 -16 -9.16699 -28.333 -19.5 -37s-23.5 -13 -39.5 -13c-28 0 -48.667 7.83301 -62 23.5z" />
    <glyph glyph-name="A" unicode="A" horiz-adv-x="625" 
d="M104 0l68 182h277l71 -190l95 14l-262 674h-87l-256 -680h94zM308 551l112 -292h-221z" />
    <glyph glyph-name="B" unicode="B" horiz-adv-x="603" 
d="M505.5 48.5c45 32.333 67.5 80.832 67.5 145.499c0 42 -10.833 77.333 -32.5 106s-51.5 50.334 -89.5 65.001c58 37.333 87 81 87 131c0 122.667 -78 184 -234 184h-214v-680h235c75.333 0 135.5 16.167 180.5 48.5zM403 576.499c24 -15 36 -42.166 36 -81.499
c0 -36 -14.667 -62.333 -44 -79s-68 -25.334 -116 -26.001h-93v209h110c47.333 0 83 -7.5 107 -22.5zM437 282c25.333 -20 38.001 -50 38.001 -90c0 -38.667 -14 -67.167 -42 -85.5s-65.333 -27.5 -112 -27.5h-135v233h145c45.333 0 80.666 -10 105.999 -30z" />
    <glyph glyph-name="C" unicode="C" horiz-adv-x="559" 
d="M451 683.5c-34.667 7 -64.001 10.5 -88.001 10.5c-64.667 0 -121.5 -15.5 -170.5 -46.5s-86.667 -73.667 -113 -128s-39.5 -115.5 -39.5 -183.5c0 -65.333 12.167 -124.5 36.5 -177.5s60.333 -95 108 -126s105.167 -46.5 172.5 -46.5c28.667 0 60.667 3.83301 96 11.5
s64 17.167 86 28.5l-37 72c-43.333 -20 -93 -30 -149 -30c-43.333 0 -81.166 12 -113.499 36s-57 56.5 -74 97.5s-25.5 86.167 -25.5 135.5c0 53.333 9.66699 101 29 143s45.833 74.5 79.5 97.5s71.167 34.5 112.5 34.5c29.333 0 53.333 -2 72 -6s43 -11.333 73 -22l30 69
c-22 13.333 -50.333 23.5 -85 30.5z" />
    <glyph glyph-name="D" unicode="D" horiz-adv-x="678" 
d="M497.5 44c46.333 29.333 81.334 69.999 105.001 121.999s35.5 111.333 35.5 178c0 100.667 -25.333 181.834 -76 243.501s-126.334 92.5 -227.001 92.5h-245v-680h241c64.667 0 120.167 14.667 166.5 44zM490.501 529.499c33.667 -45.667 50.5 -107.833 50.5 -186.5
c0 -84 -19 -148.833 -57 -194.5s-89 -68.5 -153 -68.5h-145v518h153c67.333 0 117.833 -22.833 151.5 -68.5z" />
    <glyph glyph-name="E" unicode="E" horiz-adv-x="542" 
d="M186 75v234h244l-13 74h-231v223h300l-13 74h-383v-680h432l-13 75h-323z" />
    <glyph glyph-name="F" unicode="F" horiz-adv-x="491" 
d="M186 606h285l-14 74h-367v-680h96v305h233l-12 73h-221v228z" />
    <glyph glyph-name="G" unicode="G" horiz-adv-x="628" 
d="M489 85c-36.667 -11.333 -73.6641 -17.002 -110.997 -17.002c-45.333 0 -86 11 -122 33s-64.333 53.333 -85 94s-31 88 -31 142c0 57.333 11.667 106.833 35 148.5s54.166 73.167 92.499 94.5s80.166 32 125.499 32c29.333 0 53.166 -2 71.499 -6s42.5 -11.333 72.5 -22
l30 69c-22 13.333 -50.5 23.5 -85.5 30.5s-65.167 10.5 -90.5 10.5c-66 0 -125.667 -15.167 -179 -45.5s-95.333 -72.666 -126 -126.999s-46 -116.166 -46 -185.499c0 -66 14 -125.5 42 -178.5s67.667 -94.833 119 -125.5s111 -46 179 -46c35.333 0 71 4.5 107 13.5
s66 20.5 90 34.5l1 323h-229l-8 -73h148v-199z" />
    <glyph glyph-name="H" unicode="H" horiz-adv-x="674" 
d="M488 680v-300h-302v305l-96 -5v-680h96v303h302v-303h96v680h-96z" />
    <glyph glyph-name="I" unicode="I" horiz-adv-x="276" 
d="M90 680v-680h96v680h-96z" />
    <glyph glyph-name="J" unicode="J" horiz-adv-x="268" 
d="M85.5 20c-4.33301 -12 -12 -21.667 -23 -29s-28.5 -15.333 -52.5 -24l38 -69c36.667 11.333 65 23.5 85 36.5s34.167 29 42.5 48s12.5 43.167 12.5 72.5v625h-96v-607c0 -23.333 -2.16699 -41 -6.5 -53z" />
    <glyph glyph-name="K" unicode="K" horiz-adv-x="625" 
d="M186 235v-235h-96v680h96v-315l310 330l68 -56l-241 -257l292 -382h-117l-239 313z" />
    <glyph glyph-name="L" unicode="L" horiz-adv-x="515" 
d="M186 680h-96v-680h415l-12 75h-307v605z" />
    <glyph glyph-name="M" unicode="M" horiz-adv-x="765" 
d="M578 0h97v680h-60l-227 -336l-239 336h-59v-680h96v481l188 -263l35 5l169 249v-472z" />
    <glyph glyph-name="N" unicode="N" horiz-adv-x="715" 
d="M539 0h86v680h-97v-503l-353 503h-85v-680h96v507z" />
    <glyph glyph-name="O" unicode="O" horiz-adv-x="729" 
d="M198 647c-49.333 -31.333 -88.001 -74 -116.001 -128s-42 -114.667 -42 -182s13.833 -127.666 41.5 -180.999s66 -95 115 -125s104.167 -45 165.5 -45c62.667 0.666992 118.834 16.667 168.501 48s88.5 74 116.5 128s42 114.667 42 182s-13.833 127.666 -41.5 180.999
s-66.167 95.166 -115.5 125.499s-105 45.5 -167 45.5c-62 -1.33301 -117.667 -17.666 -167 -48.999zM168.999 479.5c19.333 41.667 46.3311 74.333 80.998 98s73.667 35.5 117 35.5c42 0 79.667 -11.5 113 -34.5s59.5 -55 78.5 -96s28.5 -87.167 28.5 -138.5
c0 -52.667 -9.66699 -100 -29 -142s-46.166 -74.833 -80.499 -98.5s-73.166 -35.5 -116.499 -35.5c-42 0 -79.833 11.5 -113.5 34.5s-60 55.167 -79 96.5s-28.5 87.666 -28.5 138.999c0 52.667 9.66699 99.834 29 141.501z" />
    <glyph glyph-name="P" unicode="P" horiz-adv-x="572" 
d="M275 250c49.333 0 94.167 7.83105 134.5 23.498s72.5 39.834 96.5 72.501s36 73.334 36 122.001c0 72 -23.5 125.333 -70.5 160s-109.167 52 -186.5 52h-195v-680h96v250h89zM402.001 568.498c26.667 -20.333 40 -55.167 40 -104.5c-2 -45.333 -17.5 -79 -46.5 -101
s-67.833 -33 -116.5 -33h-93v269h98c52 0 91.333 -10.167 118 -30.5z" />
    <glyph glyph-name="Q" unicode="Q" horiz-adv-x="729" 
d="M666.5 207c-15 -42.667 -36.5 -79.999 -64.5 -111.999l73 -71l-56 -49l-74 69c-53.333 -38 -114.333 -57.333 -183 -58c-61.333 0 -116.5 15 -165.5 45s-87.333 71.667 -115 125s-41.5 113.666 -41.5 180.999s14 128 42 182s66.667 96.667 116 128s105 47.666 167 48.999
c62 0 117.667 -15.167 167 -45.5s87.833 -72.166 115.5 -125.499s41.5 -113.666 41.5 -180.999c0 -48.667 -7.5 -94.334 -22.5 -137.001zM480 105.001l-88.001 82.001l66 50l77 -75c34.667 49.333 52 110 52 182c0 51.333 -9.5 97.5 -28.5 138.5s-45.167 73 -78.5 96
s-71 34.5 -113 34.5c-43.333 0 -82.333 -11.833 -117 -35.5s-61.667 -56.334 -81 -98.001s-29 -88.834 -29 -141.501c0 -51.333 9.5 -97.666 28.5 -138.999s45.333 -73.5 79 -96.5s71.5 -34.5 113.5 -34.5c44.667 0 84.334 12.333 119.001 37z" />
    <glyph glyph-name="R" unicode="R" horiz-adv-x="604" 
d="M186 0v272.001h89c30.667 0 51.667 1 63 3l152 -275h104l-171 300c36 15.333 64.667 38.166 86 68.499s32.333 66.833 33 109.5c0 68 -23.667 118.667 -71 152s-109.333 50 -186 50h-195v-680h96zM401.5 570.501c27 -19 40.502 -51.167 40.502 -96.5
c-0.666992 -43.333 -15.834 -74.833 -45.501 -94.5s-68.834 -29.5 -117.501 -29.5h-93v249h98c51.333 0 90.5 -9.5 117.5 -28.5z" />
    <glyph glyph-name="S" unicode="S" horiz-adv-x="518" 
d="M135.5 3c42.333 -10.667 78.166 -15.998 107.499 -15.998c51.333 0 95.333 7.66699 132 23s64.667 36.833 84 64.5s29 59.5 29 95.5c0 46.667 -14.167 84.667 -42.5 114s-72.833 57.666 -133.5 84.999c-45.333 20.667 -79.666 37.667 -102.999 51
s-41.333 28.166 -54 44.499s-19 35.5 -19 57.5c0 28.667 12.333 50.667 37 66s57 23 97 23c28.667 0 53.5 -3.16699 74.5 -9.5s43.167 -15.166 66.5 -26.499l32 76c-25.333 12.667 -53.833 23.334 -85.5 32.001s-63.167 13 -94.5 13c-45.333 0 -84.833 -7.66699 -118.5 -23
s-59.5 -36.333 -77.5 -63s-27 -56.667 -27 -90s6.33301 -61.833 19 -85.5s31.5 -44.334 56.5 -62.001s58.5 -35.834 100.5 -54.501c42.667 -18.667 76 -34.834 100 -48.501s42.5 -28.667 55.5 -45s19.5 -35.166 19.5 -56.499c0 -30 -13 -53.833 -39 -71.5
s-62.667 -26.5 -110 -26.5c-28 0 -57.667 4.33301 -89 13s-57.666 18.667 -78.999 30l-22 -76c13.333 -12 41.166 -23.333 83.499 -34z" />
    <glyph glyph-name="T" unicode="T" horiz-adv-x="572" 
d="M10 604h221v-604h97v604h234l-13 76h-539v-76z" />
    <glyph glyph-name="U" unicode="U" horiz-adv-x="690" 
d="M80 243c0 -48.667 10.833 -92.332 32.5 -130.999s52.5 -68.834 92.5 -90.501s86.667 -32.5 140 -32.5s100 11 140 33s70.833 52.167 92.5 90.5s32.5 81.833 32.5 130.5v437h-97v-428c0 -56 -15 -100.667 -45 -134s-71 -50 -123 -50c-50.667 0 -91.5 16.5 -122.5 49.5
s-46.5 77.833 -46.5 134.5v428h-96v-437z" />
    <glyph glyph-name="V" unicode="V" horiz-adv-x="625" 
d="M272 0h87l256 680h-94l-204 -551l-212 559l-95 -14z" />
    <glyph glyph-name="W" unicode="W" horiz-adv-x="893" 
d="M600 0l-153 542l-148 -542h-87l-202 674l95 14l152 -559l144 551h94l150 -551l144 551h94l-196 -680h-87z" />
    <glyph glyph-name="X" unicode="X" horiz-adv-x="604" 
d="M478 0h103l-217 335l230 345h-101l-178 -278l-199 298l-78 -40l215 -316l-243 -344h100l193 276z" />
    <glyph glyph-name="Y" unicode="Y" horiz-adv-x="579" 
d="M569 680h-102l-184 -314l-180 331l-93 -34l225 -393v-270h96l1 271z" />
    <glyph glyph-name="Z" unicode="Z" horiz-adv-x="564" 
d="M544 604l-10 76h-486l13 -76h374l-415 -529l11 -75h510l-10 75h-406z" />
    <glyph glyph-name="bracketleft" unicode="[" horiz-adv-x="318" 
d="M294 -15h-101v637h101l14 74h-208v-784h208z" />
    <glyph glyph-name="backslash" unicode="\" horiz-adv-x="419" 
d="M10 706l303 -710l96 4l-303 710z" />
    <glyph glyph-name="bracketright" unicode="]" horiz-adv-x="317" 
d="M23 622h100v-637h-100l-13 -73h207v784h-207z" />
    <glyph glyph-name="asciicircum" unicode="^" horiz-adv-x="432" 
d="M422 143l-171 247h-69l-172 -247h97l109 158l109 -158h97z" />
    <glyph glyph-name="underscore" unicode="_" horiz-adv-x="440" 
d="M39 0h371l-9 75h-371z" />
    <glyph glyph-name="grave" unicode="`" horiz-adv-x="176" 
d="M112 747h-102l90 -158l66 17z" />
    <glyph glyph-name="a" unicode="a" horiz-adv-x="493" 
d="M243 412c36 0 61.167 -10.501 75.5 -31.501s21.5 -51.167 21.5 -90.5h-115c-54 0 -97.167 -13.167 -129.5 -39.5s-48.5 -63.166 -48.5 -110.499c0 -46 14.333 -82.833 43 -110.5s70.667 -41.5 126 -41.5c24.667 0 50 5.66699 76 17s48 25 66 41l12 -46h67v329
c0 30.667 -8.5 59 -25.5 85s-40.5 46.5 -70.5 61.5s-63.333 22.5 -100 22.5c-22.667 0 -51.5 -4.16699 -86.5 -12.5s-61.167 -18.5 -78.5 -30.5l27 -76c49.333 22 96 33 140 33zM157 200.999c16 16.667 38 25 66 25h118v-98c-17.333 -19.333 -37 -34.833 -59 -46.5
s-44.667 -17.5 -68 -17.5c-26 0 -46 7.5 -60 22.5s-21 32.833 -21 53.5c0 24 8 44.333 24 61z" />
    <glyph glyph-name="b" unicode="b" horiz-adv-x="537" 
d="M394.5 466c36.333 -21.333 64.168 -51.499 83.501 -90.499s29 -84.5 29 -136.5c0 -50 -10 -94 -30 -132s-48.333 -67.5 -85 -88.5s-79 -31.5 -127 -31.5c-16.667 0 -36.167 3.5 -58.5 10.5s-43.5 17.5 -63.5 31.5l-19 -29h-54v695l96 11v-238
c18 9.33301 35.833 16.666 53.5 21.999s33.167 8 46.5 8c49.333 0 92.166 -10.667 128.499 -32zM371.002 116.501c25.333 31.667 37.999 72.167 37.999 121.5c0 53.333 -12.5 96.333 -37.5 129s-60.167 49 -105.5 49c-39.333 0 -72.666 -11.667 -99.999 -35v-279
c28 -22 61.333 -33 100 -33c44.667 0 79.667 15.833 105 47.5z" />
    <glyph glyph-name="c" unicode="c" horiz-adv-x="464" 
d="M342 77c-20 -5.33301 -43.668 -8.00098 -71.001 -8.00098c-44.667 0 -79.667 16.167 -105 48.5s-38 74.5 -38 126.5c0.666992 49.333 14.167 90.333 40.5 123s61.5 49 105.5 49c25.333 0 47.5 -2.66699 66.5 -8s42.167 -13.666 69.5 -24.999l28 68
c-20 13.333 -46.667 24.5 -80 33.5s-61 13.5 -83 13.5c-49.333 0 -92.5 -10.667 -129.5 -32s-65.5 -51.333 -85.5 -90s-30 -83 -30 -133c0 -50.667 9.83301 -95.334 29.5 -134.001s47.667 -68.667 84 -90s78.833 -32 127.5 -32c22.667 0 50.834 4.33301 84.501 13
s60.5 19.667 80.5 33l-29 69c-23.333 -11.333 -45 -19.666 -65 -24.999z" />
    <glyph glyph-name="d" unicode="d" horiz-adv-x="544" 
d="M474 0h-55.0029l-19 37c-20 -16 -42.167 -28.333 -66.5 -37s-45.166 -13 -62.499 -13c-49.333 0 -92.166 10.667 -128.499 32s-64.166 51.5 -83.499 90.5s-29 84.5 -29 136.5c0 50 10 94 30 132s48.333 67.5 85 88.5s79 31.5 127 31.5c14 0 30.5 -2.66699 49.5 -8
s37.5 -13 55.5 -23v228l97 10v-705zM165.497 118c25 -32.667 60.167 -49 105.5 -49c22 0 41.333 3.33301 58 10s32.667 17 48 31v268c-15.333 13.333 -31.5 23 -48.5 29s-36.167 9 -57.5 9c-44.667 0 -79.667 -15.833 -105 -47.5s-38 -72.167 -38 -121.5
c0 -53.333 12.5 -96.333 37.5 -129z" />
    <glyph glyph-name="e" unicode="e" horiz-adv-x="504" 
d="M420.5 427.5c-35.667 47 -88.501 70.501 -158.501 70.501c-47.333 0 -88.5 -10.667 -123.5 -32s-61.833 -51.333 -80.5 -90s-28 -83 -28 -133c0 -78 22.667 -140 68 -186s110.333 -69 195 -69c58.667 0 117.334 17.667 176.001 53l-30 70
c-34 -16 -60.5 -27.167 -79.5 -33.5s-41.167 -9.5 -66.5 -9.5c-52 0 -91.167 13.667 -117.5 41s-41.5 64.666 -45.5 111.999h344v26c0 73.333 -17.833 133.5 -53.5 180.5zM171.499 381.501c21.667 23 50.8311 34.5 87.498 34.5c68.667 0 109.334 -43.333 122.001 -130h-249
c4.66699 40.667 17.834 72.5 39.501 95.5z" />
    <glyph glyph-name="f" unicode="f" horiz-adv-x="324" 
d="M89 0h96.001v406h121l-31 73h-90v54c0 26 5.5 46.5 16.5 61.5s27.833 22.5 50.5 22.5c12.667 0 28.667 -3.66699 48 -11l24 74c-8.66699 6 -20.834 11.167 -36.501 15.5s-30.5 6.5 -44.5 6.5c-48 0 -85.667 -14.5 -113 -43.5s-41 -67.833 -41 -116.5v-63h-74l1 -73h73
v-406z" />
    <glyph glyph-name="g" unicode="g" horiz-adv-x="540" 
d="M474 -43c0 -36 -9.16797 -68.166 -27.501 -96.499s-44.833 -50.5 -79.5 -66.5s-76.334 -24 -125.001 -24c-23.333 0 -52.666 4.5 -87.999 13.5s-63.333 20.5 -84 34.5l29 69c33.333 -14.667 58.5 -24.834 75.5 -30.501s38.5 -8.5 64.5 -8.5
c41.333 0 74.666 9.5 99.999 28.5s38 46.167 38 81.5v63c-18 -10.667 -36.667 -19 -56 -25s-36 -9 -50 -9c-49.333 0 -92.166 10.667 -128.499 32s-64.166 51.5 -83.499 90.5s-29 84.5 -29 136.5c0 50 10 94 30 132s48.333 67.5 85 88.5s79 31.5 127 31.5
c17.333 0 38 -4 62 -12s46 -19.667 66 -35l19 34h55v-528zM328.999 79.001c16.667 6.66699 32.667 17 48 31v268c-15.333 13.333 -31.5 23 -48.5 29s-36.167 9 -57.5 9c-44.667 0 -79.667 -15.833 -105 -47.5s-38 -72.167 -38 -121.5c0 -53.333 12.5 -96.333 37.5 -129
s60.167 -49 105.5 -49c22 0 41.333 3.33301 58 10z" />
    <glyph glyph-name="h" unicode="h" horiz-adv-x="551" 
d="M456.5 452c25.667 -32.667 38.502 -76.666 38.502 -131.999v-320h-96v311c0 35.333 -5.83301 62.166 -17.5 80.499s-32.5 27.5 -62.5 27.5c-22.667 0 -47.334 -7.16699 -74.001 -21.5s-53 -32.833 -79 -55.5v-342h-96v695l96 11v-275
c25.333 21.333 53.166 38.333 83.499 51s60.166 19 89.499 19c52.667 0 91.834 -16.333 117.501 -49z" />
    <glyph glyph-name="i" unicode="i" horiz-adv-x="217" 
d="M150 589.5c12 11.667 18 25.834 18 42.501s-6 30.834 -18 42.501s-26.333 17.5 -43 17.5s-30.667 -5.83301 -42 -17.5s-17 -25.834 -17 -42.501s5.66699 -30.834 17 -42.501s25.333 -17.5 42 -17.5s31 5.83301 43 17.5zM60 485v-485h97v485h-97z" />
    <glyph glyph-name="j" unicode="j" horiz-adv-x="240" 
d="M80.5 589.5c-11.667 11.667 -17.5 25.834 -17.5 42.501s5.83301 30.834 17.5 42.501s25.834 17.5 42.501 17.5s31 -5.83301 43 -17.5s18 -25.834 18 -42.501s-6 -30.834 -18 -42.501s-26.333 -17.5 -43 -17.5s-30.834 5.83301 -42.501 17.5zM164 -99.5
c-5.33301 -23.667 -17.501 -44 -36.501 -61s-49.167 -32.167 -90.5 -45.5l-37 71c22.667 8 39.334 17 50.001 27s17.5 22 20.5 36s4.5 33.667 4.5 59v498h97v-483c0 -44 -2.66699 -77.833 -8 -101.5z" />
    <glyph glyph-name="k" unicode="k" horiz-adv-x="487" 
d="M228 234l147 -234h112l-193 296l144 138l-56 64l-216 -211v419l-96 -11v-695h96v174z" />
    <glyph glyph-name="l" unicode="l" horiz-adv-x="236" 
d="M70 695v-695h96v706z" />
    <glyph glyph-name="m" unicode="m" horiz-adv-x="842" 
d="M748 451.5c25.333 -33 38.0068 -76.835 38.0068 -131.502v-320h-96v311c0 34.667 -5.83301 61.334 -17.5 80.001s-31.167 28 -58.5 28c-19.333 0 -41.333 -6.5 -66 -19.5s-49.334 -30.167 -74.001 -51.5c0.666992 -6 1 -15.333 1 -28v-320h-96v311
c0 34.667 -5.83301 61.334 -17.5 80.001s-31.167 28 -58.5 28c-20.667 0 -43.834 -7.16699 -69.501 -21.5s-51.5 -32.833 -77.5 -55.5v-342h-96v485h67l17 -64c25.333 23.333 54.166 42.5 86.499 57.5s63.166 22.5 92.499 22.5c32 0 59.167 -7 81.5 -21
s39.166 -33.667 50.499 -59c25.333 23.333 54.166 42.5 86.499 57.5s63.166 22.5 92.499 22.5c50.667 0 88.667 -16.5 114 -49.5z" />
    <glyph glyph-name="n" unicode="n" 
d="M235 397.5c26.667 14.333 51.334 21.499 74.001 21.499c30 0 50.833 -9.16699 62.5 -27.5s17.5 -45.166 17.5 -80.499v-311h96v320c0 55.333 -12.833 99.333 -38.5 132s-64.834 49 -117.501 49c-32 0 -64.333 -7.5 -97 -22.5s-62 -34.167 -88 -57.5l-17 64h-67v-485h96
v342c26 22.667 52.333 41.167 79 55.5z" />
    <glyph glyph-name="o" unicode="o" horiz-adv-x="545" 
d="M485 109c-20 -38.667 -48.501 -68.667 -85.501 -90s-80.167 -32 -129.5 -32c-48.667 0 -91.167 10.667 -127.5 32s-64.166 51.333 -83.499 90s-29 83.334 -29 134.001c0 50 10 94.333 30 133s48.333 68.667 85 90s79.667 32 129 32c48.667 0 91.167 -10.667 127.5 -32
s64.333 -51.333 84 -90s29.5 -83.334 29.5 -134.001c0 -50 -10 -94.333 -30 -133zM376.499 118c26.333 32.667 39.833 73.667 40.5 123c0 52 -12.667 94.167 -38 126.5s-60.333 48.5 -105 48.5c-44 0 -79.167 -16.333 -105.5 -49s-39.833 -73.667 -40.5 -123
c0 -52 12.667 -94.167 38 -126.5s60.333 -48.5 105 -48.5c44 0 79.167 16.333 105.5 49z" />
    <glyph glyph-name="p" unicode="p" horiz-adv-x="533" 
d="M390.5 466c36.333 -21.333 64.168 -51.5 83.501 -90.5s29 -84.5 29 -136.5c0 -50 -10 -94 -30 -132s-48.333 -67.5 -85 -88.5s-79 -31.5 -127 -31.5c-13.333 0 -28.833 2.33301 -46.5 7s-35.167 11.667 -52.5 21v-223l-96 -11v704h54l21 -30
c20 13.333 41.167 23.833 63.5 31.5s41.5 11.5 57.5 11.5c49.333 0 92.166 -10.667 128.499 -32zM367.002 116.5c25.333 31.667 37.999 72.167 37.999 121.5c0 53.333 -12.5 96.333 -37.5 129s-60.167 49 -105.5 49c-39.333 0 -72.666 -11.667 -99.999 -35v-279
c28 -22 61.333 -33 100 -33c44.667 0 79.667 15.833 105 47.5z" />
    <glyph glyph-name="q" unicode="q" horiz-adv-x="540" 
d="M474 -209l-97.001 -9.99902v240c-18 -10.667 -36.667 -19 -56 -25s-36 -9 -50 -9c-49.333 0 -92.166 10.667 -128.499 32s-64.166 51.5 -83.499 90.5s-29 84.5 -29 136.5c0 50 10 94 30 132s48.333 67.5 85 88.5s79 31.5 127 31.5c17.333 0 37.666 -3.83301 60.999 -11.5
s45 -18.834 65 -33.501l21 32h55v-694zM328.999 79.001c16.667 6.66699 32.667 17 48 31v268c-15.333 13.333 -31.5 23 -48.5 29s-36.167 9 -57.5 9c-44.667 0 -79.667 -15.833 -105 -47.5s-38 -72.167 -38 -121.5c0 -53.333 12.5 -96.333 37.5 -129s60.167 -49 105.5 -49
c22 0 41.333 3.33301 58 10z" />
    <glyph glyph-name="r" unicode="r" horiz-adv-x="338" 
d="M242 382.5c32 17 60.667 25.5 86 25.5l-21 77c-23.333 0 -50.5 -8.33301 -81.5 -25s-57.833 -34.667 -80.5 -54l-31 79h-54v-485h96v321c25.333 24 54 44.5 86 61.5z" />
    <glyph glyph-name="s" unicode="s" horiz-adv-x="421" 
d="M110.5 -1c32.333 -8 60.1689 -11.9961 83.502 -11.9961c63.333 0 112 12.667 146 38s51 61 51 107c0 65.333 -54.667 117.666 -164 156.999c-32 10.667 -56.5 21.667 -73.5 33s-25.833 23.666 -26.5 36.999c0 17.333 8.16699 31.833 24.5 43.5s37.166 17.5 62.499 17.5
c23.333 0 44.666 -2.83301 63.999 -8.5s40.666 -13.834 63.999 -24.501l30 65c-19.333 13.333 -44.5 24.333 -75.5 33s-57.833 13 -80.5 13c-56.667 0 -101.5 -12.5 -134.5 -37.5s-49.5 -59.5 -49.5 -103.5c0 -62.667 53 -111.334 159 -146.001
c72 -22.667 108 -50.667 108 -84c0 -18.667 -9.5 -33.667 -28.5 -45s-44.5 -17 -76.5 -17c-41.333 0 -84.666 11 -129.999 33l-30 -67c18.667 -13.333 44.167 -24 76.5 -32z" />
    <glyph glyph-name="t" unicode="t" horiz-adv-x="341" 
d="M180 622l-96.001 -21.999v-121h-69l1 -73h68v-271c0 -48.667 13.833 -86.167 41.5 -112.5s65.5 -39.5 113.5 -39.5c13.333 0 27.833 2.16699 43.5 6.5s28.5 9.16602 38.5 14.499l-25 73c-19.333 -7.33301 -35 -11 -47 -11c-23.333 0 -40.666 7.5 -51.999 22.5
s-17 35.5 -17 61.5v256h118l-30 73h-88v143z" />
    <glyph glyph-name="u" unicode="u" 
d="M306 87.5c-26.667 -14.333 -51.334 -21.499 -74.001 -21.499c-30 0 -50.833 9.16699 -62.5 27.5s-17.5 45.166 -17.5 80.499v311h-96v-320c0 -55.333 12.833 -99.333 38.5 -132s64.834 -49 117.501 -49c32 0 64.333 7.5 97 22.5s62 34.167 88 57.5l17 -64h67v485h-96
v-342c-26 -22.667 -52.333 -41.167 -79 -55.5z" />
    <glyph glyph-name="v" unicode="v" horiz-adv-x="473" 
d="M364 485l-128 -350l-134 368l-92 -34l180 -469h89l184 485h-99z" />
    <glyph glyph-name="w" unicode="w" horiz-adv-x="702" 
d="M593 485l-95 -342l-100 342h-101l-95 -342l-100 359l-92 -34l147 -468h88l101 345l107 -345h88l151 485h-99z" />
    <glyph glyph-name="x" unicode="x" horiz-adv-x="470" 
d="M339 0h106l-152 232l167 253h-105l-117 -179l-124 196l-86 -34l145 -221l-163 -247h107l111 174z" />
    <glyph glyph-name="y" unicode="y" horiz-adv-x="473" 
d="M122 -108.5c-17.333 -11.667 -42.002 -24.502 -74.002 -38.502l32 -74c38.667 8.66699 73.334 24.834 104.001 48.501s52 51.834 64 84.501l215 573h-99l-128 -348l-135 366l-91 -34l177 -456l-28 -74c-7.33301 -20 -19.666 -35.833 -36.999 -47.5z" />
    <glyph glyph-name="z" unicode="z" horiz-adv-x="434" 
d="M59 407h231l-272 -357l12 -50h386l-10 76h-268l276 356l-5 53h-371z" />
    <glyph glyph-name="braceleft" unicode="{" horiz-adv-x="279" 
d="M199.5 349c7.66699 16.667 11.498 37.999 11.498 63.999c0 11.333 -1.66699 22.5 -5 33.5s-8 24.5 -14 40.5c-4 10 -7.66699 20.333 -11 31s-5 20.334 -5 29.001c0 10 4.5 19 13.5 27s22.5 12 40.5 12h30l9 73h-27c-47.333 0 -83.5 -8.83301 -108.5 -26.5
s-37.5 -44.167 -37.5 -79.5c0 -20 4.66699 -44 14 -72c3.33301 -10.667 6.33301 -22 9 -34s4 -24.667 4 -38c0 -20 -5 -36.667 -15 -50s-23 -20 -39 -20h-39v-63h39c14.667 0 28.334 -6.16699 41.001 -18.5s19 -26.833 19 -43.5c0 -9.33301 -1.5 -19.5 -4.5 -30.5
s-5.66699 -19.667 -8 -26s-3.83301 -10.5 -4.5 -12.5c-6 -16.667 -10.5 -30 -13.5 -40s-4.5 -20.333 -4.5 -31c0 -38.667 12 -67.667 36 -87s61.333 -29 112 -29h27l-9 72h-30c-17.333 0 -30.666 4 -39.999 12s-14 17.333 -14 28c0 8.66699 1.5 18.334 4.5 29.001
s5.66699 19 8 25s3.83301 10 4.5 12c6 14 10.5 26.333 13.5 37s4.5 21 4.5 31c0 49.333 -16.333 84.666 -49 105.999c17.333 9.33301 29.833 22.333 37.5 39z" />
    <glyph glyph-name="bar" unicode="|" horiz-adv-x="275" 
d="M185 -7v711l-95 7v-711z" />
    <glyph glyph-name="braceright" unicode="}" horiz-adv-x="278" 
d="M67 204c0 -10 1.49805 -20.3311 4.49805 -30.998s7.5 -23 13.5 -37c0.666992 -2 2.83398 -7.83301 6.50098 -17.5s6.33398 -18.5 8.00098 -26.5s2.5 -15.333 2.5 -22c0 -10.667 -4.66699 -20 -14 -28s-22.666 -12 -39.999 -12h-30l-9 -72h27c50.667 0 88 9.66699 112 29
s36 48.333 36 87c0 10.667 -1.5 21 -4.5 31s-7.5 23.333 -13.5 40c-0.666992 2 -2.83398 8 -6.50098 18s-6.33398 19.167 -8.00098 27.5s-2.5 16.166 -2.5 23.499c0 16.667 6.33301 31.167 19 43.5s26.334 18.5 41.001 18.5h39v63h-39c-16 0 -29 6.66699 -39 20
s-15 30 -15 50c0 13.333 1.16699 25.166 3.5 35.499s5.83301 22.5 10.5 36.5c3.33301 10.667 6.33301 22.167 9 34.5s4 24.833 4 37.5c0 35.333 -12.5 61.833 -37.5 79.5s-61.167 26.5 -108.5 26.5h-27l9 -73h30c18 0 31.5 -4 40.5 -12s13.5 -17 13.5 -27
c0 -8.66699 -1.66699 -18.334 -5 -29.001s-7 -21 -11 -31c-6 -16 -10.667 -29.5 -14 -40.5s-5 -22.167 -5 -33.5c0 -26 3.83301 -47.333 11.5 -64s20.167 -29.667 37.5 -39c-32.667 -21.333 -49 -56.666 -49 -105.999z" />
    <glyph glyph-name="asciitilde" unicode="~" horiz-adv-x="431" 
d="M147 227c13.333 0 24.834 -1.66602 34.501 -4.99902s20.5 -8 32.5 -14c14 -6.66699 26.5 -11.667 37.5 -15s24.167 -5 39.5 -5c32.667 0 59.167 10.333 79.5 31s30.5 53.667 30.5 99h-82c-0.666992 -14.667 -4.83398 -25.167 -12.501 -31.5s-15.834 -9.5 -24.501 -9.5
c-11.333 0 -21.333 1.5 -30 4.5s-19.667 7.5 -33 13.5c-14.667 7.33301 -27.667 12.833 -39 16.5s-24.666 5.5 -39.999 5.5c-32.667 0 -59.167 -10.333 -79.5 -31s-30.5 -53.334 -30.5 -98.001h81c2.66699 26 14.667 39 36 39z" />
    <glyph glyph-name="uni00A0" unicode="&#xa0;" horiz-adv-x="236" 
 />
    <glyph glyph-name="exclamdown" unicode="&#xa1;" horiz-adv-x="181" 
d="M133.5 598c11.667 12 17.5 26.333 17.5 43s-5.83301 31 -17.5 43s-25.834 18 -42.501 18s-31 -6 -43 -18s-18 -26.333 -18 -43s6 -31 18 -43s26.333 -18 43 -18s30.834 6 42.501 18zM38 0h105l-15 471l-74 34z" />
    <glyph glyph-name="cent" unicode="&#xa2;" horiz-adv-x="464" 
d="M387.5 10c-19.667 -6.66699 -39.5 -11.998 -59.5 -15.998v-107h-88v102c-65.333 6.66699 -116.666 32.834 -153.999 78.501s-56 104.167 -56 175.5c0.666992 70 19.5 127.833 56.5 173.5s87.833 72.167 152.5 79.5v102l88 10v-116c48.667 -10 85.667 -23.667 111 -41
l-28 -68c-27.333 11.333 -50.5 19.666 -69.5 24.999s-41.167 8 -66.5 8c-44 0 -79.167 -16.333 -105.5 -49s-39.833 -73.667 -40.5 -123c0 -52 12.667 -94.167 38 -126.5s60.333 -48.5 105 -48.5c27.333 0 51 2.66699 71 8s41.667 13.666 65 24.999l29 -69
c-12.667 -8.66699 -28.834 -16.334 -48.501 -23.001z" />
    <glyph glyph-name="sterling" unicode="&#xa3;" horiz-adv-x="468" 
d="M445 75l-251.999 -0.000976562c18.667 23.333 28 69 28 137v98h159l-32 73h-127v132c0 26 5.33301 46.667 16 62s27.667 23 51 23c12 0 27.667 -3.66699 47 -11l25 72c-8.66699 6 -21 11.333 -37 16s-31 7 -45 7c-50.667 0 -89 -15.667 -115 -47
s-39 -74.666 -39 -129.999v-124h-74l1 -73h73v-150c0 -26.667 -5.83301 -47.5 -17.5 -62.5s-29.834 -22.5 -54.501 -22.5l9 -75h397z" />
    <glyph glyph-name="currency" unicode="&#xa4;" horiz-adv-x="682" 
d="M552 99c27.333 42 41.334 89.334 42.001 142.001c-0.666992 54.667 -14.334 102.667 -41.001 144l99 102l-57 69l-105 -106c-42.667 31.333 -91.334 47.333 -146.001 48c-54 -0.666992 -104 -17.334 -150 -50.001l-107 108l-57 -69l102 -104
c-12.667 -18.667 -22.667 -40.167 -30 -64.5s-11 -49.5 -11 -75.5c0 -52.667 13 -100.667 39 -144l-100 -103l57 -68l105 107c42.667 -31.333 91.334 -47.333 146.001 -48c58.667 0 109 16 151 48l106 -107l57 68zM474.001 156.501
c-14 -25 -32.832 -44.8311 -56.499 -59.498s-49.834 -22 -78.501 -22c-44 0.666992 -79.833 17 -107.5 49s-41.5 72 -41.5 120c0 30 6.83301 57.667 20.5 83s32.167 45.166 55.5 59.499s49.333 21.5 78 21.5s54.5 -7.33301 77.5 -22s41 -34.834 54 -60.501
s19.5 -54.167 19.5 -85.5c0 -30.667 -7 -58.5 -21 -83.5z" />
    <glyph glyph-name="yen" unicode="&#xa5;" horiz-adv-x="579" 
d="M332 144h172l9 -72h-182v-72h-96v72h-160l-9 72h169v94h-160l-9 73h146l-202 352l93 34l180 -331l184 314h102l-214 -369h149l9 -73h-181v-94z" />
    <glyph glyph-name="brokenbar" unicode="&#xa6;" horiz-adv-x="275" 
d="M185 406v298l-95 7v-298zM185 -7v295l-95 6v-294z" />
    <glyph glyph-name="section" unicode="&#xa7;" horiz-adv-x="583" 
d="M534.5 176c-12.333 -23.333 -30.166 -43.001 -53.499 -59.001c4.66699 -14.667 7 -32.334 7 -53.001c0 -36 -9.66699 -67.833 -29 -95.5s-47.333 -49.167 -84 -64.5s-80.667 -23 -132 -23c-29.333 0 -65.166 5.33301 -107.499 16s-70.166 22 -83.499 34l22 76
c21.333 -11.333 47.666 -21.333 78.999 -30s61 -13 89 -13c47.333 0 84 8.83301 110 26.5s39 41.5 39 71.5c0 21.333 -6.5 40.166 -19.5 56.499s-31.5 31.333 -55.5 45s-57.333 29.834 -100 48.501c-42 18.667 -75.5 36.834 -100.5 54.501s-43.833 38.334 -56.5 62.001
s-19 52.167 -19 85.5c0 27.333 6.16699 52.5 18.5 75.5s30.166 42.833 53.499 59.5c-4.66699 14.667 -7 33 -7 55c0 33.333 9 63.333 27 90s43.833 47.667 77.5 63s73.167 23 118.5 23c31.333 0 62.833 -4.33301 94.5 -13s60.167 -19.334 85.5 -32.001l-32 -76
c-23.333 11.333 -45.5 20.166 -66.5 26.499s-45.833 9.5 -74.5 9.5c-40 0 -72.333 -7.66699 -97 -23s-37 -37.333 -37 -66c0 -22 6.33301 -41.167 19 -57.5s30.667 -31.166 54 -44.499s57.666 -30.333 102.999 -51c60.667 -27.333 105.167 -55.666 133.5 -84.999
s42.5 -67.333 42.5 -114c0 -28.667 -6.16699 -54.667 -18.5 -78zM432 191.999c16 16 24.001 36 24.001 60c0 21.333 -6.5 40.166 -19.5 56.499s-31.5 31.333 -55.5 45s-57.333 29.834 -100 48.501c-56.667 25.333 -96.667 49 -120 71c-16.667 -14.667 -25 -33.667 -25 -57
c0 -22 6.33301 -41.167 19 -57.5s30.667 -31.166 54 -44.499s57.666 -30.333 102.999 -51c51.333 -22.667 91.333 -46.334 120 -71.001z" />
    <glyph glyph-name="dieresis" unicode="&#xa8;" horiz-adv-x="302" 
d="M102.5 626c10.333 10.667 15.5 23.334 15.5 38.001s-5.16699 27.334 -15.5 38.001s-23.166 16 -38.499 16c-14.667 0 -27.334 -5.33301 -38.001 -16s-16 -23.334 -16 -38.001s5.33301 -27.334 16 -38.001s23.334 -16 38.001 -16c15.333 0 28.166 5.33301 38.499 16z
M276.5 626c10.333 10.667 15.5 23.334 15.5 38.001s-5.16699 27.334 -15.5 38.001s-23.166 16 -38.499 16c-14.667 0 -27.334 -5.33301 -38.001 -16s-16 -23.334 -16 -38.001s5.33301 -27.334 16 -38.001s23.334 -16 38.001 -16c15.333 0 28.166 5.33301 38.499 16z" />
    <glyph glyph-name="copyright" unicode="&#xa9;" horiz-adv-x="807" 
d="M731 523.5c-30.667 56.333 -74.334 100.833 -131.001 133.5s-122.334 49 -197.001 49s-140.167 -16.333 -196.5 -49s-99.833 -77.167 -130.5 -133.5s-46 -118.833 -46 -187.5s15.333 -131 46 -187s74.167 -100.333 130.5 -133s121.833 -49 196.5 -49
s140.334 16.333 197.001 49s100.334 77 131.001 133s46 118.333 46 187s-15.333 131.167 -46 187.5zM138 495c24.667 46.667 59.834 83.334 105.501 110.001s98.834 40 159.501 40c61.333 0 114.833 -13.333 160.5 -40s80.834 -63.334 105.501 -110.001
s37 -99.334 37 -158.001s-12.333 -111.334 -37 -158.001s-59.834 -83.334 -105.501 -110.001s-99.167 -40 -160.5 -40c-60.667 0 -113.834 13.333 -159.501 40s-80.834 63.334 -105.501 110.001s-37 99.334 -37 158.001s12.333 111.334 37 158.001zM495 116
c28.667 8 52.667 18.667 72 32l-28 70c-23.333 -12 -42.833 -20.5 -58.5 -25.5s-35.834 -7.5 -60.501 -7.5c-83.333 0 -125 51.667 -125 155c0 45.333 11 81.666 33 108.999s53.333 41 94 41c25.333 0 45.5 -2.33301 60.5 -7s34.833 -13 59.5 -25l27 71
c-19.333 13.333 -43.166 23.833 -71.499 31.5s-53.5 11.5 -75.5 11.5c-45.333 0 -85 -9.66699 -119 -29s-60.167 -46.666 -78.5 -81.999s-27.5 -76 -27.5 -122c0 -71.333 19.5 -128.333 58.5 -171s93.5 -64 163.5 -64c22 0 47.333 4 76 12z" />
    <glyph glyph-name="ordfeminine" unicode="&#xaa;" horiz-adv-x="330" 
d="M114.5 626.5c14.333 3.66699 29.5 5.49805 45.5 5.49805c20.667 0 36.167 -6 46.5 -18s15.5 -27.667 15.5 -47h-70c-36 0 -65.333 -9 -88 -27s-34 -42.667 -34 -74c0 -30.667 10.5 -55.5 31.5 -74.5s49.167 -28.5 84.5 -28.5c16 0 32.167 3.83301 48.5 11.5
s30.5 16.834 42.5 27.501l17 -31h46v210c0 21.333 -6.16699 41.333 -18.5 60s-29.166 33.5 -50.499 44.5s-45.333 16.5 -72 16.5c-15.333 0 -34.5 -2.83301 -57.5 -8.5s-40.167 -12.5 -51.5 -20.5l17 -62c17.333 6.66699 33.166 11.834 47.499 15.501zM121.5 497.498
c10.333 7 24.498 10.5 42.498 10.5h60v-40c-23.333 -24.667 -48.666 -37 -75.999 -37c-13.333 0 -23.666 3.66699 -30.999 11s-11 16.333 -11 27c0 12 5.16699 21.5 15.5 28.5z" />
    <glyph glyph-name="guillemotleft" unicode="&#xab;" horiz-adv-x="382" 
d="M202 147l-99 98l99 98l-22 64l-150 -139v-46l150 -139zM362 147l-99 98l99 98l-21 64l-151 -139v-46l151 -139z" />
    <glyph glyph-name="logicalnot" unicode="&#xac;" horiz-adv-x="514" 
d="M18 330h382v-213l84 -5v244l-8 50h-466z" />
    <glyph glyph-name="softhyphen" unicode="&#xad;" horiz-adv-x="120" 
 />
    <glyph glyph-name="registered" unicode="&#xae;" horiz-adv-x="719" 
d="M648.5 653.5c-27 49.667 -65.333 88.834 -115 117.501s-107.5 43 -173.5 43s-124 -14.333 -174 -43s-88.5 -67.834 -115.5 -117.501s-40.5 -105.167 -40.5 -166.5c0 -60.667 13.5 -115.667 40.5 -165s65.5 -88.333 115.5 -117s108 -43 174 -43s123.833 14.333 173.5 43
s88 67.667 115 117s40.5 104.333 40.5 165c0 61.333 -13.5 116.833 -40.5 166.5zM128 626.5c21.333 40.333 51.833 71.834 91.5 94.501s86.5 34 140.5 34c53.333 0 99.833 -11.333 139.5 -34s70.167 -54.334 91.5 -95.001s32 -86.667 32 -138
c0 -50.667 -10.667 -96.167 -32 -136.5s-51.833 -72.166 -91.5 -95.499s-86.167 -35 -139.5 -35c-54 0 -100.833 11.667 -140.5 35s-70.167 55.166 -91.5 95.499s-32 85.833 -32 136.5c0 52 10.667 98.167 32 138.5zM482.5 508.001c11.667 16.667 17.501 37 17.501 61
c0 37.333 -12.833 65.166 -38.5 83.499s-59.834 27.5 -102.501 27.5h-124v-376h71v150l63 1l76 -151h80l-89 166c19.333 8.66699 34.833 21.334 46.5 38.001zM406.501 612.001c13.667 -6.66699 20.499 -22 20.499 -46c0 -21.333 -7.66699 -35.833 -23 -43.5
s-37.333 -11.5 -66 -11.5h-32v111h34c30.667 0 52.834 -3.33301 66.501 -10z" />
    <glyph glyph-name="macron" unicode="&#xaf;" horiz-adv-x="271" 
d="M252 702h-242v-76h251z" />
    <glyph glyph-name="degree" unicode="&#xb0;" horiz-adv-x="246" 
d="M43.5 681c-22.333 -21.333 -33.5 -47 -33.5 -77s11.167 -55.333 33.5 -76s48.833 -31 79.5 -31s57.167 10.333 79.5 31s33.5 46 33.5 76s-11.167 55.667 -33.5 77s-48.833 32 -79.5 32s-57.167 -10.667 -79.5 -32zM87.5 568c-9.66699 10 -14.5 22 -14.5 36
c0 13.333 4.83301 24.833 14.5 34.5s21.5 14.5 35.5 14.5s25.833 -4.83301 35.5 -14.5s14.5 -21.5 14.5 -35.5c0 -13.333 -4.83301 -25 -14.5 -35s-21.5 -15 -35.5 -15s-25.833 5 -35.5 15z" />
    <glyph glyph-name="plusminus" unicode="&#xb1;" horiz-adv-x="480" 
d="M283 531l-84 3v-166h-169l9 -68h160v-171l84 -5v176h167l-8 68h-159v163zM39 0h411l-6 69h-413z" />
    <glyph glyph-name="twosuperior" unicode="&#xb2;" horiz-adv-x="362" 
d="M94 759.5c-22.667 -7.66699 -40.502 -14.998 -53.502 -21.998s-21.167 -11.167 -24.5 -12.5l33 -64c21.333 11.333 41.5 20.666 60.5 27.999s38.833 11 59.5 11c22.667 0 40.334 -5.83301 53.001 -17.5s19 -25.5 19 -41.5c0 -20 -5.33301 -39.167 -16 -57.5
s-28.667 -38.5 -54 -60.5l-146 -124v-63h317l-10 67h-196l86 72c38 32.667 65.333 61.667 82 87s25 51.666 25 78.999c0 21.333 -5.5 42 -16.5 62s-28.167 36.333 -51.5 49s-52.666 19 -87.999 19c-30 0 -56.333 -3.83301 -79 -11.5z" />
    <glyph glyph-name="threesuperior" unicode="&#xb3;" horiz-adv-x="362" 
d="M85 758c-24 -8.66699 -48.332 -20.6709 -72.999 -36.0039l34 -60c16.667 11.333 33.5 20.5 50.5 27.5s36.5 10.5 58.5 10.5c24.667 0 43.5 -5.33301 56.5 -16s19.5 -24 19.5 -40c0 -22 -8 -39.667 -24 -53s-41 -20 -75 -20h-37l10 -67h22c39.333 0 68 -7 86 -21
s27 -35 27 -63c0 -22 -8.66699 -39.5 -26 -52.5s-39.333 -19.5 -66 -19.5c-21.333 0 -39.833 2.66699 -55.5 8s-34.167 14 -55.5 26l-37 -60c56 -29.333 107 -44 153 -44c34.667 0 65.167 6.33301 91.5 19s46.666 29.834 60.999 51.501s21.5 45.834 21.5 72.501
c0 30.667 -8 56.834 -24 78.501s-35.333 34.834 -58 39.501c20 6.66699 37.333 20 52 40s22 42 22 66c0 36 -13.333 66 -40 90s-65 36 -115 36c-28.667 0 -55 -4.33301 -79 -13z" />
    <glyph glyph-name="acute" unicode="&#xb4;" horiz-adv-x="176" 
d="M64 747l-54 -141l66 -17l90 158h-102z" />
    <glyph glyph-name="mu" unicode="&#xb5;" horiz-adv-x="551" 
d="M491 0l-67.001 -0.000976562l-17 64c-26 -23.333 -55.333 -42.5 -88 -57.5s-65 -22.5 -97 -22.5c-23.333 0 -43.333 3 -60 9v-201l-96 -11v704h96v-311c0 -35.333 5.83301 -62.166 17.5 -80.499s32.5 -27.5 62.5 -27.5c22.667 0 47.334 7.16699 74.001 21.5
s53 32.833 79 55.5v342h96v-485z" />
    <glyph glyph-name="paragraph" unicode="&#xb6;" horiz-adv-x="861" 
d="M638 604l0.000976562 -603.998h97v604h96v76h-545c-77.333 0 -139.333 -17.333 -186 -52s-70 -88 -70 -160c0 -48.667 12 -89.334 36 -122.001s56.167 -56.834 96.5 -72.501s85.166 -23.5 134.499 -23.5h31v-250h96v604h214z" />
    <glyph glyph-name="periodcentered" unicode="&#xb7;" horiz-adv-x="180" 
d="M133 219c11.333 12 17 26.333 17 43s-5.66699 30.834 -17 42.501s-25.333 17.5 -42 17.5c-17.333 0 -31.833 -5.83301 -43.5 -17.5s-17.5 -25.834 -17.5 -42.501s5.83301 -31 17.5 -43s26.167 -18 43.5 -18c16.667 0 30.667 6 42 18z" />
    <glyph glyph-name="cedilla" unicode="&#xb8;" horiz-adv-x="223" 
d="M115 -95.5c16.667 -9 24.999 -19.501 24.999 -31.501c0 -9.33301 -4.66699 -16.5 -14 -21.5s-20 -7.5 -32 -7.5c-8.66699 0 -18.834 1.83301 -30.501 5.5s-22.167 7.5 -31.5 11.5l-22 -59c10 -6.66699 23.333 -12.167 40 -16.5s31.334 -6.5 44.001 -6.5
c32.667 0 60.667 8.33301 84 25s35 40.334 35 71.001c0 18 -7.16699 35 -21.5 51s-32.166 26.667 -53.499 32l22 55h-73l-36 -91c26 -2.66699 47.333 -8.5 64 -17.5z" />
    <glyph glyph-name="onesuperior" unicode="&#xb9;" horiz-adv-x="278" 
d="M151 764l-141 -67l34 -60l77 39v-340h87v428h-57z" />
    <glyph glyph-name="ordmasculine" unicode="&#xba;" horiz-adv-x="384" 
d="M74.5 655.5c-29.667 -31 -44.502 -72.1689 -44.502 -123.502c0 -52 14.333 -93.167 43 -123.5s67.334 -45.5 116.001 -45.5s88.334 15.333 119.001 46s46 71.334 46 122.001c0 52.667 -14.667 94.334 -44 125.001s-69 46 -119 46c-48 0 -86.833 -15.5 -116.5 -46.5z
M247.498 606.498c13.667 -17 20.502 -42.166 20.502 -75.499c0 -32.667 -7.33301 -57.334 -22 -74.001s-33.334 -25 -56.001 -25s-40.834 8.5 -54.501 25.5s-20.5 41.833 -20.5 74.5c0 33.333 7.5 58.333 22.5 75s33.167 25 54.5 25c23.333 0 41.833 -8.5 55.5 -25.5z" />
    <glyph glyph-name="guillemotright" unicode="&#xbb;" horiz-adv-x="383" 
d="M20 343l99 -98l-99 -98l23 -64l149 139v46l-149 139zM181 343l99 -98l-99 -98l22 -64l150 139v46l-150 139z" />
    <glyph glyph-name="onequarter" unicode="&#xbc;" horiz-adv-x="820" 
d="M151 764l-141 -67l34 -60l77 39v-340h87v428h-57zM155 -134l517 834h-101l-516 -834h100zM800 -8h-84v329h-59l-250 -329l8 -70h216v-86h85v86h77zM496 -8l135 179v-179h-135z" />
    <glyph glyph-name="onehalf" unicode="&#xbd;" horiz-adv-x="844" 
d="M151 764l-141 -67l34 -60l77 39v-340h87v428h-57zM145 -134l517 834h-101l-516 -834h100zM576 313.5c-22.667 -7.66699 -40.502 -14.998 -53.502 -21.998s-21.167 -11.167 -24.5 -12.5l33 -64c21.333 11.333 41.5 20.666 60.5 27.999s38.833 11 59.5 11
c22.667 0 40.334 -5.83301 53.001 -17.5s19 -25.5 19 -41.5c0 -20 -5.33301 -39.167 -16 -57.5s-28.667 -38.5 -54 -60.5l-146 -124v-63h317l-10 67h-196l86 72c38 32.667 65.333 61.667 82 87s25 51.666 25 78.999c0 21.333 -5.5 42 -16.5 62s-28.167 36.333 -51.5 49
s-52.666 19 -87.999 19c-30 0 -56.333 -3.83301 -79 -11.5z" />
    <glyph glyph-name="threequarters" unicode="&#xbe;" horiz-adv-x="830" 
d="M85 758c-24 -8.66699 -48.3311 -20.6709 -72.998 -36.0039l34 -60c16.667 11.333 33.5 20.5 50.5 27.5s36.5 10.5 58.5 10.5c25.333 0 44.333 -5.66699 57 -17s19 -24.333 19 -39c0 -24.667 -9.83301 -43 -29.5 -55s-42.834 -18 -69.501 -18h-37l10 -67h22
c39.333 0 68 -7 86 -21s27 -35 27 -63c0 -22 -8.66699 -39.5 -26 -52.5s-39.333 -19.5 -66 -19.5c-21.333 0 -39.833 2.66699 -55.5 8s-34.167 14 -55.5 26l-37 -60c56 -29.333 107 -44 153 -44c34.667 0 65.167 6.33301 91.5 19s46.666 29.834 60.999 51.501
s21.5 45.834 21.5 72.501c0 30.667 -8 56.834 -24 78.501s-35.333 34.834 -58 39.501c20 6.66699 37.333 20 52 40s22 42 22 66c0 36 -13.333 66 -40 90s-65 36 -115 36c-28.667 0 -55 -4.33301 -79 -13zM209.002 -134.004l517 834h-101l-516 -834h100zM417.002 -8.00391
l8 -70h216v-86h85v86h77l7 70h-84v329h-59zM641.002 -8.00391h-135l135 179v-179z" />
    <glyph glyph-name="questiondown" unicode="&#xbf;" horiz-adv-x="419" 
d="M297 539c12 12 18 26.333 18 43s-6 31 -18 43s-26.333 18 -43 18s-31 -6 -43 -18s-18 -26.333 -18 -43s6 -31 18 -43s26.333 -18 43 -18s31 6 43 18zM321 -44.5c28.667 9.66699 57.999 24.167 87.999 43.5l-12 86c-30.667 -21.333 -59.667 -37.166 -87 -47.499
s-55 -15.5 -83 -15.5c-33.333 0 -59.166 7.66699 -77.499 23s-27.5 38 -27.5 68c0 32.667 15.5 62.667 46.5 90s72.5 49.666 124.5 66.999l-9 185l-69 29l-12 -165c-51.333 -24.667 -93 -56 -125 -94s-48 -75.667 -48 -113c0 -52 16.333 -93.5 49 -124.5s81 -46.5 145 -46.5
c36 0 68.333 4.83301 97 14.5z" />
    <glyph glyph-name="Agrave" unicode="&#xc0;" horiz-adv-x="625" 
d="M104 0l68 182h277l71 -190l95 14l-262 674h-87l-256 -680h94zM308 551l112 -292h-221zM313 897h-102l90 -158l66 17z" />
    <glyph glyph-name="Aacute" unicode="&#xc1;" horiz-adv-x="625" 
d="M104 0l68 182h277l71 -190l95 14l-262 674h-87l-256 -680h94zM308 551l112 -292h-221zM297 897l-54 -141l66 -17l90 158h-102z" />
    <glyph glyph-name="Acircumflex" unicode="&#xc2;" horiz-adv-x="625" 
d="M104 0l68 182h277l71 -190l95 14l-262 674h-87l-256 -680h94zM308 551l112 -292h-221zM467 749l-129 148h-66l-128 -148l87 -10l75 87l75 -87z" />
    <glyph glyph-name="Atilde" unicode="&#xc3;" horiz-adv-x="625" 
d="M104 0l68 182h277l71 -190l95 14l-262 674h-87l-256 -680h94zM308 551l112 -292h-221zM380.5 830c-6.33301 -6.66699 -13.8311 -10.002 -22.498 -10.002c-11.333 0 -20.833 1.66699 -28.5 5s-15.834 8.33301 -24.501 15c-10 6.66699 -19 11.834 -27 15.501
s-18.667 5.5 -32 5.5c-28.667 0 -51.667 -8.16699 -69 -24.5s-26 -43.166 -26 -80.499h65c0.666992 10 4.5 18.667 11.5 26s14.5 11 22.5 11c11.333 0 20.666 -1.66699 27.999 -5s15.333 -8.33301 24 -15c9.33301 -7.33301 18 -12.833 26 -16.5s18.333 -5.5 31 -5.5
c28 0 50.833 8.33301 68.5 25s26.5 43.667 26.5 81h-63c-0.666992 -11.333 -4.16699 -20.333 -10.5 -27z" />
    <glyph glyph-name="Adieresis" unicode="&#xc4;" horiz-adv-x="625" 
d="M104 0l68 182h277l71 -190l95 14l-262 674h-87l-256 -680h94zM308 551l112 -292h-221zM255.5 776c10.333 10.667 15.5 23.334 15.5 38.001s-5.16699 27.334 -15.5 38.001s-23.166 16 -38.499 16c-14.667 0 -27.334 -5.33301 -38.001 -16s-16 -23.334 -16 -38.001
s5.33301 -27.334 16 -38.001s23.334 -16 38.001 -16c15.333 0 28.166 5.33301 38.499 16zM429.5 776c10.333 10.667 15.5 23.334 15.5 38.001s-5.16699 27.334 -15.5 38.001s-23.166 16 -38.499 16c-14.667 0 -27.334 -5.33301 -38.001 -16s-16 -23.334 -16 -38.001
s5.33301 -27.334 16 -38.001s23.334 -16 38.001 -16c15.333 0 28.166 5.33301 38.499 16z" />
    <glyph glyph-name="Aring" unicode="&#xc5;" horiz-adv-x="625" 
d="M104 0l68 182h277l71 -190l95 14l-262 674h-87l-256 -680h94zM308 551l112 -292h-221zM237 899c-19.333 -18 -29 -40 -29 -66c0 -25.333 9.5 -46.5 28.5 -63.5s42.167 -25.5 69.5 -25.5c26.667 0 49.5 8.5 68.5 25.5s28.5 38.167 28.5 63.5c0 26 -9.5 48 -28.5 66
s-41.833 27 -68.5 27s-49.667 -9 -69 -27zM276.5 804.5c-8.33301 8.33301 -12.5 17.833 -12.5 28.5c0 12 4.16699 22 12.5 30s18.166 12 29.499 12s21 -4 29 -12s12 -18 12 -30c0 -10.667 -4 -20.167 -12 -28.5s-17.667 -12.5 -29 -12.5s-21.166 4.16699 -29.499 12.5z" />
    <glyph glyph-name="AE" unicode="&#xc6;" horiz-adv-x="907" 
d="M455 182v-182h432l-12 75h-323v234h244l-13 74h-231v223h300l-12 74h-396l-434 -676l90 -14l118 192h237zM269 259l186 289v-289h-186z" />
    <glyph glyph-name="Ccedilla" unicode="&#xc7;" horiz-adv-x="559" 
d="M428.5 -74c14.333 -16 21.502 -32.999 21.502 -50.999c0 -30.667 -11.667 -54.334 -35 -71.001s-51.333 -25 -84 -25c-12.667 0 -27.334 2.16699 -44.001 6.5s-30 9.83301 -40 16.5l22 59c9.33301 -4 19.833 -7.83301 31.5 -11.5s21.834 -5.5 30.501 -5.5
c12 0 22.667 2.5 32 7.5s14 12.167 14 21.5c0 12 -8.33301 22.5 -25 31.5s-38 14.833 -64 17.5l26 66c-58.667 6.66699 -108.5 26.167 -149.5 58.5s-72 73.5 -93 123.5s-31.5 105.333 -31.5 166c0 68 13.167 129.167 39.5 183.5s64 97 113 128s105.833 46.5 170.5 46.5
c24 0 53.333 -3.5 88 -10.5s63 -17.167 85 -30.5l-30 -69c-30 10.667 -54.333 18 -73 22s-42.667 6 -72 6c-41.333 0 -78.833 -11.5 -112.5 -34.5s-60.167 -55.5 -79.5 -97.5s-29 -89.667 -29 -143c0 -49.333 8.5 -94.5 25.5 -135.5s41.667 -73.5 74 -97.5
s70.166 -36 113.499 -36c56 0 105.667 10 149 30l37 -72c-18.667 -9.33301 -42 -17.5 -70 -24.5s-55.333 -11.833 -82 -14.5l-12 -29c21.333 -5.33301 39.166 -16 53.499 -32z" />
    <glyph glyph-name="Egrave" unicode="&#xc8;" horiz-adv-x="542" 
d="M186 75v234h244l-13 74h-231v223h300l-13 74h-383v-680h432l-13 75h-323zM300 897h-102l90 -158l66 17z" />
    <glyph glyph-name="Eacute" unicode="&#xc9;" horiz-adv-x="542" 
d="M186 75v234h244l-13 74h-231v223h300l-13 74h-383v-680h432l-13 75h-323zM284 897l-54 -141l66 -17l90 158h-102z" />
    <glyph glyph-name="Ecircumflex" unicode="&#xca;" horiz-adv-x="542" 
d="M186 75v234h244l-13 74h-231v223h300l-13 74h-383v-680h432l-13 75h-323zM454 749l-129 148h-66l-128 -148l87 -10l75 87l75 -87z" />
    <glyph glyph-name="Edieresis" unicode="&#xcb;" horiz-adv-x="542" 
d="M186 75v234h244l-13 74h-231v223h300l-13 74h-383v-680h432l-13 75h-323zM242.5 776c10.333 10.667 15.5 23.334 15.5 38.001s-5.16699 27.334 -15.5 38.001s-23.166 16 -38.499 16c-14.667 0 -27.334 -5.33301 -38.001 -16s-16 -23.334 -16 -38.001
s5.33301 -27.334 16 -38.001s23.334 -16 38.001 -16c15.333 0 28.166 5.33301 38.499 16zM416.5 776c10.333 10.667 15.5 23.334 15.5 38.001s-5.16699 27.334 -15.5 38.001s-23.166 16 -38.499 16c-14.667 0 -27.334 -5.33301 -38.001 -16s-16 -23.334 -16 -38.001
s5.33301 -27.334 16 -38.001s23.334 -16 38.001 -16c15.333 0 28.166 5.33301 38.499 16z" />
    <glyph glyph-name="Igrave" unicode="&#xcc;" horiz-adv-x="276" 
d="M90 680v-680h96v680h-96zM145 897h-102l90 -158l66 17z" />
    <glyph glyph-name="Iacute" unicode="&#xcd;" horiz-adv-x="276" 
d="M90 680v-680h96v680h-96zM129 897l-54 -141l66 -17l90 158h-102z" />
    <glyph glyph-name="Icircumflex" unicode="&#xce;" horiz-adv-x="276" 
d="M90 680v-680h96v680h-96zM299 749l-129 148h-66l-128 -148l87 -10l75 87l75 -87z" />
    <glyph glyph-name="Idieresis" unicode="&#xcf;" horiz-adv-x="276" 
d="M90 680v-680h96v680h-96zM87.5 776c10.333 10.667 15.5 23.334 15.5 38.001s-5.16699 27.334 -15.5 38.001s-23.166 16 -38.499 16c-14.667 0 -27.334 -5.33301 -38.001 -16s-16 -23.334 -16 -38.001s5.33301 -27.334 16 -38.001s23.334 -16 38.001 -16
c15.333 0 28.166 5.33301 38.499 16zM261.5 776c10.333 10.667 15.5 23.334 15.5 38.001s-5.16699 27.334 -15.5 38.001s-23.166 16 -38.499 16c-14.667 0 -27.334 -5.33301 -38.001 -16s-16 -23.334 -16 -38.001s5.33301 -27.334 16 -38.001s23.334 -16 38.001 -16
c15.333 0 28.166 5.33301 38.499 16z" />
    <glyph glyph-name="Eth" unicode="&#xd0;" horiz-adv-x="678" 
d="M562 587.5c50.667 -61.667 75.999 -142.833 75.999 -243.5c0 -66.667 -11.833 -126 -35.5 -178s-58.667 -92.667 -105 -122s-101.833 -44 -166.5 -44h-241v300h-61l-10 75h71v305h245c100.667 0 176.334 -30.833 227.001 -92.5zM483.999 148.501
c38 45.667 57 110.499 57 194.499c0 78.667 -16.833 140.834 -50.5 186.501s-84.167 68.5 -151.5 68.5h-153v-223h91l9 -75h-100v-220h145c64 0 115 22.833 153 68.5z" />
    <glyph glyph-name="Ntilde" unicode="&#xd1;" horiz-adv-x="715" 
d="M539 0h86v680h-97v-503l-353 503h-85v-680h96v507zM434.5 830c-6.33301 -6.66699 -13.8311 -10.002 -22.498 -10.002c-11.333 0 -20.833 1.66699 -28.5 5s-15.834 8.33301 -24.501 15c-10 6.66699 -19 11.834 -27 15.501s-18.667 5.5 -32 5.5
c-28.667 0 -51.667 -8.16699 -69 -24.5s-26 -43.166 -26 -80.499h65c0.666992 10 4.5 18.667 11.5 26s14.5 11 22.5 11c11.333 0 20.666 -1.66699 27.999 -5s15.333 -8.33301 24 -15c9.33301 -7.33301 18 -12.833 26 -16.5s18.333 -5.5 31 -5.5c28 0 50.833 8.33301 68.5 25
s26.5 43.667 26.5 81h-63c-0.666992 -11.333 -4.16699 -20.333 -10.5 -27z" />
    <glyph glyph-name="Ograve" unicode="&#xd2;" horiz-adv-x="729" 
d="M198 647c-49.333 -31.333 -88.001 -74 -116.001 -128s-42 -114.667 -42 -182s13.833 -127.666 41.5 -180.999s66 -95 115 -125s104.167 -45 165.5 -45c62.667 0.666992 118.834 16.667 168.501 48s88.5 74 116.5 128s42 114.667 42 182s-13.833 127.666 -41.5 180.999
s-66.167 95.166 -115.5 125.499s-105 45.5 -167 45.5c-62 -1.33301 -117.667 -17.666 -167 -48.999zM168.999 479.5c19.333 41.667 46.3311 74.333 80.998 98s73.667 35.5 117 35.5c42 0 79.667 -11.5 113 -34.5s59.5 -55 78.5 -96s28.5 -87.167 28.5 -138.5
c0 -52.667 -9.66699 -100 -29 -142s-46.166 -74.833 -80.499 -98.5s-73.166 -35.5 -116.499 -35.5c-42 0 -79.833 11.5 -113.5 34.5s-60 55.167 -79 96.5s-28.5 87.666 -28.5 138.999c0 52.667 9.66699 99.834 29 141.501zM368.997 896.999h-102l90 -158l66 17z" />
    <glyph glyph-name="Oacute" unicode="&#xd3;" horiz-adv-x="729" 
d="M198 647c-49.333 -31.333 -88.001 -74 -116.001 -128s-42 -114.667 -42 -182s13.833 -127.666 41.5 -180.999s66 -95 115 -125s104.167 -45 165.5 -45c62.667 0.666992 118.834 16.667 168.501 48s88.5 74 116.5 128s42 114.667 42 182s-13.833 127.666 -41.5 180.999
s-66.167 95.166 -115.5 125.499s-105 45.5 -167 45.5c-62 -1.33301 -117.667 -17.666 -167 -48.999zM168.999 479.5c19.333 41.667 46.3311 74.333 80.998 98s73.667 35.5 117 35.5c42 0 79.667 -11.5 113 -34.5s59.5 -55 78.5 -96s28.5 -87.167 28.5 -138.5
c0 -52.667 -9.66699 -100 -29 -142s-46.166 -74.833 -80.499 -98.5s-73.166 -35.5 -116.499 -35.5c-42 0 -79.833 11.5 -113.5 34.5s-60 55.167 -79 96.5s-28.5 87.666 -28.5 138.999c0 52.667 9.66699 99.834 29 141.501zM352.997 896.999l-54 -141l66 -17l90 158h-102z
" />
    <glyph glyph-name="Ocircumflex" unicode="&#xd4;" horiz-adv-x="729" 
d="M198 647c-49.333 -31.333 -88.001 -74 -116.001 -128s-42 -114.667 -42 -182s13.833 -127.666 41.5 -180.999s66 -95 115 -125s104.167 -45 165.5 -45c62.667 0.666992 118.834 16.667 168.501 48s88.5 74 116.5 128s42 114.667 42 182s-13.833 127.666 -41.5 180.999
s-66.167 95.166 -115.5 125.499s-105 45.5 -167 45.5c-62 -1.33301 -117.667 -17.666 -167 -48.999zM168.999 479.5c19.333 41.667 46.3311 74.333 80.998 98s73.667 35.5 117 35.5c42 0 79.667 -11.5 113 -34.5s59.5 -55 78.5 -96s28.5 -87.167 28.5 -138.5
c0 -52.667 -9.66699 -100 -29 -142s-46.166 -74.833 -80.499 -98.5s-73.166 -35.5 -116.499 -35.5c-42 0 -79.833 11.5 -113.5 34.5s-60 55.167 -79 96.5s-28.5 87.666 -28.5 138.999c0 52.667 9.66699 99.834 29 141.501zM522.997 748.999l-129 148h-66l-128 -148l87 -10
l75 87l75 -87z" />
    <glyph glyph-name="Otilde" unicode="&#xd5;" horiz-adv-x="729" 
d="M198 647c-49.333 -31.333 -88.001 -74 -116.001 -128s-42 -114.667 -42 -182s13.833 -127.666 41.5 -180.999s66 -95 115 -125s104.167 -45 165.5 -45c62.667 0.666992 118.834 16.667 168.501 48s88.5 74 116.5 128s42 114.667 42 182s-13.833 127.666 -41.5 180.999
s-66.167 95.166 -115.5 125.499s-105 45.5 -167 45.5c-62 -1.33301 -117.667 -17.666 -167 -48.999zM168.999 479.5c19.333 41.667 46.3311 74.333 80.998 98s73.667 35.5 117 35.5c42 0 79.667 -11.5 113 -34.5s59.5 -55 78.5 -96s28.5 -87.167 28.5 -138.5
c0 -52.667 -9.66699 -100 -29 -142s-46.166 -74.833 -80.499 -98.5s-73.166 -35.5 -116.499 -35.5c-42 0 -79.833 11.5 -113.5 34.5s-60 55.167 -79 96.5s-28.5 87.666 -28.5 138.999c0 52.667 9.66699 99.834 29 141.501zM436.497 829.999
c-6.33301 -6.66699 -13.8311 -10.002 -22.498 -10.002c-11.333 0 -20.833 1.66699 -28.5 5s-15.834 8.33301 -24.501 15c-10 6.66699 -19 11.834 -27 15.501s-18.667 5.5 -32 5.5c-28.667 0 -51.667 -8.16699 -69 -24.5s-26 -43.166 -26 -80.499h65
c0.666992 10 4.5 18.667 11.5 26s14.5 11 22.5 11c11.333 0 20.666 -1.66699 27.999 -5s15.333 -8.33301 24 -15c9.33301 -7.33301 18 -12.833 26 -16.5s18.333 -5.5 31 -5.5c28 0 50.833 8.33301 68.5 25s26.5 43.667 26.5 81h-63
c-0.666992 -11.333 -4.16699 -20.333 -10.5 -27z" />
    <glyph glyph-name="Odieresis" unicode="&#xd6;" horiz-adv-x="729" 
d="M198 647c-49.333 -31.333 -88.001 -74 -116.001 -128s-42 -114.667 -42 -182s13.833 -127.666 41.5 -180.999s66 -95 115 -125s104.167 -45 165.5 -45c62.667 0.666992 118.834 16.667 168.501 48s88.5 74 116.5 128s42 114.667 42 182s-13.833 127.666 -41.5 180.999
s-66.167 95.166 -115.5 125.499s-105 45.5 -167 45.5c-62 -1.33301 -117.667 -17.666 -167 -48.999zM168.999 479.5c19.333 41.667 46.3311 74.333 80.998 98s73.667 35.5 117 35.5c42 0 79.667 -11.5 113 -34.5s59.5 -55 78.5 -96s28.5 -87.167 28.5 -138.5
c0 -52.667 -9.66699 -100 -29 -142s-46.166 -74.833 -80.499 -98.5s-73.166 -35.5 -116.499 -35.5c-42 0 -79.833 11.5 -113.5 34.5s-60 55.167 -79 96.5s-28.5 87.666 -28.5 138.999c0 52.667 9.66699 99.834 29 141.501zM311.497 775.999
c10.333 10.667 15.5 23.334 15.5 38.001s-5.16699 27.334 -15.5 38.001s-23.166 16 -38.499 16c-14.667 0 -27.334 -5.33301 -38.001 -16s-16 -23.334 -16 -38.001s5.33301 -27.334 16 -38.001s23.334 -16 38.001 -16c15.333 0 28.166 5.33301 38.499 16zM485.497 775.999
c10.333 10.667 15.5 23.334 15.5 38.001s-5.16699 27.334 -15.5 38.001s-23.166 16 -38.499 16c-14.667 0 -27.334 -5.33301 -38.001 -16s-16 -23.334 -16 -38.001s5.33301 -27.334 16 -38.001s23.334 -16 38.001 -16c15.333 0 28.166 5.33301 38.499 16z" />
    <glyph glyph-name="multiply" unicode="&#xd7;" horiz-adv-x="528" 
d="M384 30l-121 155l-135 -155h-98l188 223l-172 221h98l121 -155l135 155h98l-188 -223l172 -221h-98z" />
    <glyph glyph-name="Oslash" unicode="&#xd8;" horiz-adv-x="729" 
d="M532 650.5c49.333 -30.333 87.834 -72.166 115.501 -125.499s41.5 -113.666 41.5 -180.999s-14 -128 -42 -182s-66.833 -96.667 -116.5 -128s-105.834 -47.333 -168.501 -48c-61.333 0 -116.5 15 -165.5 45s-87.333 71.667 -115 125s-41.5 113.666 -41.5 180.999
s14 128 42 182s66.667 96.667 116 128s105 47.666 167 48.999c62 0 117.667 -15.167 167 -45.5zM250.001 577.5c-34.667 -23.667 -61.668 -56.332 -81.001 -97.999s-29 -88.834 -29 -141.501c0 -46 7.5 -87.667 22.5 -125s35.833 -68.333 62.5 -93l206 483
c-19.333 6.66699 -40.666 10 -63.999 10c-43.333 0 -82.333 -11.833 -117 -35.5zM477.5 103.502c34.333 23.667 61.168 56.5 80.501 98.5s29 89.333 29 142c0 43.333 -6.66699 83 -20 119s-32 66 -56 90l-207 -477c19.333 -5.33301 38.333 -8 57 -8
c43.333 0 82.166 11.833 116.499 35.5z" />
    <glyph glyph-name="Ugrave" unicode="&#xd9;" horiz-adv-x="690" 
d="M80 243c0 -48.667 10.833 -92.332 32.5 -130.999s52.5 -68.834 92.5 -90.501s86.667 -32.5 140 -32.5s100 11 140 33s70.833 52.167 92.5 90.5s32.5 81.833 32.5 130.5v437h-97v-428c0 -56 -15 -100.667 -45 -134s-71 -50 -123 -50c-50.667 0 -91.5 16.5 -122.5 49.5
s-46.5 77.833 -46.5 134.5v428h-96v-437zM350 897.002h-102l90 -158l66 17z" />
    <glyph glyph-name="Uacute" unicode="&#xda;" horiz-adv-x="690" 
d="M80 243c0 -48.667 10.833 -92.332 32.5 -130.999s52.5 -68.834 92.5 -90.501s86.667 -32.5 140 -32.5s100 11 140 33s70.833 52.167 92.5 90.5s32.5 81.833 32.5 130.5v437h-97v-428c0 -56 -15 -100.667 -45 -134s-71 -50 -123 -50c-50.667 0 -91.5 16.5 -122.5 49.5
s-46.5 77.833 -46.5 134.5v428h-96v-437zM334 897.002l-54 -141l66 -17l90 158h-102z" />
    <glyph glyph-name="Ucircumflex" unicode="&#xdb;" horiz-adv-x="690" 
d="M80 243c0 -48.667 10.833 -92.332 32.5 -130.999s52.5 -68.834 92.5 -90.501s86.667 -32.5 140 -32.5s100 11 140 33s70.833 52.167 92.5 90.5s32.5 81.833 32.5 130.5v437h-97v-428c0 -56 -15 -100.667 -45 -134s-71 -50 -123 -50c-50.667 0 -91.5 16.5 -122.5 49.5
s-46.5 77.833 -46.5 134.5v428h-96v-437zM504 749.002l-129 148h-66l-128 -148l87 -10l75 87l75 -87z" />
    <glyph glyph-name="Udieresis" unicode="&#xdc;" horiz-adv-x="690" 
d="M80 243c0 -48.667 10.833 -92.332 32.5 -130.999s52.5 -68.834 92.5 -90.501s86.667 -32.5 140 -32.5s100 11 140 33s70.833 52.167 92.5 90.5s32.5 81.833 32.5 130.5v437h-97v-428c0 -56 -15 -100.667 -45 -134s-71 -50 -123 -50c-50.667 0 -91.5 16.5 -122.5 49.5
s-46.5 77.833 -46.5 134.5v428h-96v-437zM292.5 776.002c10.333 10.667 15.5 23.334 15.5 38.001s-5.16699 27.334 -15.5 38.001s-23.166 16 -38.499 16c-14.667 0 -27.334 -5.33301 -38.001 -16s-16 -23.334 -16 -38.001s5.33301 -27.334 16 -38.001s23.334 -16 38.001 -16
c15.333 0 28.166 5.33301 38.499 16zM466.5 776.002c10.333 10.667 15.5 23.334 15.5 38.001s-5.16699 27.334 -15.5 38.001s-23.166 16 -38.499 16c-14.667 0 -27.334 -5.33301 -38.001 -16s-16 -23.334 -16 -38.001s5.33301 -27.334 16 -38.001s23.334 -16 38.001 -16
c15.333 0 28.166 5.33301 38.499 16z" />
    <glyph glyph-name="Yacute" unicode="&#xdd;" horiz-adv-x="579" 
d="M569 680h-102l-184 -314l-180 331l-93 -34l225 -393v-270h96l1 271zM272 897l-54 -141l66 -17l90 158h-102z" />
    <glyph glyph-name="Thorn" unicode="&#xde;" horiz-adv-x="572" 
d="M471.5 548c47 -34.667 70.499 -87.998 70.499 -159.998c0 -48.667 -12 -89.334 -36 -122.001s-56.167 -56.834 -96.5 -72.501s-85.166 -23.5 -134.499 -23.5h-89v-170h-96v680h96v-80h99c77.333 0 139.5 -17.333 186.5 -52zM395.499 283.002
c29 22 44.5 55.668 46.5 101.001c0 49.333 -13.333 84.166 -40 104.499s-66 30.5 -118 30.5h-98v-269h93c48.667 0 87.5 11 116.5 33z" />
    <glyph glyph-name="germandbls" unicode="&#xdf;" horiz-adv-x="592" 
d="M166 472c0 40.667 11.667 73.502 35 98.502s55 37.5 95 37.5c34.667 0 63.334 -9.33301 86.001 -28s34 -45.334 34 -80.001s-11.833 -61.667 -35.5 -81s-58.834 -29 -105.501 -29h-31v-77h70c42.667 0 77.167 -10.5 103.5 -31.5s39.5 -50.833 39.5 -89.5
c0 -38 -14.167 -66.333 -42.5 -85s-65.166 -28 -110.499 -28h-71v-79h75c75.333 0 135.666 16 180.999 48s68 79.667 68 143c0 42 -11.833 78.333 -35.5 109s-53.5 52 -89.5 64c25.333 12.667 45.5 31.667 60.5 57s22.5 53.333 22.5 84
c0 59.333 -20.667 105.166 -62 137.499s-94.333 48.5 -159 48.5c-68 0 -122.333 -19.5 -163 -58.5s-61 -92.167 -61 -159.5v-473h96v472z" />
    <glyph glyph-name="agrave" unicode="&#xe0;" horiz-adv-x="493" 
d="M243 412c36 0 61.167 -10.501 75.5 -31.501s21.5 -51.167 21.5 -90.5h-115c-54 0 -97.167 -13.167 -129.5 -39.5s-48.5 -63.166 -48.5 -110.499c0 -46 14.333 -82.833 43 -110.5s70.667 -41.5 126 -41.5c24.667 0 50 5.66699 76 17s48 25 66 41l12 -46h67v329
c0 30.667 -8.5 59 -25.5 85s-40.5 46.5 -70.5 61.5s-63.333 22.5 -100 22.5c-22.667 0 -51.5 -4.16699 -86.5 -12.5s-61.167 -18.5 -78.5 -30.5l27 -76c49.333 22 96 33 140 33zM157 200.999c16 16.667 38 25 66 25h118v-98c-17.333 -19.333 -37 -34.833 -59 -46.5
s-44.667 -17.5 -68 -17.5c-26 0 -46 7.5 -60 22.5s-21 32.833 -21 53.5c0 24 8 44.333 24 61zM241 746.999h-102l90 -158l66 17z" />
    <glyph glyph-name="aacute" unicode="&#xe1;" horiz-adv-x="493" 
d="M243 412c36 0 61.167 -10.501 75.5 -31.501s21.5 -51.167 21.5 -90.5h-115c-54 0 -97.167 -13.167 -129.5 -39.5s-48.5 -63.166 -48.5 -110.499c0 -46 14.333 -82.833 43 -110.5s70.667 -41.5 126 -41.5c24.667 0 50 5.66699 76 17s48 25 66 41l12 -46h67v329
c0 30.667 -8.5 59 -25.5 85s-40.5 46.5 -70.5 61.5s-63.333 22.5 -100 22.5c-22.667 0 -51.5 -4.16699 -86.5 -12.5s-61.167 -18.5 -78.5 -30.5l27 -76c49.333 22 96 33 140 33zM157 200.999c16 16.667 38 25 66 25h118v-98c-17.333 -19.333 -37 -34.833 -59 -46.5
s-44.667 -17.5 -68 -17.5c-26 0 -46 7.5 -60 22.5s-21 32.833 -21 53.5c0 24 8 44.333 24 61zM229 746.999l-54 -141l66 -17l90 158h-102z" />
    <glyph glyph-name="acircumflex" unicode="&#xe2;" horiz-adv-x="493" 
d="M243 412c36 0 61.167 -10.501 75.5 -31.501s21.5 -51.167 21.5 -90.5h-115c-54 0 -97.167 -13.167 -129.5 -39.5s-48.5 -63.166 -48.5 -110.499c0 -46 14.333 -82.833 43 -110.5s70.667 -41.5 126 -41.5c24.667 0 50 5.66699 76 17s48 25 66 41l12 -46h67v329
c0 30.667 -8.5 59 -25.5 85s-40.5 46.5 -70.5 61.5s-63.333 22.5 -100 22.5c-22.667 0 -51.5 -4.16699 -86.5 -12.5s-61.167 -18.5 -78.5 -30.5l27 -76c49.333 22 96 33 140 33zM157 200.999c16 16.667 38 25 66 25h118v-98c-17.333 -19.333 -37 -34.833 -59 -46.5
s-44.667 -17.5 -68 -17.5c-26 0 -46 7.5 -60 22.5s-21 32.833 -21 53.5c0 24 8 44.333 24 61zM398 598.999l-129 148h-66l-128 -148l87 -10l75 87l75 -87z" />
    <glyph glyph-name="atilde" unicode="&#xe3;" horiz-adv-x="493" 
d="M243 412c36 0 61.167 -10.501 75.5 -31.501s21.5 -51.167 21.5 -90.5h-115c-54 0 -97.167 -13.167 -129.5 -39.5s-48.5 -63.166 -48.5 -110.499c0 -46 14.333 -82.833 43 -110.5s70.667 -41.5 126 -41.5c24.667 0 50 5.66699 76 17s48 25 66 41l12 -46h67v329
c0 30.667 -8.5 59 -25.5 85s-40.5 46.5 -70.5 61.5s-63.333 22.5 -100 22.5c-22.667 0 -51.5 -4.16699 -86.5 -12.5s-61.167 -18.5 -78.5 -30.5l27 -76c49.333 22 96 33 140 33zM157 200.999c16 16.667 38 25 66 25h118v-98c-17.333 -19.333 -37 -34.833 -59 -46.5
s-44.667 -17.5 -68 -17.5c-26 0 -46 7.5 -60 22.5s-21 32.833 -21 53.5c0 24 8 44.333 24 61zM318.5 679.999c-6.33301 -6.66699 -13.835 -10.001 -22.502 -10.001s-16.167 1.5 -22.5 4.5s-14.5 7.5 -24.5 13.5c-11.333 7.33301 -21.5 13 -30.5 17s-20.5 6 -34.5 6
c-28.667 0 -51.667 -8.16699 -69 -24.5s-26 -43.166 -26 -80.499h65c0.666992 10 4.5 18.667 11.5 26s14.5 11 22.5 11c8.66699 0 16.334 -1.5 23.001 -4.5s14.334 -7.83301 23.001 -14.5c11.333 -7.33301 21.333 -13 30 -17s19.667 -6 33 -6c28 0 50.833 8.33301 68.5 25
s26.5 43.667 26.5 81h-63c-0.666992 -11.333 -4.16699 -20.333 -10.5 -27z" />
    <glyph glyph-name="adieresis" unicode="&#xe4;" horiz-adv-x="493" 
d="M243 412c36 0 61.167 -10.501 75.5 -31.501s21.5 -51.167 21.5 -90.5h-115c-54 0 -97.167 -13.167 -129.5 -39.5s-48.5 -63.166 -48.5 -110.499c0 -46 14.333 -82.833 43 -110.5s70.667 -41.5 126 -41.5c24.667 0 50 5.66699 76 17s48 25 66 41l12 -46h67v329
c0 30.667 -8.5 59 -25.5 85s-40.5 46.5 -70.5 61.5s-63.333 22.5 -100 22.5c-22.667 0 -51.5 -4.16699 -86.5 -12.5s-61.167 -18.5 -78.5 -30.5l27 -76c49.333 22 96 33 140 33zM157 200.999c16 16.667 38 25 66 25h118v-98c-17.333 -19.333 -37 -34.833 -59 -46.5
s-44.667 -17.5 -68 -17.5c-26 0 -46 7.5 -60 22.5s-21 32.833 -21 53.5c0 24 8 44.333 24 61zM178.5 625.999c10.333 10.667 15.5 23.334 15.5 38.001s-5.16699 27.334 -15.5 38.001s-23.166 16 -38.499 16c-14.667 0 -27.334 -5.33301 -38.001 -16s-16 -23.334 -16 -38.001
s5.33301 -27.334 16 -38.001s23.334 -16 38.001 -16c15.333 0 28.166 5.33301 38.499 16zM352.5 625.999c10.333 10.667 15.5 23.334 15.5 38.001s-5.16699 27.334 -15.5 38.001s-23.166 16 -38.499 16c-14.667 0 -27.334 -5.33301 -38.001 -16s-16 -23.334 -16 -38.001
s5.33301 -27.334 16 -38.001s23.334 -16 38.001 -16c15.333 0 28.166 5.33301 38.499 16z" />
    <glyph glyph-name="aring" unicode="&#xe5;" horiz-adv-x="493" 
d="M243 412c36 0 61.167 -10.501 75.5 -31.501s21.5 -51.167 21.5 -90.5h-115c-54 0 -97.167 -13.167 -129.5 -39.5s-48.5 -63.166 -48.5 -110.499c0 -46 14.333 -82.833 43 -110.5s70.667 -41.5 126 -41.5c24.667 0 50 5.66699 76 17s48 25 66 41l12 -46h67v329
c0 30.667 -8.5 59 -25.5 85s-40.5 46.5 -70.5 61.5s-63.333 22.5 -100 22.5c-22.667 0 -51.5 -4.16699 -86.5 -12.5s-61.167 -18.5 -78.5 -30.5l27 -76c49.333 22 96 33 140 33zM157 200.999c16 16.667 38 25 66 25h118v-98c-17.333 -19.333 -37 -34.833 -59 -46.5
s-44.667 -17.5 -68 -17.5c-26 0 -46 7.5 -60 22.5s-21 32.833 -21 53.5c0 24 8 44.333 24 61zM169 748.999c-19.333 -18 -29 -40 -29 -66c0 -25.333 9.5 -46.5 28.5 -63.5s42.167 -25.5 69.5 -25.5c26.667 0 49.5 8.5 68.5 25.5s28.5 38.167 28.5 63.5
c0 26 -9.5 48 -28.5 66s-41.833 27 -68.5 27s-49.667 -9 -69 -27zM208.5 654.499c-8.33301 8.33301 -12.5 17.833 -12.5 28.5c0 12 4.16699 22 12.5 30s18.166 12 29.499 12s21 -4 29 -12s12 -18 12 -30c0 -10.667 -4 -20.167 -12 -28.5s-17.667 -12.5 -29 -12.5
s-21.166 4.16699 -29.499 12.5z" />
    <glyph glyph-name="ae" unicode="&#xe6;" horiz-adv-x="812" 
d="M438 221c4 -47.333 19.166 -84.667 45.499 -112s65.5 -41 117.5 -41c25.333 0 47.5 3.16699 66.5 9.5s45.5 17.5 79.5 33.5l30 -70c-58.667 -35.333 -117.334 -53 -176.001 -53c-90.667 0 -159 26.667 -205 80c-49.333 -53.333 -109.333 -80 -180 -80
c-55.333 0 -97.333 13.833 -126 41.5s-43 64.5 -43 110.5c0 47.333 16.167 84.166 48.5 110.499s75.5 39.5 129.5 39.5h115c0 38.667 -7.16699 68.667 -21.5 90s-39.5 32 -75.5 32c-44 0 -90.667 -11 -140 -33l-27 76c17.333 12 43.5 22.167 78.5 30.5
s63.833 12.5 86.5 12.5c32.667 0 62.834 -6.33301 90.501 -19s50.5 -29.667 68.5 -51c20.667 22.667 45.334 40 74.001 52s60.667 18 96 18c71.333 0 124.5 -24.167 159.5 -72.5s52.5 -110.166 52.5 -185.499v-19h-344zM566.999 415.999
c-36.667 0 -65.832 -11.5 -87.499 -34.5s-34.834 -54.833 -39.501 -95.5h249c-13.333 86.667 -54 130 -122 130zM297.501 82.999c21.667 12.667 41.167 30.333 58.5 53c-10 26.667 -16 56.667 -18 90h-115c-28 0 -50 -8.33301 -66 -25s-24 -37 -24 -61
c0 -20.667 7 -38.5 21 -53.5s34 -22.5 60 -22.5c34 0 61.833 6.33301 83.5 19z" />
    <glyph glyph-name="ccedilla" unicode="&#xe7;" horiz-adv-x="464" 
d="M374.5 5.5c-25 -7.66699 -49.499 -13.165 -73.499 -16.498l-12 -31c21.333 -5.33301 39.166 -16 53.499 -32s21.5 -33 21.5 -51c0 -30.667 -11.667 -54.334 -35 -71.001s-51.333 -25 -84 -25c-12.667 0 -27.334 2.16699 -44.001 6.5s-30 9.83301 -40 16.5l22 59
c9.33301 -4 19.833 -7.83301 31.5 -11.5s21.834 -5.5 30.501 -5.5c12 0 22.667 2.5 32 7.5s14 12.167 14 21.5c0 12 -8.33301 22.5 -25 31.5s-38 14.833 -64 17.5l27 68c-62 8.66699 -110.667 35.834 -146 81.501s-53 102.834 -53 171.501c0 50 10 94.333 30 133
s48.5 68.667 85.5 90s80.167 32 129.5 32c22 0 49.667 -4.5 83 -13.5s60 -20.167 80 -33.5l-28 -68c-27.333 11.333 -50.5 19.666 -69.5 24.999s-41.167 8 -66.5 8c-44 0 -79.167 -16.333 -105.5 -49s-39.833 -73.667 -40.5 -123c0 -52 12.667 -94.167 38 -126.5
s60.333 -48.5 105 -48.5c27.333 0 51 2.66699 71 8s41.667 13.666 65 24.999l29 -69c-16 -10.667 -36.5 -19.834 -61.5 -27.501z" />
    <glyph glyph-name="egrave" unicode="&#xe8;" horiz-adv-x="504" 
d="M420.5 427.5c-35.667 47 -88.501 70.501 -158.501 70.501c-47.333 0 -88.5 -10.667 -123.5 -32s-61.833 -51.333 -80.5 -90s-28 -83 -28 -133c0 -78 22.667 -140 68 -186s110.333 -69 195 -69c58.667 0 117.334 17.667 176.001 53l-30 70
c-34 -16 -60.5 -27.167 -79.5 -33.5s-41.167 -9.5 -66.5 -9.5c-52 0 -91.167 13.667 -117.5 41s-41.5 64.666 -45.5 111.999h344v26c0 73.333 -17.833 133.5 -53.5 180.5zM171.499 381.501c21.667 23 50.8311 34.5 87.498 34.5c68.667 0 109.334 -43.333 122.001 -130h-249
c4.66699 40.667 17.834 72.5 39.501 95.5zM262.996 747.001h-102l90 -158l66 17z" />
    <glyph glyph-name="eacute" unicode="&#xe9;" horiz-adv-x="504" 
d="M420.5 427.5c-35.667 47 -88.501 70.501 -158.501 70.501c-47.333 0 -88.5 -10.667 -123.5 -32s-61.833 -51.333 -80.5 -90s-28 -83 -28 -133c0 -78 22.667 -140 68 -186s110.333 -69 195 -69c58.667 0 117.334 17.667 176.001 53l-30 70
c-34 -16 -60.5 -27.167 -79.5 -33.5s-41.167 -9.5 -66.5 -9.5c-52 0 -91.167 13.667 -117.5 41s-41.5 64.666 -45.5 111.999h344v26c0 73.333 -17.833 133.5 -53.5 180.5zM171.499 381.501c21.667 23 50.8311 34.5 87.498 34.5c68.667 0 109.334 -43.333 122.001 -130h-249
c4.66699 40.667 17.834 72.5 39.501 95.5zM250.996 747.001l-54 -141l66 -17l90 158h-102z" />
    <glyph glyph-name="ecircumflex" unicode="&#xea;" horiz-adv-x="504" 
d="M420.5 427.5c-35.667 47 -88.501 70.501 -158.501 70.501c-47.333 0 -88.5 -10.667 -123.5 -32s-61.833 -51.333 -80.5 -90s-28 -83 -28 -133c0 -78 22.667 -140 68 -186s110.333 -69 195 -69c58.667 0 117.334 17.667 176.001 53l-30 70
c-34 -16 -60.5 -27.167 -79.5 -33.5s-41.167 -9.5 -66.5 -9.5c-52 0 -91.167 13.667 -117.5 41s-41.5 64.666 -45.5 111.999h344v26c0 73.333 -17.833 133.5 -53.5 180.5zM171.499 381.501c21.667 23 50.8311 34.5 87.498 34.5c68.667 0 109.334 -43.333 122.001 -130h-249
c4.66699 40.667 17.834 72.5 39.501 95.5zM419.996 599.001l-129 148h-66l-128 -148l87 -10l75 87l75 -87z" />
    <glyph glyph-name="edieresis" unicode="&#xeb;" horiz-adv-x="504" 
d="M420.5 427.5c-35.667 47 -88.501 70.501 -158.501 70.501c-47.333 0 -88.5 -10.667 -123.5 -32s-61.833 -51.333 -80.5 -90s-28 -83 -28 -133c0 -78 22.667 -140 68 -186s110.333 -69 195 -69c58.667 0 117.334 17.667 176.001 53l-30 70
c-34 -16 -60.5 -27.167 -79.5 -33.5s-41.167 -9.5 -66.5 -9.5c-52 0 -91.167 13.667 -117.5 41s-41.5 64.666 -45.5 111.999h344v26c0 73.333 -17.833 133.5 -53.5 180.5zM171.499 381.501c21.667 23 50.8311 34.5 87.498 34.5c68.667 0 109.334 -43.333 122.001 -130h-249
c4.66699 40.667 17.834 72.5 39.501 95.5zM200.496 626.001c10.333 10.667 15.5 23.334 15.5 38.001s-5.16699 27.334 -15.5 38.001s-23.166 16 -38.499 16c-14.667 0 -27.334 -5.33301 -38.001 -16s-16 -23.334 -16 -38.001s5.33301 -27.334 16 -38.001
s23.334 -16 38.001 -16c15.333 0 28.166 5.33301 38.499 16zM374.496 626.001c10.333 10.667 15.5 23.334 15.5 38.001s-5.16699 27.334 -15.5 38.001s-23.166 16 -38.499 16c-14.667 0 -27.334 -5.33301 -38.001 -16s-16 -23.334 -16 -38.001s5.33301 -27.334 16 -38.001
s23.334 -16 38.001 -16c15.333 0 28.166 5.33301 38.499 16z" />
    <glyph glyph-name="igrave" unicode="&#xec;" horiz-adv-x="217" 
d="M60 485v-485h97v485h-97zM110 747h-102l90 -158l66 17z" />
    <glyph glyph-name="iacute" unicode="&#xed;" horiz-adv-x="217" 
d="M60 485v-485h97v485h-97zM98 747l-54 -141l66 -17l90 158h-102z" />
    <glyph glyph-name="icircumflex" unicode="&#xee;" horiz-adv-x="217" 
d="M60 485v-485h97v485h-97zM267 599l-129 148h-66l-128 -148l87 -10l75 87l75 -87z" />
    <glyph glyph-name="idieresis" unicode="&#xef;" horiz-adv-x="217" 
d="M60 485v-485h97v485h-97zM47.5 626c10.333 10.667 15.5 23.334 15.5 38.001s-5.16699 27.334 -15.5 38.001s-23.166 16 -38.499 16c-14.667 0 -27.334 -5.33301 -38.001 -16s-16 -23.334 -16 -38.001s5.33301 -27.334 16 -38.001s23.334 -16 38.001 -16
c15.333 0 28.166 5.33301 38.499 16zM221.5 626c10.333 10.667 15.5 23.334 15.5 38.001s-5.16699 27.334 -15.5 38.001s-23.166 16 -38.499 16c-14.667 0 -27.334 -5.33301 -38.001 -16s-16 -23.334 -16 -38.001s5.33301 -27.334 16 -38.001s23.334 -16 38.001 -16
c15.333 0 28.166 5.33301 38.499 16z" />
    <glyph glyph-name="eth" unicode="&#xf0;" horiz-adv-x="545" 
d="M464 468.5c34 -67 51.002 -139.5 51.002 -217.5c0 -51.333 -9.33301 -96.833 -28 -136.5s-46.334 -70.834 -83.001 -93.501s-81.334 -34 -134.001 -34c-48.667 0 -91.167 10.667 -127.5 32s-64.166 51.333 -83.499 90s-29 83.334 -29 134.001c0 50 10 94.333 30 133
s48.333 68.667 85 90s79.667 32 129 32c24.667 0 51.667 -6 81 -18c-28.667 45.333 -68.334 86 -119.001 122l-125 -63l-34 64l86 43c-20 10.667 -45 22 -75 34l28 70c46.667 -16 91 -36.667 133 -62l109 54l33 -61l-75 -38c64.667 -49.333 114 -107.5 148 -174.5z
M376.502 118c26.333 32.667 39.832 73.667 40.499 123c0 44.667 -4.33301 85.667 -13 123c-16.667 16.667 -35.167 29.5 -55.5 38.5s-45.166 13.5 -74.499 13.5c-44 0 -79.167 -16.333 -105.5 -49s-39.833 -73.667 -40.5 -123c0 -52 12.667 -94.167 38 -126.5
s60.333 -48.5 105 -48.5c44 0 79.167 16.333 105.5 49z" />
    <glyph glyph-name="ntilde" unicode="&#xf1;" 
d="M235 397.5c26.667 14.333 51.334 21.499 74.001 21.499c30 0 50.833 -9.16699 62.5 -27.5s17.5 -45.166 17.5 -80.499v-311h96v320c0 55.333 -12.833 99.333 -38.5 132s-64.834 49 -117.501 49c-32 0 -64.333 -7.5 -97 -22.5s-62 -34.167 -88 -57.5l-17 64h-67v-485h96
v342c26 22.667 52.333 41.167 79 55.5zM360.5 679.999c-6.33301 -6.66699 -13.835 -10.001 -22.502 -10.001s-16.167 1.5 -22.5 4.5s-14.5 7.5 -24.5 13.5c-11.333 7.33301 -21.5 13 -30.5 17s-20.5 6 -34.5 6c-28.667 0 -51.667 -8.16699 -69 -24.5
s-26 -43.166 -26 -80.499h65c0.666992 10 4.5 18.667 11.5 26s14.5 11 22.5 11c8.66699 0 16.334 -1.5 23.001 -4.5s14.334 -7.83301 23.001 -14.5c11.333 -7.33301 21.333 -13 30 -17s19.667 -6 33 -6c28 0 50.833 8.33301 68.5 25s26.5 43.667 26.5 81h-63
c-0.666992 -11.333 -4.16699 -20.333 -10.5 -27z" />
    <glyph glyph-name="ograve" unicode="&#xf2;" horiz-adv-x="545" 
d="M485 109c-20 -38.667 -48.501 -68.667 -85.501 -90s-80.167 -32 -129.5 -32c-48.667 0 -91.167 10.667 -127.5 32s-64.166 51.333 -83.499 90s-29 83.334 -29 134.001c0 50 10 94.333 30 133s48.333 68.667 85 90s79.667 32 129 32c48.667 0 91.167 -10.667 127.5 -32
s64.333 -51.333 84 -90s29.5 -83.334 29.5 -134.001c0 -50 -10 -94.333 -30 -133zM376.499 118c26.333 32.667 39.833 73.667 40.5 123c0 52 -12.667 94.167 -38 126.5s-60.333 48.5 -105 48.5c-44 0 -79.167 -16.333 -105.5 -49s-39.833 -73.667 -40.5 -123
c0 -52 12.667 -94.167 38 -126.5s60.333 -48.5 105 -48.5c44 0 79.167 16.333 105.5 49zM274.999 747h-102l90 -158l66 17z" />
    <glyph glyph-name="oacute" unicode="&#xf3;" horiz-adv-x="545" 
d="M485 109c-20 -38.667 -48.501 -68.667 -85.501 -90s-80.167 -32 -129.5 -32c-48.667 0 -91.167 10.667 -127.5 32s-64.166 51.333 -83.499 90s-29 83.334 -29 134.001c0 50 10 94.333 30 133s48.333 68.667 85 90s79.667 32 129 32c48.667 0 91.167 -10.667 127.5 -32
s64.333 -51.333 84 -90s29.5 -83.334 29.5 -134.001c0 -50 -10 -94.333 -30 -133zM376.499 118c26.333 32.667 39.833 73.667 40.5 123c0 52 -12.667 94.167 -38 126.5s-60.333 48.5 -105 48.5c-44 0 -79.167 -16.333 -105.5 -49s-39.833 -73.667 -40.5 -123
c0 -52 12.667 -94.167 38 -126.5s60.333 -48.5 105 -48.5c44 0 79.167 16.333 105.5 49zM262.999 747l-54 -141l66 -17l90 158h-102z" />
    <glyph glyph-name="ocircumflex" unicode="&#xf4;" horiz-adv-x="545" 
d="M485 109c-20 -38.667 -48.501 -68.667 -85.501 -90s-80.167 -32 -129.5 -32c-48.667 0 -91.167 10.667 -127.5 32s-64.166 51.333 -83.499 90s-29 83.334 -29 134.001c0 50 10 94.333 30 133s48.333 68.667 85 90s79.667 32 129 32c48.667 0 91.167 -10.667 127.5 -32
s64.333 -51.333 84 -90s29.5 -83.334 29.5 -134.001c0 -50 -10 -94.333 -30 -133zM376.499 118c26.333 32.667 39.833 73.667 40.5 123c0 52 -12.667 94.167 -38 126.5s-60.333 48.5 -105 48.5c-44 0 -79.167 -16.333 -105.5 -49s-39.833 -73.667 -40.5 -123
c0 -52 12.667 -94.167 38 -126.5s60.333 -48.5 105 -48.5c44 0 79.167 16.333 105.5 49zM431.999 599l-129 148h-66l-128 -148l87 -10l75 87l75 -87z" />
    <glyph glyph-name="otilde" unicode="&#xf5;" horiz-adv-x="545" 
d="M485 109c-20 -38.667 -48.501 -68.667 -85.501 -90s-80.167 -32 -129.5 -32c-48.667 0 -91.167 10.667 -127.5 32s-64.166 51.333 -83.499 90s-29 83.334 -29 134.001c0 50 10 94.333 30 133s48.333 68.667 85 90s79.667 32 129 32c48.667 0 91.167 -10.667 127.5 -32
s64.333 -51.333 84 -90s29.5 -83.334 29.5 -134.001c0 -50 -10 -94.333 -30 -133zM376.499 118c26.333 32.667 39.833 73.667 40.5 123c0 52 -12.667 94.167 -38 126.5s-60.333 48.5 -105 48.5c-44 0 -79.167 -16.333 -105.5 -49s-39.833 -73.667 -40.5 -123
c0 -52 12.667 -94.167 38 -126.5s60.333 -48.5 105 -48.5c44 0 79.167 16.333 105.5 49zM352.499 680c-6.33301 -6.66699 -13.835 -10.001 -22.502 -10.001s-16.167 1.5 -22.5 4.5s-14.5 7.5 -24.5 13.5c-11.333 7.33301 -21.5 13 -30.5 17s-20.5 6 -34.5 6
c-28.667 0 -51.667 -8.16699 -69 -24.5s-26 -43.166 -26 -80.499h65c0.666992 10 4.5 18.667 11.5 26s14.5 11 22.5 11c8.66699 0 16.334 -1.5 23.001 -4.5s14.334 -7.83301 23.001 -14.5c11.333 -7.33301 21.333 -13 30 -17s19.667 -6 33 -6c28 0 50.833 8.33301 68.5 25
s26.5 43.667 26.5 81h-63c-0.666992 -11.333 -4.16699 -20.333 -10.5 -27z" />
    <glyph glyph-name="odieresis" unicode="&#xf6;" horiz-adv-x="545" 
d="M485 109c-20 -38.667 -48.501 -68.667 -85.501 -90s-80.167 -32 -129.5 -32c-48.667 0 -91.167 10.667 -127.5 32s-64.166 51.333 -83.499 90s-29 83.334 -29 134.001c0 50 10 94.333 30 133s48.333 68.667 85 90s79.667 32 129 32c48.667 0 91.167 -10.667 127.5 -32
s64.333 -51.333 84 -90s29.5 -83.334 29.5 -134.001c0 -50 -10 -94.333 -30 -133zM376.499 118c26.333 32.667 39.833 73.667 40.5 123c0 52 -12.667 94.167 -38 126.5s-60.333 48.5 -105 48.5c-44 0 -79.167 -16.333 -105.5 -49s-39.833 -73.667 -40.5 -123
c0 -52 12.667 -94.167 38 -126.5s60.333 -48.5 105 -48.5c44 0 79.167 16.333 105.5 49zM212.499 626c10.333 10.667 15.5 23.334 15.5 38.001s-5.16699 27.334 -15.5 38.001s-23.166 16 -38.499 16c-14.667 0 -27.334 -5.33301 -38.001 -16s-16 -23.334 -16 -38.001
s5.33301 -27.334 16 -38.001s23.334 -16 38.001 -16c15.333 0 28.166 5.33301 38.499 16zM386.499 626c10.333 10.667 15.5 23.334 15.5 38.001s-5.16699 27.334 -15.5 38.001s-23.166 16 -38.499 16c-14.667 0 -27.334 -5.33301 -38.001 -16s-16 -23.334 -16 -38.001
s5.33301 -27.334 16 -38.001s23.334 -16 38.001 -16c15.333 0 28.166 5.33301 38.499 16z" />
    <glyph glyph-name="divide" unicode="&#xf7;" horiz-adv-x="503" 
d="M298 379.5c12.667 13 19 28.5 19 46.5c0 18.667 -6.33301 34.5 -19 47.5s-28.334 19.5 -47.001 19.5s-34.5 -6.5 -47.5 -19.5s-19.5 -28.833 -19.5 -47.5c0 -18 6.5 -33.5 19.5 -46.5s28.833 -19.5 47.5 -19.5s34.334 6.5 47.001 19.5zM39 235h434l-9 76h-434zM299.5 60
c13 13.333 19.5 29 19.5 47c0 18.667 -6.5 34.5 -19.5 47.5s-28.833 19.5 -47.5 19.5s-34.5 -6.5 -47.5 -19.5s-19.5 -28.833 -19.5 -47.5c0 -18 6.5 -33.667 19.5 -47s28.833 -20 47.5 -20s34.5 6.66699 47.5 20z" />
    <glyph glyph-name="oslash" unicode="&#xf8;" horiz-adv-x="559" 
d="M401.5 466c36.333 -21.333 64.332 -51.333 83.999 -90s29.5 -83.334 29.5 -134.001c0 -50 -10 -94.333 -30 -133s-48.5 -68.667 -85.5 -90s-80.167 -32 -129.5 -32c-48.667 0 -91.167 10.667 -127.5 32s-64.166 51.333 -83.499 90s-29 83.334 -29 134.001
c0 50 10 94.333 30 133s48.333 68.667 85 90s79.667 32 129 32c48.667 0 91.167 -10.667 127.5 -32zM168.499 367c-26.333 -32.667 -39.833 -73.667 -40.5 -123c0 -53.333 13 -96 39 -128l156 292c-16 5.33301 -32.333 8 -49 8c-44 0 -79.167 -16.333 -105.5 -49z
M376.499 118c26.333 32.667 39.833 73.667 40.5 123c0 43.333 -8.66699 80.333 -26 111l-151 -280c10 -2 20.333 -3 31 -3c44 0 79.167 16.333 105.5 49z" />
    <glyph glyph-name="ugrave" unicode="&#xf9;" 
d="M306 87.5c-26.667 -14.333 -51.334 -21.499 -74.001 -21.499c-30 0 -50.833 9.16699 -62.5 27.5s-17.5 45.166 -17.5 80.499v311h-96v-320c0 -55.333 12.833 -99.333 38.5 -132s64.834 -49 117.501 -49c32 0 64.333 7.5 97 22.5s62 34.167 88 57.5l17 -64h67v485h-96
v-342c-26 -22.667 -52.333 -41.167 -79 -55.5zM269 747.001h-102l90 -158l66 17z" />
    <glyph glyph-name="uacute" unicode="&#xfa;" 
d="M306 87.5c-26.667 -14.333 -51.334 -21.499 -74.001 -21.499c-30 0 -50.833 9.16699 -62.5 27.5s-17.5 45.166 -17.5 80.499v311h-96v-320c0 -55.333 12.833 -99.333 38.5 -132s64.834 -49 117.501 -49c32 0 64.333 7.5 97 22.5s62 34.167 88 57.5l17 -64h67v485h-96
v-342c-26 -22.667 -52.333 -41.167 -79 -55.5zM257 747.001l-54 -141l66 -17l90 158h-102z" />
    <glyph glyph-name="ucircumflex" unicode="&#xfb;" 
d="M306 87.5c-26.667 -14.333 -51.334 -21.499 -74.001 -21.499c-30 0 -50.833 9.16699 -62.5 27.5s-17.5 45.166 -17.5 80.499v311h-96v-320c0 -55.333 12.833 -99.333 38.5 -132s64.834 -49 117.501 -49c32 0 64.333 7.5 97 22.5s62 34.167 88 57.5l17 -64h67v485h-96
v-342c-26 -22.667 -52.333 -41.167 -79 -55.5zM426 599.001l-129 148h-66l-128 -148l87 -10l75 87l75 -87z" />
    <glyph glyph-name="udieresis" unicode="&#xfc;" 
d="M306 87.5c-26.667 -14.333 -51.334 -21.499 -74.001 -21.499c-30 0 -50.833 9.16699 -62.5 27.5s-17.5 45.166 -17.5 80.499v311h-96v-320c0 -55.333 12.833 -99.333 38.5 -132s64.834 -49 117.501 -49c32 0 64.333 7.5 97 22.5s62 34.167 88 57.5l17 -64h67v485h-96
v-342c-26 -22.667 -52.333 -41.167 -79 -55.5zM206.5 626.001c10.333 10.667 15.5 23.334 15.5 38.001s-5.16699 27.334 -15.5 38.001s-23.166 16 -38.499 16c-14.667 0 -27.334 -5.33301 -38.001 -16s-16 -23.334 -16 -38.001s5.33301 -27.334 16 -38.001
s23.334 -16 38.001 -16c15.333 0 28.166 5.33301 38.499 16zM380.5 626.001c10.333 10.667 15.5 23.334 15.5 38.001s-5.16699 27.334 -15.5 38.001s-23.166 16 -38.499 16c-14.667 0 -27.334 -5.33301 -38.001 -16s-16 -23.334 -16 -38.001s5.33301 -27.334 16 -38.001
s23.334 -16 38.001 -16c15.333 0 28.166 5.33301 38.499 16z" />
    <glyph glyph-name="yacute" unicode="&#xfd;" horiz-adv-x="473" 
d="M122 -108.5c-17.333 -11.667 -42.002 -24.502 -74.002 -38.502l32 -74c38.667 8.66699 73.334 24.834 104.001 48.501s52 51.834 64 84.501l215 573h-99l-128 -348l-135 366l-91 -34l177 -456l-28 -74c-7.33301 -20 -19.666 -35.833 -36.999 -47.5zM219.998 746.998
l-54 -141l66 -17l90 158h-102z" />
    <glyph glyph-name="thorn" unicode="&#xfe;" horiz-adv-x="533" 
d="M390.5 466c36.333 -21.333 64.168 -51.499 83.501 -90.499s29 -84.5 29 -136.5c0 -50 -10 -94 -30 -132s-48.333 -67.5 -85 -88.5s-79 -31.5 -127 -31.5c-13.333 0 -28.833 2.33301 -46.5 7s-35.167 11.667 -52.5 21v-223l-96 -11v914l96 11v-238
c18 9.33301 35.833 16.666 53.5 21.999s33.167 8 46.5 8c49.333 0 92.166 -10.667 128.499 -32zM367.002 116.501c25.333 31.667 37.999 72.167 37.999 121.5c0 53.333 -12.5 96.333 -37.5 129s-60.167 49 -105.5 49c-39.333 0 -72.666 -11.667 -99.999 -35v-279
c28 -22 61.333 -33 100 -33c44.667 0 79.667 15.833 105 47.5z" />
    <glyph glyph-name="ydieresis" unicode="&#xff;" horiz-adv-x="473" 
d="M122 -108.5c-17.333 -11.667 -42.002 -24.502 -74.002 -38.502l32 -74c38.667 8.66699 73.334 24.834 104.001 48.501s52 51.834 64 84.501l215 573h-99l-128 -348l-135 366l-91 -34l177 -456l-28 -74c-7.33301 -20 -19.666 -35.833 -36.999 -47.5zM169.498 625.998
c10.333 10.667 15.5 23.334 15.5 38.001s-5.16699 27.334 -15.5 38.001s-23.166 16 -38.499 16c-14.667 0 -27.334 -5.33301 -38.001 -16s-16 -23.334 -16 -38.001s5.33301 -27.334 16 -38.001s23.334 -16 38.001 -16c15.333 0 28.166 5.33301 38.499 16zM343.498 625.998
c10.333 10.667 15.5 23.334 15.5 38.001s-5.16699 27.334 -15.5 38.001s-23.166 16 -38.499 16c-14.667 0 -27.334 -5.33301 -38.001 -16s-16 -23.334 -16 -38.001s5.33301 -27.334 16 -38.001s23.334 -16 38.001 -16c15.333 0 28.166 5.33301 38.499 16z" />
    <glyph glyph-name="Amacron" unicode="&#x100;" horiz-adv-x="625" 
d="M104 0l68 182h277l71 -190l95 14l-262 674h-87l-256 -680h94zM308 551l112 -292h-221zM416 852h-241v-76h251z" />
    <glyph glyph-name="amacron" unicode="&#x101;" horiz-adv-x="493" 
d="M243 412c36 0 61.167 -10.501 75.5 -31.501s21.5 -51.167 21.5 -90.5h-115c-54 0 -97.167 -13.167 -129.5 -39.5s-48.5 -63.166 -48.5 -110.499c0 -46 14.333 -82.833 43 -110.5s70.667 -41.5 126 -41.5c24.667 0 50 5.66699 76 17s48 25 66 41l12 -46h67v329
c0 30.667 -8.5 59 -25.5 85s-40.5 46.5 -70.5 61.5s-63.333 22.5 -100 22.5c-22.667 0 -51.5 -4.16699 -86.5 -12.5s-61.167 -18.5 -78.5 -30.5l27 -76c49.333 22 96 33 140 33zM157 200.999c16 16.667 38 25 66 25h118v-98c-17.333 -19.333 -37 -34.833 -59 -46.5
s-44.667 -17.5 -68 -17.5c-26 0 -46 7.5 -60 22.5s-21 32.833 -21 53.5c0 24 8 44.333 24 61zM351 701.999h-242v-76h251z" />
    <glyph glyph-name="Abreve" unicode="&#x102;" horiz-adv-x="625" 
d="M104 0l68 182h277l71 -190l95 14l-262 674h-87l-256 -680h94zM308 551l112 -292h-221zM362 838.5c-12.667 -15.667 -30.332 -23.5 -52.999 -23.5s-40.167 7.83301 -52.5 23.5s-18.5 33.5 -18.5 53.5h-67c0 -41.333 11.667 -76 35 -104s57.666 -42.333 102.999 -43
c45.333 0.666992 79.833 15 103.5 43s35.5 62.667 35.5 104h-67c0 -20 -6.33301 -37.833 -19 -53.5z" />
    <glyph glyph-name="abreve" unicode="&#x103;" horiz-adv-x="493" 
d="M243 412c36 0 61.167 -10.501 75.5 -31.501s21.5 -51.167 21.5 -90.5h-115c-54 0 -97.167 -13.167 -129.5 -39.5s-48.5 -63.166 -48.5 -110.499c0 -46 14.333 -82.833 43 -110.5s70.667 -41.5 126 -41.5c24.667 0 50 5.66699 76 17s48 25 66 41l12 -46h67v329
c0 30.667 -8.5 59 -25.5 85s-40.5 46.5 -70.5 61.5s-63.333 22.5 -100 22.5c-22.667 0 -51.5 -4.16699 -86.5 -12.5s-61.167 -18.5 -78.5 -30.5l27 -76c49.333 22 96 33 140 33zM157 200.999c16 16.667 38 25 66 25h118v-98c-17.333 -19.333 -37 -34.833 -59 -46.5
s-44.667 -17.5 -68 -17.5c-26 0 -46 7.5 -60 22.5s-21 32.833 -21 53.5c0 24 8 44.333 24 61zM291 688.499c-12.667 -15.667 -30.332 -23.5 -52.999 -23.5s-40.167 7.83301 -52.5 23.5s-18.5 33.5 -18.5 53.5h-67c0 -41.333 11.667 -76 35 -104s57.666 -42.333 102.999 -43
c45.333 0.666992 79.833 15 103.5 43s35.5 62.667 35.5 104h-67c0 -20 -6.33301 -37.833 -19 -53.5z" />
    <glyph glyph-name="Aogonek" unicode="&#x104;" horiz-adv-x="625" 
d="M591 -207c-32 0 -58.333 9.83496 -79 29.502s-31 44.5 -31 74.5c0 15.333 3.66699 32.166 11 50.499s16.333 33.833 27 46.5l-70 188h-277l-68 -182h-94l256 680h87l262 -674l-14 -2h20c-14 -10.667 -27.167 -26.334 -39.5 -47.001s-18.5 -38 -18.5 -52
c0 -13.333 3.66699 -23.5 11 -30.5s17.333 -10.5 30 -10.5c16 0 32 6.33301 48 19l30 -59c-24.667 -20.667 -55 -31 -91 -31zM308 551.002l-109 -292h221z" />
    <glyph glyph-name="aogonek" unicode="&#x105;" horiz-adv-x="493" 
d="M429 -207c-32 0 -58.333 9.83496 -79 29.502s-31 44.5 -31 74.5c0 17.333 4.66699 36.5 14 57.5s20.333 37.5 33 49.5h3l-11 42c-18 -16 -40 -29.667 -66 -41s-51.333 -17 -76 -17c-55.333 0 -97.333 13.833 -126 41.5s-43 64.5 -43 110.5
c0 47.333 16.167 84.166 48.5 110.499s75.5 39.5 129.5 39.5h115c0 39.333 -7.16699 69.5 -21.5 90.5s-39.5 31.5 -75.5 31.5c-44 0 -90.667 -11 -140 -33l-27 76c17.333 12 43.5 22.167 78.5 30.5s63.833 12.5 86.5 12.5c36.667 0 70 -7.5 100 -22.5s53.5 -35.5 70.5 -61.5
s25.5 -54.333 25.5 -85v-325h22c-14 -10.667 -27.167 -26.334 -39.5 -47.001s-18.5 -38 -18.5 -52c0 -13.333 3.66699 -23.5 11 -30.5s17.333 -10.5 30 -10.5c16 0 32 6.33301 48 19l30 -59c-24.667 -20.667 -55 -31 -91 -31zM223 226.002c-28 0 -50 -8.33301 -66 -25
s-24 -37 -24 -61c0 -20.667 7 -38.5 21 -53.5s34 -22.5 60 -22.5c23.333 0 46 5.83301 68 17.5s41.667 27.167 59 46.5v98h-118z" />
    <glyph glyph-name="Cacute" unicode="&#x106;" horiz-adv-x="559" 
d="M451 683.5c-34.667 7 -64.001 10.5 -88.001 10.5c-64.667 0 -121.5 -15.5 -170.5 -46.5s-86.667 -73.667 -113 -128s-39.5 -115.5 -39.5 -183.5c0 -65.333 12.167 -124.5 36.5 -177.5s60.333 -95 108 -126s105.167 -46.5 172.5 -46.5c28.667 0 60.667 3.83301 96 11.5
s64 17.167 86 28.5l-37 72c-43.333 -20 -93 -30 -149 -30c-43.333 0 -81.166 12 -113.499 36s-57 56.5 -74 97.5s-25.5 86.167 -25.5 135.5c0 53.333 9.66699 101 29 143s45.833 74.5 79.5 97.5s71.167 34.5 112.5 34.5c29.333 0 53.333 -2 72 -6s43 -11.333 73 -22l30 69
c-22 13.333 -50.333 23.5 -85 30.5zM351.999 897l-54 -141l66 -17l90 158h-102z" />
    <glyph glyph-name="cacute" unicode="&#x107;" horiz-adv-x="464" 
d="M342 77c-20 -5.33301 -43.668 -8.00098 -71.001 -8.00098c-44.667 0 -79.667 16.167 -105 48.5s-38 74.5 -38 126.5c0.666992 49.333 14.167 90.333 40.5 123s61.5 49 105.5 49c25.333 0 47.5 -2.66699 66.5 -8s42.167 -13.666 69.5 -24.999l28 68
c-20 13.333 -46.667 24.5 -80 33.5s-61 13.5 -83 13.5c-49.333 0 -92.5 -10.667 -129.5 -32s-65.5 -51.333 -85.5 -90s-30 -83 -30 -133c0 -50.667 9.83301 -95.334 29.5 -134.001s47.667 -68.667 84 -90s78.833 -32 127.5 -32c22.667 0 50.834 4.33301 84.501 13
s60.5 19.667 80.5 33l-29 69c-23.333 -11.333 -45 -19.666 -65 -24.999zM235.999 746.999l-54 -141l66 -17l90 158h-102z" />
    <glyph glyph-name="Ccaron" unicode="&#x10c;" horiz-adv-x="559" 
d="M451 683.5c-34.667 7 -64.001 10.5 -88.001 10.5c-64.667 0 -121.5 -15.5 -170.5 -46.5s-86.667 -73.667 -113 -128s-39.5 -115.5 -39.5 -183.5c0 -65.333 12.167 -124.5 36.5 -177.5s60.333 -95 108 -126s105.167 -46.5 172.5 -46.5c28.667 0 60.667 3.83301 96 11.5
s64 17.167 86 28.5l-37 72c-43.333 -20 -93 -30 -149 -30c-43.333 0 -81.166 12 -113.499 36s-57 56.5 -74 97.5s-25.5 86.167 -25.5 135.5c0 53.333 9.66699 101 29 143s45.833 74.5 79.5 97.5s71.167 34.5 112.5 34.5c29.333 0 53.333 -2 72 -6s43 -11.333 73 -22l30 69
c-22 13.333 -50.333 23.5 -85 30.5zM201.999 887l129 -148h66l128 148l-87 10l-75 -87l-75 87z" />
    <glyph glyph-name="ccaron" unicode="&#x10d;" horiz-adv-x="464" 
d="M342 77c-20 -5.33301 -43.668 -8.00098 -71.001 -8.00098c-44.667 0 -79.667 16.167 -105 48.5s-38 74.5 -38 126.5c0.666992 49.333 14.167 90.333 40.5 123s61.5 49 105.5 49c25.333 0 47.5 -2.66699 66.5 -8s42.167 -13.666 69.5 -24.999l28 68
c-20 13.333 -46.667 24.5 -80 33.5s-61 13.5 -83 13.5c-49.333 0 -92.5 -10.667 -129.5 -32s-65.5 -51.333 -85.5 -90s-30 -83 -30 -133c0 -50.667 9.83301 -95.334 29.5 -134.001s47.667 -68.667 84 -90s78.833 -32 127.5 -32c22.667 0 50.834 4.33301 84.501 13
s60.5 19.667 80.5 33l-29 69c-23.333 -11.333 -45 -19.666 -65 -24.999zM86.999 736.999l129 -148h66l128 148l-87 10l-75 -87l-75 87z" />
    <glyph glyph-name="Dcaron" unicode="&#x10e;" horiz-adv-x="678" 
d="M497.5 44c46.333 29.333 81.334 69.999 105.001 121.999s35.5 111.333 35.5 178c0 100.667 -25.333 181.834 -76 243.501s-126.334 92.5 -227.001 92.5h-245v-680h241c64.667 0 120.167 14.667 166.5 44zM490.501 529.499c33.667 -45.667 50.5 -107.833 50.5 -186.5
c0 -84 -19 -148.833 -57 -194.5s-89 -68.5 -153 -68.5h-145v518h153c67.333 0 117.833 -22.833 151.5 -68.5zM164.001 887l129 -148h66l128 148l-87 10l-75 -87l-75 87z" />
    <glyph glyph-name="dcaron" unicode="&#x10f;" horiz-adv-x="706" 
d="M657.5 701.5c12.333 -13.667 18.5 -30.832 18.5 -51.499c0 -34 -10.833 -68.333 -32.5 -103s-48.167 -60.334 -79.5 -77.001l-23 45c18.667 14.667 33 28.167 43 40.5s16 27.5 18 45.5c-12 0.666992 -23.167 7.16699 -33.5 19.5s-15.5 25.833 -15.5 40.5
s6.16699 28.5 18.5 41.5s26.5 19.5 42.5 19.5c16.667 0 31.167 -6.83301 43.5 -20.5zM474 705.002l-0.00292969 -705h-55l-19 37c-20 -16 -42.167 -28.333 -66.5 -37s-45.166 -13 -62.499 -13c-49.333 0 -92.166 10.667 -128.499 32s-64.166 51.5 -83.499 90.5
s-29 84.5 -29 136.5c0 50 10 94 30 132s48.333 67.5 85 88.5s79 31.5 127 31.5c14 0 30.5 -2.66699 49.5 -8s37.5 -13 55.5 -23v228zM165.497 118.002c25 -32.667 60.167 -49 105.5 -49c22 0 41.333 3.33301 58 10s32.667 17 48 31v268c-15.333 13.333 -31.5 23 -48.5 29
s-36.167 9 -57.5 9c-44.667 0 -79.667 -15.833 -105 -47.5s-38 -72.167 -38 -121.5c0 -53.333 12.5 -96.333 37.5 -129z" />
    <glyph glyph-name="Dcroat" unicode="&#x110;" horiz-adv-x="678" 
d="M562 587.5c50.667 -61.667 75.999 -142.833 75.999 -243.5c0 -66.667 -11.833 -126 -35.5 -178s-58.667 -92.667 -105 -122s-101.833 -44 -166.5 -44h-241v300h-61l-10 75h71v305h245c100.667 0 176.334 -30.833 227.001 -92.5zM483.999 148.501
c38 45.667 57 110.499 57 194.499c0 78.667 -16.833 140.834 -50.5 186.501s-84.167 68.5 -151.5 68.5h-153v-223h91l9 -75h-100v-220h145c64 0 115 22.833 153 68.5z" />
    <glyph glyph-name="dcroat" unicode="&#x111;" horiz-adv-x="544" 
d="M474 555l-0.00292969 -555h-55l-19 37c-20 -16 -42.167 -28.333 -66.5 -37s-45.166 -13 -62.499 -13c-49.333 0 -92.166 10.667 -128.499 32s-64.166 51.5 -83.499 90.5s-29 84.5 -29 136.5c0 50 10 94 30 132s48.333 67.5 85 88.5s79 31.5 127 31.5
c14 0 30.5 -2.66699 49.5 -8s37.5 -13 55.5 -23v88h-82l-10 70h92v70l97 10v-80h66l9 -70h-75zM165.497 118c25 -32.667 60.167 -49 105.5 -49c22 0 41.333 3.33301 58 10s32.667 17 48 31v268c-15.333 13.333 -31.5 23 -48.5 29s-36.167 9 -57.5 9
c-44.667 0 -79.667 -15.833 -105 -47.5s-38 -72.167 -38 -121.5c0 -53.333 12.5 -96.333 37.5 -129z" />
    <glyph glyph-name="Emacron" unicode="&#x112;" horiz-adv-x="542" 
d="M186 75v234h244l-13 74h-231v223h300l-13 74h-383v-680h432l-13 75h-323zM403 852h-241v-76h251z" />
    <glyph glyph-name="emacron" unicode="&#x113;" horiz-adv-x="504" 
d="M420.5 427.5c-35.667 47 -88.501 70.501 -158.501 70.501c-47.333 0 -88.5 -10.667 -123.5 -32s-61.833 -51.333 -80.5 -90s-28 -83 -28 -133c0 -78 22.667 -140 68 -186s110.333 -69 195 -69c58.667 0 117.334 17.667 176.001 53l-30 70
c-34 -16 -60.5 -27.167 -79.5 -33.5s-41.167 -9.5 -66.5 -9.5c-52 0 -91.167 13.667 -117.5 41s-41.5 64.666 -45.5 111.999h344v26c0 73.333 -17.833 133.5 -53.5 180.5zM171.499 381.501c21.667 23 50.8311 34.5 87.498 34.5c68.667 0 109.334 -43.333 122.001 -130h-249
c4.66699 40.667 17.834 72.5 39.501 95.5zM372.996 702.001h-242v-76h251z" />
    <glyph glyph-name="Edotaccent" unicode="&#x116;" horiz-adv-x="542" 
d="M186 75v234h244l-13 74h-231v223h300l-13 74h-383v-680h432l-13 75h-323zM336 773.5c11.333 11.667 17 25.834 17 42.501s-5.66699 31 -17 43s-25.333 18 -42 18s-31 -6 -43 -18s-18 -26.333 -18 -43s6 -30.834 18 -42.501s26.333 -17.5 43 -17.5s30.667 5.83301 42 17.5
z" />
    <glyph glyph-name="edotaccent" unicode="&#x117;" horiz-adv-x="504" 
d="M420.5 427.5c-35.667 47 -88.501 70.501 -158.501 70.501c-47.333 0 -88.5 -10.667 -123.5 -32s-61.833 -51.333 -80.5 -90s-28 -83 -28 -133c0 -78 22.667 -140 68 -186s110.333 -69 195 -69c58.667 0 117.334 17.667 176.001 53l-30 70
c-34 -16 -60.5 -27.167 -79.5 -33.5s-41.167 -9.5 -66.5 -9.5c-52 0 -91.167 13.667 -117.5 41s-41.5 64.666 -45.5 111.999h344v26c0 73.333 -17.833 133.5 -53.5 180.5zM171.499 381.501c21.667 23 50.8311 34.5 87.498 34.5c68.667 0 109.334 -43.333 122.001 -130h-249
c4.66699 40.667 17.834 72.5 39.501 95.5zM301.996 623.501c11.333 11.667 17 25.834 17 42.501s-5.66699 31 -17 43s-25.333 18 -42 18s-31 -6 -43 -18s-18 -26.333 -18 -43s6 -30.834 18 -42.501s26.333 -17.5 43 -17.5s30.667 5.83301 42 17.5z" />
    <glyph glyph-name="Eogonek" unicode="&#x118;" horiz-adv-x="542" 
d="M432 -207c-32 0 -58.333 9.83301 -79 29.5s-31 44.5 -31 74.5c0 16 4.16699 34 12.5 54s18.5 36.333 30.5 49h-275v680h383l13 -74h-300v-223h231l13 -74h-244v-234h323l13 -75h-65c-13.333 -12 -25.5 -27.5 -36.5 -46.5s-16.5 -35.167 -16.5 -48.5
s3.66699 -23.5 11 -30.5s17.333 -10.5 30 -10.5c16 0 32 6.33301 48 19l30 -59c-24.667 -20.667 -55 -31 -91 -31z" />
    <glyph glyph-name="eogonek" unicode="&#x119;" horiz-adv-x="504" 
d="M130 221c4 -47.333 19.167 -84.666 45.5 -111.999s65.5 -41 117.5 -41c25.333 0 47.5 3.16699 66.5 9.5s45.5 17.5 79.5 33.5l30 -70c-27.333 -16 -53.666 -28.333 -78.999 -37c-14 -10.667 -27.167 -26.334 -39.5 -47.001s-18.5 -38 -18.5 -52
c0 -13.333 3.66699 -23.5 11 -30.5s17.333 -10.5 30 -10.5c16 0 32 6.33301 48 19l30 -59c-24.667 -20.667 -55 -31 -91 -31c-32 0 -58.333 9.83301 -79 29.5s-31 44.5 -31 74.5c0 14 3.16699 29.333 9.5 46s14.166 31.667 23.499 45c-81.333 2 -143.833 26 -187.5 72
s-65.5 107 -65.5 183c0 50 9.33301 94.333 28 133s45.5 68.667 80.5 90s76.167 32 123.5 32c70 0 122.833 -23.5 158.5 -70.5s53.5 -107.167 53.5 -180.5v-26h-344zM259 416c-36.667 0 -65.832 -11.5 -87.499 -34.5s-34.834 -54.833 -39.501 -95.5h249
c-13.333 86.667 -54 130 -122 130z" />
    <glyph glyph-name="Ecaron" unicode="&#x11a;" horiz-adv-x="542" 
d="M186 75v234h244l-13 74h-231v223h300l-13 74h-383v-680h432l-13 75h-323zM134 887l129 -148h66l128 148l-87 10l-75 -87l-75 87z" />
    <glyph glyph-name="ecaron" unicode="&#x11b;" horiz-adv-x="504" 
d="M420.5 427.5c-35.667 47 -88.501 70.501 -158.501 70.501c-47.333 0 -88.5 -10.667 -123.5 -32s-61.833 -51.333 -80.5 -90s-28 -83 -28 -133c0 -78 22.667 -140 68 -186s110.333 -69 195 -69c58.667 0 117.334 17.667 176.001 53l-30 70
c-34 -16 -60.5 -27.167 -79.5 -33.5s-41.167 -9.5 -66.5 -9.5c-52 0 -91.167 13.667 -117.5 41s-41.5 64.666 -45.5 111.999h344v26c0 73.333 -17.833 133.5 -53.5 180.5zM171.499 381.501c21.667 23 50.8311 34.5 87.498 34.5c68.667 0 109.334 -43.333 122.001 -130h-249
c4.66699 40.667 17.834 72.5 39.501 95.5zM101.996 737.001l129 -148h66l128 148l-87 10l-75 -87l-75 87z" />
    <glyph glyph-name="Gbreve" unicode="&#x11e;" horiz-adv-x="628" 
d="M489 85c-36.667 -11.333 -73.6641 -17.002 -110.997 -17.002c-45.333 0 -86 11 -122 33s-64.333 53.333 -85 94s-31 88 -31 142c0 57.333 11.667 106.833 35 148.5s54.166 73.167 92.499 94.5s80.166 32 125.499 32c29.333 0 53.166 -2 71.499 -6s42.5 -11.333 72.5 -22
l30 69c-22 13.333 -50.5 23.5 -85.5 30.5s-65.167 10.5 -90.5 10.5c-66 0 -125.667 -15.167 -179 -45.5s-95.333 -72.666 -126 -126.999s-46 -116.166 -46 -185.499c0 -66 14 -125.5 42 -178.5s67.667 -94.833 119 -125.5s111 -46 179 -46c35.333 0 71 4.5 107 13.5
s66 20.5 90 34.5l1 323h-229l-8 -73h148v-199zM418.003 838.498c-12.667 -15.667 -30.332 -23.5 -52.999 -23.5s-40.167 7.83301 -52.5 23.5s-18.5 33.5 -18.5 53.5h-67c0 -41.333 11.667 -76 35 -104s57.666 -42.333 102.999 -43c45.333 0.666992 79.833 15 103.5 43
s35.5 62.667 35.5 104h-67c0 -20 -6.33301 -37.833 -19 -53.5z" />
    <glyph glyph-name="gbreve" unicode="&#x11f;" horiz-adv-x="540" 
d="M474 -43c0 -36 -9.16797 -68.166 -27.501 -96.499s-44.833 -50.5 -79.5 -66.5s-76.334 -24 -125.001 -24c-23.333 0 -52.666 4.5 -87.999 13.5s-63.333 20.5 -84 34.5l29 69c33.333 -14.667 58.5 -24.834 75.5 -30.501s38.5 -8.5 64.5 -8.5
c41.333 0 74.666 9.5 99.999 28.5s38 46.167 38 81.5v63c-18 -10.667 -36.667 -19 -56 -25s-36 -9 -50 -9c-49.333 0 -92.166 10.667 -128.499 32s-64.166 51.5 -83.499 90.5s-29 84.5 -29 136.5c0 50 10 94 30 132s48.333 67.5 85 88.5s79 31.5 127 31.5
c17.333 0 38 -4 62 -12s46 -19.667 66 -35l19 34h55v-528zM328.999 79.001c16.667 6.66699 32.667 17 48 31v268c-15.333 13.333 -31.5 23 -48.5 29s-36.167 9 -57.5 9c-44.667 0 -79.667 -15.833 -105 -47.5s-38 -72.167 -38 -121.5c0 -53.333 12.5 -96.333 37.5 -129
s60.167 -49 105.5 -49c22 0 41.333 3.33301 58 10zM310.999 688.501c-12.667 -15.667 -30.332 -23.5 -52.999 -23.5s-40.167 7.83301 -52.5 23.5s-18.5 33.5 -18.5 53.5h-67c0 -41.333 11.667 -76 35 -104s57.666 -42.333 102.999 -43c45.333 0.666992 79.833 15 103.5 43
s35.5 62.667 35.5 104h-67c0 -20 -6.33301 -37.833 -19 -53.5z" />
    <glyph glyph-name="Gcommaaccent" unicode="&#x122;" horiz-adv-x="628" 
d="M489 85c-36.667 -11.333 -73.6641 -17.002 -110.997 -17.002c-45.333 0 -86 11 -122 33s-64.333 53.333 -85 94s-31 88 -31 142c0 57.333 11.667 106.833 35 148.5s54.166 73.167 92.499 94.5s80.166 32 125.499 32c29.333 0 53.166 -2 71.499 -6s42.5 -11.333 72.5 -22
l30 69c-22 13.333 -50.5 23.5 -85.5 30.5s-65.167 10.5 -90.5 10.5c-66 0 -125.667 -15.167 -179 -45.5s-95.333 -72.666 -126 -126.999s-46 -116.166 -46 -185.499c0 -66 14 -125.5 42 -178.5s67.667 -94.833 119 -125.5s111 -46 179 -46c35.333 0 71 4.5 107 13.5
s66 20.5 90 34.5l1 323h-229l-8 -73h148v-199zM338.503 -39.502c-12.333 -12.333 -18.501 -26.5 -18.501 -42.5c0 -14.667 5.16699 -28.167 15.5 -40.5s21.5 -18.833 33.5 -19.5c-2 -14.667 -8.16699 -27.667 -18.5 -39s-22.166 -20.666 -35.499 -27.999l23 -46
c29.333 14.667 54 37 74 67s30 61.667 30 95c0 21.333 -5.83301 38.666 -17.5 51.999s-26.167 20 -43.5 20c-16 0 -30.167 -6.16699 -42.5 -18.5z" />
    <glyph glyph-name="gcommaaccent" unicode="&#x123;" horiz-adv-x="540" 
d="M222 573.5c-12 13.667 -18 31.166 -18 52.499c0 32.667 10 63.834 30 93.501s44.333 52.167 73 67.5l24 -46c-32 -16.667 -50.333 -39 -55 -67c12 -0.666992 23.333 -7.16699 34 -19.5s16 -25.5 16 -39.5c0 -16 -6.16699 -30.333 -18.5 -43s-26.5 -19 -42.5 -19
c-16.667 0 -31 6.83301 -43 20.5zM474 -43.001c0 -36 -9.16797 -68.166 -27.501 -96.499s-44.833 -50.5 -79.5 -66.5s-76.334 -24 -125.001 -24c-23.333 0 -52.666 4.5 -87.999 13.5s-63.333 20.5 -84 34.5l29 69c33.333 -14.667 58.5 -24.834 75.5 -30.501
s38.5 -8.5 64.5 -8.5c41.333 0 74.666 9.5 99.999 28.5s38 46.167 38 81.5v63c-18 -10.667 -36.667 -19 -56 -25s-36 -9 -50 -9c-49.333 0 -92.166 10.667 -128.499 32s-64.166 51.5 -83.499 90.5s-29 84.5 -29 136.5c0 50 10 94 30 132s48.333 67.5 85 88.5
s79 31.5 127 31.5c17.333 0 38 -4 62 -12s46 -19.667 66 -35l19 34h55v-528zM328.999 79c16.667 6.66699 32.667 17 48 31v268c-15.333 13.333 -31.5 23 -48.5 29s-36.167 9 -57.5 9c-44.667 0 -79.667 -15.833 -105 -47.5s-38 -72.167 -38 -121.5
c0 -53.333 12.5 -96.333 37.5 -129s60.167 -49 105.5 -49c22 0 41.333 3.33301 58 10z" />
    <glyph glyph-name="Imacron" unicode="&#x12a;" horiz-adv-x="276" 
d="M90 680v-680h96v680h-96zM248 852h-241v-76h251z" />
    <glyph glyph-name="imacron" unicode="&#x12b;" horiz-adv-x="217" 
d="M60 485v-485h97v485h-97zM220 702h-242v-76h251z" />
    <glyph glyph-name="Iogonek" unicode="&#x12e;" horiz-adv-x="276" 
d="M162 -207c-32 0 -58.333 9.83398 -79 29.501s-31 44.5 -31 74.5c0 16 4.16699 34 12.5 54s18.5 36.333 30.5 49h-5v680h96v-676h6c-14 -10.667 -27.167 -26.334 -39.5 -47.001s-18.5 -38 -18.5 -52c0 -13.333 3.66699 -23.5 11 -30.5s17.333 -10.5 30 -10.5
c16 0 32 6.33301 48 19l30 -59c-24.667 -20.667 -55 -31 -91 -31z" />
    <glyph glyph-name="iogonek" unicode="&#x12f;" horiz-adv-x="217" 
d="M64 623.5c-12 11.667 -18 25.834 -18 42.501s6 31 18 43s26.333 18 43 18s30.667 -6 42 -18s17 -26.333 17 -43s-5.66699 -30.834 -17 -42.501s-25.333 -17.5 -42 -17.5s-31 5.83301 -43 17.5zM120 -207c-32 0 -58.333 9.83301 -79 29.5s-31 44.5 -31 74.5
c0 17.333 4.66699 36.5 14 57.5s20.333 37.5 33 49.5h3v481h97v-485h-12c-13.333 -12 -25.5 -27.5 -36.5 -46.5s-16.5 -35.167 -16.5 -48.5s3.66699 -23.5 11 -30.5s17.333 -10.5 30 -10.5c16 0 32 6.33301 48 19l30 -59c-24.667 -20.667 -55 -31 -91 -31z" />
    <glyph glyph-name="Idotaccent" unicode="&#x130;" horiz-adv-x="276" 
d="M90 680v-680h96v680h-96zM181 773.5c11.333 11.667 17 25.834 17 42.501s-5.66699 31 -17 43s-25.333 18 -42 18s-31 -6 -43 -18s-18 -26.333 -18 -43s6 -30.834 18 -42.501s26.333 -17.5 43 -17.5s30.667 5.83301 42 17.5z" />
    <glyph glyph-name="dotlessi" unicode="&#x131;" horiz-adv-x="217" 
d="M60 485v-485h97v485h-97z" />
    <glyph glyph-name="Kcommaaccent" unicode="&#x136;" horiz-adv-x="625" 
d="M186 235v-235h-96v680h96v-315l310 330l68 -56l-241 -257l292 -382h-117l-239 313zM296.5 -39.5c-12.333 -12.333 -18.501 -26.5 -18.501 -42.5c0 -14.667 5.16699 -28.167 15.5 -40.5s21.5 -18.833 33.5 -19.5c-2 -14.667 -8.16699 -27.667 -18.5 -39
s-22.166 -20.666 -35.499 -27.999l23 -46c29.333 14.667 54 37 74 67s30 61.667 30 95c0 21.333 -5.83301 38.666 -17.5 51.999s-26.167 20 -43.5 20c-16 0 -30.167 -6.16699 -42.5 -18.5z" />
    <glyph glyph-name="kcommaaccent" unicode="&#x137;" horiz-adv-x="487" 
d="M228 234l147 -234h112l-193 296l144 138l-56 64l-216 -211v419l-96 -11v-695h96v174zM230.5 -39.5c-12.333 -12.333 -18.501 -26.5 -18.501 -42.5c0 -14.667 5.16699 -28.167 15.5 -40.5s21.5 -18.833 33.5 -19.5c-2 -14.667 -8.16699 -27.667 -18.5 -39
s-22.166 -20.666 -35.499 -27.999l23 -46c29.333 14.667 54 37 74 67s30 61.667 30 95c0 21.333 -5.83301 38.666 -17.5 51.999s-26.167 20 -43.5 20c-16 0 -30.167 -6.16699 -42.5 -18.5z" />
    <glyph glyph-name="Lacute" unicode="&#x139;" horiz-adv-x="515" 
d="M186 680h-96v-680h415l-12 75h-307v605zM210 897l-54 -141l66 -17l90 158h-102z" />
    <glyph glyph-name="lacute" unicode="&#x13a;" horiz-adv-x="236" 
d="M142 897l-54 -141l66 -17l90 158h-102zM70 673v-673h96v685z" />
    <glyph glyph-name="Lcommaaccent" unicode="&#x13b;" horiz-adv-x="515" 
d="M186 680h-96v-680h415l-12 75h-307v605zM299.5 -39.5c-12.333 -12.333 -18.501 -26.5 -18.501 -42.5c0 -14.667 5.16699 -28.167 15.5 -40.5s21.5 -18.833 33.5 -19.5c-2 -14.667 -8.16699 -27.667 -18.5 -39s-22.166 -20.666 -35.499 -27.999l23 -46
c29.333 14.667 54 37 74 67s30 61.667 30 95c0 21.333 -5.83301 38.666 -17.5 51.999s-26.167 20 -43.5 20c-16 0 -30.167 -6.16699 -42.5 -18.5z" />
    <glyph glyph-name="lcommaaccent" unicode="&#x13c;" horiz-adv-x="236" 
d="M70 695v-695h96v706zM79.5 -39.5c-12.333 -12.333 -18.501 -26.5 -18.501 -42.5c0 -14.667 5.16699 -28.167 15.5 -40.5s21.5 -18.833 33.5 -19.5c-2 -14.667 -8.16699 -27.667 -18.5 -39s-22.166 -20.666 -35.499 -27.999l23 -46c29.333 14.667 54 37 74 67
s30 61.667 30 95c0 21.333 -5.83301 38.666 -17.5 51.999s-26.167 20 -43.5 20c-16 0 -30.167 -6.16699 -42.5 -18.5z" />
    <glyph glyph-name="Lcaron" unicode="&#x13d;" horiz-adv-x="515" 
d="M186 680h-96v-680h415l-12 75h-307v605zM374.5 702.5c-12.333 -13 -18.5 -26.835 -18.5 -41.502s5.16699 -28.167 15.5 -40.5s21.5 -18.833 33.5 -19.5c-2 -18 -8 -33.167 -18 -45.5s-24.333 -25.833 -43 -40.5l23 -45c31.333 16.667 57.833 42.334 79.5 77.001
s32.5 69 32.5 103c0 20.667 -6.16699 37.834 -18.5 51.501s-26.833 20.5 -43.5 20.5c-16 0 -30.167 -6.5 -42.5 -19.5z" />
    <glyph glyph-name="lcaron" unicode="&#x13e;" horiz-adv-x="398" 
d="M263.5 702.5c-12.333 -13 -18.5 -26.835 -18.5 -41.502s5.16699 -28.167 15.5 -40.5s21.5 -18.833 33.5 -19.5c-2 -18 -8 -33.167 -18 -45.5s-24.333 -25.833 -43 -40.5l23 -45c31.333 16.667 57.833 42.334 79.5 77.001s32.5 69 32.5 103
c0 20.667 -6.16699 37.834 -18.5 51.501s-26.833 20.5 -43.5 20.5c-16 0 -30.167 -6.5 -42.5 -19.5zM70 694.998v-695h96v706z" />
    <glyph glyph-name="Lslash" unicode="&#x141;" horiz-adv-x="515" 
d="M55 200l-40 65l75 61v354h96v-277l111 90l40 -64l-151 -123v-231h307l12 -75h-415v228z" />
    <glyph glyph-name="lslash" unicode="&#x142;" horiz-adv-x="321" 
d="M209 706l-96 -11v-317l-113 -92l40 -65l73 60v-281h96v358l112 92l-40 64l-72 -60v252z" />
    <glyph glyph-name="Nacute" unicode="&#x143;" horiz-adv-x="715" 
d="M539 0h86v680h-97v-503l-353 503h-85v-680h96v507zM351 897l-54 -141l66 -17l90 158h-102z" />
    <glyph glyph-name="nacute" unicode="&#x144;" 
d="M235 397.5c26.667 14.333 51.334 21.499 74.001 21.499c30 0 50.833 -9.16699 62.5 -27.5s17.5 -45.166 17.5 -80.499v-311h96v320c0 55.333 -12.833 99.333 -38.5 132s-64.834 49 -117.501 49c-32 0 -64.333 -7.5 -97 -22.5s-62 -34.167 -88 -57.5l-17 64h-67v-485h96
v342c26 22.667 52.333 41.167 79 55.5zM271 746.999l-54 -141l66 -17l90 158h-102z" />
    <glyph glyph-name="Ncommaaccent" unicode="&#x145;" horiz-adv-x="715" 
d="M539 0h86v680h-97v-503l-353 503h-85v-680h96v507zM319.5 -39.5c-12.333 -12.333 -18.501 -26.5 -18.501 -42.5c0 -14.667 5.16699 -28.167 15.5 -40.5s21.5 -18.833 33.5 -19.5c-2 -14.667 -8.16699 -27.667 -18.5 -39s-22.166 -20.666 -35.499 -27.999l23 -46
c29.333 14.667 54 37 74 67s30 61.667 30 95c0 21.333 -5.83301 38.666 -17.5 51.999s-26.167 20 -43.5 20c-16 0 -30.167 -6.16699 -42.5 -18.5z" />
    <glyph glyph-name="ncommaaccent" unicode="&#x146;" 
d="M235 397.5c26.667 14.333 51.334 21.499 74.001 21.499c30 0 50.833 -9.16699 62.5 -27.5s17.5 -45.166 17.5 -80.499v-311h96v320c0 55.333 -12.833 99.333 -38.5 132s-64.834 49 -117.501 49c-32 0 -64.333 -7.5 -97 -22.5s-62 -34.167 -88 -57.5l-17 64h-67v-485h96
v342c26 22.667 52.333 41.167 79 55.5zM240.5 -39.501c-12.333 -12.333 -18.501 -26.5 -18.501 -42.5c0 -14.667 5.16699 -28.167 15.5 -40.5s21.5 -18.833 33.5 -19.5c-2 -14.667 -8.16699 -27.667 -18.5 -39s-22.166 -20.666 -35.499 -27.999l23 -46
c29.333 14.667 54 37 74 67s30 61.667 30 95c0 21.333 -5.83301 38.666 -17.5 51.999s-26.167 20 -43.5 20c-16 0 -30.167 -6.16699 -42.5 -18.5z" />
    <glyph glyph-name="Ncaron" unicode="&#x147;" horiz-adv-x="715" 
d="M539 0h86v680h-97v-503l-353 503h-85v-680h96v507zM201 887l129 -148h66l128 148l-87 10l-75 -87l-75 87z" />
    <glyph glyph-name="ncaron" unicode="&#x148;" 
d="M235 397.5c26.667 14.333 51.334 21.499 74.001 21.499c30 0 50.833 -9.16699 62.5 -27.5s17.5 -45.166 17.5 -80.499v-311h96v320c0 55.333 -12.833 99.333 -38.5 132s-64.834 49 -117.501 49c-32 0 -64.333 -7.5 -97 -22.5s-62 -34.167 -88 -57.5l-17 64h-67v-485h96
v342c26 22.667 52.333 41.167 79 55.5zM122 736.999l129 -148h66l128 148l-87 10l-75 -87l-75 87z" />
    <glyph glyph-name="Omacron" unicode="&#x14c;" horiz-adv-x="729" 
d="M198 647c-49.333 -31.333 -88.001 -74 -116.001 -128s-42 -114.667 -42 -182s13.833 -127.666 41.5 -180.999s66 -95 115 -125s104.167 -45 165.5 -45c62.667 0.666992 118.834 16.667 168.501 48s88.5 74 116.5 128s42 114.667 42 182s-13.833 127.666 -41.5 180.999
s-66.167 95.166 -115.5 125.499s-105 45.5 -167 45.5c-62 -1.33301 -117.667 -17.666 -167 -48.999zM168.999 479.5c19.333 41.667 46.3311 74.333 80.998 98s73.667 35.5 117 35.5c42 0 79.667 -11.5 113 -34.5s59.5 -55 78.5 -96s28.5 -87.167 28.5 -138.5
c0 -52.667 -9.66699 -100 -29 -142s-46.166 -74.833 -80.499 -98.5s-73.166 -35.5 -116.499 -35.5c-42 0 -79.833 11.5 -113.5 34.5s-60 55.167 -79 96.5s-28.5 87.666 -28.5 138.999c0 52.667 9.66699 99.834 29 141.501zM471.997 851.999h-241v-76h251z" />
    <glyph glyph-name="omacron" unicode="&#x14d;" horiz-adv-x="545" 
d="M485 109c-20 -38.667 -48.501 -68.667 -85.501 -90s-80.167 -32 -129.5 -32c-48.667 0 -91.167 10.667 -127.5 32s-64.166 51.333 -83.499 90s-29 83.334 -29 134.001c0 50 10 94.333 30 133s48.333 68.667 85 90s79.667 32 129 32c48.667 0 91.167 -10.667 127.5 -32
s64.333 -51.333 84 -90s29.5 -83.334 29.5 -134.001c0 -50 -10 -94.333 -30 -133zM376.499 118c26.333 32.667 39.833 73.667 40.5 123c0 52 -12.667 94.167 -38 126.5s-60.333 48.5 -105 48.5c-44 0 -79.167 -16.333 -105.5 -49s-39.833 -73.667 -40.5 -123
c0 -52 12.667 -94.167 38 -126.5s60.333 -48.5 105 -48.5c44 0 79.167 16.333 105.5 49zM384.999 702h-242v-76h251z" />
    <glyph glyph-name="Ohungarumlaut" unicode="&#x150;" horiz-adv-x="729" 
d="M198 647c-49.333 -31.333 -88.001 -74 -116.001 -128s-42 -114.667 -42 -182s13.833 -127.666 41.5 -180.999s66 -95 115 -125s104.167 -45 165.5 -45c62.667 0.666992 118.834 16.667 168.501 48s88.5 74 116.5 128s42 114.667 42 182s-13.833 127.666 -41.5 180.999
s-66.167 95.166 -115.5 125.499s-105 45.5 -167 45.5c-62 -1.33301 -117.667 -17.666 -167 -48.999zM168.999 479.5c19.333 41.667 46.3311 74.333 80.998 98s73.667 35.5 117 35.5c42 0 79.667 -11.5 113 -34.5s59.5 -55 78.5 -96s28.5 -87.167 28.5 -138.5
c0 -52.667 -9.66699 -100 -29 -142s-46.166 -74.833 -80.499 -98.5s-73.166 -35.5 -116.499 -35.5c-42 0 -79.833 11.5 -113.5 34.5s-60 55.167 -79 96.5s-28.5 87.666 -28.5 138.999c0 52.667 9.66699 99.834 29 141.501zM286.997 896.999l-54 -141l66 -17l90 158h-102z
M452.997 896.999l-54 -141l66 -17l90 158h-102z" />
    <glyph glyph-name="ohungarumlaut" unicode="&#x151;" horiz-adv-x="545" 
d="M485 109c-20 -38.667 -48.501 -68.667 -85.501 -90s-80.167 -32 -129.5 -32c-48.667 0 -91.167 10.667 -127.5 32s-64.166 51.333 -83.499 90s-29 83.334 -29 134.001c0 50 10 94.333 30 133s48.333 68.667 85 90s79.667 32 129 32c48.667 0 91.167 -10.667 127.5 -32
s64.333 -51.333 84 -90s29.5 -83.334 29.5 -134.001c0 -50 -10 -94.333 -30 -133zM376.499 118c26.333 32.667 39.833 73.667 40.5 123c0 52 -12.667 94.167 -38 126.5s-60.333 48.5 -105 48.5c-44 0 -79.167 -16.333 -105.5 -49s-39.833 -73.667 -40.5 -123
c0 -52 12.667 -94.167 38 -126.5s60.333 -48.5 105 -48.5c44 0 79.167 16.333 105.5 49zM198.999 747l-54 -141l66 -17l90 158h-102zM364.999 747l-54 -141l66 -17l90 158h-102z" />
    <glyph glyph-name="OE" unicode="&#x152;" horiz-adv-x="952" 
d="M500 10c-22.667 -7.33301 -46.833 -13.167 -72.5 -17.5s-49.167 -6.5 -70.5 -6.5c-67.333 0 -124.833 15.5 -172.5 46.5s-83.667 73 -108 126s-36.5 112.167 -36.5 177.5c0 68 13.167 129.167 39.5 183.5s64 97 113 128s105.833 46.5 170.5 46.5c18 0 40 -2 66 -6
s49.667 -10 71 -18v10h383l13 -74h-300v-223h231l13 -74h-244v-234h323l13 -75h-432v10zM500.001 96.999l0.000976562 489c-27.333 9.33301 -50.333 16 -69 20s-42 6 -70 6c-41.333 0 -78.833 -11.5 -112.5 -34.5s-60.167 -55.5 -79.5 -97.5s-29 -89.667 -29 -143
c0 -49.333 8.5 -94.5 25.5 -135.5s41.667 -73.5 74 -97.5s70.166 -36 113.499 -36c53.333 0 102.333 9.66699 147 29z" />
    <glyph glyph-name="oe" unicode="&#x153;" horiz-adv-x="811" 
d="M437 221c4 -47.333 19.168 -84.6689 45.501 -112.002s65.5 -41 117.5 -41c25.333 0 47.5 3.16699 66.5 9.5s45.5 17.5 79.5 33.5l30 -70c-58.667 -35.333 -117.334 -53 -176.001 -53c-66 0 -121 14.667 -165 44c-20 -13.333 -46.667 -24.166 -80 -32.499
s-61.333 -12.5 -84 -12.5c-48.667 0 -91.167 10.667 -127.5 32s-64.333 51.333 -84 90s-29.5 83.334 -29.5 134.001c0 50 10 94.333 30 133s48.5 68.667 85.5 90s80.167 32 129.5 32c20.667 0 46.5 -4 77.5 -12s56.833 -18 77.5 -30c38.667 28 85 42 139 42
c70 0 122.833 -23.5 158.5 -70.5s53.5 -107.167 53.5 -180.5v-26h-344zM166.001 117.497c25.333 -32.333 60.333 -48.5 105 -48.5c37.333 0 73.333 6.66699 108 20c-28 42 -42 93.333 -42 154c0 58.667 13 110 39 154c-34.667 12.667 -68.667 19 -102 19
c-44 0 -79.167 -16.333 -105.5 -49s-39.833 -73.667 -40.5 -123c0 -52 12.667 -94.167 38 -126.5zM566.001 415.997c-36.667 0 -65.832 -11.5 -87.499 -34.5s-34.834 -54.833 -39.501 -95.5h249c-13.333 86.667 -54 130 -122 130z" />
    <glyph glyph-name="Racute" unicode="&#x154;" horiz-adv-x="604" 
d="M186 0v272.001h89c30.667 0 51.667 1 63 3l152 -275h104l-171 300c36 15.333 64.667 38.166 86 68.499s32.333 66.833 33 109.5c0 68 -23.667 118.667 -71 152s-109.333 50 -186 50h-195v-680h96zM401.5 570.501c27 -19 40.502 -51.167 40.502 -96.5
c-0.666992 -43.333 -15.834 -74.833 -45.501 -94.5s-68.834 -29.5 -117.501 -29.5h-93v249h98c51.333 0 90.5 -9.5 117.5 -28.5zM276.002 897.001l-54 -141l66 -17l90 158h-102z" />
    <glyph glyph-name="racute" unicode="&#x155;" horiz-adv-x="338" 
d="M242 382.5c32 17 60.667 25.5 86 25.5l-21 77c-23.333 0 -50.5 -8.33301 -81.5 -25s-57.833 -34.667 -80.5 -54l-31 79h-54v-485h96v321c25.333 24 54 44.5 86 61.5zM161 747l-54 -141l66 -17l90 158h-102z" />
    <glyph glyph-name="Rcommaaccent" unicode="&#x156;" horiz-adv-x="604" 
d="M186 0v272.001h89c30.667 0 51.667 1 63 3l152 -275h104l-171 300c36 15.333 64.667 38.166 86 68.499s32.333 66.833 33 109.5c0 68 -23.667 118.667 -71 152s-109.333 50 -186 50h-195v-680h96zM401.5 570.501c27 -19 40.502 -51.167 40.502 -96.5
c-0.666992 -43.333 -15.834 -74.833 -45.501 -94.5s-68.834 -29.5 -117.501 -29.5h-93v249h98c51.333 0 90.5 -9.5 117.5 -28.5zM283.502 -39.499c-12.333 -12.333 -18.501 -26.5 -18.501 -42.5c0 -14.667 5.16699 -28.167 15.5 -40.5s21.5 -18.833 33.5 -19.5
c-2 -14.667 -8.16699 -27.667 -18.5 -39s-22.166 -20.666 -35.499 -27.999l23 -46c29.333 14.667 54 37 74 67s30 61.667 30 95c0 21.333 -5.83301 38.666 -17.5 51.999s-26.167 20 -43.5 20c-16 0 -30.167 -6.16699 -42.5 -18.5z" />
    <glyph glyph-name="rcommaaccent" unicode="&#x157;" horiz-adv-x="338" 
d="M242 382.5c32 17 60.667 25.5 86 25.5l-21 77c-23.333 0 -50.5 -8.33301 -81.5 -25s-57.833 -34.667 -80.5 -54l-31 79h-54v-485h96v321c25.333 24 54 44.5 86 61.5zM69.5 -39.5c-12.333 -12.333 -18.501 -26.5 -18.501 -42.5c0 -14.667 5.16699 -28.167 15.5 -40.5
s21.5 -18.833 33.5 -19.5c-2 -14.667 -8.16699 -27.667 -18.5 -39s-22.166 -20.666 -35.499 -27.999l23 -46c29.333 14.667 54 37 74 67s30 61.667 30 95c0 21.333 -5.83301 38.666 -17.5 51.999s-26.167 20 -43.5 20c-16 0 -30.167 -6.16699 -42.5 -18.5z" />
    <glyph glyph-name="Rcaron" unicode="&#x158;" horiz-adv-x="604" 
d="M186 0v272.001h89c30.667 0 51.667 1 63 3l152 -275h104l-171 300c36 15.333 64.667 38.166 86 68.499s32.333 66.833 33 109.5c0 68 -23.667 118.667 -71 152s-109.333 50 -186 50h-195v-680h96zM401.5 570.501c27 -19 40.502 -51.167 40.502 -96.5
c-0.666992 -43.333 -15.834 -74.833 -45.501 -94.5s-68.834 -29.5 -117.501 -29.5h-93v249h98c51.333 0 90.5 -9.5 117.5 -28.5zM126.002 887.001l129 -148h66l128 148l-87 10l-75 -87l-75 87z" />
    <glyph glyph-name="rcaron" unicode="&#x159;" horiz-adv-x="338" 
d="M242 382.5c32 17 60.667 25.5 86 25.5l-21 77c-23.333 0 -50.5 -8.33301 -81.5 -25s-57.833 -34.667 -80.5 -54l-31 79h-54v-485h96v321c25.333 24 54 44.5 86 61.5zM12 737l129 -148h66l128 148l-87 10l-75 -87l-75 87z" />
    <glyph glyph-name="Sacute" unicode="&#x15a;" horiz-adv-x="518" 
d="M135.5 3c42.333 -10.667 78.166 -15.998 107.499 -15.998c51.333 0 95.333 7.66699 132 23s64.667 36.833 84 64.5s29 59.5 29 95.5c0 46.667 -14.167 84.667 -42.5 114s-72.833 57.666 -133.5 84.999c-45.333 20.667 -79.666 37.667 -102.999 51
s-41.333 28.166 -54 44.499s-19 35.5 -19 57.5c0 28.667 12.333 50.667 37 66s57 23 97 23c28.667 0 53.5 -3.16699 74.5 -9.5s43.167 -15.166 66.5 -26.499l32 76c-25.333 12.667 -53.833 23.334 -85.5 32.001s-63.167 13 -94.5 13c-45.333 0 -84.833 -7.66699 -118.5 -23
s-59.5 -36.333 -77.5 -63s-27 -56.667 -27 -90s6.33301 -61.833 19 -85.5s31.5 -44.334 56.5 -62.001s58.5 -35.834 100.5 -54.501c42.667 -18.667 76 -34.834 100 -48.501s42.5 -28.667 55.5 -45s19.5 -35.166 19.5 -56.499c0 -30 -13 -53.833 -39 -71.5
s-62.667 -26.5 -110 -26.5c-28 0 -57.667 4.33301 -89 13s-57.666 18.667 -78.999 30l-22 -76c13.333 -12 41.166 -23.333 83.499 -34zM252 897.002l-54 -141l66 -17l90 158h-102z" />
    <glyph glyph-name="sacute" unicode="&#x15b;" horiz-adv-x="421" 
d="M110.5 -1c32.333 -8 60.1689 -11.9961 83.502 -11.9961c63.333 0 112 12.667 146 38s51 61 51 107c0 65.333 -54.667 117.666 -164 156.999c-32 10.667 -56.5 21.667 -73.5 33s-25.833 23.666 -26.5 36.999c0 17.333 8.16699 31.833 24.5 43.5s37.166 17.5 62.499 17.5
c23.333 0 44.666 -2.83301 63.999 -8.5s40.666 -13.834 63.999 -24.501l30 65c-19.333 13.333 -44.5 24.333 -75.5 33s-57.833 13 -80.5 13c-56.667 0 -101.5 -12.5 -134.5 -37.5s-49.5 -59.5 -49.5 -103.5c0 -62.667 53 -111.334 159 -146.001
c72 -22.667 108 -50.667 108 -84c0 -18.667 -9.5 -33.667 -28.5 -45s-44.5 -17 -76.5 -17c-41.333 0 -84.666 11 -129.999 33l-30 -67c18.667 -13.333 44.167 -24 76.5 -32zM203.003 747.004l-54 -141l66 -17l90 158h-102z" />
    <glyph glyph-name="Scedilla" unicode="&#x15e;" horiz-adv-x="518" 
d="M432 44c-37.333 -32.667 -89.9971 -51.334 -157.997 -56.001l-12 -30c21.333 -5.33301 39.166 -16 53.499 -32s21.5 -33 21.5 -51c0 -30.667 -11.667 -54.334 -35 -71.001s-51.333 -25 -84 -25c-12.667 0 -27.334 2.16699 -44.001 6.5s-30 9.83301 -40 16.5l22 59
c9.33301 -4 19.833 -7.83301 31.5 -11.5s21.834 -5.5 30.501 -5.5c12 0 22.667 2.5 32 7.5s14 12.167 14 21.5c0 12 -8.33301 22.5 -25 31.5s-38 14.833 -64 17.5l27 68c-30 4 -60 10.5 -90 19.5s-50 18.167 -60 27.5l22 76c21.333 -11.333 47.666 -21.333 78.999 -30
s61 -13 89 -13c47.333 0 84 8.83301 110 26.5s39 41.5 39 71.5c0 21.333 -6.5 40.166 -19.5 56.499s-31.5 31.333 -55.5 45s-57.333 29.834 -100 48.501c-42 18.667 -75.5 36.834 -100.5 54.501s-43.833 38.334 -56.5 62.001s-19 52.167 -19 85.5s9 63.333 27 90
s43.833 47.667 77.5 63s73.167 23 118.5 23c31.333 0 62.833 -4.33301 94.5 -13s60.167 -19.334 85.5 -32.001l-32 -76c-23.333 11.333 -45.5 20.166 -66.5 26.499s-45.833 9.5 -74.5 9.5c-40 0 -72.333 -7.66699 -97 -23s-37 -37.333 -37 -66
c0 -22 6.33301 -41.167 19 -57.5s30.667 -31.166 54 -44.499s57.666 -30.333 102.999 -51c60.667 -27.333 105.167 -55.666 133.5 -84.999s42.5 -67.333 42.5 -114c0 -51.333 -18.667 -93.333 -56 -126z" />
    <glyph glyph-name="scedilla" unicode="&#x15f;" horiz-adv-x="421" 
d="M348 31.5c-28.667 -25 -70.002 -39.5029 -124.002 -43.5029l-12 -30c21.333 -5.33301 39.166 -16 53.499 -32s21.5 -33 21.5 -51c0 -30.667 -11.667 -54.334 -35 -71.001s-51.333 -25 -84 -25c-12.667 0 -27.334 2.16699 -44.001 6.5s-30 9.83301 -40 16.5l22 59
c9.33301 -4 19.833 -7.83301 31.5 -11.5s21.834 -5.5 30.501 -5.5c12 0 22.667 2.5 32 7.5s14 12.167 14 21.5c0 12 -8.33301 22.5 -25 31.5s-38 14.833 -64 17.5l27 69c-22.667 3.33301 -44.667 8.33301 -66 15s-38.666 15 -51.999 25l30 67
c45.333 -22 88.666 -33 129.999 -33c32 0 57.5 5.66699 76.5 17s28.5 26.333 28.5 45c0 33.333 -36 61.333 -108 84c-106 34.667 -159 83.334 -159 146.001c0 44 16.5 78.5 49.5 103.5s77.833 37.5 134.5 37.5c22.667 0 49.5 -4.33301 80.5 -13s56.167 -19.667 75.5 -33
l-30 -65c-23.333 10.667 -44.666 18.834 -63.999 24.501s-40.666 8.5 -63.999 8.5c-25.333 0 -46.166 -5.83301 -62.499 -17.5s-24.5 -26.167 -24.5 -43.5c0.666992 -13.333 9.5 -25.666 26.5 -36.999s41.5 -22.333 73.5 -33c109.333 -39.333 164 -91.666 164 -156.999
c0 -42 -14.333 -75.5 -43 -100.5z" />
    <glyph glyph-name="Scaron" unicode="&#x160;" horiz-adv-x="518" 
d="M135.5 3c42.333 -10.667 78.166 -15.998 107.499 -15.998c51.333 0 95.333 7.66699 132 23s64.667 36.833 84 64.5s29 59.5 29 95.5c0 46.667 -14.167 84.667 -42.5 114s-72.833 57.666 -133.5 84.999c-45.333 20.667 -79.666 37.667 -102.999 51
s-41.333 28.166 -54 44.499s-19 35.5 -19 57.5c0 28.667 12.333 50.667 37 66s57 23 97 23c28.667 0 53.5 -3.16699 74.5 -9.5s43.167 -15.166 66.5 -26.499l32 76c-25.333 12.667 -53.833 23.334 -85.5 32.001s-63.167 13 -94.5 13c-45.333 0 -84.833 -7.66699 -118.5 -23
s-59.5 -36.333 -77.5 -63s-27 -56.667 -27 -90s6.33301 -61.833 19 -85.5s31.5 -44.334 56.5 -62.001s58.5 -35.834 100.5 -54.501c42.667 -18.667 76 -34.834 100 -48.501s42.5 -28.667 55.5 -45s19.5 -35.166 19.5 -56.499c0 -30 -13 -53.833 -39 -71.5
s-62.667 -26.5 -110 -26.5c-28 0 -57.667 4.33301 -89 13s-57.666 18.667 -78.999 30l-22 -76c13.333 -12 41.166 -23.333 83.499 -34zM102 887.002l129 -148h66l128 148l-87 10l-75 -87l-75 87z" />
    <glyph glyph-name="scaron" unicode="&#x161;" horiz-adv-x="421" 
d="M110.5 -1c32.333 -8 60.1689 -11.9961 83.502 -11.9961c63.333 0 112 12.667 146 38s51 61 51 107c0 65.333 -54.667 117.666 -164 156.999c-32 10.667 -56.5 21.667 -73.5 33s-25.833 23.666 -26.5 36.999c0 17.333 8.16699 31.833 24.5 43.5s37.166 17.5 62.499 17.5
c23.333 0 44.666 -2.83301 63.999 -8.5s40.666 -13.834 63.999 -24.501l30 65c-19.333 13.333 -44.5 24.333 -75.5 33s-57.833 13 -80.5 13c-56.667 0 -101.5 -12.5 -134.5 -37.5s-49.5 -59.5 -49.5 -103.5c0 -62.667 53 -111.334 159 -146.001
c72 -22.667 108 -50.667 108 -84c0 -18.667 -9.5 -33.667 -28.5 -45s-44.5 -17 -76.5 -17c-41.333 0 -84.666 11 -129.999 33l-30 -67c18.667 -13.333 44.167 -24 76.5 -32zM54.0029 737.004l129 -148h66l128 148l-87 10l-75 -87l-75 87z" />
    <glyph glyph-name="Tcedilla" unicode="&#x162;" horiz-adv-x="572" 
d="M355.5 -74c14.333 -16 21.501 -32.999 21.501 -50.999c0 -30.667 -11.667 -54.334 -35 -71.001s-51.333 -25 -84 -25c-12.667 0 -27.334 2.16699 -44.001 6.5s-30 9.83301 -40 16.5l22 59c9.33301 -4 19.833 -7.83301 31.5 -11.5s21.834 -5.5 30.501 -5.5
c12 0 22.667 2.5 32 7.5s14 12.167 14 21.5c0 12 -8.33301 22.5 -25 31.5s-38 14.833 -64 17.5l31 78h-15v604h-221v76h539l13 -76h-234v-604h-9l-17 -42c21.333 -5.33301 39.166 -16 53.499 -32z" />
    <glyph glyph-name="tcedilla" unicode="&#x163;" horiz-adv-x="341" 
d="M281.5 -74c14.333 -16 21.502 -33 21.502 -51c0 -30.667 -11.667 -54.334 -35 -71.001s-51.333 -25 -84 -25c-12.667 0 -27.334 2.16699 -44.001 6.5s-30 9.83301 -40 16.5l22 59c9.33301 -4 19.833 -7.83301 31.5 -11.5s21.834 -5.5 30.501 -5.5c12 0 22.667 2.5 32 7.5
s14 12.167 14 21.5c0 12 -8.33301 22.5 -25 31.5s-38 14.833 -64 17.5l29 73c-27.333 10 -48.5 27 -63.5 51s-22.5 53.667 -22.5 89v271h-68l-1 73h69v121l96 22v-143h88l30 -73h-118v-256c0 -26 5.66699 -46.5 17 -61.5s28.666 -22.5 51.999 -22.5
c12 0 27.667 3.66699 47 11l25 -73c-10 -5.33301 -22.833 -10.166 -38.5 -14.499s-30.5 -6.5 -44.5 -6.5l-10 -25c21.333 -5.33301 39.166 -16 53.499 -32z" />
    <glyph glyph-name="Tcaron" unicode="&#x164;" horiz-adv-x="572" 
d="M10 604h221v-604h97v604h234l-13 76h-539v-76zM120 887l129 -148h66l128 148l-87 10l-75 -87l-75 87z" />
    <glyph glyph-name="tcaron" unicode="&#x165;" horiz-adv-x="473" 
d="M338.5 702.5c-12.333 -13 -18.5 -26.835 -18.5 -41.502s5.16699 -28.167 15.5 -40.5s21.5 -18.833 33.5 -19.5c-2 -18 -8 -33.167 -18 -45.5s-24.333 -25.833 -43 -40.5l23 -45c31.333 16.667 57.833 42.334 79.5 77.001s32.5 69 32.5 103
c0 20.667 -6.16699 37.834 -18.5 51.501s-26.833 20.5 -43.5 20.5c-16 0 -30.167 -6.5 -42.5 -19.5zM180 621.998l-96.001 -21.999v-121h-69l1 -73h68v-271c0 -48.667 13.833 -86.167 41.5 -112.5s65.5 -39.5 113.5 -39.5c13.333 0 27.833 2.16699 43.5 6.5
s28.5 9.16602 38.5 14.499l-25 73c-19.333 -7.33301 -35 -11 -47 -11c-23.333 0 -40.666 7.5 -51.999 22.5s-17 35.5 -17 61.5v256h118l-30 73h-88v143z" />
    <glyph glyph-name="Umacron" unicode="&#x16a;" horiz-adv-x="690" 
d="M80 243c0 -48.667 10.833 -92.332 32.5 -130.999s52.5 -68.834 92.5 -90.501s86.667 -32.5 140 -32.5s100 11 140 33s70.833 52.167 92.5 90.5s32.5 81.833 32.5 130.5v437h-97v-428c0 -56 -15 -100.667 -45 -134s-71 -50 -123 -50c-50.667 0 -91.5 16.5 -122.5 49.5
s-46.5 77.833 -46.5 134.5v428h-96v-437zM453 852.002h-241v-76h251z" />
    <glyph glyph-name="umacron" unicode="&#x16b;" 
d="M306 87.5c-26.667 -14.333 -51.334 -21.499 -74.001 -21.499c-30 0 -50.833 9.16699 -62.5 27.5s-17.5 45.166 -17.5 80.499v311h-96v-320c0 -55.333 12.833 -99.333 38.5 -132s64.834 -49 117.501 -49c32 0 64.333 7.5 97 22.5s62 34.167 88 57.5l17 -64h67v485h-96
v-342c-26 -22.667 -52.333 -41.167 -79 -55.5zM379 702.001h-242v-76h251z" />
    <glyph glyph-name="Uring" unicode="&#x16e;" horiz-adv-x="690" 
d="M80 243c0 -48.667 10.833 -92.332 32.5 -130.999s52.5 -68.834 92.5 -90.501s86.667 -32.5 140 -32.5s100 11 140 33s70.833 52.167 92.5 90.5s32.5 81.833 32.5 130.5v437h-97v-428c0 -56 -15 -100.667 -45 -134s-71 -50 -123 -50c-50.667 0 -91.5 16.5 -122.5 49.5
s-46.5 77.833 -46.5 134.5v428h-96v-437zM274 899.002c-19.333 -18 -29 -40 -29 -66c0 -25.333 9.5 -46.5 28.5 -63.5s42.167 -25.5 69.5 -25.5c26.667 0 49.5 8.5 68.5 25.5s28.5 38.167 28.5 63.5c0 26 -9.5 48 -28.5 66s-41.833 27 -68.5 27s-49.667 -9 -69 -27z
M313.5 804.502c-8.33301 8.33301 -12.5 17.833 -12.5 28.5c0 12 4.16699 22 12.5 30s18.166 12 29.499 12s21 -4 29 -12s12 -18 12 -30c0 -10.667 -4 -20.167 -12 -28.5s-17.667 -12.5 -29 -12.5s-21.166 4.16699 -29.499 12.5z" />
    <glyph glyph-name="uring" unicode="&#x16f;" 
d="M306 87.5c-26.667 -14.333 -51.334 -21.499 -74.001 -21.499c-30 0 -50.833 9.16699 -62.5 27.5s-17.5 45.166 -17.5 80.499v311h-96v-320c0 -55.333 12.833 -99.333 38.5 -132s64.834 -49 117.501 -49c32 0 64.333 7.5 97 22.5s62 34.167 88 57.5l17 -64h67v485h-96
v-342c-26 -22.667 -52.333 -41.167 -79 -55.5zM197 749.001c-19.333 -18 -29 -40 -29 -66c0 -25.333 9.5 -46.5 28.5 -63.5s42.167 -25.5 69.5 -25.5c26.667 0 49.5 8.5 68.5 25.5s28.5 38.167 28.5 63.5c0 26 -9.5 48 -28.5 66s-41.833 27 -68.5 27s-49.667 -9 -69 -27z
M236.5 654.501c-8.33301 8.33301 -12.5 17.833 -12.5 28.5c0 12 4.16699 22 12.5 30s18.166 12 29.499 12s21 -4 29 -12s12 -18 12 -30c0 -10.667 -4 -20.167 -12 -28.5s-17.667 -12.5 -29 -12.5s-21.166 4.16699 -29.499 12.5z" />
    <glyph glyph-name="Uhungarumlaut" unicode="&#x170;" horiz-adv-x="690" 
d="M80 243c0 -48.667 10.833 -92.332 32.5 -130.999s52.5 -68.834 92.5 -90.501s86.667 -32.5 140 -32.5s100 11 140 33s70.833 52.167 92.5 90.5s32.5 81.833 32.5 130.5v437h-97v-428c0 -56 -15 -100.667 -45 -134s-71 -50 -123 -50c-50.667 0 -91.5 16.5 -122.5 49.5
s-46.5 77.833 -46.5 134.5v428h-96v-437zM268 897.002l-54 -141l66 -17l90 158h-102zM434 897.002l-54 -141l66 -17l90 158h-102z" />
    <glyph glyph-name="uhungarumlaut" unicode="&#x171;" 
d="M306 87.5c-26.667 -14.333 -51.334 -21.499 -74.001 -21.499c-30 0 -50.833 9.16699 -62.5 27.5s-17.5 45.166 -17.5 80.499v311h-96v-320c0 -55.333 12.833 -99.333 38.5 -132s64.834 -49 117.501 -49c32 0 64.333 7.5 97 22.5s62 34.167 88 57.5l17 -64h67v485h-96
v-342c-26 -22.667 -52.333 -41.167 -79 -55.5zM193 747.001l-54 -141l66 -17l90 158h-102zM359 747.001l-54 -141l66 -17l90 158h-102z" />
    <glyph glyph-name="Uogonek" unicode="&#x172;" horiz-adv-x="690" 
d="M610 243c0 -44.667 -9.16797 -85.166 -27.501 -121.499s-44.833 -66 -79.5 -89s-75 -36.833 -121 -41.5c-12 -12.667 -22.333 -27.334 -31 -44.001s-13 -30.667 -13 -42c0 -13.333 3.66699 -23.5 11 -30.5s17.333 -10.5 30 -10.5c16 0 32 6.33301 48 19l30 -59
c-24.667 -20.667 -55 -31 -91 -31c-32 0 -58.333 9.83301 -79 29.5s-31 44.5 -31 74.5c0 14.667 3.5 31 10.5 49s15.833 33.667 26.5 47c-65.333 10 -117.166 37.667 -155.499 83s-57.5 101 -57.5 167v437h96v-428c0 -56.667 15.5 -101.5 46.5 -134.5
s71.833 -49.5 122.5 -49.5c52 0 93 16.667 123 50s45 78 45 134v428h97v-437z" />
    <glyph glyph-name="uogonek" unicode="&#x173;" 
d="M466 -207c-32 0 -58.333 9.83301 -79 29.5s-31 44.5 -31 74.5c0 17.333 4.66699 36.5 14 57.5s20.333 37.5 33 49.5h10l-16 60c-26 -23.333 -55.333 -42.5 -88 -57.5s-65 -22.5 -97 -22.5c-52.667 0 -91.834 16.333 -117.501 49s-38.5 76.667 -38.5 132v320h96v-311
c0 -35.333 5.83301 -62.166 17.5 -80.499s32.5 -27.5 62.5 -27.5c22.667 0 47.334 7.16699 74.001 21.5s53 32.833 79 55.5v342h96v-481h15c-14 -10.667 -27.167 -26.334 -39.5 -47.001s-18.5 -38 -18.5 -52c0 -13.333 3.66699 -23.5 11 -30.5s17.333 -10.5 30 -10.5
c16 0 32 6.33301 48 19l30 -59c-24.667 -20.667 -55 -31 -91 -31z" />
    <glyph glyph-name="Ydieresis" unicode="&#x178;" horiz-adv-x="579" 
d="M569 680h-102l-184 -314l-180 331l-93 -34l225 -393v-270h96l1 271zM230.5 776c10.333 10.667 15.5 23.334 15.5 38.001s-5.16699 27.334 -15.5 38.001s-23.166 16 -38.499 16c-14.667 0 -27.334 -5.33301 -38.001 -16s-16 -23.334 -16 -38.001
s5.33301 -27.334 16 -38.001s23.334 -16 38.001 -16c15.333 0 28.166 5.33301 38.499 16zM404.5 776c10.333 10.667 15.5 23.334 15.5 38.001s-5.16699 27.334 -15.5 38.001s-23.166 16 -38.499 16c-14.667 0 -27.334 -5.33301 -38.001 -16s-16 -23.334 -16 -38.001
s5.33301 -27.334 16 -38.001s23.334 -16 38.001 -16c15.333 0 28.166 5.33301 38.499 16z" />
    <glyph glyph-name="Zacute" unicode="&#x179;" horiz-adv-x="564" 
d="M544 604l-10 76h-486l13 -76h374l-415 -529l11 -75h510l-10 75h-406zM298 897l-54 -141l66 -17l90 158h-102z" />
    <glyph glyph-name="zacute" unicode="&#x17a;" horiz-adv-x="434" 
d="M59 407h231l-272 -357l12 -50h386l-10 76h-268l276 356l-5 53h-371zM213 747l-54 -141l66 -17l90 158h-102z" />
    <glyph glyph-name="Zdotaccent" unicode="&#x17b;" horiz-adv-x="564" 
d="M544 604l-10 76h-486l13 -76h374l-415 -529l11 -75h510l-10 75h-406zM350 773.5c11.333 11.667 17 25.834 17 42.501s-5.66699 31 -17 43s-25.333 18 -42 18s-31 -6 -43 -18s-18 -26.333 -18 -43s6 -30.834 18 -42.501s26.333 -17.5 43 -17.5s30.667 5.83301 42 17.5z
" />
    <glyph glyph-name="zdotaccent" unicode="&#x17c;" horiz-adv-x="434" 
d="M59 407h231l-272 -357l12 -50h386l-10 76h-268l276 356l-5 53h-371zM264 623.5c11.333 11.667 17 25.834 17 42.501s-5.66699 31 -17 43s-25.333 18 -42 18s-31 -6 -43 -18s-18 -26.333 -18 -43s6 -30.834 18 -42.501s26.333 -17.5 43 -17.5s30.667 5.83301 42 17.5z" />
    <glyph glyph-name="Zcaron" unicode="&#x17d;" horiz-adv-x="564" 
d="M544 604l-10 76h-486l13 -76h374l-415 -529l11 -75h510l-10 75h-406zM148 887l129 -148h66l128 148l-87 10l-75 -87l-75 87z" />
    <glyph glyph-name="zcaron" unicode="&#x17e;" horiz-adv-x="434" 
d="M59 407h231l-272 -357l12 -50h386l-10 76h-268l276 356l-5 53h-371zM64 737l129 -148h66l128 148l-87 10l-75 -87l-75 87z" />
    <glyph glyph-name="florin" unicode="&#x192;" horiz-adv-x="374" 
d="M139 401l0.000976562 -328.001c0 -56 -22.333 -84 -67 -84c-12.667 0 -28.667 3.66699 -48 11l-24 -73c8.66699 -5.33301 21.167 -10.166 37.5 -14.499s31.5 -6.5 45.5 -6.5c47.333 0 84.5 14.167 111.5 42.5s40.5 66.833 40.5 115.5v337h121l-31 74h-90v58
c0 26 5.5 46.5 16.5 61.5s27.833 22.5 50.5 22.5c12.667 0 28.667 -3.66699 48 -11l24 74c-8.66699 6 -20.834 11.167 -36.501 15.5s-30.5 6.5 -44.5 6.5c-48 0 -85.667 -14.5 -113 -43.5s-41 -67.833 -41 -116.5v-67h-74l1 -74h73z" />
    <glyph glyph-name="Scommaaccent" unicode="&#x218;" horiz-adv-x="518" 
d="M135.5 3c42.333 -10.667 78.166 -15.998 107.499 -15.998c51.333 0 95.333 7.66699 132 23s64.667 36.833 84 64.5s29 59.5 29 95.5c0 46.667 -14.167 84.667 -42.5 114s-72.833 57.666 -133.5 84.999c-45.333 20.667 -79.666 37.667 -102.999 51
s-41.333 28.166 -54 44.499s-19 35.5 -19 57.5c0 28.667 12.333 50.667 37 66s57 23 97 23c28.667 0 53.5 -3.16699 74.5 -9.5s43.167 -15.166 66.5 -26.499l32 76c-25.333 12.667 -53.833 23.334 -85.5 32.001s-63.167 13 -94.5 13c-45.333 0 -84.833 -7.66699 -118.5 -23
s-59.5 -36.333 -77.5 -63s-27 -56.667 -27 -90s6.33301 -61.833 19 -85.5s31.5 -44.334 56.5 -62.001s58.5 -35.834 100.5 -54.501c42.667 -18.667 76 -34.834 100 -48.501s42.5 -28.667 55.5 -45s19.5 -35.166 19.5 -56.499c0 -30 -13 -53.833 -39 -71.5
s-62.667 -26.5 -110 -26.5c-28 0 -57.667 4.33301 -89 13s-57.666 18.667 -78.999 30l-22 -76c13.333 -12 41.166 -23.333 83.499 -34zM202.5 -39.498c-12.333 -12.333 -18.501 -26.5 -18.501 -42.5c0 -14.667 5.16699 -28.167 15.5 -40.5s21.5 -18.833 33.5 -19.5
c-2 -14.667 -8.16699 -27.667 -18.5 -39s-22.166 -20.666 -35.499 -27.999l23 -46c29.333 14.667 54 37 74 67s30 61.667 30 95c0 21.333 -5.83301 38.666 -17.5 51.999s-26.167 20 -43.5 20c-16 0 -30.167 -6.16699 -42.5 -18.5z" />
    <glyph glyph-name="scommaaccent" unicode="&#x219;" horiz-adv-x="421" 
d="M110.5 -1c32.333 -8 60.1689 -11.9961 83.502 -11.9961c63.333 0 112 12.667 146 38s51 61 51 107c0 65.333 -54.667 117.666 -164 156.999c-32 10.667 -56.5 21.667 -73.5 33s-25.833 23.666 -26.5 36.999c0 17.333 8.16699 31.833 24.5 43.5s37.166 17.5 62.499 17.5
c23.333 0 44.666 -2.83301 63.999 -8.5s40.666 -13.834 63.999 -24.501l30 65c-19.333 13.333 -44.5 24.333 -75.5 33s-57.833 13 -80.5 13c-56.667 0 -101.5 -12.5 -134.5 -37.5s-49.5 -59.5 -49.5 -103.5c0 -62.667 53 -111.334 159 -146.001
c72 -22.667 108 -50.667 108 -84c0 -18.667 -9.5 -33.667 -28.5 -45s-44.5 -17 -76.5 -17c-41.333 0 -84.666 11 -129.999 33l-30 -67c18.667 -13.333 44.167 -24 76.5 -32zM152.503 -39.4961c-12.333 -12.333 -18.501 -26.5 -18.501 -42.5
c0 -14.667 5.16699 -28.167 15.5 -40.5s21.5 -18.833 33.5 -19.5c-2 -14.667 -8.16699 -27.667 -18.5 -39s-22.166 -20.666 -35.499 -27.999l23 -46c29.333 14.667 54 37 74 67s30 61.667 30 95c0 21.333 -5.83301 38.666 -17.5 51.999s-26.167 20 -43.5 20
c-16 0 -30.167 -6.16699 -42.5 -18.5z" />
    <glyph glyph-name="Tcommaaccent" unicode="&#x21a;" horiz-adv-x="572" 
d="M10 604h221v-604h97v604h234l-13 76h-539v-76zM242.5 -39.5c-12.333 -12.333 -18.501 -26.5 -18.501 -42.5c0 -14.667 5.16699 -28.167 15.5 -40.5s21.5 -18.833 33.5 -19.5c-2 -14.667 -8.16699 -27.667 -18.5 -39s-22.166 -20.666 -35.499 -27.999l23 -46
c29.333 14.667 54 37 74 67s30 61.667 30 95c0 21.333 -5.83301 38.666 -17.5 51.999s-26.167 20 -43.5 20c-16 0 -30.167 -6.16699 -42.5 -18.5z" />
    <glyph glyph-name="tcommaaccent" unicode="&#x21b;" horiz-adv-x="341" 
d="M180 622l-96.001 -21.999v-121h-69l1 -73h68v-271c0 -48.667 13.833 -86.167 41.5 -112.5s65.5 -39.5 113.5 -39.5c13.333 0 27.833 2.16699 43.5 6.5s28.5 9.16602 38.5 14.499l-25 73c-19.333 -7.33301 -35 -11 -47 -11c-23.333 0 -40.666 7.5 -51.999 22.5
s-17 35.5 -17 61.5v256h118l-30 73h-88v143zM168.499 -39.499c-12.333 -12.333 -18.501 -26.5 -18.501 -42.5c0 -14.667 5.16699 -28.167 15.5 -40.5s21.5 -18.833 33.5 -19.5c-2 -14.667 -8.16699 -27.667 -18.5 -39s-22.166 -20.666 -35.499 -27.999l23 -46
c29.333 14.667 54 37 74 67s30 61.667 30 95c0 21.333 -5.83301 38.666 -17.5 51.999s-26.167 20 -43.5 20c-16 0 -30.167 -6.16699 -42.5 -18.5z" />
    <glyph glyph-name="circumflex" unicode="&#x2c6;" horiz-adv-x="343" 
d="M333 599l-129 148h-66l-128 -148l87 -10l75 87l75 -87z" />
    <glyph glyph-name="caron" unicode="&#x2c7;" horiz-adv-x="343" 
d="M10 737l129 -148h66l128 148l-87 10l-75 -87l-75 87z" />
    <glyph glyph-name="uni02C9" unicode="&#x2c9;" horiz-adv-x="271" 
d="M251 702h-241v-76h251z" />
    <glyph glyph-name="breve" unicode="&#x2d8;" horiz-adv-x="297" 
d="M201 688.5c-12.667 -15.667 -30.332 -23.5 -52.999 -23.5s-40.167 7.83301 -52.5 23.5s-18.5 33.5 -18.5 53.5h-67c0 -41.333 11.667 -76 35 -104s57.666 -42.333 102.999 -43c45.333 0.666992 79.833 15 103.5 43s35.5 62.667 35.5 104h-67
c0 -20 -6.33301 -37.833 -19 -53.5z" />
    <glyph glyph-name="dotaccent" unicode="&#x2d9;" horiz-adv-x="140" 
d="M113 623.5c11.333 11.667 17 25.834 17 42.501s-5.66699 31 -17 43s-25.333 18 -42 18s-31 -6 -43 -18s-18 -26.333 -18 -43s6 -30.834 18 -42.501s26.333 -17.5 43 -17.5s30.667 5.83301 42 17.5z" />
    <glyph glyph-name="ring" unicode="&#x2da;" horiz-adv-x="215" 
d="M39 749c-19.333 -18 -29 -40 -29 -66c0 -25.333 9.5 -46.5 28.5 -63.5s42.167 -25.5 69.5 -25.5c26.667 0 49.5 8.5 68.5 25.5s28.5 38.167 28.5 63.5c0 26 -9.5 48 -28.5 66s-41.833 27 -68.5 27s-49.667 -9 -69 -27zM78.5 654.5
c-8.33301 8.33301 -12.5 17.833 -12.5 28.5c0 12 4.16699 22 12.5 30s18.166 12 29.499 12s21 -4 29 -12s12 -18 12 -30c0 -10.667 -4 -20.167 -12 -28.5s-17.667 -12.5 -29 -12.5s-21.166 4.16699 -29.499 12.5z" />
    <glyph glyph-name="ogonek" unicode="&#x2db;" horiz-adv-x="221" 
d="M24 -45.5c-9.33301 -21 -14 -40.168 -14 -57.501c0 -30 10.333 -54.833 31 -74.5s47 -29.5 79 -29.5c36 0 66.333 10.333 91 31l-30 59c-16 -12.667 -32 -19 -48 -19c-12.667 0 -22.667 3.5 -30 10.5s-11 17.167 -11 30.5c0 14 6.16699 31.333 18.5 52
s25.5 36.334 39.5 47.001h-93c-12.667 -12 -23.667 -28.5 -33 -49.5z" />
    <glyph glyph-name="tilde" unicode="&#x2dc;" horiz-adv-x="323" 
d="M239.5 680c-6.33301 -6.66699 -13.835 -10.001 -22.502 -10.001s-16.167 1.5 -22.5 4.5s-14.5 7.5 -24.5 13.5c-11.333 7.33301 -21.5 13 -30.5 17s-20.5 6 -34.5 6c-28.667 0 -51.667 -8.16699 -69 -24.5s-26 -43.166 -26 -80.499h65c0.666992 10 4.5 18.667 11.5 26
s14.5 11 22.5 11c8.66699 0 16.334 -1.5 23.001 -4.5s14.334 -7.83301 23.001 -14.5c11.333 -7.33301 21.333 -13 30 -17s19.667 -6 33 -6c28 0 50.833 8.33301 68.5 25s26.5 43.667 26.5 81h-63c-0.666992 -11.333 -4.16699 -20.333 -10.5 -27z" />
    <glyph glyph-name="hungarumlaut" unicode="&#x2dd;" horiz-adv-x="342" 
d="M64 747l-54 -141l66 -17l90 158h-102zM230 747l-54 -141l66 -17l90 158h-102z" />
    <glyph glyph-name="pi" unicode="&#x3c0;" horiz-adv-x="619" 
d="M415 409v-409h96v409h98v76h-599v-76h97v-409h96v409h212z" />
    <glyph glyph-name="tm_Anusvara" unicode="&#xb82;" horiz-adv-x="0" 
d="M86 670.5c24 21.667 36 48.834 36 81.501c0 33.333 -12 60.833 -36 82.5s-52.667 32.5 -86 32.5c-32.667 0 -61.167 -10.833 -85.5 -32.5s-36.5 -49.167 -36.5 -82.5c0 -32.667 12.167 -59.834 36.5 -81.501s52.833 -32.5 85.5 -32.5c33.333 0 62 10.833 86 32.5z
M-38 714.5c-10 9.66699 -15 22.167 -15 37.5s5 28.166 15 38.499s22.667 15.5 38 15.5c16 0 29.167 -5.16699 39.5 -15.5s15.5 -23.166 15.5 -38.499s-5.16699 -27.833 -15.5 -37.5s-23.5 -14.5 -39.5 -14.5c-15.333 0 -28 4.83301 -38 14.5z" />
    <glyph glyph-name="tm_Visarga" unicode="&#xb83;" horiz-adv-x="686" 
d="M428.5 330.5c24.333 21.667 36.5 48.5 36.5 80.5c0 33.333 -12 61 -36 83s-52.667 33 -86 33s-62 -11 -86 -33s-36 -49.667 -36 -83c0 -32 12.167 -58.833 36.5 -80.5s52.833 -32.5 85.5 -32.5s61.167 10.833 85.5 32.5zM304.5 374.5
c-10.333 9.66699 -15.5 21.834 -15.5 36.501c0 16 5.16699 29 15.5 39s23.166 15 38.499 15s28.166 -5 38.499 -15s15.5 -23 15.5 -39c0 -14.667 -5.16699 -26.834 -15.5 -36.501s-23.166 -14.5 -38.499 -14.5s-28.166 4.83301 -38.499 14.5zM257.5 18.5
c24.333 21.667 36.5 48.834 36.5 81.501c0 33.333 -12.167 60.833 -36.5 82.5s-52.833 32.5 -85.5 32.5s-61.167 -10.833 -85.5 -32.5s-36.5 -49.167 -36.5 -82.5c0 -32.667 12.167 -59.834 36.5 -81.501s52.833 -32.5 85.5 -32.5s61.167 10.833 85.5 32.5zM599.5 18.5
c24.333 21.667 36.5 48.834 36.5 81.501c0 33.333 -12.167 60.833 -36.5 82.5s-52.833 32.5 -85.5 32.5s-61.167 -10.833 -85.5 -32.5s-36.5 -49.167 -36.5 -82.5c0 -32.667 12.167 -59.834 36.5 -81.501s52.833 -32.5 85.5 -32.5s61.167 10.833 85.5 32.5zM133.5 63.5
c-10.333 9.66699 -15.5 21.834 -15.5 36.501c0 15.333 5.16699 28.166 15.5 38.499s23.166 15.5 38.499 15.5s28.166 -5.16699 38.499 -15.5s15.5 -23.166 15.5 -38.499c0 -14.667 -5.16699 -26.834 -15.5 -36.501s-23.166 -14.5 -38.499 -14.5
s-28.166 4.83301 -38.499 14.5zM475.5 63.5c-10.333 9.66699 -15.5 21.834 -15.5 36.501c0 15.333 5.16699 28.166 15.5 38.499s23.166 15.5 38.499 15.5s28.166 -5.16699 38.499 -15.5s15.5 -23.166 15.5 -38.499c0 -14.667 -5.16699 -26.834 -15.5 -36.501
s-23.166 -14.5 -38.499 -14.5s-28.166 4.83301 -38.499 14.5z" />
    <glyph glyph-name="tm_A" unicode="&#xb85;" horiz-adv-x="1078" 
d="M988 -126h-86.999v184h-193c-32.667 -62.667 -82.167 -112 -148.5 -148s-144.166 -54 -233.499 -54c-56.667 0 -107.5 7.33301 -152.5 22s-80.167 34.834 -105.5 60.501s-38 54.834 -38 87.501c0 30 10.833 54 32.5 72s52.167 27 91.5 27h486c12 32 18 67 18 105
c0 43.333 -8 82.166 -24 116.499s-38.833 61.166 -68.5 80.499s-64.5 29 -104.5 29c-26 0 -51 -4.33301 -75 -13c27.333 -6.66699 49.166 -20.167 65.499 -40.5s24.5 -44.833 24.5 -73.5c-0.666992 -35.333 -13 -64.166 -37 -86.499s-54.333 -33.5 -91 -33.5
c-38.667 0 -70.334 11.167 -95.001 33.5s-37 51.166 -37 86.499c0 38.667 10.5 73.334 31.5 104.001s50.167 54.667 87.5 72s79.333 26 126 26c58 0 108.667 -12.833 152 -38.5s76.833 -61.334 100.5 -107.001s35.5 -97.5 35.5 -155.5c0 -36 -4.66699 -71 -14 -105h166v388
h87v-639zM381.001 295c9.33301 9.33301 14 20.666 14 33.999s-4.5 24.5 -13.5 33.5s-20.5 13.5 -34.5 13.5c-14.667 0 -26.667 -4.5 -36 -13.5s-14 -20.167 -14 -33.5s4.66699 -24.666 14 -33.999s21 -14 35 -14s25.667 4.66699 35 14zM490.001 -35.5
c48 22.333 86.334 53.499 115.001 93.499h-451c-10.667 0 -18.834 -3 -24.501 -9s-8.5 -13.667 -8.5 -23c0 -18 8.83301 -34.167 26.5 -48.5s42 -25.666 73 -33.999s66.167 -12.5 105.5 -12.5c61.333 0 116 11.167 164 33.5z" />
    <glyph glyph-name="tm_Aa" unicode="&#xb86;" horiz-adv-x="1281" 
d="M1223 53c32 -32.667 47.9971 -75.333 47.9971 -128c0 -58 -16.167 -109.833 -48.5 -155.5s-77.666 -81.5 -135.999 -107.5s-125.166 -39 -200.499 -39c-46.667 0 -88 6.83301 -124 20.5s-64.167 32.334 -84.5 56.001s-30.5 50.167 -30.5 79.5
c0 34.667 12.833 62.667 38.5 84s58.834 32 99.501 32h21v-68h-21c-14 0 -25.333 -4.33301 -34 -13s-13 -20.334 -13 -35.001c0 -22.667 13.667 -41.834 41 -57.501s63 -23.5 107 -23.5c57.333 0 108.333 9.66699 153 29s79.334 46.333 104.001 81s37 73.667 37 117
c0 28.667 -8.16699 52.834 -24.5 72.501s-38.5 29.5 -66.5 29.5c-30 0 -54.333 -9.66699 -73 -29s-28 -44.333 -28 -75v-49h-87v184h-193c-32.667 -62.667 -82.167 -112 -148.5 -148s-144.166 -54 -233.499 -54c-56.667 0 -107.5 7.33301 -152.5 22
s-80.167 34.834 -105.5 60.501s-38 54.834 -38 87.501c0 30 10.833 54 32.5 72s52.167 27 91.5 27h486c12 32 18 67 18 105c0 43.333 -8 82.166 -24 116.499s-38.833 61.166 -68.5 80.499s-64.5 29 -104.5 29c-26 0 -51 -4.33301 -75 -13
c27.333 -6.66699 49.166 -20.167 65.499 -40.5s24.5 -44.833 24.5 -73.5c-0.666992 -35.333 -13 -64.166 -37 -86.499s-54.333 -33.5 -91 -33.5c-38.667 0 -70.334 11.167 -95.001 33.5s-37 51.166 -37 86.499c0 38.667 10.5 73.334 31.5 104.001s50.167 54.667 87.5 72
s79.333 26 126 26c58 0 108.667 -12.833 152 -38.5s76.833 -61.334 100.5 -107.001s35.5 -97.5 35.5 -155.5c0 -36 -4.66699 -71 -14 -105h166v388h87v-447c30 24 66.333 36 109 36c52 0 94 -16.333 126 -49zM380.997 295.001c9.33301 9.33301 14 20.666 14 33.999
s-4.5 24.5 -13.5 33.5s-20.5 13.5 -34.5 13.5c-14.667 0 -26.667 -4.5 -36 -13.5s-14 -20.167 -14 -33.5s4.66699 -24.666 14 -33.999s21 -14 35 -14s25.667 4.66699 35 14zM489.997 -35.499c48 22.333 86.334 53.499 115.001 93.499h-451c-10.667 0 -18.834 -3 -24.501 -9
s-8.5 -13.667 -8.5 -23c0 -18 8.83301 -34.167 26.5 -48.5s42 -25.666 73 -33.999s66.167 -12.5 105.5 -12.5c61.333 0 116 11.167 164 33.5z" />
    <glyph glyph-name="tm_I" unicode="&#xb87;" horiz-adv-x="1047" 
d="M755 662c63.333 -32.667 112.832 -77.8389 148.499 -135.506s53.5 -122.834 53.5 -195.501v-479h-86v477c0 58.667 -14.167 111.334 -42.5 158.001s-67.666 83.167 -117.999 109.5s-107.166 39.5 -170.499 39.5c-66 0 -125.5 -13 -178.5 -39s-94.333 -62.167 -124 -108.5
s-44.5 -98.833 -44.5 -157.5c0 -70 17 -137.333 51 -202c53.333 15.333 109.666 23 168.999 23c60 0 118 -9 174 -27c28 54.667 42 113.667 42 177c0 46 -12.333 83.167 -37 111.5s-58 42.5 -100 42.5c-24.667 0 -48 -3.66699 -70 -11c30 -5.33301 54 -18.5 72 -39.5
s27 -46.5 27 -76.5c-0.666992 -35.333 -13 -64.166 -37 -86.499s-54.333 -33.5 -91 -33.5c-38.667 0 -70.334 11.333 -95.001 34s-37 51.334 -37 86.001c0 38.667 9.5 73.334 28.5 104.001s45.833 54.667 80.5 72s75.334 26 122.001 26
c45.333 0 85.166 -9.83301 119.499 -29.5s61 -46.834 80 -81.501s28.5 -74 28.5 -118c0 -76 -17.667 -146.667 -53 -212c36 -21.333 64.167 -46.166 84.5 -74.499s30.5 -59.166 30.5 -92.499c0 -35.333 -14.167 -64.333 -42.5 -87s-64.833 -34 -109.5 -34
c-71.333 0 -143 17.667 -215 53c-76 -35.333 -153.667 -53 -233 -53c-44 0 -80.333 11.333 -109 34s-43 51.667 -43 87s11.833 67.833 35.5 97.5s56.167 55.167 97.5 76.5c-40.667 76 -61 154 -61 234c0 72.667 18.833 137.834 56.5 195.501s89.834 102.834 156.501 135.501
s141.667 49 225 49c80 0 151.667 -16.333 215 -49zM433.499 369.995c-11 10.667 -24.834 16 -41.501 16c-17.333 0 -31.666 -5.33301 -42.999 -16s-17 -24.334 -17 -41.001s5.5 -30.5 16.5 -41.5s25.167 -16.5 42.5 -16.5s31.5 5.5 42.5 16.5s16.5 24.833 16.5 41.5
s-5.5 30.334 -16.5 41.001zM286.998 61.9951c35.333 -47.333 78.333 -87 129 -119c52 32 95 70.333 129 115c-42 12.667 -86 19 -132 19c-45.333 0 -87.333 -5 -126 -15zM333.998 -95.0049c-50 36 -92.668 78.333 -128.001 127c-56.667 -30.667 -85 -67 -85 -109
c0 -13.333 5.83301 -24.333 17.5 -33s26.167 -13 43.5 -13c50.667 0 101.334 9.33301 152.001 28zM674.497 -22.5049c-11.667 17 -28.166 32.167 -49.499 45.5c-36.667 -48 -79.334 -88.333 -128.001 -121c44.667 -16.667 89 -25 133 -25c17.333 0 32 4.5 44 13.5
s18 19.833 18 32.5c0 19.333 -5.83301 37.5 -17.5 54.5z" />
    <glyph glyph-name="tm_Ii" unicode="&#xb88;" horiz-adv-x="765" 
d="M176 446v-446h-86v513h653l12 -67h-237v-446h-87v446h-255zM342 181c10.667 10.667 16 23.334 16 38.001s-5.5 27.334 -16.5 38.001s-23.833 16 -38.5 16s-27.167 -5.33301 -37.5 -16s-15.5 -23.334 -15.5 -38.001s5.16699 -27.334 15.5 -38.001s22.833 -16 37.5 -16
c15.333 0 28.333 5.33301 39 16zM683 181c10.667 10.667 16 23.334 16 38.001s-5.5 27.334 -16.5 38.001s-23.833 16 -38.5 16s-27.167 -5.33301 -37.5 -16s-15.5 -23.334 -15.5 -38.001s5.16699 -27.334 15.5 -38.001s22.833 -16 37.5 -16c15.333 0 28.333 5.33301 39 16z
" />
    <glyph glyph-name="tm_U" unicode="&#xb89;" horiz-adv-x="991" 
d="M981 0l-904 -0.00195312v68h223c42 0 79.667 8.83301 113 26.5s59.5 42 78.5 73s28.5 66.167 28.5 105.5c0 34.667 -8.5 66 -25.5 94s-40.5 49.833 -70.5 65.5s-63.667 23.5 -101 23.5c-62 0 -112.333 -16.667 -151 -50c4 0.666992 10 1 18 1
c45.333 0 82.666 -13.167 111.999 -39.5s44 -59.833 44 -100.5s-14.667 -74.5 -44 -101.5s-66.666 -40.5 -111.999 -40.5c-30 0 -57.167 6.33301 -81.5 19s-43.5 30.334 -57.5 53.001s-21 48 -21 76c0 49.333 12.667 93.5 38 132.5s60.166 69.667 104.499 92
s94.5 33.5 150.5 33.5c54.667 0 104 -11.167 148 -33.5s78.333 -53 103 -92s37 -83.167 37 -132.5c0 -42.667 -9.16699 -81.667 -27.5 -117s-44.166 -64.666 -77.499 -87.999h475v-68zM242.5 321.498c-14.333 14.333 -32.5 21.5 -54.5 21.5
c-22.667 0 -41 -7.16699 -55 -21.5s-21 -32.166 -21 -53.499c0 -22 7 -40.167 21 -54.5s32.333 -21.5 55 -21.5c22 0 40.167 7.16699 54.5 21.5s21.5 32.5 21.5 54.5c0 21.333 -7.16699 39.166 -21.5 53.499z" />
    <glyph glyph-name="tm_Uu" unicode="&#xb8a;" horiz-adv-x="1671" 
d="M1661 0l-1584 -0.00195312v68h223c42 0 79.667 8.83301 113 26.5s59.5 42 78.5 73s28.5 66.167 28.5 105.5c0 34.667 -8.5 66 -25.5 94s-40.5 49.833 -70.5 65.5s-63.667 23.5 -101 23.5c-62 0 -112.333 -16.667 -151 -50c4 0.666992 10 1 18 1
c45.333 0 82.666 -13.167 111.999 -39.5s44 -59.833 44 -100.5s-14.667 -74.5 -44 -101.5s-66.666 -40.5 -111.999 -40.5c-30 0 -57.167 6.33301 -81.5 19s-43.5 30.334 -57.5 53.001s-21 48 -21 76c0 49.333 12.667 93.5 38 132.5s60.166 69.667 104.499 92
s94.5 33.5 150.5 33.5c54.667 0 104 -11.167 148 -33.5s78.333 -53 103 -92s37 -83.167 37 -132.5c0 -42.667 -9.16699 -81.667 -27.5 -117s-44.166 -64.666 -77.499 -87.999h1155v-68zM798.5 131.998c-35 16.667 -62.3311 39.835 -81.998 69.502s-29.5 63.167 -29.5 100.5
c0 42.667 11.167 81.167 33.5 115.5s53.333 61.166 93 80.499s84.5 29 134.5 29c38.667 0 74.167 -7.33301 106.5 -22s59.833 -35.334 82.5 -62.001v70h470l12 -67h-144v-324h-86v324h-166v-324h-86v155c0 33.333 -8.16699 63.333 -24.5 90s-38.833 47.5 -67.5 62.5
s-61 22.5 -97 22.5c-32.667 0 -62.167 -6.5 -88.5 -19.5s-47 -30.833 -62 -53.5s-22.5 -48.334 -22.5 -77.001c0 -27.333 5.33301 -50.333 16 -69c0 38 12.167 68.667 36.5 92s55.5 35 93.5 35c40 0 73.167 -11.833 99.5 -35.5s39.5 -54.167 39.5 -91.5
c0 -23.333 -6.33301 -44.666 -19 -63.999s-29.834 -34.5 -51.501 -45.5s-45.834 -16.5 -72.501 -16.5c-44 0 -83.5 8.33301 -118.5 25zM242.502 321.499c-14.333 14.333 -32.5 21.5 -54.5 21.5c-22.667 0 -41 -7.16699 -55 -21.5s-21 -32.166 -21 -53.499
c0 -22 7 -40.167 21 -54.5s32.333 -21.5 55 -21.5c22 0 40.167 7.16699 54.5 21.5s21.5 32.5 21.5 54.5c0 21.333 -7.16699 39.166 -21.5 53.499zM875.502 277.499c-11.667 -11 -17.5 -25.833 -17.5 -44.5c0 -17.333 5.83301 -31.833 17.5 -43.5s26.834 -17.5 45.501 -17.5
c18 0 32.833 5.83301 44.5 17.5s17.5 26.167 17.5 43.5c0 18.667 -5.83301 33.5 -17.5 44.5s-26.5 16.5 -44.5 16.5c-18.667 0 -33.834 -5.5 -45.501 -16.5z" />
    <glyph glyph-name="tm_E" unicode="&#xb8e;" horiz-adv-x="876" 
d="M683 446v-446.002h-87v446h-201c-84.667 0 -148.167 -18.667 -190.5 -56s-63.5 -88.333 -63.5 -153c0 -48.667 12.333 -88.667 37 -120c-2 8 -3 16.667 -3 26c0 46.667 15.5 84.834 46.5 114.501s70.167 44.5 117.5 44.5c33.333 0 63.333 -6.83301 90 -20.5
s47.5 -32.667 62.5 -57s22.5 -51.833 22.5 -82.5c0 -30 -7.83301 -57.167 -23.5 -81.5s-37.167 -43.5 -64.5 -57.5s-58.333 -21 -93 -21c-56 0 -105.5 11.333 -148.5 34s-76.167 53.334 -99.5 92.001s-35 81.667 -35 129c0 54 12.833 101.833 38.5 143.5
s63.667 74.167 114 97.5s111.5 35 183.5 35h469l11 -67h-183zM272.5 207.998c-17.667 -17.333 -26.4961 -39.333 -26.4961 -66s8.66699 -48.667 26 -66s39.666 -26 66.999 -26s49.666 8.66699 66.999 26s26 39.333 26 66s-8.83301 48.667 -26.5 66s-39.834 26 -66.501 26
s-48.834 -8.66699 -66.501 -26z" />
    <glyph glyph-name="tm_Ee" unicode="&#xb8f;" horiz-adv-x="876" 
d="M683 446l-0.000976562 -438c0 -40.667 -4.16699 -72 -12.5 -94s-27.166 -37.667 -56.499 -47l-359 -117l-32 65l322 108c22 7.33301 36 18.666 42 33.999s9 40.666 9 75.999v413h-201c-84.667 0 -148.167 -18.667 -190.5 -56s-63.5 -88.333 -63.5 -153
c0 -48.667 12.333 -88.667 37 -120c-2 8 -3 16.667 -3 26c0 46.667 15.5 84.834 46.5 114.501s70.167 44.5 117.5 44.5c33.333 0 63.333 -6.83301 90 -20.5s47.5 -32.667 62.5 -57s22.5 -51.833 22.5 -82.5c0 -30 -7.83301 -57.167 -23.5 -81.5s-37.167 -43.5 -64.5 -57.5
s-58.333 -21 -93 -21c-56 0 -105.5 11.333 -148.5 34s-76.167 53.334 -99.5 92.001s-35 81.667 -35 129c0 54 12.833 101.833 38.5 143.5s63.667 74.167 114 97.5s111.5 35 183.5 35h469l11 -67h-183zM272.499 208c-17.667 -17.333 -26.4961 -39.333 -26.4961 -66
s8.66699 -48.667 26 -66s39.666 -26 66.999 -26s49.666 8.66699 66.999 26s26 39.333 26 66s-8.83301 48.667 -26.5 66s-39.834 26 -66.501 26s-48.834 -8.66699 -66.501 -26z" />
    <glyph glyph-name="tm_Ai" unicode="&#xb90;" horiz-adv-x="821" 
d="M748 31.5c6 -21 8.99805 -42.1689 8.99805 -63.502c0 -32.667 -8 -62.167 -24 -88.5s-38 -47 -66 -62s-59.667 -22.5 -95 -22.5s-66 6.5 -92 19.5s-47 30.833 -63 53.5c-36.667 -48.667 -90 -73 -160 -73c-39.333 0 -74.833 7.83301 -106.5 23.5
s-56.334 37.334 -74.001 65.001s-26.5 58.834 -26.5 93.501c0 59.333 21.333 106.166 64 140.499s111.334 57.833 206.001 70.5l181 24c55.333 8 98.833 24.833 130.5 50.5s47.834 56.5 48.501 92.5c0 30.667 -8.5 55.167 -25.5 73.5s-39.833 27.5 -68.5 27.5
c-32 0 -58.667 -10.667 -80 -32s-32 -48.333 -32 -81v-69h-86v69c0 32.667 -12 59.667 -36 81s-54.333 32 -91 32c-29.333 0 -55.666 -7.66699 -78.999 -23c31.333 -2 56.833 -12.167 76.5 -30.5s29.5 -41.833 29.5 -70.5c0 -32.667 -10.667 -59.5 -32 -80.5
s-48.666 -31.5 -81.999 -31.5c-34 0 -62 11 -84 33s-33 50 -33 84c0 34.667 8.83301 66.834 26.5 96.501s42 53.334 73 71.001s65.833 26.5 104.5 26.5c36 0 68.167 -7.16699 96.5 -21.5s52.166 -34.166 71.499 -59.499c40 54 92.333 81 157 81
c55.333 0 100 -16.167 134 -48.5s51 -74.833 51 -127.5c0 -54.667 -23.5 -101.5 -70.5 -140.5s-113.5 -64.167 -199.5 -75.5l-181 -25c-64.667 -8.66699 -110.667 -23.834 -138 -45.501s-41 -52.834 -41 -93.501c0 -30.667 11 -56 33 -76s49.667 -30 83 -30
s60.833 10.833 82.5 32.5s32.5 48.834 32.5 81.501v69h87v-69c0 -32.667 10.667 -59.834 32 -81.501s48.333 -32.5 81 -32.5c32 0 55.667 9.66699 71 29s23 44.333 23 75c0 14.667 -3 33.5 -9 56.5s-14.667 44.833 -26 65.5l88 6c13.333 -25.333 23 -48.5 29 -69.5z
M211.498 362.498c-9 9 -20.5 13.5 -34.5 13.5c-14.667 0 -26.667 -4.5 -36 -13.5s-14 -20.5 -14 -34.5s4.66699 -25.667 14 -35s21.333 -14 36 -14c14 0 25.5 4.66699 34.5 14s13.5 21 13.5 35s-4.5 25.5 -13.5 34.5z" />
    <glyph glyph-name="tm_O" unicode="&#xb92;" horiz-adv-x="819" 
d="M657 32h73.998v-67h-74c-19.333 0 -35.666 1.33301 -48.999 4v-19c0 -32.667 -7.83301 -61.834 -23.5 -87.501s-38 -45.667 -67 -60s-62.5 -21.5 -100.5 -21.5c-40 0 -75.167 7.16699 -105.5 21.5s-53.666 34.333 -69.999 60s-24.5 54.834 -24.5 87.501v50h86v-50
c0 -28 10.167 -50.667 30.5 -68s48.166 -26 83.499 -26c34.667 0 62.167 8.66699 82.5 26s30.5 40 30.5 68v49c-22.667 14.667 -40 33.667 -52 57s-18 49 -18 77v136h78c0.666992 -24.667 7.83398 -44.834 21.501 -60.501s32.167 -23.5 55.5 -23.5
c21.333 0 38 8.16699 50 24.5s18 38.5 18 66.5c0 34.667 -11.833 66 -35.5 94s-56.5 49.833 -98.5 65.5s-89 23.5 -141 23.5c-70.667 0 -131.5 -13.333 -182.5 -40s-83.833 -61.334 -98.5 -104.001c20 16.667 44.333 25 73 25c36 0 65.667 -11 89 -33s35 -50.333 35 -85
c0 -35.333 -12.167 -64.166 -36.5 -86.499s-55.5 -33.5 -93.5 -33.5c-45.333 0 -81.5 15.5 -108.5 46.5s-40.5 71.167 -40.5 120.5c0 50.667 15.333 96.167 46 136.5s73.5 71.833 128.5 94.5s117.833 34 188.5 34c70 0 132.833 -11 188.5 -33s99.167 -52.667 130.5 -92
s47 -83.666 47 -132.999s-14.833 -89.333 -44.5 -120s-67.834 -46 -114.501 -46c-29.333 0 -55 7 -77 21c0.666992 -66 40.334 -99 119.001 -99zM159.498 255.5c-9 -9 -13.5 -20.167 -13.5 -33.5c0 -14 4.5 -25.5 13.5 -34.5s20.5 -13.5 34.5 -13.5s25.5 4.5 34.5 13.5
s13.833 20.5 14.5 34.5c0 13.333 -4.5 24.5 -13.5 33.5s-20.5 13.5 -34.5 13.5c-14.667 0 -26.5 -4.5 -35.5 -13.5z" />
    <glyph glyph-name="tm_Oo" unicode="&#xb93;" horiz-adv-x="819" 
d="M657 32l74.002 0.00292969v-67h-74c-18.667 0 -37 1.66699 -55 5v-20c0 -32 -8.66699 -60.833 -26 -86.5s-41.333 -45.834 -72 -60.501s-65.334 -22 -104.001 -22c-38 0 -72 6.16699 -102 18.5s-53.5 29.166 -70.5 50.499s-25.5 45.666 -25.5 72.999
c0 35.333 12.833 64.333 38.5 87s58.5 34 98.5 34h21v-67h-21c-14.667 0 -26.834 -5.16699 -36.501 -15.5s-14.5 -23.166 -14.5 -38.499c0 -19.333 10.5 -35.333 31.5 -48s47.833 -19 80.5 -19c36 0 65.667 8.83301 89 26.5s35 40.167 35 67.5v53
c-20.667 15.333 -36.5 34.166 -47.5 56.499s-16.5 46.833 -16.5 73.5v136h78c0.666992 -24.667 7.83398 -44.834 21.501 -60.501s32.167 -23.5 55.5 -23.5c21.333 0 38 8.16699 50 24.5s18 38.5 18 66.5c0 34.667 -11.833 66 -35.5 94s-56.5 49.833 -98.5 65.5
s-89 23.5 -141 23.5c-70.667 0 -131.5 -13.333 -182.5 -40s-83.833 -61.334 -98.5 -104.001c20 16.667 44.333 25 73 25c36 0 65.667 -11 89 -33s35 -50.333 35 -85c0 -35.333 -12.167 -64.166 -36.5 -86.499s-55.5 -33.5 -93.5 -33.5c-45.333 0 -81.5 15.5 -108.5 46.5
s-40.5 71.167 -40.5 120.5c0 50.667 15.333 96.167 46 136.5s73.5 71.833 128.5 94.5s117.833 34 188.5 34c70 0 132.833 -11 188.5 -33s99.167 -52.667 130.5 -92s47 -83.666 47 -132.999s-14.833 -89.333 -44.5 -120s-67.834 -46 -114.501 -46c-29.333 0 -55 7 -77 21
c1.33301 -66 41 -99 119 -99zM159.502 255.503c-9 -9 -13.5 -20.167 -13.5 -33.5c0 -14 4.5 -25.5 13.5 -34.5s20.5 -13.5 34.5 -13.5s25.5 4.5 34.5 13.5s13.833 20.5 14.5 34.5c0 13.333 -4.5 24.5 -13.5 33.5s-20.5 13.5 -34.5 13.5c-14.667 0 -26.5 -4.5 -35.5 -13.5z
" />
    <glyph glyph-name="tm_Au" unicode="&#xb94;" horiz-adv-x="2050" 
d="M657 32h73.998v-67h-74c-19.333 0 -35.666 1.33301 -48.999 4v-19c0 -32.667 -7.83301 -61.834 -23.5 -87.501s-38 -45.667 -67 -60s-62.5 -21.5 -100.5 -21.5c-40 0 -75.167 7.16699 -105.5 21.5s-53.666 34.333 -69.999 60s-24.5 54.834 -24.5 87.501v50h86v-50
c0 -28 10.167 -50.667 30.5 -68s48.166 -26 83.499 -26c34.667 0 62.167 8.66699 82.5 26s30.5 40 30.5 68v49c-22.667 14.667 -40 33.667 -52 57s-18 49 -18 77v136h78c0.666992 -24.667 7.83398 -44.834 21.501 -60.501s32.167 -23.5 55.5 -23.5
c21.333 0 38 8.16699 50 24.5s18 38.5 18 66.5c0 34.667 -11.833 66 -35.5 94s-56.5 49.833 -98.5 65.5s-89 23.5 -141 23.5c-70.667 0 -131.5 -13.333 -182.5 -40s-83.833 -61.334 -98.5 -104.001c20 16.667 44.333 25 73 25c36 0 65.667 -11 89 -33s35 -50.333 35 -85
c0 -35.333 -12.167 -64.166 -36.5 -86.499s-55.5 -33.5 -93.5 -33.5c-45.333 0 -81.5 15.5 -108.5 46.5s-40.5 71.167 -40.5 120.5c0 50.667 15.333 96.167 46 136.5s73.5 71.833 128.5 94.5s117.833 34 188.5 34c70 0 132.833 -11 188.5 -33s99.167 -52.667 130.5 -92
s47 -83.666 47 -132.999s-14.833 -89.333 -44.5 -120s-67.834 -46 -114.501 -46c-29.333 0 -55 7 -77 21c0.666992 -66 40.334 -99 119.001 -99zM159.498 255.5c-9 -9 -13.5 -20.167 -13.5 -33.5c0 -14 4.5 -25.5 13.5 -34.5s20.5 -13.5 34.5 -13.5s25.5 4.5 34.5 13.5
s13.833 20.5 14.5 34.5c0 13.333 -4.5 24.5 -13.5 33.5s-20.5 13.5 -34.5 13.5c-14.667 0 -26.5 -4.5 -35.5 -13.5zM1856 446l0.000976562 -446.004h-86v446h-237v-446h-86v228c0 43.333 -10.5 82.333 -31.5 117s-50.167 61.834 -87.5 81.501s-79.333 29.5 -126 29.5
c-49.333 0 -92.333 -9.33301 -129 -28s-64.667 -44.5 -84 -77.5s-29 -70.833 -29 -113.5c0 -48.667 12.333 -88.667 37 -120c-2 8 -3 16.667 -3 26c0 46.667 15.5 84.834 46.5 114.501s70.167 44.5 117.5 44.5c33.333 0 63.333 -6.83301 90 -20.5s47.5 -32.667 62.5 -57
s22.5 -51.833 22.5 -82.5c0 -30 -7.83301 -57.167 -23.5 -81.5s-37.167 -43.5 -64.5 -57.5s-58.333 -21 -93 -21c-56 0 -105.5 11.333 -148.5 34s-76.167 53.334 -99.5 92.001s-35 81.667 -35 129c0 56.667 13.667 107.334 41 152.001s66.166 79.5 116.499 104.5
s108.833 37.5 175.5 37.5c50 0 96.167 -9.5 138.5 -28.5s77.833 -45.167 106.5 -78.5v89h581l12 -67h-184zM1091.5 207.996c-17.667 -17.333 -26.4961 -39.333 -26.4961 -66s8.66699 -48.667 26 -66s39.666 -26 66.999 -26s49.666 8.66699 66.999 26s26 39.333 26 66
s-8.83301 48.667 -26.5 66s-39.834 26 -66.501 26s-48.834 -8.66699 -66.501 -26z" />
    <glyph glyph-name="tm_Ka" unicode="&#xb95;" horiz-adv-x="766" 
d="M679 258c38 -30 56.999 -69.3301 56.999 -117.997c0 -46.667 -20.167 -84.667 -60.5 -114s-96.166 -44 -167.499 -44v68c45.333 0 79.5 8.16699 102.5 24.5s34.5 38.166 34.5 65.499c0 28.667 -10.333 51.834 -31 69.501s-51.667 26.5 -93 26.5h-31v-31
c0 -42.667 -10 -81 -30 -115s-48.333 -60.5 -85 -79.5s-79.667 -28.5 -129 -28.5c-40.667 0 -76.5 7 -107.5 21s-55.167 33.167 -72.5 57.5s-26 52.166 -26 83.499c0 35.333 10.667 65.666 32 90.999s51.333 43.666 90 54.999v223h490l12 -67h-174v-143h30
c68 0 121 -15 159 -45zM260.999 303.003h143v143h-156v-143h13zM262.999 236.003c-42 0 -74.5 -8.00098 -97.5 -24.001s-34.5 -38.667 -34.5 -68c0 -25.333 10.5 -46.166 31.5 -62.499s48.833 -24.5 83.5 -24.5c49.333 0 88 13.667 116 41s42 63 42 107v31h-141z" />
    <glyph glyph-name="tm_Nga" unicode="&#xb99;" horiz-adv-x="1006" 
d="M916 0l-568.999 -0.000976562v68h142c46.667 0 81.167 11.5 103.5 34.5s33.5 54.167 33.5 93.5c0 28.667 -8.33301 52.834 -25 72.501s-38.667 29.5 -66 29.5c-30.667 0 -55.334 -9.66699 -74.001 -29s-28 -44.333 -28 -75v-41h-86v293h-171v-446h-86v513h515l12 -67
h-184v-108c32 23.333 68.667 35 110 35c52 0 93.833 -16.5 125.5 -49.5s47.5 -75.5 47.5 -127.5c0 -53.333 -17 -96 -51 -128h165v445h86v-513z" />
    <glyph glyph-name="tm_Ca" unicode="&#xb9a;" horiz-adv-x="694" 
d="M490 236v-30.9971c0 -42.667 -10 -81 -30 -115s-48.333 -60.5 -85 -79.5s-79.667 -28.5 -129 -28.5c-40.667 0 -76.5 7 -107.5 21s-55.167 33.167 -72.5 57.5s-26 52.166 -26 83.499c0 35.333 10.667 65.666 32 90.999s51.333 43.666 90 54.999v223h490l12 -67h-174v-143
h162l12 -67h-174zM261 303.003h143v143h-156v-143h13zM263 236.003c-42 0 -74.5 -8.00098 -97.5 -24.001s-34.5 -38.667 -34.5 -68c0 -25.333 10.5 -46.166 31.5 -62.499s48.833 -24.5 83.5 -24.5c49.333 0 88 13.667 116 41s42 63 42 107v31h-141z" />
    <glyph glyph-name="tm_Ja" unicode="&#xb9c;" horiz-adv-x="821" 
d="M727.5 47.5c29 -27 43.4971 -62.498 43.4971 -106.498c0 -26.667 -7.83301 -50.834 -23.5 -72.501s-37.167 -38.834 -64.5 -51.501s-58.333 -19 -93 -19h-101v68h101c26 0 47.5 7.33301 64.5 22s25.5 32.334 25.5 53.001c0 22 -6 39.667 -18 53s-27.333 20 -46 20
c-28.667 0 -54 -8 -76 -24s-48.667 -40.667 -80 -74c-24 -26 -45.167 -47 -63.5 -63s-40 -29.667 -65 -41s-52.833 -17 -83.5 -17c-39.333 0 -74 7.83301 -104 23.5s-53.167 37.167 -69.5 64.5s-24.5 58.666 -24.5 93.999c0 59.333 21.333 106.166 64 140.499
s111.334 57.833 206.001 70.5l181 24c55.333 8 98.833 24.833 130.5 50.5s47.834 56.5 48.501 92.5c0 30.667 -8.5 55.167 -25.5 73.5s-39.833 27.5 -68.5 27.5c-32 0 -58.667 -10.667 -80 -32s-32 -48.333 -32 -81v-69h-86v69c0 32.667 -12 59.667 -36 81
s-54.333 32 -91 32c-29.333 0 -55.666 -7.66699 -78.999 -23c31.333 -2 56.833 -12.167 76.5 -30.5s29.5 -41.833 29.5 -70.5c0 -32.667 -10.667 -59.5 -32 -80.5s-48.666 -31.5 -81.999 -31.5c-34 0 -62 11 -84 33s-33 50 -33 84c0 34.667 8.83301 66.834 26.5 96.501
s42 53.334 73 71.001s65.833 26.5 104.5 26.5c36 0 68.167 -7.16699 96.5 -21.5s52.166 -34.166 71.499 -59.499c40 54 92.333 81 157 81c55.333 0 100 -16.167 134 -48.5s51 -74.833 51 -127.5c0 -54.667 -23.5 -101.5 -70.5 -140.5s-113.5 -64.167 -199.5 -75.5l-181 -25
c-64.667 -8.66699 -110.667 -23.834 -138 -45.501s-41 -52.834 -41 -93.501c0 -31.333 9.66699 -56.833 29 -76.5s45.333 -29.5 78 -29.5c28.667 0 54.334 8.16699 77.001 24.5s50 41.166 82 74.499c25.333 26.667 47.166 47.834 65.499 63.501s39.5 29 63.5 40
s50.667 16.5 80 16.5c45.333 0 82.5 -13.5 111.5 -40.5zM211.497 362.502c-9 9 -20.5 13.5 -34.5 13.5c-14.667 0 -26.667 -4.5 -36 -13.5s-14 -20.5 -14 -34.5s4.66699 -25.667 14 -35s21.333 -14 36 -14c14 0 25.5 4.66699 34.5 14s13.5 21 13.5 35s-4.5 25.5 -13.5 34.5z
" />
    <glyph glyph-name="tm_Nya" unicode="&#xb9e;" horiz-adv-x="1259" 
d="M1120.5 322.5c29 -19.667 50.9961 -46.001 65.9961 -79.001s22.5 -69.833 22.5 -110.5c0 -77.333 -22.167 -145.333 -66.5 -204s-107.666 -104.167 -189.999 -136.5s-178.833 -48.5 -289.5 -48.5c-120 0 -224.667 18.5 -314 55.5s-158.166 89.167 -206.499 156.5
s-72.5 145.333 -72.5 234c0 62 13.5 123 40.5 183s62.167 110 105.5 150l88 -10c-42.667 -36 -77.167 -83 -103.5 -141s-39.5 -119.333 -39.5 -184c0 -74 20.333 -138.667 61 -194s98.667 -98.333 174 -129s164.333 -46 267 -46c93.333 0 174.333 12.833 243 38.5
s121.334 62.167 158.001 109.5s55 102.666 55 165.999c0 42 -8.16699 76.5 -24.5 103.5s-42.833 40.5 -79.5 40.5c-31.333 0 -57 -11.5 -77 -34.5s-30 -52.167 -30 -87.5v-155h-86v446h-175c-84.667 0 -148.167 -18.667 -190.5 -56s-63.5 -88.333 -63.5 -153
c0 -48.667 12.333 -88.667 37 -120c-2 8 -3 16.667 -3 26c0 46.667 15.5 84.834 46.5 114.501s70.167 44.5 117.5 44.5c33.333 0 63.333 -6.83301 90 -20.5s47.5 -32.667 62.5 -57s22.5 -51.833 22.5 -82.5c0 -30 -7.83301 -57.167 -23.5 -81.5s-37.167 -43.5 -64.5 -57.5
s-58.333 -21 -93 -21c-56 0 -105.5 11.333 -148.5 34s-76.167 53.334 -99.5 92.001s-35 81.667 -35 129c0 54 12.833 101.833 38.5 143.5s63.667 74.167 114 97.5s111.5 35 183.5 35h442l12 -67h-184v-137c14 14 30.333 24.667 49 32s38.334 11 59.001 11
c40.667 0 75.5 -9.83301 104.5 -29.5zM524.496 207.999c-17.667 -17.333 -26.4961 -39.333 -26.4961 -66s8.66699 -48.667 26 -66s39.666 -26 66.999 -26s49.666 8.66699 66.999 26s26 39.333 26 66s-8.83301 48.667 -26.5 66s-39.834 26 -66.501 26
s-48.834 -8.66699 -66.501 -26z" />
    <glyph glyph-name="tm_Tta" unicode="&#xb9f;" horiz-adv-x="722" 
d="M176 518l-86 -5v-513h622l-11 68h-525v450z" />
    <glyph glyph-name="tm_Nna" unicode="&#xba3;" horiz-adv-x="1719" 
d="M1525 446v-446h-86v446h-91c-47.333 0 -90.333 -8.66699 -129 -26c30.667 -31.333 54.334 -67.833 71.001 -109.5s25 -86.5 25 -134.5c0 -58 -15.333 -104.833 -46 -140.5s-72.667 -53.5 -126 -53.5s-95.5 18 -126.5 54s-46.5 82.667 -46.5 140c0 48 10 93.167 30 135.5
s48 78.833 84 109.5c-43.333 23.333 -90.666 35 -141.999 35c-53.333 0 -101.666 -12.333 -144.999 -37c37.333 -32 66.166 -68.833 86.499 -110.5s30.5 -85.834 30.5 -132.501c0 -57.333 -15.5 -104 -46.5 -140s-73.167 -54 -126.5 -54s-95.5 18 -126.5 54
s-46.5 82.667 -46.5 140c0 46.667 7.83301 90.334 23.5 131.001s38.167 76.667 67.5 108c-58 27.333 -123 41 -195 41c-64 0 -120.5 -9.83301 -169.5 -29.5s-86.833 -46.667 -113.5 -81s-40 -73.5 -40 -117.5c0 -48 12.667 -87.333 38 -118
c-2.66699 8.66699 -4 19.667 -4 33c0 46.667 15.5 84.834 46.5 114.501s70.167 44.5 117.5 44.5c33.333 0 63.333 -6.83301 90 -20.5s47.5 -32.667 62.5 -57s22.5 -51.833 22.5 -82.5c0 -30 -7.83301 -57.167 -23.5 -81.5s-37.167 -43.5 -64.5 -57.5s-58.333 -21 -93 -21
c-56.667 0 -106.334 10.667 -149.001 32s-75.667 50.666 -99 87.999s-35 79.333 -35 126c0 58 17.167 110 51.5 156s83 82 146 108s135.167 39 216.5 39c97.333 0 184 -20.667 260 -62c62 41.333 134.667 62 218 62c81.333 0 153.666 -20.333 216.999 -61
c57.333 28.667 120.333 43 189 43h349l12 -67h-184zM1204.5 285c-13.667 34 -32.833 63.666 -57.5 88.999c-27.333 -24 -48.5 -53.167 -63.5 -87.5s-22.5 -71.166 -22.5 -110.499c0 -36.667 6.83301 -65.667 20.5 -87s34.167 -32 61.5 -32s47.833 10.667 61.5 32
s20.5 50.333 20.5 87c0 38.667 -6.83301 75 -20.5 109zM799.501 281.999c-15.667 32.667 -38.167 61.334 -67.5 86.001c-23.333 -24.667 -41.333 -53.334 -54 -86.001s-19 -68 -19 -106c0 -36.667 6.83301 -65.667 20.5 -87s34.167 -32 61.5 -32s47.833 10.667 61.5 32
s20.5 50.333 20.5 87c0 38 -7.83301 73.333 -23.5 106zM272.501 207.999c-17.667 -17.333 -26.4961 -39.333 -26.4961 -66s8.66699 -48.667 26 -66s39.666 -26 66.999 -26s49.666 8.66699 66.999 26s26 39.333 26 66s-8.83301 48.667 -26.5 66s-39.834 26 -66.501 26
s-48.834 -8.66699 -66.501 -26z" />
    <glyph glyph-name="tm_Ta" unicode="&#xba4;" horiz-adv-x="785" 
d="M631.5 274c35.667 -19.333 63.498 -46.1631 83.498 -80.4961s30 -73.166 30 -116.499c0 -48.667 -11.833 -92.334 -35.5 -131.001s-56.5 -68.834 -98.5 -90.501s-90 -32.5 -144 -32.5h-201c-42.667 0 -75.5 -5.33301 -98.5 -16s-42.167 -27.667 -57.5 -51l-70 39
c14.667 29.333 41.834 52.5 81.501 69.5s88.167 25.5 145.5 25.5h200c36.667 0 69.167 8 97.5 24s50.333 38.167 66 66.5s23.5 60.5 23.5 96.5c0 46 -13.333 84 -40 114s-60.667 45 -102 45h-22v-31c0 -42.667 -10 -81 -30 -115s-48.333 -60.5 -85 -79.5
s-79.667 -28.5 -129 -28.5c-40.667 0 -76.5 7 -107.5 21s-55.167 33.167 -72.5 57.5s-26 52.166 -26 83.499c0 35.333 10.667 65.666 32 90.999s51.333 43.666 90 54.999v223h490l12 -67h-174v-143h21c44.667 0 84.834 -9.66699 120.501 -29zM260.998 303.003h143v143h-156
v-143h13zM262.998 236.003c-42 0 -74.5 -8.00098 -97.5 -24.001s-34.5 -38.667 -34.5 -68c0 -25.333 10.5 -46.166 31.5 -62.499s48.833 -24.5 83.5 -24.5c49.333 0 88 13.667 116 41s42 63 42 107v31h-141z" />
    <glyph glyph-name="tm_Na" unicode="&#xba8;" horiz-adv-x="784" 
d="M642 321.5c29.333 -20.333 51.9961 -48.665 67.9961 -84.998s24 -77.5 24 -123.5c0 -56 -10.333 -105.833 -31 -149.5s-50 -77.834 -88 -102.501s-82.667 -37 -134 -37h-163c-43.333 0 -76.666 -5.33301 -99.999 -16s-42.666 -27.667 -57.999 -51l-70 39
c14.667 29.333 41.834 52.5 81.501 69.5s88.167 25.5 145.5 25.5h164c50.667 0 90.5 20.667 119.5 62s43.5 94.666 43.5 159.999c0 49.333 -9 89 -27 119s-43.667 45 -77 45c-31.333 0 -57 -11.5 -77 -34.5s-30 -52.167 -30 -87.5v-155h-86v446h-171v-446h-86v513h515
l12 -67h-184v-137c14 14 30.333 24.667 49 32s38.334 11 59.001 11c38 0 71.667 -10.167 101 -30.5z" />
    <glyph glyph-name="tm_Nnna" unicode="&#xba9;" horiz-adv-x="1317" 
d="M1124 446l0.000976562 -446h-87v446h-91c-51.333 0 -99 -11 -143 -33c35.333 -31.333 62.666 -67.333 81.999 -108s29 -83.667 29 -129c0 -57.333 -15.5 -104 -46.5 -140s-73.167 -54 -126.5 -54s-95.5 18 -126.5 54s-46.5 82.667 -46.5 140
c0 44.667 8.83301 87.167 26.5 127.5s42.834 75.833 75.501 106.5c-60 30.667 -128.667 46 -206 46c-64 0 -120.5 -9.83301 -169.5 -29.5s-86.833 -46.667 -113.5 -81s-40 -73.5 -40 -117.5c0 -48 12.667 -87.333 38 -118c-2.66699 8.66699 -4 19.667 -4 33
c0 46.667 15.5 84.834 46.5 114.501s70.167 44.5 117.5 44.5c33.333 0 63.333 -6.83301 90 -20.5s47.5 -32.667 62.5 -57s22.5 -51.833 22.5 -82.5c0 -30 -7.83301 -57.167 -23.5 -81.5s-37.167 -43.5 -64.5 -57.5s-58.333 -21 -93 -21
c-56.667 0 -106.334 10.667 -149.001 32s-75.667 50.666 -99 87.999s-35 79.333 -35 126c0 58 17.167 110 51.5 156s83 82 146 108s135.167 39 216.5 39c104 0 195.667 -23.333 275 -70c60.667 34.667 129.667 52 207 52h350l11 -67h-183zM800.501 279.5
c-15 32.333 -36.5 60.832 -64.5 85.499c-24.667 -24 -43.667 -52.167 -57 -84.5s-20 -67.166 -20 -104.499c0 -36.667 6.83301 -65.667 20.5 -87s34.167 -32 61.5 -32s47.833 10.667 61.5 32s20.5 50.333 20.5 87s-7.5 71.167 -22.5 103.5zM272.501 207.999
c-17.667 -17.333 -26.4961 -39.333 -26.4961 -66s8.66699 -48.667 26 -66s39.666 -26 66.999 -26s49.666 8.66699 66.999 26s26 39.333 26 66s-8.83301 48.667 -26.5 66s-39.834 26 -66.501 26s-48.834 -8.66699 -66.501 -26z" />
    <glyph glyph-name="tm_Pa" unicode="&#xbaa;" horiz-adv-x="728" 
d="M90 0v513l86 5v-450h376v445h86v-513h-548z" />
    <glyph glyph-name="tm_Ma" unicode="&#xbae;" horiz-adv-x="850" 
d="M692.5 492.5c35 -25.667 61.667 -60.999 80 -105.999s27.5 -96.833 27.5 -155.5c0 -70.667 -18.167 -126.834 -54.5 -168.501s-91.833 -62.5 -166.5 -62.5h-489v513l86 5v-450h201v251c0 69.333 16.833 122 50.5 158s80.167 54 139.5 54
c48.667 0 90.5 -12.833 125.5 -38.5zM679.5 111.001c19.667 28.667 29.5 68.667 29.5 120c0 68 -12 122.5 -36 163.5s-59.333 61.5 -106 61.5c-68.667 0 -103 -45.333 -103 -136v-252h115c47.333 0 80.833 14.333 100.5 43z" />
    <glyph glyph-name="tm_Ya" unicode="&#xbaf;" horiz-adv-x="940" 
d="M850 0l-448.999 -0.000976562v34c-34.667 -34.667 -76.334 -52 -125.001 -52c-60.667 0 -108.5 18.167 -143.5 54.5s-52.5 88.833 -52.5 157.5v319l86 5v-325c0 -90.667 36.667 -136 110 -136c40 0 70.833 13.833 92.5 41.5s32.5 63.834 32.5 108.501v306h87v-445h276
v445h86v-513z" />
    <glyph glyph-name="tm_Ra" unicode="&#xbb0;" horiz-adv-x="693" 
d="M500 8c0 -26.667 -1.49902 -48.168 -4.49902 -64.501s-9.33301 -31 -19 -44s-24.834 -23.833 -45.501 -32.5l-269 -117l-32 71l232 102c22 9.33301 36 21.333 42 36s9 39.334 9 74.001v413h-237v-446h-86v513h581l12 -67h-183v-438z" />
    <glyph glyph-name="tm_Rra" unicode="&#xbb1;" horiz-adv-x="846" 
d="M736.5 448.5c39.667 -55 59.4922 -127.501 59.4922 -217.501c0 -80 -12.667 -150.5 -38 -211.5s-63.166 -108.833 -113.499 -143.5s-111.166 -52 -182.499 -52h-154c-43.333 0 -76.666 -5.33301 -99.999 -16s-42.666 -27.667 -57.999 -51l-70 39
c14.667 29.333 41.834 52.5 81.501 69.5s88.167 25.5 145.5 25.5h155c80.667 0 141.334 30.833 182.001 92.5s61 144.167 61 247.5c0 68.667 -11.167 123.334 -33.5 164.001s-56.833 61 -103.5 61c-33.333 0 -59.833 -11 -79.5 -33s-29.5 -56.333 -29.5 -103v-320h-86v311
c0 43.333 -9.16699 78.333 -27.5 105s-44.833 40 -79.5 40c-66.667 0 -100 -45.333 -100 -136v-320h-86v319c0 65.333 15.833 117 47.5 155s77.834 57 138.501 57c30 0 57.5 -7.16699 82.5 -21.5s45.833 -34.166 62.5 -59.499c17.333 25.333 39.5 45.166 66.5 59.499
s57.167 21.5 90.5 21.5c72.667 0 128.834 -27.5 168.501 -82.5z" />
    <glyph glyph-name="tm_La" unicode="&#xbb2;" horiz-adv-x="1040" 
d="M968.5 377.5c14.333 -53.667 21.499 -101.831 21.499 -144.498c0 -77.333 -17.667 -138.5 -53 -183.5s-86 -67.5 -152 -67.5c-61.333 0 -108.833 19.667 -142.5 59s-50.5 95.333 -50.5 168v46c0 62.667 -19.5 111.667 -58.5 147s-92.167 53 -159.5 53
c-48 0 -89.667 -9.33301 -125 -28s-62.166 -44.5 -80.499 -77.5s-27.5 -70.5 -27.5 -112.5c0 -50 13 -91 39 -123c-2 9.33301 -3 19 -3 29c0 30 7 57 21 81s33.333 42.833 58 56.5s52.334 20.5 83.001 20.5c33.333 0 63.333 -6.83301 90 -20.5s47.5 -32.667 62.5 -57
s22.5 -51.5 22.5 -81.5s-7.83301 -57.167 -23.5 -81.5s-37.167 -43.5 -64.5 -57.5s-58.333 -21 -93 -21c-56 0 -105.5 11.333 -148.5 34s-76.167 53.334 -99.5 92.001s-35 81.667 -35 129c0 54 13 103.333 39 148s63.667 80.167 113 106.5s106.666 39.5 171.999 39.5
c61.333 0 114.833 -11.333 160.5 -34s81 -54.667 106 -96s37.5 -90 37.5 -146v-46c0 -50.667 9 -88.334 27 -113.001s45.667 -37 83 -37c38 0 66 15.167 84 45.5s27 73.166 27 128.499c0 42.667 -7 90.667 -21 144s-34.333 98.666 -61 135.999l88 14
c28 -46 49.167 -95.833 63.5 -149.5zM272.499 208.003c-17.667 -17.333 -26.4961 -39.333 -26.4961 -66s8.66699 -48.667 26 -66s39.666 -26 66.999 -26s49.666 8.66699 66.999 26s26 39.333 26 66s-8.83301 48.667 -26.5 66s-39.834 26 -66.501 26
s-48.834 -8.66699 -66.501 -26z" />
    <glyph glyph-name="tm_Lla" unicode="&#xbb3;" horiz-adv-x="1231" 
d="M1037 446l0.000976562 -446.004h-86v446h-237v-446h-86v228c0 43.333 -10.5 82.333 -31.5 117s-50.167 61.834 -87.5 81.501s-79.333 29.5 -126 29.5c-49.333 0 -92.333 -9.33301 -129 -28s-64.667 -44.5 -84 -77.5s-29 -70.833 -29 -113.5
c0 -48.667 12.333 -88.667 37 -120c-2 8 -3 16.667 -3 26c0 46.667 15.5 84.834 46.5 114.501s70.167 44.5 117.5 44.5c33.333 0 63.333 -6.83301 90 -20.5s47.5 -32.667 62.5 -57s22.5 -51.833 22.5 -82.5c0 -30 -7.83301 -57.167 -23.5 -81.5s-37.167 -43.5 -64.5 -57.5
s-58.333 -21 -93 -21c-56 0 -105.5 11.333 -148.5 34s-76.167 53.334 -99.5 92.001s-35 81.667 -35 129c0 56.667 13.667 107.334 41 152.001s66.166 79.5 116.499 104.5s108.833 37.5 175.5 37.5c50 0 96.167 -9.5 138.5 -28.5s77.833 -45.167 106.5 -78.5v89h581l12 -67
h-184zM272.501 207.996c-17.667 -17.333 -26.4961 -39.333 -26.4961 -66s8.66699 -48.667 26 -66s39.666 -26 66.999 -26s49.666 8.66699 66.999 26s26 39.333 26 66s-8.83301 48.667 -26.5 66s-39.834 26 -66.501 26s-48.834 -8.66699 -66.501 -26z" />
    <glyph glyph-name="tm_Llla" unicode="&#xbb4;" horiz-adv-x="850" 
d="M464 -31c0 -26 5.66504 -44.666 16.998 -55.999s28 -17 50 -17h149l11 -67h-166c-17.333 -39.333 -45.166 -71 -83.499 -95s-82.166 -36 -131.499 -36c-40 0 -75.5 7.5 -106.5 22.5s-55 36.167 -72 63.5s-25.5 58.666 -25.5 93.999h87c0 -31.333 11 -56.666 33 -75.999
s50 -29 84 -29c31.333 0 58.333 7 81 21s39.667 32 51 54c-20 10 -35.833 24.667 -47.5 44s-17.5 42 -17.5 68v40h-287v513l86 5v-450h201v251c0 69.333 16.833 122 50.5 158s80.167 54 139.5 54c48.667 0 90.5 -12.833 125.5 -38.5s61.667 -61 80 -106
s27.5 -96.833 27.5 -155.5c0 -70.667 -18.167 -126.834 -54.5 -168.501s-91.833 -62.5 -166.5 -62.5h-115v-31zM578.998 68.001c47.333 0 80.833 14.333 100.5 43s29.5 68.667 29.5 120c0 68 -12 122.5 -36 163.5s-59.333 61.5 -106 61.5c-68.667 0 -103 -45.333 -103 -136
v-252h115z" />
    <glyph glyph-name="tm_Va" unicode="&#xbb5;" horiz-adv-x="1055" 
d="M965 0l-397.996 -0.000976562v68c40.667 56 61 118.333 61 187c0 39.333 -9.33301 74.166 -28 104.499s-45.834 54 -81.501 71s-77.834 25.5 -126.501 25.5c-50.667 0 -95 -9.33301 -133 -28s-67.167 -44.5 -87.5 -77.5s-30.5 -70.833 -30.5 -113.5
c0 -48.667 12.333 -88.667 37 -120c-2 8 -3 16.667 -3 26c0 46.667 15.5 84.834 46.5 114.501s70.167 44.5 117.5 44.5c33.333 0 63.333 -6.83301 90 -20.5s47.5 -32.667 62.5 -57s22.5 -51.833 22.5 -82.5c0 -30 -7.83301 -57.167 -23.5 -81.5s-37.167 -43.5 -64.5 -57.5
s-58.333 -21 -93 -21c-56 0 -105.5 11.333 -148.5 34s-76.167 53.334 -99.5 92.001s-35 81.667 -35 129c0 56.667 14.167 107.334 42.5 152.001s68.333 79.5 120 104.5s111.5 37.5 179.5 37.5c65.333 0 122.666 -11.833 171.999 -35.5s87.5 -56.334 114.5 -98.001
s40.5 -89.167 40.5 -142.5c0 -34 -4.83301 -67.167 -14.5 -99.5s-22.834 -61.5 -39.501 -87.5h214v445h86v-513zM272.504 207.999c-17.667 -17.333 -26.4961 -39.333 -26.4961 -66s8.66699 -48.667 26 -66s39.666 -26 66.999 -26s49.666 8.66699 66.999 26s26 39.333 26 66
s-8.83301 48.667 -26.5 66s-39.834 26 -66.501 26s-48.834 -8.66699 -66.501 -26z" />
    <glyph glyph-name="tm_Sha" unicode="&#xbb6;" horiz-adv-x="1082" 
d="M977.5 450.5c36.333 -41.667 54.501 -97.833 54.501 -168.5c0 -58.667 -9.16699 -110.5 -27.5 -155.5s-45 -80.333 -80 -106s-76.833 -38.5 -125.5 -38.5c-59.333 0 -105.833 18 -139.5 54s-50.5 88.667 -50.5 158v252h-138v-252
c0 -68.667 -17.833 -121.167 -53.5 -157.5s-83.167 -54.5 -142.5 -54.5c-58.667 0 -105.834 18.167 -141.501 54.5s-53.5 88.833 -53.5 157.5v319l86 5v-325c0 -46.667 9.83301 -81 29.5 -103s46.167 -33 79.5 -33s59.833 11 79.5 33s29.5 56.333 29.5 103v320h427
c74.667 0 130.167 -20.833 166.5 -62.5zM905.001 118.501c24 41 36 95.5 36 163.5c0 52 -9.83301 92.333 -29.5 121s-53.167 43 -100.5 43h-115v-253c0 -90.667 34.333 -136 103 -136c46.667 0 82 20.5 106 61.5z" />
    <glyph glyph-name="tm_Ssa" unicode="&#xbb7;" horiz-adv-x="1415" 
d="M1119 0v-243.006h-86v243h-466v68c40.667 56 61 118.333 61 187c0 38.667 -9.5 73.334 -28.5 104.001s-46.333 54.5 -82 71.5s-77.5 25.5 -125.5 25.5c-50.667 0 -95 -9.33301 -133 -28s-67.167 -44.5 -87.5 -77.5s-30.5 -70.833 -30.5 -113.5
c0 -48.667 12.333 -88.667 37 -120c-2 8 -3 16.667 -3 26c0 46.667 15.5 84.834 46.5 114.501s70.167 44.5 117.5 44.5c33.333 0 63.333 -6.83301 90 -20.5s47.5 -32.667 62.5 -57s22.5 -51.833 22.5 -82.5c0 -30 -7.83301 -57.167 -23.5 -81.5s-37.167 -43.5 -64.5 -57.5
s-58.333 -21 -93 -21c-56 0 -105.5 11.333 -148.5 34s-76.167 53.334 -99.5 92.001s-35 81.667 -35 129c0 56.667 14.167 107.334 42.5 152.001s68.333 79.5 120 104.5s111.5 37.5 179.5 37.5c65.333 0 122.666 -11.833 171.999 -35.5s87.5 -56.334 114.5 -98.001
s40.5 -89.167 40.5 -142.5c0 -33.333 -4.66699 -66.166 -14 -98.499s-22.333 -61.833 -39 -88.5h367v135c-16.667 -2.66699 -37 -4 -61 -4c-39.333 0 -74.5 7.5 -105.5 22.5s-55.333 35.333 -73 61s-26.5 54.5 -26.5 86.5c0 48.667 15.833 87.834 47.5 117.501
s74.834 44.5 129.501 44.5c52.667 0 95 -15.167 127 -45.5s48 -69.166 48 -116.499v-52c51.333 32.667 91.333 75.667 120 129h86v-446h-206zM1033 280.994l0.00195312 83.001c0 27.333 -8 49.5 -24 66.5s-37.667 25.5 -65 25.5c-28 0 -49.333 -7.83301 -64 -23.5
s-22 -36.834 -22 -63.501s10.667 -49.167 32 -67.5s48.666 -27.5 81.999 -27.5c17.333 0 37.666 2.33301 60.999 7zM1239 307.995c-35.333 -37.333 -75.333 -64.667 -120 -82v-158h120v240zM272.502 207.994c-17.667 -17.333 -26.4961 -39.333 -26.4961 -66
s8.66699 -48.667 26 -66s39.666 -26 66.999 -26s49.666 8.66699 66.999 26s26 39.333 26 66s-8.83301 48.667 -26.5 66s-39.834 26 -66.501 26s-48.834 -8.66699 -66.501 -26z" />
    <glyph glyph-name="tm_Sa" unicode="&#xbb8;" horiz-adv-x="1333" 
d="M1261.5 378c14.333 -53.333 21.501 -101.666 21.501 -144.999c0 -77.333 -17.667 -138.5 -53 -183.5s-85.666 -67.5 -150.999 -67.5c-62 0 -109.833 19.667 -143.5 59s-50.5 95.333 -50.5 168v116c0 41.333 -6.83301 73.333 -20.5 96s-36.834 34 -69.501 34
c-36 0 -64.5 -18.5 -85.5 -55.5s-31.5 -85.167 -31.5 -144.5v-255h-86v255c0 62.667 -19.5 111.667 -58.5 147s-92.167 53 -159.5 53c-48 0 -89.667 -9.33301 -125 -28s-62.166 -44.5 -80.499 -77.5s-27.5 -70.5 -27.5 -112.5c0 -50 13 -91 39 -123c-2 9.33301 -3 19 -3 29
c0 30 7 57 21 81s33.333 42.833 58 56.5s52.334 20.5 83.001 20.5c33.333 0 63.333 -6.83301 90 -20.5s47.5 -32.667 62.5 -57s22.5 -51.5 22.5 -81.5s-7.83301 -57.167 -23.5 -81.5s-37.167 -43.5 -64.5 -57.5s-58.333 -21 -93 -21c-56 0 -105.5 11.333 -148.5 34
s-76.167 53.334 -99.5 92.001s-35 81.667 -35 129c0 54 13 103.333 39 148s63.667 80.167 113 106.5s106.666 39.5 171.999 39.5c58 0 109.167 -10.167 153.5 -30.5s79.166 -49.166 104.499 -86.499c15.333 37.333 36.666 66.166 63.999 86.499s60.333 30.5 99 30.5
c58 0 102 -18.333 132 -55s45 -85.667 45 -147v-120c0 -50.667 9 -88.334 27 -113.001s45.333 -37 82 -37c74 0 111 58 111 174c0 42.667 -7 90.667 -21 144s-34.333 98.666 -61 135.999l88 14c28 -46 49.167 -95.667 63.5 -149zM272.501 208
c-17.667 -17.333 -26.4961 -39.333 -26.4961 -66s8.66699 -48.667 26 -66s39.666 -26 66.999 -26s49.666 8.66699 66.999 26s26 39.333 26 66s-8.83301 48.667 -26.5 66s-39.834 26 -66.501 26s-48.834 -8.66699 -66.501 -26z" />
    <glyph glyph-name="tm_Ha" unicode="&#xbb9;" horiz-adv-x="1617" 
d="M1508 448.5c39.333 -55 58.9961 -127.505 58.9961 -217.505c0 -80 -12.667 -150.5 -38 -211.5s-63 -108.833 -113 -143.5s-110.667 -52 -182 -52h-956c-43.333 0 -76.666 -5.33301 -99.999 -16s-42.666 -27.667 -57.999 -51l-70 39
c14.667 29.333 41.834 52.5 81.501 69.5s88.167 25.5 145.5 25.5h957c80.667 0 141.334 30.833 182.001 92.5s61 144.167 61 247.5c0 68.667 -11.167 123.334 -33.5 164.001s-56.833 61 -103.5 61c-33.333 0 -59.833 -11 -79.5 -33s-29.5 -56.333 -29.5 -103v-320h-87v311
c0 43.333 -9.16699 78.333 -27.5 105s-44.5 40 -78.5 40c-66.667 0 -100 -45.333 -100 -136v-320h-371v68c40.667 56 61 118.333 61 187c0 38.667 -9.5 73.334 -28.5 104.001s-46.333 54.5 -82 71.5s-77.5 25.5 -125.5 25.5c-50.667 0 -95 -9.33301 -133 -28
s-67.167 -44.5 -87.5 -77.5s-30.5 -70.833 -30.5 -113.5c0 -48.667 12.333 -88.667 37 -120c-2 8 -3 16.667 -3 26c0 46.667 15.5 84.834 46.5 114.501s70.167 44.5 117.5 44.5c33.333 0 63.333 -6.83301 90 -20.5s47.5 -32.667 62.5 -57s22.5 -51.833 22.5 -82.5
c0 -30 -7.83301 -57.167 -23.5 -81.5s-37.167 -43.5 -64.5 -57.5s-58.333 -21 -93 -21c-56 0 -105.5 11.333 -148.5 34s-76.167 53.334 -99.5 92.001s-35 81.667 -35 129c0 56.667 14.167 107.334 42.5 152.001s68.333 79.5 120 104.5s111.5 37.5 179.5 37.5
c65.333 0 122.666 -11.833 171.999 -35.5s87.5 -56.334 114.5 -98.001s40.5 -89.167 40.5 -142.5c0 -67.333 -17.667 -129.666 -53 -186.999h186v251c0 65.333 15.833 117 47.5 155s77.834 57 138.501 57c30 0 57.667 -7.16699 83 -21.5s46 -34.166 62 -59.499
c17.333 25.333 39.5 45.166 66.5 59.499s57.167 21.5 90.5 21.5c72.667 0 128.667 -27.5 168 -82.5zM272.496 207.995c-17.667 -17.333 -26.4961 -39.333 -26.4961 -66s8.66699 -48.667 26 -66s39.666 -26 66.999 -26s49.666 8.66699 66.999 26s26 39.333 26 66
s-8.83301 48.667 -26.5 66s-39.834 26 -66.501 26s-48.834 -8.66699 -66.501 -26z" />
    <glyph glyph-name="tm_VowelAa" unicode="&#xbbe;" horiz-adv-x="673" 
d="M393 0v446h-217v-446h-86v513h561l12 -67h-183v-446h-87z" />
    <glyph glyph-name="tm_VowelI" unicode="&#xbbf;" horiz-adv-x="266" 
d="M27 759.5c47.333 -25 83.999 -59.833 109.999 -104.5s39 -95.334 39 -152.001v-503h-86v503c0 42.667 -9.16699 80.667 -27.5 114s-44.666 59.333 -78.999 78s-74.833 28 -121.5 28s-83 -9.66699 -109 -29s-39 -44.666 -39 -75.999s9.66699 -56.666 29 -75.999
s47.333 -29 84 -29h20v-63h-20c-60.667 0 -109 15.667 -145 47s-54.333 71.666 -55 120.999c0 34.667 9.5 65.5 28.5 92.5s46.333 48.167 82 63.5s77.167 23 124.5 23c62.667 0 117.667 -12.5 165 -37.5z" />
    <glyph glyph-name="tm_VowelIi" unicode="&#xbc0;" horiz-adv-x="0" 
d="M-39 852c34.667 -17.333 62.3311 -40.333 82.998 -69s31 -59 31 -91c0 -35.333 -11.167 -64.5 -33.5 -87.5s-50.166 -34.5 -83.499 -34.5c-34.667 0 -63.167 10.5 -85.5 31.5s-33.5 47.5 -33.5 79.5c0 28 8.5 51.667 25.5 71s39.5 31.333 67.5 36
c-23.333 10 -50.666 15 -81.999 15c-45.333 0 -82.5 -13.5 -111.5 -40.5s-43.5 -61.5 -43.5 -103.5c0 -42.667 12 -77.667 36 -105s54.333 -41 91 -41v-66c-41.333 0 -78.666 9.16699 -111.999 27.5s-59.333 43.5 -78 75.5s-28 68.333 -28 109c0 42 10.667 79.667 32 113
s50.666 59.333 87.999 78s79.333 28 126 28c39.333 0 76.333 -8.66699 111 -26zM-8.00293 646.5c8.66699 9 13 20.167 13 33.5s-4.33301 24.333 -13 33s-20 13 -34 13c-13.333 0 -24.5 -4.33301 -33.5 -13s-13.5 -19.667 -13.5 -33s4.5 -24.5 13.5 -33.5
s20.167 -13.5 33.5 -13.5c14 0 25.333 4.5 34 13.5z" />
    <glyph glyph-name="tm_VowelU" unicode="&#xbc1;" horiz-adv-x="473" 
d="M354.5 492.5c27.667 -13.667 49.332 -32.667 64.999 -57s23.5 -51.833 23.5 -82.5s-7.5 -58.167 -22.5 -82.5s-36 -43.333 -63 -57s-57.167 -20.5 -90.5 -20.5c-32.667 0 -62 6.83301 -88 20.5s-46.333 32.5 -61 56.5s-22 51.333 -22 82c0 36 10.333 67.333 31 94h-303
v67h437c34.667 0 65.834 -6.83301 93.501 -20.5zM333.498 287c17.667 17.333 26.5 39.3311 26.5 65.998s-8.83301 48.834 -26.5 66.501s-39.834 26.5 -66.501 26.5s-48.667 -8.66699 -66 -26s-26 -39.666 -26 -66.999c0 -26.667 8.66699 -48.667 26 -66s39.333 -26 66 -26
s48.834 8.66699 66.501 26z" />
    <glyph glyph-name="tm_VowelUu" unicode="&#xbc2;" horiz-adv-x="679" 
d="M514 578c42 -22.667 75 -53.9961 99 -93.9961s36 -85 36 -135c0 -52 -13.333 -98.833 -40 -140.5s-63.834 -74.167 -111.501 -97.5s-101.5 -35 -161.5 -35h-58v67h58c42 0 79.833 8.83301 113.5 26.5s60.167 42.167 79.5 73.5s29 66.666 29 105.999
c0 36 -8.16699 68.667 -24.5 98s-38.666 52.333 -66.999 69s-59.5 25 -93.5 25c-41.333 0 -77.666 -9.33301 -108.999 -28c34 0 64.667 -7 92 -21s48.666 -33.167 63.999 -57.5s23 -51.5 23 -81.5c0 -46 -15.667 -83.167 -47 -111.5s-71.666 -42.5 -120.999 -42.5
c-32 0 -60.833 7.16699 -86.5 21.5s-45.834 34.166 -60.501 59.499s-22 53.666 -22 84.999c0 30 4.33301 57 13 81h-295v67h330c23.333 31.333 54 55.666 92 72.999s80.333 26 127 26c52 0 99 -11.333 141 -34zM333.5 420.504c-17.667 17 -43.5 25.499 -77.5 25.499h-56
c-12.667 -25.333 -19 -52 -19 -80c0 -28.667 8.83301 -52.5 26.5 -71.5s40.167 -28.5 67.5 -28.5c25.333 0 45.833 7.83301 61.5 23.5s23.5 36.834 23.5 63.501c0 28 -8.83301 50.5 -26.5 67.5z" />
    <glyph glyph-name="tm_VowelE" unicode="&#xbc6;" horiz-adv-x="804" 
d="M562 634.5c48.667 -27 86.165 -65.5 112.498 -115.5s39.5 -108 39.5 -174v-345h-86v345c0 78 -21.167 140 -63.5 186s-99.833 69 -172.5 69c-50.667 0 -95 -12 -133 -36s-67.167 -57.333 -87.5 -100s-30.5 -91.334 -30.5 -146.001c0 -68 11.333 -124.333 34 -169
c1.33301 44.667 17.333 81.334 48 110.001s69.334 43 116.001 43c33.333 0 63.333 -6.83301 90 -20.5s47.5 -32.667 62.5 -57s22.5 -51.833 22.5 -82.5c0 -30 -7.83301 -57.167 -23.5 -81.5s-37.167 -43.5 -64.5 -57.5s-58.333 -21 -93 -21c-54 0 -102.5 14.167 -145.5 42.5
s-76.667 68 -101 119s-36.5 109.167 -36.5 174.5c0 68.667 14.167 130 42.5 184s68.333 96.333 120 127s111.5 46 179.5 46c64.667 0 121.334 -13.5 170.001 -40.5zM272.498 208c-17.667 -17.333 -26.4961 -39.333 -26.4961 -66s8.66699 -48.667 26 -66
s39.666 -26 66.999 -26s49.666 8.66699 66.999 26s26 39.333 26 66s-8.83301 48.667 -26.5 66s-39.834 26 -66.501 26s-48.834 -8.66699 -66.501 -26z" />
    <glyph glyph-name="tm_VowelEe" unicode="&#xbc7;" horiz-adv-x="680" 
d="M585 246c30 -26.667 45 -60.665 45 -101.998c0 -48.667 -20 -87.834 -60 -117.501s-97.333 -44.5 -172 -44.5c-68.667 0 -129.334 14.833 -182.001 44.5s-93.5 70.834 -122.5 123.501s-43.5 112.334 -43.5 179.001c0 66 14.5 125.333 43.5 178
s69.833 93.834 122.5 123.501s113.334 44.5 182.001 44.5c74.667 0 132 -14.833 172 -44.5s60 -68.834 60 -117.501c0 -41.333 -15 -75.333 -45 -102s-67.667 -40 -113 -40c-42.667 0 -77.834 13.333 -105.501 40s-41.5 60.667 -41.5 102c0 18 3.5 34.667 10.5 50
s16.833 28.666 29.5 39.999c-45.333 -2.66699 -84.833 -16 -118.5 -40s-59.667 -56.333 -78 -97s-27.5 -86.334 -27.5 -137.001c0 -51.333 9.16699 -97.333 27.5 -138s44.333 -73 78 -97s73.167 -37.333 118.5 -40c-12.667 11.333 -22.5 24.666 -29.5 39.999
s-10.5 32 -10.5 50c0 41.333 13.833 75.333 41.5 102s62.834 40 105.501 40c45.333 0 83 -13.333 113 -40zM528 461.502c14 13.667 21 30.834 21 51.501s-6.83301 38 -20.5 52s-31.167 21 -52.5 21s-38.833 -6.83301 -52.5 -20.5s-20.5 -31.167 -20.5 -52.5
c0 -20.667 6.83301 -37.834 20.5 -51.501s31.167 -20.5 52.5 -20.5c20.667 0 38 6.83301 52 20.5zM423.5 195.502c-13.667 -13.667 -20.5 -30.834 -20.5 -51.501c0 -21.333 6.83301 -38.833 20.5 -52.5s31.167 -20.5 52.5 -20.5s38.833 6.83301 52.5 20.5
s20.5 31.167 20.5 52.5c0 20.667 -7 37.834 -21 51.501s-31.333 20.5 -52 20.5c-21.333 0 -38.833 -6.83301 -52.5 -20.5z" />
    <glyph glyph-name="tm_VowelAi" unicode="&#xbc8;" horiz-adv-x="1246" 
d="M1068.5 498c41.667 -22 73.335 -52.667 95.002 -92s32.5 -84.333 32.5 -135c0 -42 -7 -88.5 -21 -139.5s-35.333 -99.5 -64 -145.5l-88 14c26.667 38 47 82.167 61 132.5s21 96.5 21 138.5c0 55.333 -15.833 100 -47.5 134s-77.834 51 -138.501 51
c-45.333 0 -87.666 -10.667 -126.999 -32c38.667 -32.667 68.667 -70.167 90 -112.5s32 -87.5 32 -135.5c0 -57.333 -15.5 -104 -46.5 -140s-73.167 -54 -126.5 -54s-95.5 18 -126.5 54s-46.5 82.667 -46.5 140c0 46 8.16699 89.333 24.5 130s39.166 76.667 68.499 108
c-58 28 -123.667 42 -197 42c-64 0 -120.5 -9.83301 -169.5 -29.5s-86.833 -46.667 -113.5 -81s-40 -73.5 -40 -117.5c0 -48 12.667 -87.333 38 -118c-2.66699 8.66699 -4 19.667 -4 33c0 46.667 15.5 84.834 46.5 114.501s70.167 44.5 117.5 44.5
c33.333 0 63.333 -6.83301 90 -20.5s47.5 -32.667 62.5 -57s22.5 -51.833 22.5 -82.5c0 -30 -7.83301 -57.167 -23.5 -81.5s-37.167 -43.5 -64.5 -57.5s-58.333 -21 -93 -21c-56.667 0 -106.334 10.667 -149.001 32s-75.667 50.666 -99 87.999s-35 79.333 -35 126
c0 58 17.167 110 51.5 156s83 82 146 108s135.167 39 216.5 39c97.333 0 184 -20.667 260 -62c29.333 20 60.5 35.333 93.5 46s66.833 16 101.5 16c58 0 107.833 -11 149.5 -33zM798.501 284c-16.333 33.333 -39.833 62.666 -70.5 87.999
c-22 -25.333 -39 -54.666 -51 -87.999s-18 -69.333 -18 -108c0 -36.667 6.83301 -65.667 20.5 -87s34.167 -32 61.5 -32s47.833 10.667 61.5 32s20.5 50.333 20.5 87c0 38.667 -8.16699 74.667 -24.5 108zM272.501 208c-17.667 -17.333 -26.4961 -39.333 -26.4961 -66
s8.66699 -48.667 26 -66s39.666 -26 66.999 -26s49.666 8.66699 66.999 26s26 39.333 26 66s-8.83301 48.667 -26.5 66s-39.834 26 -66.501 26s-48.834 -8.66699 -66.501 -26z" />
    <glyph glyph-name="tm_VowelO" unicode="&#xbca;" horiz-adv-x="1973" 
d="M562 634.5c48.667 -27 86.165 -65.5 112.498 -115.5s39.5 -108 39.5 -174v-345h-86v345c0 78 -21.167 140 -63.5 186s-99.833 69 -172.5 69c-50.667 0 -95 -12 -133 -36s-67.167 -57.333 -87.5 -100s-30.5 -91.334 -30.5 -146.001c0 -68 11.333 -124.333 34 -169
c1.33301 44.667 17.333 81.334 48 110.001s69.334 43 116.001 43c33.333 0 63.333 -6.83301 90 -20.5s47.5 -32.667 62.5 -57s22.5 -51.833 22.5 -82.5c0 -30 -7.83301 -57.167 -23.5 -81.5s-37.167 -43.5 -64.5 -57.5s-58.333 -21 -93 -21c-54 0 -102.5 14.167 -145.5 42.5
s-76.667 68 -101 119s-36.5 109.167 -36.5 174.5c0 68.667 14.167 130 42.5 184s68.333 96.333 120 127s111.5 46 179.5 46c64.667 0 121.334 -13.5 170.001 -40.5zM272.498 208c-17.667 -17.333 -26.4961 -39.333 -26.4961 -66s8.66699 -48.667 26 -66
s39.666 -26 66.999 -26s49.666 8.66699 66.999 26s26 39.333 26 66s-8.83301 48.667 -26.5 66s-39.834 26 -66.501 26s-48.834 -8.66699 -66.501 -26zM1673 0v446h-217v-446h-86v513h561l12 -67h-183v-446h-87zM1056 467c5.33301 5.33301 8 12.333 8 21
s-2.66699 15.834 -8 21.501s-12.333 8.5 -21 8.5s-15.667 -2.83301 -21 -8.5s-8 -12.834 -8 -21.501s2.66699 -15.667 8 -21s12.333 -8 21 -8s15.667 2.66699 21 8zM925.002 494c-5.33301 -5.33301 -8 -12.333 -8 -21s2.66699 -15.667 8 -21s12.333 -8 21 -8
s15.667 2.66699 21 8s8 12.333 8 21s-2.66699 15.667 -8 21s-12.333 8 -21 8s-15.667 -2.66699 -21 -8zM1146 452c5.33301 5.33301 8 12.333 8 21s-2.66699 15.667 -8 21s-12.333 8 -21 8s-15.667 -2.66699 -21 -8s-8 -12.333 -8 -21s2.66699 -15.667 8 -21s12.333 -8 21 -8
s15.667 2.66699 21 8zM848.502 443.5c-5.66699 -5.66699 -8.5 -12.834 -8.5 -21.501s2.83301 -15.667 8.5 -21s12.834 -8 21.501 -8s15.667 2.66699 21 8s8 12.333 8 21s-2.66699 15.834 -8 21.501s-12.333 8.5 -21 8.5s-15.834 -2.83301 -21.501 -8.5zM1222.5 401
c5.66699 5.33301 8.5 12.333 8.5 21s-2.83301 15.834 -8.5 21.501s-12.834 8.5 -21.501 8.5s-15.667 -2.83301 -21 -8.5s-8 -12.834 -8 -21.501s2.66699 -15.667 8 -21s12.333 -8 21 -8s15.834 2.66699 21.501 8zM800.502 364.5
c-5.66699 -5.66699 -8.5 -12.834 -8.5 -21.501s2.83301 -15.667 8.5 -21s12.834 -8 21.501 -8s15.667 2.66699 21 8s8 12.333 8 21s-2.66699 15.834 -8 21.501s-12.333 8.5 -21 8.5s-15.834 -2.83301 -21.501 -8.5zM1270 322c5.33301 5.33301 8 12.333 8 21
s-2.66699 15.834 -8 21.501s-12.333 8.5 -21 8.5s-15.667 -2.83301 -21 -8.5s-8 -12.834 -8 -21.501s2.66699 -15.667 8 -21s12.333 -8 21 -8s15.667 2.66699 21 8zM786.502 278.5c-5.66699 -5.66699 -8.5 -12.834 -8.5 -21.501s2.83301 -15.5 8.5 -20.5
s12.834 -7.5 21.501 -7.5s15.667 2.5 21 7.5s8 11.833 8 20.5s-2.66699 15.834 -8 21.501s-12.333 8.5 -21 8.5s-15.834 -2.83301 -21.501 -8.5zM1284.5 236.5c5.66699 5 8.5 11.833 8.5 20.5s-2.83301 15.834 -8.5 21.501s-12.834 8.5 -21.501 8.5
s-15.667 -2.83301 -21 -8.5s-8 -12.834 -8 -21.501s2.66699 -15.5 8 -20.5s12.333 -7.5 21 -7.5s15.834 2.5 21.501 7.5zM800.502 195c-5.66699 -5.33301 -8.5 -12.333 -8.5 -21s2.83301 -15.667 8.5 -21s12.834 -8 21.501 -8s15.667 2.66699 21 8s8 12.333 8 21
s-2.66699 15.667 -8 21s-12.333 8 -21 8s-15.834 -2.66699 -21.501 -8zM1270 153c5.33301 5.33301 8 12.333 8 21s-2.66699 15.667 -8 21s-12.333 8 -21 8s-15.667 -2.66699 -21 -8s-8 -12.333 -8 -21s2.66699 -15.667 8 -21s12.333 -8 21 -8s15.667 2.66699 21 8z
M847.502 115c-5.66699 -5.33301 -8.5 -12.333 -8.5 -21s2.83301 -15.667 8.5 -21s12.834 -8 21.501 -8s15.667 2.66699 21 8s8 12.333 8 21s-2.66699 15.667 -8 21s-12.333 8 -21 8s-15.834 -2.66699 -21.501 -8zM1223.5 73c5.66699 5.33301 8.5 12.333 8.5 21
s-2.83301 15.667 -8.5 21s-12.834 8 -21.501 8s-15.667 -2.66699 -21 -8s-8 -12.333 -8 -21s2.66699 -15.667 8 -21s12.333 -8 21 -8s15.834 2.66699 21.501 8zM925.002 65.5c-5.33301 -5.66699 -8 -12.834 -8 -21.501s2.66699 -15.667 8 -21s12.333 -8 21 -8
s15.667 2.66699 21 8s8 12.333 8 21s-2.66699 15.834 -8 21.501s-12.333 8.5 -21 8.5s-15.667 -2.83301 -21 -8.5zM1146 23c5.33301 5.33301 8 12.333 8 21s-2.66699 15.834 -8 21.501s-12.333 8.5 -21 8.5s-15.667 -2.83301 -21 -8.5s-8 -12.834 -8 -21.501
s2.66699 -15.667 8 -21s12.333 -8 21 -8s15.667 2.66699 21 8zM1056 8c5.33301 5.33301 8 12.333 8 21s-2.66699 15.834 -8 21.501s-12.333 8.5 -21 8.5s-15.667 -2.83301 -21 -8.5s-8 -12.834 -8 -21.501s2.66699 -15.667 8 -21s12.333 -8 21 -8s15.667 2.66699 21 8z" />
    </font>
</defs>
</svg>
