<?xml version="1.0" standalone="no"?>
<!DOCTYPE svg PUBLIC "-//W3C//DTD SVG 1.1//EN" "http://www.w3.org/Graphics/SVG/1.1/DTD/svg11.dtd" >
<svg>
<metadata>
Created by FontForge 20090914 at Fri Mar 31 17:23:37 2017
 By www-data
Copyright 2014 Pria Ravichandran (pria.ravichandran@gmail.com)
</metadata>
<defs>
<font id="Catamaran-SemiBold" horiz-adv-x="561" >
  <font-face 
    font-family="Catamaran SemiBold"
    font-weight="600"
    font-stretch="normal"
    units-per-em="1000"
    panose-1="0 0 7 0 0 0 0 0 0 0"
    ascent="770"
    descent="-230"
    x-height="485"
    cap-height="680"
    bbox="-563.999 -380.003 2563 1320"
    underline-thickness="50"
    underline-position="-75"
    unicode-range="U+000D-U+FB02"
  />
<missing-glyph horiz-adv-x="684" 
d="M589 0v696h-495v-696h495zM207 89v517h267l1 -517h-268z" />
    <glyph glyph-name=".notdef" horiz-adv-x="684" 
d="M589 0v696h-495v-696h495zM207 89v517h267l1 -517h-268z" />
    <glyph glyph-name="uni0000" horiz-adv-x="0" 
 />
    <glyph glyph-name="uni0000" horiz-adv-x="0" 
 />
    <glyph glyph-name="nonmarkingreturn" unicode="&#xd;" horiz-adv-x="0" 
 />
    <glyph glyph-name="space" unicode=" " horiz-adv-x="228" 
 />
    <glyph glyph-name="exclam" unicode="!" horiz-adv-x="194" 
d="M157 702h-120l17 -465l88 -41zM49.5 113.5c-13 -13 -19.5 -28.833 -19.5 -47.5s6.5 -34.334 19.5 -47.001s28.833 -19 47.5 -19s34.5 6.33301 47.5 19s19.5 28.334 19.5 47.001s-6.5 34.5 -19.5 47.5s-28.833 19.5 -47.5 19.5s-34.5 -6.5 -47.5 -19.5z" />
    <glyph glyph-name="quotedbl" unicode="&#x22;" horiz-adv-x="371" 
d="M51.5 710.5c-13 -14.333 -19.499 -29.8311 -19.499 -46.498c0 -16 5.66699 -30.667 17 -44s23 -20.333 35 -21c-3.33301 -18.667 -9.83301 -33.834 -19.5 -45.501s-24.5 -26.167 -44.5 -43.5l25 -53c34.667 18.667 63.667 46.667 87 84s35 74 35 110
c0 23.333 -6.83301 42.666 -20.5 57.999s-29.834 23 -48.501 23c-18 0 -33.5 -7.16699 -46.5 -21.5zM227.001 710.502c-13.333 -14.333 -20 -29.832 -20 -46.499c0 -16 5.66699 -30.667 17 -44s23.333 -20.333 36 -21c-3.33301 -18.667 -10 -34 -20 -46
s-25.333 -26.333 -46 -43l27 -53c34 18.667 62.5 46.667 85.5 84s34.5 74 34.5 110c0 23.333 -6.5 42.666 -19.5 57.999s-28.833 23 -47.5 23c-18 0 -33.667 -7.16699 -47 -21.5z" />
    <glyph glyph-name="numbersign" unicode="#" 
d="M252 398l27 115l-95 2l-28 -117h-126l10 -84h96l-27 -118h-79l10 -84h50l-27 -118l95 -5l28 123h124l-26 -118l95 -5l27 123h125l-9 84h-96l27 118h78l-9 84h-49l26 115l-97 2l-26 -117h-124zM206 196l27 118h123l-27 -118h-123z" />
    <glyph glyph-name="dollar" unicode="$" horiz-adv-x="522" 
d="M452 648l-37.9971 -88.999c-25.333 12 -48.833 21.333 -70.5 28s-46.167 10 -73.5 10c-34.667 0 -63 -6.66699 -85 -20s-33 -33 -33 -59c0 -18.667 5.83301 -35.167 17.5 -49.5s27 -27 46 -38s48.833 -26.833 89.5 -47.5c42.667 -22 76.834 -41.833 102.501 -59.5
s46.667 -39 63 -64s24.5 -54.167 24.5 -87.5c0 -38 -10.667 -71.333 -32 -100s-52 -50.334 -92 -65.001v-130h-78v113c-14.667 -2 -29.334 -3 -44.001 -3h-16v-110h-77v123c-47.333 12 -82.666 25.667 -105.999 41l25 90c22.667 -11.333 49.667 -21.666 81 -30.999
s60.666 -14 87.999 -14c44 0 77.667 7.5 101 22.5s35 36.167 35 63.5c0 17.333 -6.33301 33.166 -19 47.499s-28.834 27.166 -48.501 38.499s-48.167 26.333 -85.5 45c-62.667 32 -109.834 63.833 -141.501 95.5s-47.5 71.167 -47.5 118.5c0 36.667 10.667 69.334 32 98.001
s51.666 50 90.999 64v115l77 12v-110h21c12 0 24.667 -0.666992 38 -2v100l79 12v-128c24.667 -7.33301 50 -17.333 76 -30z" />
    <glyph glyph-name="percent" unicode="%" horiz-adv-x="908" 
d="M358 -4l300 710l-112 4l-301 -710zM50.5 442c15 -25.333 34.833 -44.835 59.5 -58.502s51.667 -20.5 81 -20.5c28.667 0 55.5 7 80.5 21s45 33.833 60 59.5s22.5 55.167 22.5 88.5c0 34.667 -7.33301 64.834 -22 90.501s-34.5 45.334 -59.5 59.001
s-52.167 20.5 -81.5 20.5c-28.667 0 -55.5 -7 -80.5 -21s-45 -34 -60 -60s-22.5 -55.667 -22.5 -89c0 -34.667 7.5 -64.667 22.5 -90zM144.5 596.498c13 15 28.499 22.5 46.499 22.5c19.333 0 35.333 -7.5 48 -22.5s19 -36.5 19 -64.5s-6.66699 -49.5 -20 -64.5
s-29 -22.5 -47 -22.5c-19.333 0 -35.166 7.5 -47.499 22.5s-18.5 36.833 -18.5 65.5c0 27.333 6.5 48.5 19.5 63.5zM577.499 78.498c15 -25.667 34.999 -45.166 59.999 -58.499s52.167 -20 81.5 -20c28 0 54.333 7 79 21s44.5 33.833 59.5 59.5s22.5 55.167 22.5 88.5
c0 34.667 -7.33301 64.834 -22 90.501s-34.167 45.167 -58.5 58.5s-51.166 20 -80.499 20s-56.5 -6.83301 -81.5 -20.5s-45 -33.334 -60 -59.001s-22.5 -55.5 -22.5 -89.5c0 -34.667 7.5 -64.834 22.5 -90.501zM671.998 233.499c13.333 15 28.999 22.499 46.999 22.499
c18.667 0 34.334 -7.66699 47.001 -23s19 -36.666 19 -63.999c0 -28 -6.5 -49.667 -19.5 -65s-28.5 -23 -46.5 -23c-19.333 0 -35.333 7.66699 -48 23s-19 37.333 -19 66c0 27.333 6.66699 48.5 20 63.5z" />
    <glyph glyph-name="ampersand" unicode="&#x26;" horiz-adv-x="678" 
d="M312 696c-40.667 0 -76.332 -8.49902 -106.999 -25.499s-54.334 -39.667 -71.001 -68s-25 -59.5 -25 -93.5c0 -36 9.66699 -68 29 -96c-30 -24 -54.167 -53.5 -72.5 -88.5s-27.5 -71.167 -27.5 -108.5c0 -48.667 11.5 -90 34.5 -124s54.333 -59.667 94 -77
s84.167 -26.333 133.5 -27c86 0 155 24 207 72l78 -71l65 82l-80 71c27.333 55.333 43 119.333 47 192l-99 40c-2.66699 -58.667 -13.667 -110.334 -33 -155.001l-173 159c-32 28 -54.667 52 -68 72s-20 41.333 -20 64c0 23.333 8 43.166 24 59.499s37.667 24.5 65 24.5
c26.667 0 49.5 -3.16699 68.5 -9.5s42.167 -16.166 69.5 -29.499l38 89c-61.333 32 -120.333 48 -177 48zM300.002 88.001c-40.667 0 -75 11.002 -103 33.002s-42 54.333 -42 97c0.666992 23.333 5.66699 45.166 15 65.499s22 37.833 38 52.5
c9.33301 -10.667 20 -21.334 32 -32.001l187 -171c-34 -30 -76.333 -45 -127 -45z" />
    <glyph glyph-name="quotesingle" unicode="'" horiz-adv-x="197" 
d="M51.5 710.5c-13 -14.333 -19.499 -29.8311 -19.499 -46.498c0 -16 5.66699 -30.667 17 -44s23 -20.333 35 -21c-3.33301 -18.667 -9.83301 -33.834 -19.5 -45.501s-24.5 -26.167 -44.5 -43.5l25 -53c34.667 18.667 63.667 46.667 87 84s35 74 35 110
c0 23.333 -6.83301 42.666 -20.5 57.999s-29.834 23 -48.501 23c-18 0 -33.5 -7.16699 -46.5 -21.5z" />
    <glyph glyph-name="parenleft" unicode="(" horiz-adv-x="293" 
d="M188 144c-22 66.667 -33.001 125.667 -33.001 177c0 49.333 10.833 106.833 32.5 172.5s46.834 117.167 75.501 154.5l-88 32c-40.667 -56.667 -71.667 -115.5 -93 -176.5s-32 -122.167 -32 -183.5c0 -62.667 10.833 -125 32.5 -187s52.5 -119 92.5 -171l88 32
c-28 33.333 -53 83.333 -75 150z" />
    <glyph glyph-name="parenright" unicode=")" horiz-adv-x="293" 
d="M104.5 496.5c21.667 -67 32.5 -125.833 32.5 -176.5c0 -49.333 -10.667 -106.833 -32 -172.5s-46.333 -117.167 -75 -154.5l88 -31c40.667 57.333 71.667 116.333 93 177s32 121 32 181c0 62.667 -10.833 125.167 -32.5 187.5s-52.5 119.833 -92.5 172.5l-88 -33
c28 -33.333 52.833 -83.5 74.5 -150.5z" />
    <glyph glyph-name="asterisk" unicode="*" horiz-adv-x="375" 
d="M142 665l-107 23l-25 -77l107 -22l-74 -104l68 -52l77 104l77 -104l67 52l-74 105l107 21l-25 77l-107 -23l-1 104h-88z" />
    <glyph glyph-name="plus" unicode="+" horiz-adv-x="537" 
d="M325 531l-105 3v-217h-190l8 -86h182v-223l105 -4v227h182l-10 86h-172v214z" />
    <glyph glyph-name="comma" unicode="," horiz-adv-x="198" 
d="M52.5 112.5c-13 -13.667 -19.501 -29.166 -19.501 -46.499c0 -16 5.66699 -30.833 17 -44.5s23 -20.834 35 -21.501c-3.33301 -18.667 -10 -34.167 -20 -46.5s-25 -26.5 -45 -42.5l26 -53c34.667 18.667 63.667 46.834 87 84.501s35 74.167 35 109.5
c0 23.333 -6.66699 42.666 -20 57.999s-29.666 23 -48.999 23c-18 0 -33.5 -6.83301 -46.5 -20.5z" />
    <glyph glyph-name="hyphen" unicode="-" horiz-adv-x="328" 
d="M40 229h258l-10 89h-258z" />
    <glyph glyph-name="period" unicode="." horiz-adv-x="193" 
d="M144 19c12.667 12.667 19 28.334 19 47.001s-6.33301 34.5 -19 47.5s-28.334 19.5 -47.001 19.5s-34.5 -6.5 -47.5 -19.5s-19.5 -28.833 -19.5 -47.5s6.5 -34.334 19.5 -47.001s28.833 -19 47.5 -19s34.334 6.33301 47.001 19z" />
    <glyph glyph-name="slash" unicode="/" horiz-adv-x="436" 
d="M124 -4l302 710l-115 4l-301 -710z" />
    <glyph glyph-name="zero" unicode="0" horiz-adv-x="601" 
d="M63 132.5c23.333 -45.667 55.833 -81.3311 97.5 -106.998s88.5 -38.5 140.5 -38.5s98.833 12.833 140.5 38.5s74.167 61.5 97.5 107.5s35 97.667 35 155c0 55.333 -11.667 105.166 -35 149.499s-55.833 79 -97.5 104s-88.5 37.5 -140.5 37.5s-98.833 -12.5 -140.5 -37.5
s-74.167 -59.833 -97.5 -104.5s-35 -95 -35 -151c0 -56.667 11.667 -107.834 35 -153.501zM154.5 389.003c14.333 29.333 34.333 52.334 60 69.001s54.5 25 86.5 25s60.833 -8.5 86.5 -25.5s45.834 -40.667 60.501 -71s22 -64.5 22 -102.5
c0 -38.667 -7.16699 -73.167 -21.5 -103.5s-34.333 -54.166 -60 -71.499s-54.834 -26 -87.501 -26c-32 0 -60.833 8.83301 -86.5 26.5s-45.667 42.167 -60 73.5s-21.5 66.666 -21.5 105.999c0 37.333 7.16699 70.666 21.5 99.999z" />
    <glyph glyph-name="one" unicode="1" horiz-adv-x="346" 
d="M203 566l-193 -89l46 -87l110 51v-441h112v566h-75z" />
    <glyph glyph-name="two" unicode="2" horiz-adv-x="484" 
d="M38 527l23 -89.998c26 15.333 51.333 27.666 76 36.999s51.667 14 81 14c36 0 64.5 -7.33301 85.5 -22s31.5 -36 31.5 -64c0 -22 -8.33301 -44.5 -25 -67.5s-42.667 -50.167 -78 -81.5l-207 -178v-75h439l-15 86h-272l112 93c54 44.667 91.5 84 112.5 118
s31.5 72 31.5 114c0 51.333 -18.667 92.166 -56 122.499s-88 45.5 -152 45.5c-66.667 0 -129 -17.333 -187 -52z" />
    <glyph glyph-name="three" unicode="3" horiz-adv-x="477" 
d="M118 561.5c-34 -11.667 -67.6631 -28.1689 -100.996 -49.502l53 -76c50.667 34.667 101.334 52 152.001 52c31.333 0 56.666 -8 75.999 -24s29 -35.333 29 -58c0 -28 -13 -50.5 -39 -67.5s-61 -25.5 -105 -25.5h-58l16 -87h36c55.333 0 96.166 -9.66699 122.499 -29
s39.5 -46.333 39.5 -81c0 -30 -12.5 -54.333 -37.5 -73s-54.5 -28 -88.5 -28c-30 0 -56.833 3.5 -80.5 10.5s-48.834 18.5 -75.501 34.5l-57 -76c32.667 -17.333 67.5 -31.666 104.5 -42.999s72.5 -17 106.5 -17c46 0 86.667 8.5 122 25.5s62.666 40.167 81.999 69.5
s29 62 29 98c0 26.667 -5 51 -15 73s-22.833 40 -38.5 54s-31.834 23 -48.501 27c24 9.33301 45 26.833 63 52.5s27 53.834 27 84.501c0 31.333 -7.83301 60 -23.5 86s-39.167 46.667 -70.5 62s-69 23 -113 23c-37.333 0 -73 -5.83301 -107 -17.5z" />
    <glyph glyph-name="four" unicode="4" horiz-adv-x="548" 
d="M423 571h-83l-330 -416l15 -92h285v-132h113v132h93l12 92h-105v416zM131 155l179 232v-232h-179z" />
    <glyph glyph-name="five" unicode="5" horiz-adv-x="506" 
d="M206 245c16.667 10 35.9961 15 57.9961 15c32.667 0 59.167 -10.5 79.5 -31.5s30.5 -49.833 30.5 -86.5c0 -38 -12.5 -68.167 -37.5 -90.5s-57.167 -33.5 -96.5 -33.5c-30.667 0 -57.667 3.5 -81 10.5s-48.666 18.167 -75.999 33.5l-55 -79
c30.667 -16.667 64.334 -30.667 101.001 -42s72.334 -17 107.001 -17c49.333 0 92.333 9.33301 129 28s64.834 44.5 84.501 77.5s29.5 70.5 29.5 112.5c-0.666992 38.667 -9.16699 73.667 -25.5 105s-40.833 56.333 -73.5 75s-73 28 -121 28c-31.333 0 -59.333 -7 -84 -21
l7 145h248l13 92h-358l-17 -354h102c7.33301 12 19.333 23 36 33z" />
    <glyph glyph-name="six" unicode="6" horiz-adv-x="522" 
d="M389 368c33.333 -17.333 59.333 -41.501 78 -72.501s28 -65.5 28 -103.5c0 -39.333 -9.33301 -74.666 -28 -105.999s-44.334 -55.666 -77.001 -72.999s-69.667 -26 -111 -26c-48.667 0 -92 10 -130 30s-67.667 50 -89 90s-32 88.333 -32 145
c0 73.333 19.667 137.666 59 192.999s88.333 98.833 147 130.5s117.334 51.167 176.001 58.5l18 -91c-61.333 -14 -117 -36 -167 -66s-85.667 -69.667 -107 -119c37.333 24 78 36 122 36c42 0 79.667 -8.66699 113 -26zM359.5 110.999c22.333 20.667 33.499 46 33.499 76
c0 34.667 -11.167 63 -33.5 85s-51.166 33 -86.499 33c-50 0 -96.333 -17.667 -139 -53c1.33301 -56 15 -98.667 41 -128s59.333 -44 100 -44c34 0 62.167 10.333 84.5 31z" />
    <glyph glyph-name="seven" unicode="7" horiz-adv-x="462" 
d="M408 566h-398l14 -92h293l-185 -512l105 -31l205 589z" />
    <glyph glyph-name="eight" unicode="8" horiz-adv-x="515" 
d="M149.5 619.5c-31 -15.667 -54.668 -36.5 -71.001 -62.5s-24.5 -54.667 -24.5 -86c0 -28.667 8.5 -54.834 25.5 -78.501s39.167 -41.5 66.5 -53.5c-20 -5.33301 -39.167 -16.333 -57.5 -33s-33 -36.167 -44 -58.5s-16.5 -44.5 -16.5 -66.5c0 -36 9.16699 -68.667 27.5 -98
s44.833 -52.666 79.5 -69.999s75.667 -26 123 -26c46.667 0 87.334 8.66699 122.001 26s61.167 40.666 79.5 69.999s27.5 62 27.5 98c0 23.333 -5.5 46 -16.5 68s-25.667 41 -44 57s-37.5 27 -57.5 33c26.667 12.667 48.667 30.834 66 54.501s26 49.5 26 77.5
c0 31.333 -8.16699 60 -24.5 86s-39.833 46.833 -70.5 62.5s-66.667 23.5 -108 23.5s-77.5 -7.83301 -108.5 -23.5zM329.499 527.5c19 -15.667 28.501 -34.5 28.501 -56.5c0 -24 -8.66699 -44.333 -26 -61s-42 -27.334 -74 -32.001
c-32.667 4.66699 -57.834 15.334 -75.501 32.001s-26.5 37 -26.5 61c0 21.333 9.5 40 28.5 56s42.833 24 71.5 24c30 0 54.5 -7.83301 73.5 -23.5zM351 254c22 -21.333 33 -46.333 33 -75c0 -30 -12.5 -54.333 -37.5 -73s-54.5 -28 -88.5 -28
c-35.333 0 -65.333 9.16699 -90 27.5s-37 42.833 -37 73.5c0 28.667 11 53.667 33 75s53.333 35 94 41c40 -6 71 -19.667 93 -41z" />
    <glyph glyph-name="nine" unicode="9" horiz-adv-x="522" 
d="M374 549c38 -20 67.668 -49.999 89.001 -89.999s32 -88.333 32 -145c0 -73.333 -19.667 -137.666 -59 -192.999s-88.333 -98.833 -147 -130.5s-117.334 -51.167 -176.001 -58.5l-18 91c61.333 14 117 36 167 66s85.667 69.667 107 119c-37.333 -24 -78 -36 -122 -36
c-42 0 -79.667 8.66699 -113 26s-59.333 41.5 -78 72.5s-28 65.5 -28 103.5c0 39.333 9.16699 74.666 27.5 105.999s44 55.666 77 72.999s70.167 26 111.5 26c48.667 0 92 -10 130 -30zM163.001 293.501c22 -21.667 51 -32.5 87 -32.5c50 0 96.333 17.667 139 53
c-1.33301 56 -15 98.667 -41 128s-59.333 44 -100 44c-34 0 -62.167 -10.333 -84.5 -31s-33.5 -46 -33.5 -76c0 -35.333 11 -63.833 33 -85.5z" />
    <glyph glyph-name="colon" unicode=":" horiz-adv-x="193" 
d="M144 353.5c12.667 13 18.999 28.833 18.999 47.5c0 18 -6.5 33.667 -19.5 47s-28.5 20 -46.5 20c-18.667 0 -34.5 -6.66699 -47.5 -20s-19.5 -29 -19.5 -47c0 -18.667 6.5 -34.5 19.5 -47.5s28.833 -19.5 47.5 -19.5s34.334 6.5 47.001 19.5zM143.999 28.5
c12.667 13 19 28.833 19 47.5s-6.33301 34.334 -19 47.001s-28.334 19 -47.001 19s-34.5 -6.33301 -47.5 -19s-19.5 -28.334 -19.5 -47.001s6.5 -34.5 19.5 -47.5s28.833 -19.5 47.5 -19.5s34.334 6.5 47.001 19.5z" />
    <glyph glyph-name="semicolon" unicode=";" horiz-adv-x="199" 
d="M54 448c-13.333 -13.333 -20 -29 -20 -47c0 -18.667 6.66699 -34.5 20 -47.5s29.333 -19.5 48 -19.5s34.5 6.5 47.5 19.5s19.5 28.833 19.5 47.5c0 18 -6.5 33.667 -19.5 47s-28.833 20 -47.5 20s-34.667 -6.66699 -48 -20zM52.5 121.5
c-13 -13.667 -19.501 -29.167 -19.501 -46.5c0 -16 5.66699 -30.833 17 -44.5s23 -20.834 35 -21.501c-3.33301 -18.667 -10 -34.167 -20 -46.5s-25 -26.5 -45 -42.5l26 -53c34.667 18.667 63.667 46.834 87 84.501s35 74.167 35 109.5c0 24 -6.66699 43.5 -20 58.5
s-29.666 22.5 -48.999 22.5c-18 0 -33.5 -6.83301 -46.5 -20.5z" />
    <glyph glyph-name="less" unicode="&#x3c;" horiz-adv-x="341" 
d="M321 379l-23 91l-268 -198v-55l268 -198l23 92l-180 134z" />
    <glyph glyph-name="equal" unicode="=" horiz-adv-x="511" 
d="M40 314h441l-9 84h-442zM40 112h441l-9 84h-442z" />
    <glyph glyph-name="greater" unicode="&#x3e;" horiz-adv-x="341" 
d="M20 379l180 -134l-180 -134l23 -92l268 198v55l-268 198z" />
    <glyph glyph-name="question" unicode="?" horiz-adv-x="427" 
d="M100.5 687c-29.667 -9.33301 -59.8311 -23.667 -90.498 -43l14 -100c62.667 42 120 63 172 63c29.333 0 52.666 -7.16699 69.999 -21.5s26 -34.833 26 -61.5c0 -29.333 -15.333 -57 -46 -83s-71 -47 -121 -63l8 -176l80 -33l15 151
c49.333 24.667 89.833 56.167 121.5 94.5s47.5 75.5 47.5 111.5c0 54 -16.833 96.667 -50.5 128s-82.834 47 -147.501 47c-36 0 -68.833 -4.66699 -98.5 -14zM120.503 113.499c-13 -13 -19.5 -28.833 -19.5 -47.5s6.5 -34.334 19.5 -47.001s28.5 -19 46.5 -19
c18.667 0 34.5 6.33301 47.5 19s19.5 28.334 19.5 47.001s-6.5 34.5 -19.5 47.5s-28.833 19.5 -47.5 19.5c-18 0 -33.5 -6.5 -46.5 -19.5z" />
    <glyph glyph-name="at" unicode="@" horiz-adv-x="764" 
d="M442 427c-40 0 -77.499 -8.66602 -112.499 -25.999s-63.167 -41.666 -84.5 -72.999s-32 -67.333 -32 -108c0 -48.667 14.5 -87.167 43.5 -115.5s72.167 -42.5 129.5 -42.5c15.333 0 30.666 2.5 45.999 7.5s29.333 11.167 42 18.5c21.333 -18 48 -27 80 -27
c54.667 0 98.834 21.167 132.501 63.5s50.5 102.833 50.5 181.5c0 56 -13.667 106.333 -41 151s-65 79.667 -113 105s-102 38 -162 38c-78 0 -146.833 -17 -206.5 -51s-105.667 -79.833 -138 -137.5s-48.5 -120.834 -48.5 -189.501c0 -62.667 15.5 -118.5 46.5 -167.5
s71.833 -87 122.5 -114s103.667 -40.5 159 -40.5c38.667 0 74.5 3 107.5 9s65.167 17 96.5 33l-28 86c-24 -12.667 -50.667 -21.834 -80 -27.501s-58 -8.5 -86 -8.5c-42.667 0 -82.167 9.33301 -118.5 28s-65.166 45.5 -86.499 80.5s-32 75.5 -32 121.5
c0 57.333 13.5 108 40.5 152s62.833 77.833 107.5 101.5s92 35.5 142 35.5c43.333 0 82 -9 116 -27s60.5 -43 79.5 -75s28.5 -68.333 28.5 -109c0 -30 -3.83301 -56.5 -11.5 -79.5s-17.834 -40.667 -30.501 -53s-26.334 -18.5 -41.001 -18.5c-8 0 -15.333 3.5 -22 10.5
s-9.66699 16.5 -9 28.5l23 199l-32 40h-78zM330.501 170.001c-11.667 14 -17.499 30.668 -17.499 50.001c0 38 12.667 68.333 38 91s56 34 92 34h12l-19 -148c-2.66699 -14.667 -8.5 -26.334 -17.5 -35.001s-20.167 -13 -33.5 -13c-24.667 0 -42.834 7 -54.501 21z" />
    <glyph glyph-name="A" unicode="A" horiz-adv-x="641" 
d="M121 0l65 171h267l67 -180l111 16l-262 673h-99l-260 -680h111zM317 527l102 -265h-201z" />
    <glyph glyph-name="B" unicode="B" horiz-adv-x="616" 
d="M521.5 51c44.333 34 66.498 82.667 66.498 146c0 41.333 -10.167 76 -30.5 104s-48.166 50 -83.499 66c53.333 38 80 80 80 126c0 65.333 -20.167 112.833 -60.5 142.5s-96.166 44.5 -167.499 44.5h-238v-680h256c74 0 133.167 17 177.5 51zM405.498 565.5
c21 -13.667 31.5 -38.167 31.5 -73.5c0 -32.667 -13 -56.667 -39 -72s-60.667 -23.333 -104 -24h-94v190h112c41.333 0 72.5 -6.83301 93.5 -20.5zM438.498 277c22.333 -18.667 33.499 -46 33.499 -82c0 -34 -12.167 -59.5 -36.5 -76.5s-57.166 -25.5 -98.499 -25.5h-137
v212h147c38.667 0 69.167 -9.33301 91.5 -28z" />
    <glyph glyph-name="C" unicode="C" 
d="M451 683c-34.667 7.33301 -63.998 11 -87.998 11c-65.333 0 -122.5 -15.333 -171.5 -46s-86.833 -73.167 -113.5 -127.5s-40 -115.833 -40 -184.5c0 -65.333 12.167 -124.5 36.5 -177.5s60.5 -95 108.5 -126s106 -46.5 174 -46.5c29.333 0 61.833 4 97.5 12
s65.5 18 89.5 30l-43 84c-47.333 -20.667 -97 -31 -149 -31c-40.667 0 -75.834 11.5 -105.501 34.5s-52.334 53.833 -68.001 92.5s-23.5 81.667 -23.5 129c0 52 9 97.833 27 137.5s42.5 70.334 73.5 92.001s65.833 32.5 104.5 32.5c27.333 0 49.5 -1.83301 66.5 -5.5
s43.167 -11.167 78.5 -22.5l34 81c-24 13.333 -53.333 23.666 -88 30.999z" />
    <glyph glyph-name="D" unicode="D" horiz-adv-x="684" 
d="M505 43c46.667 28.667 82 68.833 106 120.5s36 111.834 36 180.501c0 101.333 -26 182.666 -78 243.999s-128.667 92 -230 92h-251v-680h249c65.333 -0 121.333 14.333 168 43zM485 520.499c31.333 -42.333 47.001 -101.499 47.001 -177.499
c0 -82.667 -17.5 -144.834 -52.5 -186.501s-82.833 -62.5 -143.5 -62.5h-136v490h143c63.333 0 110.666 -21.167 141.999 -63.5z" />
    <glyph glyph-name="E" unicode="E" 
d="M200 88v213h243l-17 88h-226v203h298l-16 88h-394v-680h453l-17 88h-324z" />
    <glyph glyph-name="F" unicode="F" horiz-adv-x="500" 
d="M200 592h280l-17 88h-375v-680h112v297h232l-15 86h-217v209z" />
    <glyph glyph-name="G" unicode="G" horiz-adv-x="629" 
d="M479 95c-34.667 -9.33301 -69.6611 -13.999 -104.994 -13.999c-42.667 0 -80.5 10.5 -113.5 31.5s-58.833 50.833 -77.5 89.5s-28 83.667 -28 135c0 55.333 10.667 102.833 32 142.5s50 69.5 86 89.5s75.667 30 119 30c27.333 0 49.166 -1.83301 65.499 -5.5
s42.5 -11.167 78.5 -22.5l35 81c-24.667 13.333 -54.834 23.666 -90.501 30.999s-65.834 11 -90.501 11c-66.667 0 -126.834 -15.167 -180.501 -45.5s-95.667 -72.833 -126 -127.5s-45.5 -116.334 -45.5 -185.001c0 -65.333 13.667 -124.666 41 -177.999
s66.666 -95.333 117.999 -126s111.333 -46 180 -46c38 0 75.167 4.5 111.5 13.5s67.166 20.833 92.499 35.5v329h-238l-9 -86h145v-183z" />
    <glyph glyph-name="H" unicode="H" horiz-adv-x="685" 
d="M485 680v-294h-285v299l-112 -5v-680h112v296h285v-296h112v680h-112z" />
    <glyph glyph-name="I" unicode="I" horiz-adv-x="287" 
d="M88 680v-680h112v680h-112z" />
    <glyph glyph-name="J" unicode="J" horiz-adv-x="281" 
d="M84.5 31.5c-3.66699 -11 -11 -20.168 -22 -27.501s-28.5 -15.333 -52.5 -24l45 -82c38.667 12 68.5 24.833 89.5 38.5s36 30.334 45 50.001s13.5 44.5 13.5 74.5v619h-113v-600c0 -21.333 -1.83301 -37.5 -5.5 -48.5z" />
    <glyph glyph-name="K" unicode="K" horiz-adv-x="641" 
d="M200 224v-224h-112v680h112v-300l303 315l81 -65l-237 -251l284 -379h-138l-223 299z" />
    <glyph glyph-name="L" unicode="L" horiz-adv-x="529" 
d="M200 680h-112v-680h431l-16 88h-303v592z" />
    <glyph glyph-name="M" unicode="M" horiz-adv-x="767" 
d="M566 0h114v680h-69l-219 -325l-234 325h-70v-680h112v449l175 -237l43 6l148 215v-433z" />
    <glyph glyph-name="N" unicode="N" horiz-adv-x="729" 
d="M534 0h107v680h-113v-479l-334 479h-106v-680h112v482z" />
    <glyph glyph-name="O" unicode="O" horiz-adv-x="733" 
d="M196 647.5c-50 -31 -88.834 -73.502 -116.501 -127.502s-41.5 -115 -41.5 -183c0 -66.667 13.5 -126.667 40.5 -180s65.333 -95.166 115 -125.499s106.834 -45.5 171.501 -45.5c64 0.666992 121 16.334 171 47.001s89 73 117 127s42 115.333 42 184
c0 66.667 -13.5 126.667 -40.5 180s-65.5 95.333 -115.5 126s-107.667 46 -173 46c-63.333 -1.33301 -120 -17.5 -170 -48.5zM182.999 473.998c18.667 40 44.333 71 77 93s68.667 33 108 33c41.333 0 77.833 -11 109.5 -33s56.167 -52.333 73.5 -91s26 -82.667 26 -132
c0 -53.333 -9.33301 -99.833 -28 -139.5s-44.167 -70.167 -76.5 -91.5s-68.5 -32 -108.5 -32c-41.333 0 -77.833 11 -109.5 33s-56.167 52.5 -73.5 91.5s-26 83.167 -26 132.5c0 50.667 9.33301 96 28 136z" />
    <glyph glyph-name="P" unicode="P" horiz-adv-x="582" 
d="M282 244c49.333 0 94.5 8 135.5 24s74 40.667 99 74s37.5 74.333 37.5 123c0 73.333 -24.167 127.5 -72.5 162.5s-111.833 52.5 -190.5 52.5h-203v-680h112v244h82zM398.5 557c25 -19.333 37.5 -52 37.5 -98c-2 -41.333 -16.167 -72 -42.5 -92s-61.833 -30 -106.5 -30
h-87v249h89c48 0 84.5 -9.66699 109.5 -29z" />
    <glyph glyph-name="Q" unicode="Q" horiz-adv-x="733" 
d="M673 206.5c-14.667 -42.333 -35.999 -79.167 -63.999 -110.5l70 -69l-65 -57l-72 67c-51.333 -33.333 -110.333 -50.333 -177 -51c-64.667 0 -121.834 15.167 -171.501 45.5s-88 72.166 -115 125.499s-40.5 113.333 -40.5 180c0 68 13.833 129 41.5 183
s66.5 96.5 116.5 127.5s106.667 47.167 170 48.5c65.333 0 123 -15.333 173 -46s88.5 -72.667 115.5 -126s40.5 -113.333 40.5 -180c0 -49.333 -7.33301 -95.166 -22 -137.499zM465.001 107.999l-84.999 79.001l77 59l75 -74c30 47.333 45 104.666 45 171.999
c0 49.333 -8.66699 93.333 -26 132s-41.833 69 -73.5 91s-68.167 33 -109.5 33c-39.333 0 -75.333 -11 -108 -33s-58.334 -53 -77.001 -93s-28 -85.333 -28 -136c0 -49.333 8.66699 -93.5 26 -132.5s41.833 -69.5 73.5 -91.5s68.167 -33 109.5 -33c37.333 0 71 9 101 27z
" />
    <glyph glyph-name="R" unicode="R" horiz-adv-x="616" 
d="M200 0l0.00195312 265h82c23.333 0 41.666 1 54.999 3l148 -268h121l-169 296c35.333 16 63.666 39.333 84.999 70s32 67 32 109c0 68 -24.333 119.167 -73 153.5s-112 51.5 -190 51.5h-203v-680h112zM398.002 559c25.333 -18 38.001 -47.667 38.001 -89
c0 -39.333 -13.667 -68 -41 -86s-63.333 -27 -108 -27h-87v229h89c47.333 0 83.666 -9 108.999 -27z" />
    <glyph glyph-name="S" unicode="S" horiz-adv-x="522" 
d="M139 4.5c42 -11.667 77.3281 -17.5 105.995 -17.5c52.667 0 97.834 7.83301 135.501 23.5s66.167 37.5 85.5 65.5s29 60 29 96c0 33.333 -8.16699 62.5 -24.5 87.5s-37.333 46.333 -63 64s-59.834 37.5 -102.501 59.5c-40.667 20.667 -70.5 36.5 -89.5 47.5
s-34.333 23.667 -46 38s-17.5 30.833 -17.5 49.5c0 26 11 45.667 33 59s50.333 20 85 20c27.333 0 51.833 -3.33301 73.5 -10s45.167 -16 70.5 -28l38 89c-28 14 -58.167 25.5 -90.5 34.5s-64.166 13.5 -95.499 13.5c-46.667 0 -87.167 -7.83301 -121.5 -23.5
s-60.666 -37 -78.999 -64s-27.5 -57.5 -27.5 -91.5c0 -47.333 15.833 -86.833 47.5 -118.5s78.834 -63.5 141.501 -95.5c37.333 -18.667 65.833 -33.667 85.5 -45s35.834 -24.166 48.501 -38.499s19 -30.166 19 -47.499c0 -27.333 -11.667 -48.5 -35 -63.5
s-57 -22.5 -101 -22.5c-27.333 0 -56.666 4.66699 -87.999 14s-58.333 19.666 -81 30.999l-25 -90c17.333 -12.667 47 -24.834 89 -36.501z" />
    <glyph glyph-name="T" unicode="T" horiz-adv-x="581" 
d="M10 591h214v-591h114v591h233l-17 89h-544v-89z" />
    <glyph glyph-name="U" unicode="U" horiz-adv-x="700" 
d="M78 245c0 -48.667 11.1689 -92.5 33.502 -131.5s54 -69.5 95 -91.5s88.833 -33 143.5 -33s102.5 11 143.5 33s72.667 52.5 95 91.5s33.5 82.833 33.5 131.5v435h-113v-426c0 -54.667 -14.333 -97.167 -43 -127.5s-67.334 -45.5 -116.001 -45.5s-87.334 15 -116.001 45
s-43 72.667 -43 128v426h-113v-435z" />
    <glyph glyph-name="V" unicode="V" horiz-adv-x="641" 
d="M273 0h98l260 680h-111l-196 -527l-202 536l-112 -16z" />
    <glyph glyph-name="W" unicode="W" horiz-adv-x="909" 
d="M600 0l-146 520l-143 -520h-98l-203 673l112 16l142 -536l136 527h111l140 -527l136 527h112l-201 -680h-98z" />
    <glyph glyph-name="X" unicode="X" horiz-adv-x="620" 
d="M478 0h119l-220 337l233 343h-117l-173 -265l-195 285l-95 -42l221 -314l-241 -344h116l182 266z" />
    <glyph glyph-name="Y" unicode="Y" horiz-adv-x="593" 
d="M583 680h-119l-175 -299l-169 315l-110 -36l224 -392v-268h112l1 266z" />
    <glyph glyph-name="Z" unicode="Z" horiz-adv-x="570" 
d="M549 591l-13 89h-490l14 -89h359l-401 -503l13 -88h520l-12 88h-399z" />
    <glyph glyph-name="bracketleft" unicode="[" horiz-adv-x="339" 
d="M312 -1h-102v609h102l17 88h-229v-784h229z" />
    <glyph glyph-name="backslash" unicode="\" horiz-adv-x="436" 
d="M10 706l301 -710l115 4l-301 710z" />
    <glyph glyph-name="bracketright" unicode="]" horiz-adv-x="339" 
d="M25 608h102v-609h-102l-15 -87h229v784h-229z" />
    <glyph glyph-name="asciicircum" unicode="^" horiz-adv-x="443" 
d="M433 143l-174 247h-74l-175 -247h115l96 137l97 -137h115z" />
    <glyph glyph-name="underscore" unicode="_" horiz-adv-x="441" 
d="M40 0h371l-10 88h-371z" />
    <glyph glyph-name="grave" unicode="`" horiz-adv-x="190" 
d="M128 750h-118l92 -161l78 21z" />
    <glyph glyph-name="a" unicode="a" horiz-adv-x="498" 
d="M243 396c57.333 0 86.666 -33.665 87.999 -100.998h-106c-54 0 -97.5 -13.333 -130.5 -40s-49.5 -64.334 -49.5 -113.001c0 -46.667 14.5 -84 43.5 -112s71.5 -42 127.5 -42c24 0 48 5.66699 72 17s45.333 26 64 44l17 -49h75v324c0 32.667 -9 62.167 -27 88.5
s-42.5 47.166 -73.5 62.499s-65.167 23 -102.5 23c-22.667 0 -52.167 -4.33301 -88.5 -13s-63.166 -18.667 -80.499 -30l31 -92c49.333 22 96 33 140 33zM164.5 197.502c14.333 15 33.835 22.5 58.502 22.5h109v-87c-16.667 -17.333 -35.334 -31 -56.001 -41
s-41.334 -15 -62.001 -15c-22 0 -39.333 6.5 -52 19.5s-19 28.167 -19 45.5c0 22 7.16699 40.5 21.5 55.5z" />
    <glyph glyph-name="b" unicode="b" horiz-adv-x="545" 
d="M404 466.5c36.667 -21 64.8311 -50.834 84.498 -89.501s29.5 -84 29.5 -136c0 -50 -10 -94.167 -30 -132.5s-48.5 -68.166 -85.5 -89.499s-80.167 -32 -129.5 -32c-18 0 -38.167 4 -60.5 12s-43.166 18.667 -62.499 32l-23 -31h-59v695l112 11v-234
c32.667 17.333 64.334 26 95.001 26c49.333 0 92.333 -10.5 129 -31.5zM367.497 127.999c23 29.333 34.501 67 34.501 113c0 48 -11.333 86.833 -34 116.5s-54.334 44.5 -95.001 44.5c-17.333 0 -33.5 -2.66699 -48.5 -8s-29.833 -13.333 -44.5 -24v-256
c27.333 -20 58.333 -30 93 -30c40 0 71.5 14.667 94.5 44z" />
    <glyph glyph-name="c" unicode="c" horiz-adv-x="468" 
d="M344 92c-20 -5.33301 -42.3311 -8.00488 -66.998 -8.00488c-40.667 0 -73.167 14.667 -97.5 44s-36.5 67.666 -36.5 114.999c0.666992 46 13.5 84 38.5 114s57.5 45 97.5 45c23.333 0 44.833 -2.66699 64.5 -8s42.5 -13.666 68.5 -24.999l32 80
c-20.667 14.667 -47.667 26.5 -81 35.5s-61.333 13.5 -84 13.5c-50.667 0 -95 -10.667 -133 -32s-67.167 -51.166 -87.5 -89.499s-30.5 -82.833 -30.5 -133.5c0 -51.333 10.167 -96.166 30.5 -134.499s49.166 -68.166 86.499 -89.499s81.333 -32 132 -32
c23.333 0 51.666 4.33301 84.999 13s60.333 20.334 81 35.001l-33 82c-24 -11.333 -46 -19.666 -66 -24.999z" />
    <glyph glyph-name="d" unicode="d" horiz-adv-x="558" 
d="M490 0l-61 0.000976562l-24 40c-20.667 -16.667 -42.834 -29.667 -66.501 -39s-46.5 -14 -68.5 -14c-49.333 0 -92.166 10.667 -128.499 32s-64.333 51.333 -84 90s-29.5 83.667 -29.5 135c0 50.667 9.83301 95.167 29.5 133.5s48 68 85 89s80.167 31.5 129.5 31.5
c15.333 0 32.333 -2.83301 51 -8.5s36.667 -13.834 54 -24.501v230l113 10v-705zM177.5 128.001c23 -29.333 54.5 -44 94.5 -44c20 0 38.333 3.16699 55 9.5s33.334 16.5 50.001 30.5v238c-16 14 -32.333 24.167 -49 30.5s-35.334 9.5 -56.001 9.5
c-40 0 -71.5 -14.667 -94.5 -44s-34.5 -67 -34.5 -113c0 -48.667 11.5 -87.667 34.5 -117z" />
    <glyph glyph-name="e" unicode="e" horiz-adv-x="509" 
d="M427 427c-36.667 47.333 -90.666 71.001 -161.999 71.001c-48.667 0 -90.834 -10.667 -126.501 -32s-63 -51.166 -82 -89.499s-28.5 -82.833 -28.5 -133.5c0 -78.667 23.167 -140.834 69.5 -186.501s113.5 -68.5 201.5 -68.5c65.333 0 125 18.667 179 56l-34 82
c-28.667 -14.667 -53.167 -25.5 -73.5 -32.5s-43.5 -10.5 -69.5 -10.5c-93.333 0 -145 43.333 -155 130h336v33c0 73.333 -18.333 133.666 -55 180.999zM184.501 372.001c19.667 20 45.499 29.999 77.499 29.999c31.333 0 56.333 -9.66699 75 -29s31 -47.666 37 -84.999
h-226c4.66699 36 16.834 64 36.501 84z" />
    <glyph glyph-name="f" unicode="f" horiz-adv-x="348" 
d="M88 0h112.999v395h126l-36 86h-90v37c0 26.667 5.33301 47.667 16 63s27.334 23 50.001 23c12 0 28.667 -4 50 -12l31 84c-9.33301 7.33301 -22.833 13.5 -40.5 18.5s-33.834 7.5 -48.501 7.5c-53.333 0 -95.166 -15.167 -125.499 -45.5s-45.5 -71.833 -45.5 -124.5v-51
h-74v-86h74v-395z" />
    <glyph glyph-name="g" unicode="g" horiz-adv-x="554" 
d="M490 -33c0 -60.667 -21.834 -108.665 -65.501 -143.998s-103.5 -53 -179.5 -53c-24 0 -55.167 4.66699 -93.5 14s-68.5 21.666 -90.5 36.999l34 81c30 -14 55.833 -24.333 77.5 -31s44.834 -10 69.501 -10c40 0 72.5 9.5 97.5 28.5s37.5 45.167 37.5 78.5v52
c-17.333 -10.667 -35.333 -18.834 -54 -24.501s-36.334 -8.5 -53.001 -8.5c-49.333 0 -92.166 10.667 -128.499 32s-64.333 51.333 -84 90s-29.5 83.667 -29.5 135c0 50.667 9.83301 95.167 29.5 133.5s48 68 85 89s80.167 31.5 129.5 31.5c20 0 42.333 -4.66699 67 -14
s46.667 -22 66 -38l24 39h61v-518zM326.999 93.502c16.667 6.33301 33.334 16.5 50.001 30.5v238c-16 14 -32.333 24.167 -49 30.5s-35.334 9.5 -56.001 9.5c-40 0 -71.5 -14.667 -94.5 -44s-34.5 -67 -34.5 -113c0 -48.667 11.5 -87.667 34.5 -117s54.5 -44 94.5 -44
c20 0 38.333 3.16699 55 9.5z" />
    <glyph glyph-name="h" unicode="h" horiz-adv-x="563" 
d="M509 312l0.000976562 -312h-112v305c0 67.333 -25.333 101 -76 101c-40 0 -87 -22.333 -141 -67v-339h-112v695l112 11v-266c27.333 18.667 55.666 33.5 84.999 44.5s57 16.5 83 16.5c107.333 0 161 -63 161 -189z" />
    <glyph glyph-name="i" unicode="i" horiz-adv-x="228" 
d="M160.5 582.5c13 13 19.5 28.833 19.5 47.5c0 18 -6.5 33.5 -19.5 46.5s-28.833 19.5 -47.5 19.5c-18 0 -33.333 -6.5 -46 -19.5s-19 -28.5 -19 -46.5c0 -18.667 6.16699 -34.5 18.5 -47.5s27.833 -19.5 46.5 -19.5s34.5 6.5 47.5 19.5zM58 485v-485h113v485h-113z" />
    <glyph glyph-name="j" unicode="j" horiz-adv-x="250" 
d="M82 582.5c-12.667 13 -19 28.833 -19 47.5c0 18 6.33301 33.5 19 46.5s28.334 19.5 47.001 19.5s34.667 -6.5 48 -19.5s20 -28.5 20 -46.5c0 -18.667 -6.66699 -34.5 -20 -47.5s-29.333 -19.5 -48 -19.5s-34.334 6.5 -47.001 19.5zM176.5 -95.5
c-7 -23 -21.001 -42.832 -42.001 -59.499s-52.167 -31.667 -93.5 -45l-43 84c22.667 8 39.334 17.167 50.001 27.5s17.5 22.166 20.5 35.499s4.5 32 4.5 56v482h114v-489c0 -38 -3.5 -68.5 -10.5 -91.5z" />
    <glyph glyph-name="k" unicode="k" horiz-adv-x="502" 
d="M237 220l135 -220h130l-186 292l140 129l-64 77l-212 -201v409l-112 -11v-695h112v167z" />
    <glyph glyph-name="l" unicode="l" horiz-adv-x="247" 
d="M68 695v-695h112v706z" />
    <glyph glyph-name="m" unicode="m" horiz-adv-x="848" 
d="M757.5 454c25 -31.333 37.499 -75.334 37.499 -132.001v-322h-113v305c0 33.333 -5.16699 58.5 -15.5 75.5s-27.833 25.5 -52.5 25.5c-19.333 0 -39.666 -5.66699 -60.999 -17s-44.333 -26.666 -69 -45.999l1 -21v-322h-113v305c0 33.333 -5.16699 58.5 -15.5 75.5
s-27.833 25.5 -52.5 25.5c-35.333 0 -80 -22.333 -134 -67v-339h-112v485h75l20 -58c28 22 58 39.833 90 53.5s61.333 20.5 88 20.5c65.333 0 109.666 -24.333 132.999 -73c28 22 57.833 39.667 89.5 53s60.834 20 87.501 20c52.667 0 91.5 -15.667 116.5 -47z" />
    <glyph glyph-name="n" unicode="n" horiz-adv-x="553" 
d="M312 406c50 0 74.999 -33.668 74.999 -101.001v-305h113v312c0 58.667 -12.667 104.834 -38 138.501s-66.333 50.5 -123 50.5c-29.333 0 -60.666 -6.66699 -93.999 -20s-64 -31.333 -92 -54l-20 58h-75v-485h112v339c54 44.667 101.333 67 142 67z" />
    <glyph glyph-name="o" unicode="o" horiz-adv-x="556" 
d="M498 109c-20.667 -38.667 -50.002 -68.6621 -88.002 -89.9951s-82.333 -32 -133 -32s-94.667 10.667 -132 32s-66.166 51.166 -86.499 89.499s-30.5 83.166 -30.5 134.499c0 50.667 10.167 95.167 30.5 133.5s49.5 68.166 87.5 89.499s82.333 32 133 32
s94.834 -10.5 132.501 -31.5s66.667 -50.833 87 -89.5s30.5 -83.334 30.5 -134.001s-10.333 -95.334 -31 -134.001zM375.498 129.005c25 30 37.5 67.666 37.5 112.999c0 47.333 -12.167 85.833 -36.5 115.5s-56.833 44.5 -97.5 44.5c-40 0 -72.5 -15 -97.5 -45
s-37.833 -68 -38.5 -114c0 -47.333 12.167 -85.666 36.5 -114.999s56.833 -44 97.5 -44s73.5 15 98.5 45z" />
    <glyph glyph-name="p" unicode="p" horiz-adv-x="541" 
d="M400 466.5c36.667 -21 64.833 -50.835 84.5 -89.502s29.5 -84 29.5 -136c0 -50 -10 -94.167 -30 -132.5s-48.5 -68.166 -85.5 -89.499s-80.167 -32 -129.5 -32c-29.333 0 -60.333 8.66699 -93 26v-221l-112 -11v704h59l24 -32c19.333 14.667 40 25.834 62 33.501
s42.667 11.5 62 11.5c49.333 0 92.333 -10.5 129 -31.5zM363.499 127.998c23 29.333 34.501 67 34.501 113c0 48 -11.333 86.833 -34 116.5s-54.334 44.5 -95.001 44.5c-17.333 0 -33.5 -2.66699 -48.5 -8s-29.833 -13.333 -44.5 -24v-256c27.333 -20 58.333 -30 93 -30
c40 0 71.5 14.667 94.5 44z" />
    <glyph glyph-name="q" unicode="q" horiz-adv-x="554" 
d="M490 -209l-113 -10v239c-17.333 -10.667 -35.333 -18.834 -54 -24.501s-36.334 -8.5 -53.001 -8.5c-49.333 0 -92.166 10.667 -128.499 32s-64.333 51.333 -84 90s-29.5 83.667 -29.5 135c0 50.667 9.83301 95.167 29.5 133.5s48 68 85 89s80.167 31.5 129.5 31.5
c19.333 0 41.333 -4.66699 66 -14s46.667 -21.666 66 -36.999l25 38h61v-694zM327 93.5c16.667 6.33301 33.334 16.5 50.001 30.5v238c-16 14 -32.333 24.167 -49 30.5s-35.334 9.5 -56.001 9.5c-40 0 -71.5 -14.667 -94.5 -44s-34.5 -67 -34.5 -113
c0 -48.667 11.5 -87.667 34.5 -117s54.5 -44 94.5 -44c20 0 38.333 3.16699 55 9.5z" />
    <glyph glyph-name="r" unicode="r" horiz-adv-x="352" 
d="M258 370c32 16.667 60 25 84 25l-23 90c-23.333 0 -50.5 -8.33301 -81.5 -25s-58.5 -35 -82.5 -55l-37 80h-60v-485h112v309c26.667 24 56 44.333 88 61z" />
    <glyph glyph-name="s" unicode="s" horiz-adv-x="421" 
d="M109.5 -0.5c32.333 -8.33301 60.498 -12.4961 84.498 -12.4961c64.667 0 114.167 13 148.5 39s51.5 62.667 51.5 110c0 67.333 -55 120.666 -165 159.999c-27.333 9.33301 -48.666 18.666 -63.999 27.999s-23.333 19.666 -24 30.999c0 14.667 7 27 21 37s31.333 15 52 15
c22.667 0 43.834 -2.83301 63.501 -8.5s41.167 -13.834 64.5 -24.501l35 76c-21.333 14.667 -47.833 26.334 -79.5 35.001s-58.834 13 -81.501 13c-57.333 0 -102.666 -12.833 -135.999 -38.5s-50 -60.834 -50 -105.501c0 -64 53.333 -113.333 160 -148
c64 -20.667 96 -45.667 96 -75c0 -16 -9 -28.667 -27 -38s-39.667 -14 -65 -14c-40 0 -83 11 -129 33l-34 -78c20 -14.667 46.167 -26.167 78.5 -34.5z" />
    <glyph glyph-name="t" unicode="t" horiz-adv-x="360" 
d="M192 622l-112.001 -22v-119h-67v-86h67v-250c0 -52.667 15.333 -93 46 -121s73 -42 127 -42c14.667 0 30.834 2.5 48.501 7.5s31.5 10.833 41.5 17.5l-31 83c-18 -8 -34.667 -12 -50 -12c-23.333 0 -40.833 7.83301 -52.5 23.5s-17.5 36.5 -17.5 62.5v231h122l-34 86h-88
v141z" />
    <glyph glyph-name="u" unicode="u" horiz-adv-x="553" 
d="M241 79c-50 0 -74.999 33.667 -74.999 101v305h-112v-312c0 -126 53.333 -189 160 -189c29.333 0 60.666 6.66699 93.999 20s64 31.333 92 54l20 -58h76v485h-113v-339c-54 -44.667 -101.333 -67 -142 -67z" />
    <glyph glyph-name="v" unicode="v" horiz-adv-x="487" 
d="M360 485l-118 -323l-123 341l-109 -36l180 -467h100l187 485h-117z" />
    <glyph glyph-name="w" unicode="w" horiz-adv-x="709" 
d="M582 485l-83 -313l-87 313h-122l-83 -313l-88 330l-109 -35l146 -467h99l94 322l99 -322h98l153 485h-117z" />
    <glyph glyph-name="x" unicode="x" horiz-adv-x="489" 
d="M340 0h124l-151 230l166 255h-123l-108 -167l-118 184l-102 -36l146 -219l-164 -247h125l104 160z" />
    <glyph glyph-name="y" unicode="y" horiz-adv-x="488" 
d="M116.5 -91.5c-19.667 -12.333 -45.8311 -25.5 -78.498 -39.5l39 -90c41.333 9.33301 79.166 27 113.499 53s58.166 56.667 71.499 92l216 561h-118l-117 -322l-124 340l-109 -36l172 -444l-25 -66c-7.33301 -20 -20.833 -36.167 -40.5 -48.5z" />
    <glyph glyph-name="z" unicode="z" horiz-adv-x="438" 
d="M55 393h218l-257 -334l14 -59h393l-10 90h-257l261 332l-6 63h-379z" />
    <glyph glyph-name="braceleft" unicode="{" horiz-adv-x="286" 
d="M208 349.5c6.66699 16.333 9.99805 36.832 9.99805 61.499c0 12.667 -1.66699 24.167 -5 34.5s-8 22.166 -14 35.499c-5.33301 13.333 -9.33301 24 -12 32s-4 17 -4 27c0 8 4 15.5 12 22.5s19.667 10.5 35 10.5h35l11 86h-42c-47.333 0 -83.166 -10 -107.499 -30
s-36.5 -48.667 -36.5 -86c0 -18.667 5.33301 -44 16 -76c9.33301 -29.333 14 -51 14 -65c0 -16.667 -4.66699 -30.334 -14 -41.001s-20.666 -16 -33.999 -16h-42v-74h42c13.333 0 25.166 -5.16699 35.499 -15.5s15.5 -23.166 15.5 -38.499c0 -14.667 -5.66699 -37 -17 -67
c-4 -12 -7.83301 -24.5 -11.5 -37.5s-5.5 -24.167 -5.5 -33.5c0 -80.667 48.333 -121 145 -121h42l-11 86h-35c-14.667 0 -26.167 3.33301 -34.5 10s-12.5 14.334 -12.5 23.001c0 10 1.33301 19.5 4 28.5s7 20.833 13 35.5c6 12.667 10.5 24 13.5 34s4.5 20.333 4.5 31
c0 46.667 -14 81.334 -42 104.001c14.667 10 25.334 23.167 32.001 39.5z" />
    <glyph glyph-name="bar" unicode="|" horiz-adv-x="287" 
d="M199 -8v712l-111 8v-712z" />
    <glyph glyph-name="braceright" unicode="}" horiz-adv-x="285" 
d="M67 206c0 -10.667 1.49805 -20.999 4.49805 -30.999s7.5 -21.333 13.5 -34c6 -14.667 10.333 -26.5 13 -35.5s4 -18.5 4 -28.5c0 -8.66699 -4.16699 -16.334 -12.5 -23.001s-19.833 -10 -34.5 -10h-36l-10 -86h42c96.667 0 145 40.333 145 121
c0 9.33301 -1.83301 20.5 -5.5 33.5s-7.5 25.5 -11.5 37.5c-11.333 30 -17 52.333 -17 67c0 15.333 5.16699 28.166 15.5 38.499s22.166 15.5 35.499 15.5h42v74h-42c-13.333 0 -24.666 5.33301 -33.999 16s-14 24.334 -14 41.001c0 14 4.66699 35.667 14 65
c10.667 32 16 57.333 16 76c0 37.333 -12.167 66 -36.5 86s-60.166 30 -107.499 30h-42l10 -86h36c15.333 0 27 -3.5 35 -10.5s12 -14.5 12 -22.5c0 -10 -1.33301 -19 -4 -27s-6.66699 -18.667 -12 -32c-6 -13.333 -10.667 -25.166 -14 -35.499s-5 -21.833 -5 -34.5
c0 -24.667 3.33301 -45.167 10 -61.5s17.334 -29.5 32.001 -39.5c-28 -22.667 -42 -57.334 -42 -104.001z" />
    <glyph glyph-name="asciitilde" unicode="~" horiz-adv-x="454" 
d="M138.5 209.5c6.33301 6.33301 13.168 9.50098 20.501 9.50098c13.333 0 25 -1.5 35 -4.5s21 -7.16699 33 -12.5c14.667 -6.66699 27.667 -11.5 39 -14.5s25 -4.5 41 -4.5c34 0 62 12 84 36s33 61.667 33 113h-98c-0.666992 -14 -4.33398 -24.167 -11.001 -30.5
s-13.667 -9.5 -21 -9.5c-12.667 0 -23.667 1.33301 -33 4s-20 7 -32 13c-14.667 6 -27.667 10.667 -39 14s-25.333 5 -42 5c-34.667 0 -63 -12.167 -85 -36.5s-33 -61.5 -33 -111.5h98c0.666992 13.333 4.16699 23.166 10.5 29.499z" />
    <glyph glyph-name="uni00A0" unicode="&#xa0;" horiz-adv-x="236" 
 />
    <glyph glyph-name="exclamdown" unicode="&#xa1;" horiz-adv-x="194" 
d="M144.5 587.5c13 13 19.5 28.833 19.5 47.5s-6.5 34.5 -19.5 47.5s-28.833 19.5 -47.5 19.5s-34.5 -6.5 -47.5 -19.5s-19.5 -28.833 -19.5 -47.5s6.5 -34.5 19.5 -47.5s28.833 -19.5 47.5 -19.5s34.5 6.5 47.5 19.5zM37 0h119l-14 465l-89 40z" />
    <glyph glyph-name="cent" unicode="&#xa2;" horiz-adv-x="468" 
d="M343 -4v-109.996h-108v104c-64 8.66699 -114.5 35.667 -151.5 81s-55.5 102.666 -55.5 171.999c0 68 18.333 124.667 55 170s86.667 72.666 150 81.999v103l109 11v-119c43.333 -10.667 77.333 -24.334 102 -41.001l-32 -80c-26 11.333 -48.833 19.666 -68.5 24.999
s-41.167 8 -64.5 8c-40 0 -72.5 -15 -97.5 -45s-37.833 -68 -38.5 -114c0 -47.333 12.167 -85.666 36.5 -114.999s56.833 -44 97.5 -44c24.667 0 47 2.66699 67 8s42 13.666 66 24.999l33 -82c-26 -18 -59.333 -31 -100 -39z" />
    <glyph glyph-name="sterling" unicode="&#xa3;" horiz-adv-x="486" 
d="M460 88l-249.003 0.000976562c16.667 24.667 25 64 25 118v95h160l-38 85h-122v115c0 26 5.33301 46.667 16 62s27.334 23 50.001 23c14 0 30.667 -3.66699 50 -11l31 82c-9.33301 7.33301 -22.666 13.666 -39.999 18.999s-33.666 8 -48.999 8
c-55.333 0 -97.833 -15.833 -127.5 -47.5s-44.5 -75.5 -44.5 -131.5v-119h-74v-85h74v-128c0 -27.333 -5.5 -48.333 -16.5 -63s-29.5 -22 -55.5 -22l9 -88h417z" />
    <glyph glyph-name="currency" unicode="&#xa4;" horiz-adv-x="691" 
d="M563 103c26 40.667 39.334 87.002 40.001 139.002c-1.33301 53.333 -14.333 99.666 -39 138.999l97 99l-68 82l-105 -106c-43.333 27.333 -90 41.333 -140 42c-50.667 -0.666992 -98.334 -15 -143.001 -43l-107 107l-68 -82l101 -102c-12 -18 -21.5 -38.833 -28.5 -62.5
s-10.5 -48.167 -10.5 -73.5c0 -50.667 12.333 -96.334 37 -137.001l-99 -102l68 -81l106 107c43.333 -27.333 90.333 -41.333 141 -42c52.667 0 100 13.667 142 41l106 -106l68 81zM467.501 166.002c-13 -22.667 -30.332 -40.668 -51.999 -54.001s-45.167 -20 -70.5 -20
s-48.333 6.83301 -69 20.5s-37.167 32 -49.5 55s-18.5 48.167 -18.5 75.5c0 26.667 6.33301 51.334 19 74.001s29.667 40.667 51 54s44.333 20 69 20c25.333 0 48.666 -6.5 69.999 -19.5s38.333 -31 51 -54s19 -48.5 19 -76.5c0 -27.333 -6.5 -52.333 -19.5 -75z" />
    <glyph glyph-name="yen" unicode="&#xa5;" horiz-adv-x="593" 
d="M583 680h-119l-175 -299l-169 315l-110 -36l224 -392v-268h112l1 266zM292 266v9h9v-9h-9zM301 116v-10h-9v10h9z" />
    <glyph glyph-name="brokenbar" unicode="&#xa6;" horiz-adv-x="287" 
d="M199 406v298l-111 8v-297zM199 -8v296l-111 7v-295z" />
    <glyph glyph-name="section" unicode="&#xa7;" horiz-adv-x="592" 
d="M544.5 176.5c-13 -23.667 -31.8291 -43.8359 -56.4961 -60.5029c4.66699 -14 7 -30.667 7 -50c0 -36 -9.66699 -68 -29 -96s-47.833 -49.833 -85.5 -65.5s-82.834 -23.5 -135.501 -23.5c-28.667 0 -64 5.83301 -106 17.5s-71.667 23.834 -89 36.501l25 90
c22.667 -11.333 49.667 -21.666 81 -30.999s60.666 -14 87.999 -14c44 0 77.667 7.5 101 22.5s35 36.167 35 63.5c0 17.333 -6.33301 33.166 -19 47.499s-28.834 27.166 -48.501 38.499s-48.167 26.333 -85.5 45c-62.667 32 -109.834 63.833 -141.501 95.5
s-47.5 71.167 -47.5 118.5c0 28.667 6.66699 54.834 20 78.501s32.333 43.834 57 60.501c-5.33301 16 -8 33 -8 51c0 34 9.16699 64.5 27.5 91.5s44.666 48.333 78.999 64s74.833 23.5 121.5 23.5c31.333 0 63.333 -4.66699 96 -14s62.667 -20.666 90 -33.999l-37 -89
c-25.333 12 -48.833 21.333 -70.5 28s-46.167 10 -73.5 10c-35.333 0 -64 -6.66699 -86 -20s-33 -33 -33 -59c0 -18.667 5.83301 -35.167 17.5 -49.5s27 -27 46 -38s48.833 -26.833 89.5 -47.5c42.667 -22 76.834 -41.833 102.501 -59.5s46.667 -39 63 -64
s24.5 -54.167 24.5 -87.5c0 -29.333 -6.5 -55.833 -19.5 -79.5zM379.004 235.998c16.667 -10 32 -20.998 46 -32.998c16 14 24 31.667 24 53c0 17.333 -6.33301 33.166 -19 47.499s-28.834 27.166 -48.501 38.499s-48.167 26.333 -85.5 45c-54.667 28.667 -95 54 -121 76
c-15.333 -14 -23 -31 -23 -51c0 -18.667 5.83301 -35.167 17.5 -49.5s27 -27 46 -38s48.833 -26.833 89.5 -47.5c32.667 -17.333 57.334 -31 74.001 -41z" />
    <glyph glyph-name="dieresis" unicode="&#xa8;" horiz-adv-x="321" 
d="M111.5 624c11 11.333 16.5 25 16.5 41c0 16.667 -5.5 30.834 -16.5 42.501s-24.833 17.5 -41.5 17.5s-30.834 -5.83301 -42.501 -17.5s-17.5 -25.834 -17.5 -42.501c0 -16 5.83301 -29.667 17.5 -41s25.834 -17 42.501 -17s30.5 5.66699 41.5 17zM294 624
c11.333 11.333 17 25 17 41c0 16.667 -5.66699 30.834 -17 42.501s-25.333 17.5 -42 17.5c-16 0 -30 -5.83301 -42 -17.5s-18 -25.834 -18 -42.501c0 -16 6 -29.667 18 -41s26 -17 42 -17c16.667 0 30.667 5.66699 42 17z" />
    <glyph glyph-name="copyright" unicode="&#xa9;" horiz-adv-x="815" 
d="M740 526.5c-31.333 57 -75.666 102.167 -132.999 135.5s-124 50 -200 50s-142.667 -16.667 -200 -50s-101.5 -78.5 -132.5 -135.5s-46.5 -120.5 -46.5 -190.5c0 -69.333 15.5 -132.5 46.5 -189.5s75.167 -102.167 132.5 -135.5s124 -50 200 -50s142.667 16.667 200 50
s101.666 78.5 132.999 135.5s47 120.167 47 189.5c0 70 -15.667 133.5 -47 190.5zM141 495c24.667 46.667 60 83.334 106 110.001s99.333 40 160 40c61.333 0 114.833 -13.333 160.5 -40s80.834 -63.334 105.501 -110.001s37 -99.334 37 -158.001
s-12.333 -111.334 -37 -158.001s-59.834 -83.334 -105.501 -110.001s-99.167 -40 -160.5 -40c-60.667 0 -114 13.333 -160 40s-81.333 63.334 -106 110.001s-37 99.334 -37 158.001s12.333 111.334 37 158.001zM501 115c29.333 8 53.332 18.999 71.999 32.999l-32 83
c-22 -11.333 -41.167 -19.5 -57.5 -24.5s-35.5 -7.5 -57.5 -7.5c-37.333 0 -65.5 12 -84.5 36s-28.5 58.667 -28.5 104c0 41.333 10 74.333 30 99s48 37 84 37c22.667 0 41.667 -2.33301 57 -7s35 -13 59 -25l31 85c-20 13.333 -44.333 24 -73 32s-53.667 12 -75 12
c-44.667 0 -84.167 -9.66699 -118.5 -29s-61.166 -46.666 -80.499 -81.999s-29 -76.333 -29 -123c0 -71.333 20 -128.333 60 -171s95.333 -64 166 -64c22 0 47.667 4 77 12z" />
    <glyph glyph-name="ordfeminine" unicode="&#xaa;" horiz-adv-x="329" 
d="M160 622c16.667 0 29.333 -4.66797 38 -14.001s13.667 -21.666 15 -36.999h-63c-36 0.666992 -65.333 -8.5 -88 -27.5s-34 -44.5 -34 -76.5c0 -31.333 10.167 -56.5 30.5 -75.5s48.833 -28.5 85.5 -28.5c15.333 0 30.833 3.66699 46.5 11s29.834 16 42.501 26l21 -29h47
v211c0 34 -13 62.5 -39 85.5s-60.333 34.5 -103 34.5c-18 0 -38.333 -3 -61 -9s-40 -12.667 -52 -20l20 -72c37.333 14 68.666 21 93.999 21zM124.999 494.499c8 5.66699 19 8.49902 33 8.49902h57v-34c-20 -18 -42.667 -27 -68 -27c-10.667 0 -19 2.83301 -25 8.5
s-9 12.834 -9 21.501c0 9.33301 4 16.833 12 22.5z" />
    <glyph glyph-name="guillemotleft" unicode="&#xab;" horiz-adv-x="391" 
d="M207 158l-92 87l92 87l-22 75l-155 -139v-46l155 -139zM371 158l-92 87l92 87l-21 75l-156 -139v-46l156 -139z" />
    <glyph glyph-name="logicalnot" unicode="&#xac;" horiz-adv-x="514" 
d="M18 317h370v-200l96 -5v244l-8 50h-466z" />
    <glyph glyph-name="softhyphen" unicode="&#xad;" horiz-adv-x="120" 
 />
    <glyph glyph-name="registered" unicode="&#xae;" horiz-adv-x="726" 
d="M657 657c-27.333 50.667 -66.333 90.498 -117 119.498s-109.667 43.5 -177 43.5s-126.333 -14.667 -177 -44s-89.667 -69.166 -117 -119.499s-41 -106.833 -41 -169.5c0 -61.333 13.667 -117.166 41 -167.499s66.5 -90.166 117.5 -119.499s109.833 -44 176.5 -44
c67.333 0 126.333 14.667 177 44s89.667 69.166 117 119.499s41 106.166 41 167.499c0 62.667 -13.667 119.334 -41 170.001zM131 626.498c21.333 40.333 51.833 71.834 91.5 94.501s86.5 34 140.5 34c53.333 0 99.833 -11.333 139.5 -34s70.167 -54.334 91.5 -95.001
s32 -86.667 32 -138c0 -50.667 -10.667 -96.167 -32 -136.5s-51.833 -72.166 -91.5 -95.499s-86.167 -35 -139.5 -35c-54 0 -100.833 11.667 -140.5 35s-70.167 55.166 -91.5 95.499s-32 85.833 -32 136.5c0 52 10.667 98.167 32 138.5zM494.5 506.999
c11.667 16.667 17.499 37 17.499 61c0 37.333 -13.167 65.333 -39.5 84s-61.166 28 -104.499 28h-136v-376h81v147h58l70 -147h91l-84 164c19.333 9.33301 34.833 22.333 46.5 39zM408.499 604.499c13 -6.33301 19.5 -19.832 19.5 -40.499c0 -18.667 -7 -31.334 -21 -38.001
s-34.333 -10 -61 -10h-33v98h34c28 0 48.5 -3.16699 61.5 -9.5z" />
    <glyph glyph-name="macron" unicode="&#xaf;" horiz-adv-x="276" 
d="M257 709h-247v-89h256z" />
    <glyph glyph-name="degree" unicode="&#xb0;" horiz-adv-x="252" 
d="M44 685.5c-22.667 -21.667 -34 -47.834 -34 -78.501c0 -31.333 11.333 -57.5 34 -78.5s50 -31.5 82 -31.5c31.333 0 58.5 10.5 81.5 31.5s34.5 47.167 34.5 78.5c0 30.667 -11.5 56.834 -34.5 78.501s-50.167 32.5 -81.5 32.5c-32 0 -59.333 -10.833 -82 -32.5zM127 573
c-11.333 0 -20 4.66602 -26 13.999c-4.66699 4.66699 -7 11 -7 19c0 10.667 4.33301 19.334 13 26.001c5.33301 3.33301 12 5 20 5c10.667 0 19 -4 25 -12c4 -6 6 -12.667 6 -20c0 -11.333 -4.33301 -20 -13 -26c-4.66699 -4 -10.667 -6 -18 -6z" />
    <glyph glyph-name="plusminus" unicode="&#xb1;" horiz-adv-x="475" 
d="M288 531l-97 3v-157h-161l9 -78h152v-162l97 -5v167h157l-9 78h-148v154zM39 0h406l-5 79h-408z" />
    <glyph glyph-name="twosuperior" unicode="&#xb2;" horiz-adv-x="367" 
d="M87 758c-25.333 -8.66699 -49.3311 -19.333 -71.998 -32l38 -73c20 10 39.5 18.333 58.5 25s38.167 10 57.5 10c18.667 0 33.5 -4.83301 44.5 -14.5s16.5 -21.167 16.5 -34.5c0 -21.333 -4.83301 -40.5 -14.5 -57.5s-25.834 -35.167 -48.501 -54.5l-142 -118v-73h322
l-12 79h-176l70 58c37.333 32 64.166 60.5 80.499 85.5s24.5 51.833 24.5 80.5c0 22 -5.83301 43 -17.5 63s-29.5 36.5 -53.5 49.5s-53.667 19.5 -89 19.5c-32.667 0 -61.667 -4.33301 -87 -13z" />
    <glyph glyph-name="threesuperior" unicode="&#xb3;" horiz-adv-x="366" 
d="M89 758c-24.667 -8.66699 -50 -21.333 -76 -38l41 -71c15.333 12 30.833 21.333 46.5 28s33.834 10 54.501 10c22 0 38.667 -4.16699 50 -12.5s17 -19.5 17 -33.5c0 -18.667 -6.5 -34 -19.5 -46s-34.833 -18 -65.5 -18h-42l11 -78h26c65.333 0 98 -25.333 98 -76
c0 -18.667 -7.5 -33.667 -22.5 -45s-34.5 -17 -58.5 -17c-19.333 0 -36.333 2.5 -51 7.5s-33 13.833 -55 26.5l-43 -71c22 -13.333 47.167 -24.333 75.5 -33s55.833 -13 82.5 -13c35.333 0 66.333 6.33301 93 19s47.167 30.167 61.5 52.5s21.5 47.166 21.5 74.499
c0 29.333 -7.83301 54.833 -23.5 76.5s-33.167 34.5 -52.5 38.5c18 6.66699 33.833 19.834 47.5 39.501s20.5 40.834 20.5 63.501c0 37.333 -13.667 68.166 -41 92.499s-66 36.5 -116 36.5c-28.667 0 -55.334 -4.33301 -80.001 -13z" />
    <glyph glyph-name="acute" unicode="&#xb4;" horiz-adv-x="190" 
d="M63 750l-53 -140l78 -21l92 161h-117z" />
    <glyph glyph-name="mu" unicode="&#xb5;" horiz-adv-x="563" 
d="M506 0h-76.001l-20 58c-28 -22.667 -58.667 -40.667 -92 -54s-64.666 -20 -93.999 -20c-16.667 0 -32.667 1.66699 -48 5v-197l-112 -11v704h112v-305c0 -67.333 25 -101 75 -101c40.667 0 88 22.333 142 67v339h113v-485z" />
    <glyph glyph-name="paragraph" unicode="&#xb6;" horiz-adv-x="885" 
d="M649 591l0.000976562 -591h113v591h95v89h-568c-78 0 -141 -17.5 -189 -52.5s-72 -89.167 -72 -162.5c0 -48.667 12.167 -89.667 36.5 -123s57.166 -58 98.499 -74s87 -24 137 -24h28v-244h112v591h209z" />
    <glyph glyph-name="periodcentered" unicode="&#xb7;" horiz-adv-x="193" 
d="M144 214.5c12.667 13 19 28.833 19 47.5s-6.33301 34.334 -19 47.001s-28.334 19 -47.001 19s-34.5 -6.33301 -47.5 -19s-19.5 -28.334 -19.5 -47.001s6.5 -34.5 19.5 -47.5s28.833 -19.5 47.5 -19.5s34.334 6.5 47.001 19.5z" />
    <glyph glyph-name="cedilla" unicode="&#xb8;" horiz-adv-x="232" 
d="M115 -93.5c16.667 -8.33301 25.001 -18.5 25.001 -30.5c0 -7.33301 -4.16699 -13 -12.5 -17s-17.833 -6 -28.5 -6c-8 0 -18.167 2 -30.5 6s-23.166 8.33301 -32.499 13l-26 -68c9.33301 -7.33301 23.166 -13.333 41.499 -18s34.166 -7 47.499 -7c34 0 63 8.5 87 25.5
s36 41.5 36 73.5c0 18 -7 35.167 -21 51.5s-31.333 27.833 -52 34.5l20 49h-82l-36 -90c26 -2.66699 47.333 -8.16699 64 -16.5z" />
    <glyph glyph-name="onesuperior" unicode="&#xb9;" horiz-adv-x="293" 
d="M159 764l-149 -68l40 -72l73 36v-324h102v428h-66z" />
    <glyph glyph-name="ordmasculine" unicode="&#xba;" horiz-adv-x="384" 
d="M72.5 656c-29.667 -30.667 -44.5 -72 -44.5 -124s14.167 -93.167 42.5 -123.5s67.5 -45.5 117.5 -45.5c50.667 0 91.5 15.167 122.5 45.5s46.5 71.166 46.5 122.499c0 52.667 -14.833 94.334 -44.5 125.001s-70.167 46 -121.5 46c-49.333 0 -88.833 -15.333 -118.5 -46z
M259 531c0 -30 -6 -52.334 -18 -67.001s-29 -22 -51 -22c-21.333 0 -37.5 7.5 -48.5 22.5s-16.5 37.5 -16.5 67.5c0 30.667 6.16699 53.334 18.5 68.001s28.833 22 49.5 22c44 0 66 -30.333 66 -91z" />
    <glyph glyph-name="guillemotright" unicode="&#xbb;" horiz-adv-x="393" 
d="M20 332l92 -87l-92 -87l23 -75l154 139v46l-154 139zM185 332l93 -87l-93 -87l22 -75l156 139v46l-156 139z" />
    <glyph glyph-name="onequarter" unicode="&#xbc;" horiz-adv-x="867" 
d="M159 764l-149 -68l40 -72l73 36v-324h102v428h-66zM165 -134l551 834h-121l-550 -834h120zM847 3h-87v318h-71l-248 -318l10 -82h207v-85h102v85h78zM545 3l113 144v-144h-113z" />
    <glyph glyph-name="onehalf" unicode="&#xbd;" horiz-adv-x="884" 
d="M159 764l-149 -68l40 -72l73 36v-324h102v428h-66zM160 -134l550 834h-120l-550 -834h120zM605 312c-24.667 -8.66699 -49 -19.333 -73 -32l38 -74c43.333 23.333 82 35 116 35c19.333 0 34.5 -5.33301 45.5 -16s16.5 -23 16.5 -37c0 -20.667 -4.83301 -38.667 -14.5 -54
s-26.167 -33.333 -49.5 -54l-142 -118v-72h322l-12 78h-176l70 58c37.333 32 64.333 60.667 81 86s25 52 25 80c0 22 -5.83301 43.167 -17.5 63.5s-29.667 37 -54 50s-54.166 19.5 -89.499 19.5c-32.667 0 -61.334 -4.33301 -86.001 -13z" />
    <glyph glyph-name="threequarters" unicode="&#xbe;" horiz-adv-x="864" 
d="M89 758c-24.667 -8.66699 -50 -21.333 -76 -38l41 -71c15.333 12 30.833 21.333 46.5 28s33.834 10 54.501 10c22 0 38.667 -4.33301 50 -13s17 -19.667 17 -33c0 -19.333 -7.5 -34.833 -22.5 -46.5s-35.833 -17.5 -62.5 -17.5h-42l11 -78h26c65.333 0 98 -25.333 98 -76
c0 -18.667 -7.5 -33.667 -22.5 -45s-34.5 -17 -58.5 -17c-19.333 0 -36.333 2.5 -51 7.5s-33 13.833 -55 26.5l-43 -71c22 -13.333 47.167 -24.333 75.5 -33s55.833 -13 82.5 -13c35.333 0 66.333 6.33301 93 19s47.167 30.167 61.5 52.5s21.5 47.166 21.5 74.499
c0 29.333 -7.83301 54.833 -23.5 76.5s-33.167 34.5 -52.5 38.5c18 6.66699 33.833 19.834 47.5 39.501s20.5 40.834 20.5 63.501c0 37.333 -13.667 68.166 -41 92.499s-66 36.5 -116 36.5c-28.667 0 -55.334 -4.33301 -80.001 -13zM211 -133.999l551 834h-120l-550 -834
h119zM438 3.00098l11 -82h207v-85h102v85h78l8 82h-86v318h-71zM656 3.00098h-114l114 144v-144z" />
    <glyph glyph-name="questiondown" unicode="&#xbf;" horiz-adv-x="426" 
d="M306.5 538.5c13 13 19.5 28.833 19.5 47.5s-6.5 34.5 -19.5 47.5s-28.833 19.5 -47.5 19.5s-34.5 -6.5 -47.5 -19.5s-19.5 -28.833 -19.5 -47.5s6.5 -34.5 19.5 -47.5s28.833 -19.5 47.5 -19.5s34.5 6.5 47.5 19.5zM326 -34c30 9.33301 60 23.667 90 43l-14 101
c-60.667 -42.667 -118 -64 -172 -64c-29.333 0 -52.5 7.16699 -69.5 21.5s-25.5 34.5 -25.5 60.5c0 30 15.167 58 45.5 84s70.833 47.333 121.5 64l-9 175l-80 33l-14 -150c-49.333 -25.333 -89.833 -57 -121.5 -95s-47.5 -75.333 -47.5 -112
c0 -53.333 16.667 -95.833 50 -127.5s82 -47.5 146 -47.5c36.667 0 70 4.66699 100 14z" />
    <glyph glyph-name="Agrave" unicode="&#xc0;" horiz-adv-x="641" 
d="M121 0l65 171h267l67 -180l111 16l-262 673h-99l-260 -680h111zM317 527l102 -265h-201zM319 900h-118l92 -161l78 21z" />
    <glyph glyph-name="Aacute" unicode="&#xc1;" horiz-adv-x="641" 
d="M121 0l65 171h267l67 -180l111 16l-262 673h-99l-260 -680h111zM317 527l102 -265h-201zM302 900l-53 -140l78 -21l92 161h-117z" />
    <glyph glyph-name="Acircumflex" unicode="&#xc2;" horiz-adv-x="641" 
d="M121 0l65 171h267l67 -180l111 16l-262 673h-99l-260 -680h111zM317 527l102 -265h-201zM488 752l-140 148h-68l-140 -148l104 -13l72 76l70 -76z" />
    <glyph glyph-name="Atilde" unicode="&#xc3;" horiz-adv-x="641" 
d="M121 0l65 171h267l67 -180l111 16l-262 673h-99l-260 -680h111zM317 527l102 -265h-201zM386.5 837c-5.66699 -6.66699 -12.499 -10 -20.499 -10c-11.333 0 -20.833 1.5 -28.5 4.5s-16.167 7.5 -25.5 13.5c-9.33301 6.66699 -18.166 11.667 -26.499 15s-18.833 5 -31.5 5
c-29.333 0 -53.5 -8.83301 -72.5 -26.5s-28.5 -46.167 -28.5 -85.5h75c0.666992 8.66699 4.16699 16.5 10.5 23.5s13.166 10.5 20.499 10.5c12 0 21.667 -1.66699 29 -5s15 -8 23 -14c8.66699 -6.66699 17 -11.667 25 -15s18.333 -5 31 -5c29.333 0 53.5 9 72.5 27
s28.5 46.667 28.5 86h-72c-0.666992 -9.33301 -3.83398 -17.333 -9.50098 -24z" />
    <glyph glyph-name="Adieresis" unicode="&#xc4;" horiz-adv-x="641" 
d="M121 0l65 171h267l67 -180l111 16l-262 673h-99l-260 -680h111zM317 527l102 -265h-201zM265.5 774c11 11.333 16.5 25 16.5 41c0 16.667 -5.5 30.834 -16.5 42.501s-24.833 17.5 -41.5 17.5s-30.834 -5.83301 -42.501 -17.5s-17.5 -25.834 -17.5 -42.501
c0 -16 5.83301 -29.667 17.5 -41s25.834 -17 42.501 -17s30.5 5.66699 41.5 17zM448 774c11.333 11.333 17 25 17 41c0 16.667 -5.66699 30.834 -17 42.501s-25.333 17.5 -42 17.5c-16 0 -30 -5.83301 -42 -17.5s-18 -25.834 -18 -42.501c0 -16 6 -29.667 18 -41
s26 -17 42 -17c16.667 0 30.667 5.66699 42 17z" />
    <glyph glyph-name="Aring" unicode="&#xc5;" horiz-adv-x="641" 
d="M121 0l65 171h267l67 -180l111 16l-262 673h-99l-260 -680h111zM317 527l102 -265h-201zM243 906c-20 -18.667 -30 -41.667 -30 -69c0 -26.667 10 -48.834 30 -66.501s44 -26.5 72 -26.5s52 8.83301 72 26.5s30 39.834 30 66.501c0 27.333 -10 50.333 -30 69
s-44 28 -72 28s-52 -9.33301 -72 -28zM286.5 809c-8.33301 8 -12.5 17.333 -12.5 28c0 11.333 4 21 12 29s17.667 12 29 12s20.833 -4 28.5 -12s11.5 -17.667 11.5 -29c0 -10.667 -4 -20 -12 -28s-17.333 -12 -28 -12s-20.167 4 -28.5 12z" />
    <glyph glyph-name="AE" unicode="&#xc6;" horiz-adv-x="934" 
d="M460 171v-171h454l-16 88h-324v213h243l-17 88h-226v203h298l-16 88h-408l-443 -674l107 -16l114 181h234zM286 262l174 264v-264h-174z" />
    <glyph glyph-name="Ccedilla" unicode="&#xc7;" 
d="M435 -70.5c14 -16.333 20.999 -33.5 20.999 -51.5c0 -32 -12 -56.5 -36 -73.5s-53 -25.5 -87 -25.5c-13.333 0 -29.166 2.33301 -47.499 7s-32.166 10.667 -41.499 18l26 68c9.33301 -4.66699 20.166 -9 32.499 -13s22.5 -6 30.5 -6c10.667 0 20.167 2 28.5 6
s12.5 9.66699 12.5 17c0 12 -8.33301 22.167 -25 30.5s-38 13.833 -64 16.5l26 66c-58 6.66699 -107.5 26 -148.5 58s-72 73 -93 123s-31.5 105.333 -31.5 166c0 68.667 13.333 130.167 40 184.5s64.5 96.833 113.5 127.5s106.167 46 171.5 46c24 0 53.333 -3.66699 88 -11
s64 -17.666 88 -30.999l-34 -81c-35.333 11.333 -61.5 18.833 -78.5 22.5s-39.167 5.5 -66.5 5.5c-38.667 0 -73.5 -10.833 -104.5 -32.5s-55.5 -52.334 -73.5 -92.001s-27 -85.5 -27 -137.5c0 -47.333 7.83301 -90.333 23.5 -129s38.334 -69.5 68.001 -92.5
s64.834 -34.5 105.501 -34.5c52 0 101.667 10.333 149 31l43 -84c-18.667 -10 -41.834 -18.5 -69.501 -25.5s-54.834 -11.833 -81.501 -14.5l-10 -24c20.667 -6.66699 38 -18.167 52 -34.5z" />
    <glyph glyph-name="Egrave" unicode="&#xc8;" 
d="M200 88v213h243l-17 88h-226v203h298l-16 88h-394v-680h453l-17 88h-324zM300 900h-118l92 -161l78 21z" />
    <glyph glyph-name="Eacute" unicode="&#xc9;" 
d="M200 88v213h243l-17 88h-226v203h298l-16 88h-394v-680h453l-17 88h-324zM283 900l-53 -140l78 -21l92 161h-117z" />
    <glyph glyph-name="Ecircumflex" unicode="&#xca;" 
d="M200 88v213h243l-17 88h-226v203h298l-16 88h-394v-680h453l-17 88h-324zM469 752l-140 148h-68l-140 -148l104 -13l72 76l70 -76z" />
    <glyph glyph-name="Edieresis" unicode="&#xcb;" 
d="M200 88v213h243l-17 88h-226v203h298l-16 88h-394v-680h453l-17 88h-324zM247.5 774c11 11.333 16.5 25 16.5 41c0 16.667 -5.5 30.834 -16.5 42.501s-24.833 17.5 -41.5 17.5s-30.834 -5.83301 -42.501 -17.5s-17.5 -25.834 -17.5 -42.501
c0 -16 5.83301 -29.667 17.5 -41s25.834 -17 42.501 -17s30.5 5.66699 41.5 17zM430 774c11.333 11.333 17 25 17 41c0 16.667 -5.66699 30.834 -17 42.501s-25.333 17.5 -42 17.5c-16 0 -30 -5.83301 -42 -17.5s-18 -25.834 -18 -42.501c0 -16 6 -29.667 18 -41
s26 -17 42 -17c16.667 0 30.667 5.66699 42 17z" />
    <glyph glyph-name="Igrave" unicode="&#xcc;" horiz-adv-x="287" 
d="M88 680v-680h112v680h-112zM148 900h-118l92 -161l78 21z" />
    <glyph glyph-name="Iacute" unicode="&#xcd;" horiz-adv-x="287" 
d="M88 680v-680h112v680h-112zM131 900l-53 -140l78 -21l92 161h-117z" />
    <glyph glyph-name="Icircumflex" unicode="&#xce;" horiz-adv-x="287" 
d="M88 680v-680h112v680h-112zM316 752l-140 148h-68l-140 -148l104 -13l72 76l70 -76z" />
    <glyph glyph-name="Idieresis" unicode="&#xcf;" horiz-adv-x="287" 
d="M88 680v-680h112v680h-112zM94.5 774c11 11.333 16.5 25 16.5 41c0 16.667 -5.5 30.834 -16.5 42.501s-24.833 17.5 -41.5 17.5s-30.834 -5.83301 -42.501 -17.5s-17.5 -25.834 -17.5 -42.501c0 -16 5.83301 -29.667 17.5 -41s25.834 -17 42.501 -17
s30.5 5.66699 41.5 17zM277 774c11.333 11.333 17 25 17 41c0 16.667 -5.66699 30.834 -17 42.501s-25.333 17.5 -42 17.5c-16 0 -30 -5.83301 -42 -17.5s-18 -25.834 -18 -42.501c0 -16 6 -29.667 18 -41s26 -17 42 -17c16.667 0 30.667 5.66699 42 17z" />
    <glyph glyph-name="Eth" unicode="&#xd0;" horiz-adv-x="684" 
d="M569 588c52 -61.333 77.998 -142.665 77.998 -243.998c0 -68.667 -12.167 -128.834 -36.5 -180.501s-59.666 -91.834 -105.999 -120.501s-102.166 -43 -167.499 -43h-249v296h-59l-10 87h69v297h251c101.333 0 178 -30.667 230 -92zM479.498 156.501
c35 41.667 52.499 103.833 52.499 186.5c0 76 -15.667 135.167 -47 177.5s-78.666 63.5 -141.999 63.5h-143v-201h81l9 -87h-90v-202h136c60.667 0 108.5 20.833 143.5 62.5z" />
    <glyph glyph-name="Ntilde" unicode="&#xd1;" horiz-adv-x="729" 
d="M534 0h107v680h-113v-479l-334 479h-106v-680h112v482zM438.5 837c-5.66699 -6.66699 -12.499 -10 -20.499 -10c-11.333 0 -20.833 1.5 -28.5 4.5s-16.167 7.5 -25.5 13.5c-9.33301 6.66699 -18.166 11.667 -26.499 15s-18.833 5 -31.5 5
c-29.333 0 -53.5 -8.83301 -72.5 -26.5s-28.5 -46.167 -28.5 -85.5h75c0.666992 8.66699 4.16699 16.5 10.5 23.5s13.166 10.5 20.499 10.5c12 0 21.667 -1.66699 29 -5s15 -8 23 -14c8.66699 -6.66699 17 -11.667 25 -15s18.333 -5 31 -5c29.333 0 53.5 9 72.5 27
s28.5 46.667 28.5 86h-72c-0.666992 -9.33301 -3.83398 -17.333 -9.50098 -24z" />
    <glyph glyph-name="Ograve" unicode="&#xd2;" horiz-adv-x="733" 
d="M196 647.5c-50 -31 -88.834 -73.502 -116.501 -127.502s-41.5 -115 -41.5 -183c0 -66.667 13.5 -126.667 40.5 -180s65.333 -95.166 115 -125.499s106.834 -45.5 171.501 -45.5c64 0.666992 121 16.334 171 47.001s89 73 117 127s42 115.333 42 184
c0 66.667 -13.5 126.667 -40.5 180s-65.5 95.333 -115.5 126s-107.667 46 -173 46c-63.333 -1.33301 -120 -17.5 -170 -48.5zM182.999 473.998c18.667 40 44.333 71 77 93s68.667 33 108 33c41.333 0 77.833 -11 109.5 -33s56.167 -52.333 73.5 -91s26 -82.667 26 -132
c0 -53.333 -9.33301 -99.833 -28 -139.5s-44.167 -70.167 -76.5 -91.5s-68.5 -32 -108.5 -32c-41.333 0 -77.833 11 -109.5 33s-56.167 52.5 -73.5 91.5s-26 83.167 -26 132.5c0 50.667 9.33301 96 28 136zM367.998 899.998h-118l92 -161l78 21z" />
    <glyph glyph-name="Oacute" unicode="&#xd3;" horiz-adv-x="733" 
d="M196 647.5c-50 -31 -88.834 -73.502 -116.501 -127.502s-41.5 -115 -41.5 -183c0 -66.667 13.5 -126.667 40.5 -180s65.333 -95.166 115 -125.499s106.834 -45.5 171.501 -45.5c64 0.666992 121 16.334 171 47.001s89 73 117 127s42 115.333 42 184
c0 66.667 -13.5 126.667 -40.5 180s-65.5 95.333 -115.5 126s-107.667 46 -173 46c-63.333 -1.33301 -120 -17.5 -170 -48.5zM182.999 473.998c18.667 40 44.333 71 77 93s68.667 33 108 33c41.333 0 77.833 -11 109.5 -33s56.167 -52.333 73.5 -91s26 -82.667 26 -132
c0 -53.333 -9.33301 -99.833 -28 -139.5s-44.167 -70.167 -76.5 -91.5s-68.5 -32 -108.5 -32c-41.333 0 -77.833 11 -109.5 33s-56.167 52.5 -73.5 91.5s-26 83.167 -26 132.5c0 50.667 9.33301 96 28 136zM350.998 899.998l-53 -140l78 -21l92 161h-117z" />
    <glyph glyph-name="Ocircumflex" unicode="&#xd4;" horiz-adv-x="733" 
d="M196 647.5c-50 -31 -88.834 -73.502 -116.501 -127.502s-41.5 -115 -41.5 -183c0 -66.667 13.5 -126.667 40.5 -180s65.333 -95.166 115 -125.499s106.834 -45.5 171.501 -45.5c64 0.666992 121 16.334 171 47.001s89 73 117 127s42 115.333 42 184
c0 66.667 -13.5 126.667 -40.5 180s-65.5 95.333 -115.5 126s-107.667 46 -173 46c-63.333 -1.33301 -120 -17.5 -170 -48.5zM182.999 473.998c18.667 40 44.333 71 77 93s68.667 33 108 33c41.333 0 77.833 -11 109.5 -33s56.167 -52.333 73.5 -91s26 -82.667 26 -132
c0 -53.333 -9.33301 -99.833 -28 -139.5s-44.167 -70.167 -76.5 -91.5s-68.5 -32 -108.5 -32c-41.333 0 -77.833 11 -109.5 33s-56.167 52.5 -73.5 91.5s-26 83.167 -26 132.5c0 50.667 9.33301 96 28 136zM535.998 751.998l-140 148h-68l-140 -148l104 -13l72 76l70 -76z
" />
    <glyph glyph-name="Otilde" unicode="&#xd5;" horiz-adv-x="733" 
d="M196 647.5c-50 -31 -88.834 -73.502 -116.501 -127.502s-41.5 -115 -41.5 -183c0 -66.667 13.5 -126.667 40.5 -180s65.333 -95.166 115 -125.499s106.834 -45.5 171.501 -45.5c64 0.666992 121 16.334 171 47.001s89 73 117 127s42 115.333 42 184
c0 66.667 -13.5 126.667 -40.5 180s-65.5 95.333 -115.5 126s-107.667 46 -173 46c-63.333 -1.33301 -120 -17.5 -170 -48.5zM182.999 473.998c18.667 40 44.333 71 77 93s68.667 33 108 33c41.333 0 77.833 -11 109.5 -33s56.167 -52.333 73.5 -91s26 -82.667 26 -132
c0 -53.333 -9.33301 -99.833 -28 -139.5s-44.167 -70.167 -76.5 -91.5s-68.5 -32 -108.5 -32c-41.333 0 -77.833 11 -109.5 33s-56.167 52.5 -73.5 91.5s-26 83.167 -26 132.5c0 50.667 9.33301 96 28 136zM435.498 836.998c-5.66699 -6.66699 -12.499 -10 -20.499 -10
c-11.333 0 -20.833 1.5 -28.5 4.5s-16.167 7.5 -25.5 13.5c-9.33301 6.66699 -18.166 11.667 -26.499 15s-18.833 5 -31.5 5c-29.333 0 -53.5 -8.83301 -72.5 -26.5s-28.5 -46.167 -28.5 -85.5h75c0.666992 8.66699 4.16699 16.5 10.5 23.5s13.166 10.5 20.499 10.5
c12 0 21.667 -1.66699 29 -5s15 -8 23 -14c8.66699 -6.66699 17 -11.667 25 -15s18.333 -5 31 -5c29.333 0 53.5 9 72.5 27s28.5 46.667 28.5 86h-72c-0.666992 -9.33301 -3.83398 -17.333 -9.50098 -24z" />
    <glyph glyph-name="Odieresis" unicode="&#xd6;" horiz-adv-x="733" 
d="M196 647.5c-50 -31 -88.834 -73.502 -116.501 -127.502s-41.5 -115 -41.5 -183c0 -66.667 13.5 -126.667 40.5 -180s65.333 -95.166 115 -125.499s106.834 -45.5 171.501 -45.5c64 0.666992 121 16.334 171 47.001s89 73 117 127s42 115.333 42 184
c0 66.667 -13.5 126.667 -40.5 180s-65.5 95.333 -115.5 126s-107.667 46 -173 46c-63.333 -1.33301 -120 -17.5 -170 -48.5zM182.999 473.998c18.667 40 44.333 71 77 93s68.667 33 108 33c41.333 0 77.833 -11 109.5 -33s56.167 -52.333 73.5 -91s26 -82.667 26 -132
c0 -53.333 -9.33301 -99.833 -28 -139.5s-44.167 -70.167 -76.5 -91.5s-68.5 -32 -108.5 -32c-41.333 0 -77.833 11 -109.5 33s-56.167 52.5 -73.5 91.5s-26 83.167 -26 132.5c0 50.667 9.33301 96 28 136zM314.498 773.998c11 11.333 16.5 25 16.5 41
c0 16.667 -5.5 30.834 -16.5 42.501s-24.833 17.5 -41.5 17.5s-30.834 -5.83301 -42.501 -17.5s-17.5 -25.834 -17.5 -42.501c0 -16 5.83301 -29.667 17.5 -41s25.834 -17 42.501 -17s30.5 5.66699 41.5 17zM496.998 773.998c11.333 11.333 17 25 17 41
c0 16.667 -5.66699 30.834 -17 42.501s-25.333 17.5 -42 17.5c-16 0 -30 -5.83301 -42 -17.5s-18 -25.834 -18 -42.501c0 -16 6 -29.667 18 -41s26 -17 42 -17c16.667 0 30.667 5.66699 42 17z" />
    <glyph glyph-name="multiply" unicode="&#xd7;" horiz-adv-x="548" 
d="M387 30l-114 146l-128 -146h-115l190 225l-174 224h115l114 -146l127 146h116l-191 -226l175 -223h-115z" />
    <glyph glyph-name="Oslash" unicode="&#xd8;" horiz-adv-x="733" 
d="M539 650c50 -30.667 88.501 -72.665 115.501 -125.998s40.5 -113.333 40.5 -180c0 -68.667 -14 -130 -42 -184s-67 -96.333 -117 -127s-107 -46.334 -171 -47.001c-64.667 0 -121.834 15.167 -171.501 45.5s-88 72.166 -115 125.499s-40.5 113.333 -40.5 180
c0 68 13.833 129 41.5 183s66.5 96.5 116.5 127.5s106.667 47.167 170 48.5c65.333 0 123 -15.333 173 -46zM260.001 567.002c-32.667 -22 -58.332 -53.001 -76.999 -93.001s-28 -85.333 -28 -136c0 -42 6.16699 -80.167 18.5 -114.5s30.166 -63.166 53.499 -86.499l192 457
c-16 4 -33 6 -51 6c-39.333 0 -75.333 -11 -108 -33zM472.503 113.001c32.333 21.333 57.833 51.832 76.5 91.499s28 86.167 28 139.5c0 38.667 -5.5 74.334 -16.5 107.001s-26.5 60.667 -46.5 84l-193 -450c18.667 -2.66699 33 -4 43 -4c40 0 76.167 10.667 108.5 32z" />
    <glyph glyph-name="Ugrave" unicode="&#xd9;" horiz-adv-x="700" 
d="M78 245c0 -48.667 11.1689 -92.5 33.502 -131.5s54 -69.5 95 -91.5s88.833 -33 143.5 -33s102.5 11 143.5 33s72.667 52.5 95 91.5s33.5 82.833 33.5 131.5v435h-113v-426c0 -54.667 -14.333 -97.167 -43 -127.5s-67.334 -45.5 -116.001 -45.5s-87.334 15 -116.001 45
s-43 72.667 -43 128v426h-113v-435zM352.002 900h-118l92 -161l78 21z" />
    <glyph glyph-name="Uacute" unicode="&#xda;" horiz-adv-x="700" 
d="M78 245c0 -48.667 11.1689 -92.5 33.502 -131.5s54 -69.5 95 -91.5s88.833 -33 143.5 -33s102.5 11 143.5 33s72.667 52.5 95 91.5s33.5 82.833 33.5 131.5v435h-113v-426c0 -54.667 -14.333 -97.167 -43 -127.5s-67.334 -45.5 -116.001 -45.5s-87.334 15 -116.001 45
s-43 72.667 -43 128v426h-113v-435zM335.002 900l-53 -140l78 -21l92 161h-117z" />
    <glyph glyph-name="Ucircumflex" unicode="&#xdb;" horiz-adv-x="700" 
d="M78 245c0 -48.667 11.1689 -92.5 33.502 -131.5s54 -69.5 95 -91.5s88.833 -33 143.5 -33s102.5 11 143.5 33s72.667 52.5 95 91.5s33.5 82.833 33.5 131.5v435h-113v-426c0 -54.667 -14.333 -97.167 -43 -127.5s-67.334 -45.5 -116.001 -45.5s-87.334 15 -116.001 45
s-43 72.667 -43 128v426h-113v-435zM520.002 752l-140 148h-68l-140 -148l104 -13l72 76l70 -76z" />
    <glyph glyph-name="Udieresis" unicode="&#xdc;" horiz-adv-x="700" 
d="M78 245c0 -48.667 11.1689 -92.5 33.502 -131.5s54 -69.5 95 -91.5s88.833 -33 143.5 -33s102.5 11 143.5 33s72.667 52.5 95 91.5s33.5 82.833 33.5 131.5v435h-113v-426c0 -54.667 -14.333 -97.167 -43 -127.5s-67.334 -45.5 -116.001 -45.5s-87.334 15 -116.001 45
s-43 72.667 -43 128v426h-113v-435zM298.502 774c11 11.333 16.5 25 16.5 41c0 16.667 -5.5 30.834 -16.5 42.501s-24.833 17.5 -41.5 17.5s-30.834 -5.83301 -42.501 -17.5s-17.5 -25.834 -17.5 -42.501c0 -16 5.83301 -29.667 17.5 -41s25.834 -17 42.501 -17
s30.5 5.66699 41.5 17zM481.002 774c11.333 11.333 17 25 17 41c0 16.667 -5.66699 30.834 -17 42.501s-25.333 17.5 -42 17.5c-16 0 -30 -5.83301 -42 -17.5s-18 -25.834 -18 -42.501c0 -16 6 -29.667 18 -41s26 -17 42 -17c16.667 0 30.667 5.66699 42 17z" />
    <glyph glyph-name="Yacute" unicode="&#xdd;" horiz-adv-x="593" 
d="M583 680h-119l-175 -299l-169 315l-110 -36l224 -392v-268h112l1 266zM274 900l-53 -140l78 -21l92 161h-117z" />
    <glyph glyph-name="Thorn" unicode="&#xde;" horiz-adv-x="589" 
d="M481.5 547.5c48.333 -35 72.5 -89.167 72.5 -162.5c0 -48.667 -12.5 -89.667 -37.5 -123s-58 -58 -99 -74s-86.167 -24 -135.5 -24h-82v-164h-112v680h112v-80h91c78.667 0 142.167 -17.5 190.5 -52.5zM393.5 287c26.333 20 40.5 50.667 42.5 92
c0 46 -12.5 78.667 -37.5 98s-61.5 29 -109.5 29h-89v-249h87c44.667 0 80.167 10 106.5 30z" />
    <glyph glyph-name="germandbls" unicode="&#xdf;" horiz-adv-x="608" 
d="M180 472c0 38.667 11 69.501 33 92.501s51.333 34.5 88 34.5c32 0 58.833 -8.83301 80.5 -26.5s32.5 -41.834 32.5 -72.501c0 -31.333 -11.167 -56.5 -33.5 -75.5s-54.166 -28.5 -95.499 -28.5h-33v-90h81c36 0 65.833 -10 89.5 -30s35.5 -47 35.5 -81
c0 -32 -12.667 -57 -38 -75s-57.333 -27 -96 -27h-81v-93h87c74 -0 133.5 16.833 178.5 50.5s67.5 81.167 67.5 142.5c0 42 -12.5 79 -37.5 111s-55.167 53.333 -90.5 64c24.667 11.333 44.667 30 60 56s23 53.333 23 82c0 60.667 -21.833 107.5 -65.5 140.5
s-99.834 49.5 -168.501 49.5c-70.667 0 -126.5 -20.167 -167.5 -60.5s-61.5 -94.5 -61.5 -162.5v-473h112v472z" />
    <glyph glyph-name="agrave" unicode="&#xe0;" horiz-adv-x="498" 
d="M243 396c57.333 0 86.666 -33.665 87.999 -100.998h-106c-54 0 -97.5 -13.333 -130.5 -40s-49.5 -64.334 -49.5 -113.001c0 -46.667 14.5 -84 43.5 -112s71.5 -42 127.5 -42c24 0 48 5.66699 72 17s45.333 26 64 44l17 -49h75v324c0 32.667 -9 62.167 -27 88.5
s-42.5 47.166 -73.5 62.499s-65.167 23 -102.5 23c-22.667 0 -52.167 -4.33301 -88.5 -13s-63.166 -18.667 -80.499 -30l31 -92c49.333 22 96 33 140 33zM164.5 197.502c14.333 15 33.835 22.5 58.502 22.5h109v-87c-16.667 -17.333 -35.334 -31 -56.001 -41
s-41.334 -15 -62.001 -15c-22 0 -39.333 6.5 -52 19.5s-19 28.167 -19 45.5c0 22 7.16699 40.5 21.5 55.5zM258.002 750.002h-118l92 -161l78 21z" />
    <glyph glyph-name="aacute" unicode="&#xe1;" horiz-adv-x="498" 
d="M243 396c57.333 0 86.666 -33.665 87.999 -100.998h-106c-54 0 -97.5 -13.333 -130.5 -40s-49.5 -64.334 -49.5 -113.001c0 -46.667 14.5 -84 43.5 -112s71.5 -42 127.5 -42c24 0 48 5.66699 72 17s45.333 26 64 44l17 -49h75v324c0 32.667 -9 62.167 -27 88.5
s-42.5 47.166 -73.5 62.499s-65.167 23 -102.5 23c-22.667 0 -52.167 -4.33301 -88.5 -13s-63.166 -18.667 -80.499 -30l31 -92c49.333 22 96 33 140 33zM164.5 197.502c14.333 15 33.835 22.5 58.502 22.5h109v-87c-16.667 -17.333 -35.334 -31 -56.001 -41
s-41.334 -15 -62.001 -15c-22 0 -39.333 6.5 -52 19.5s-19 28.167 -19 45.5c0 22 7.16699 40.5 21.5 55.5zM228.002 750.002l-53 -140l78 -21l92 161h-117z" />
    <glyph glyph-name="acircumflex" unicode="&#xe2;" horiz-adv-x="498" 
d="M243 396c57.333 0 86.666 -33.665 87.999 -100.998h-106c-54 0 -97.5 -13.333 -130.5 -40s-49.5 -64.334 -49.5 -113.001c0 -46.667 14.5 -84 43.5 -112s71.5 -42 127.5 -42c24 0 48 5.66699 72 17s45.333 26 64 44l17 -49h75v324c0 32.667 -9 62.167 -27 88.5
s-42.5 47.166 -73.5 62.499s-65.167 23 -102.5 23c-22.667 0 -52.167 -4.33301 -88.5 -13s-63.166 -18.667 -80.499 -30l31 -92c49.333 22 96 33 140 33zM164.5 197.502c14.333 15 33.835 22.5 58.502 22.5h109v-87c-16.667 -17.333 -35.334 -31 -56.001 -41
s-41.334 -15 -62.001 -15c-22 0 -39.333 6.5 -52 19.5s-19 28.167 -19 45.5c0 22 7.16699 40.5 21.5 55.5zM416.002 602.002l-140 148h-68l-140 -148l104 -13l72 76l70 -76z" />
    <glyph glyph-name="atilde" unicode="&#xe3;" horiz-adv-x="498" 
d="M243 396c57.333 0 86.666 -33.665 87.999 -100.998h-106c-54 0 -97.5 -13.333 -130.5 -40s-49.5 -64.334 -49.5 -113.001c0 -46.667 14.5 -84 43.5 -112s71.5 -42 127.5 -42c24 0 48 5.66699 72 17s45.333 26 64 44l17 -49h75v324c0 32.667 -9 62.167 -27 88.5
s-42.5 47.166 -73.5 62.499s-65.167 23 -102.5 23c-22.667 0 -52.167 -4.33301 -88.5 -13s-63.166 -18.667 -80.499 -30l31 -92c49.333 22 96 33 140 33zM164.5 197.502c14.333 15 33.835 22.5 58.502 22.5h109v-87c-16.667 -17.333 -35.334 -31 -56.001 -41
s-41.334 -15 -62.001 -15c-22 0 -39.333 6.5 -52 19.5s-19 28.167 -19 45.5c0 22 7.16699 40.5 21.5 55.5zM321.502 687.002c-5.66699 -6.66699 -12.5 -9.99902 -20.5 -9.99902c-10 0 -18.667 1.5 -26 4.5s-15.666 7.5 -24.999 13.5c-10 6.66699 -19.333 11.667 -28 15
s-19.667 5 -33 5c-29.333 0 -53.5 -8.83301 -72.5 -26.5s-28.5 -46.167 -28.5 -85.5h75c0.666992 8.66699 4.16699 16.5 10.5 23.5s13.166 10.5 20.499 10.5c10 0 18.167 -1.5 24.5 -4.5s14.5 -7.5 24.5 -13.5c9.33301 -6.66699 18.333 -11.834 27 -15.501
s19.334 -5.5 32.001 -5.5c29.333 0 53.5 9 72.5 27s28.5 46.667 28.5 86h-72c-0.666992 -9.33301 -3.83398 -17.333 -9.50098 -24z" />
    <glyph glyph-name="adieresis" unicode="&#xe4;" horiz-adv-x="498" 
d="M243 396c57.333 0 86.666 -33.665 87.999 -100.998h-106c-54 0 -97.5 -13.333 -130.5 -40s-49.5 -64.334 -49.5 -113.001c0 -46.667 14.5 -84 43.5 -112s71.5 -42 127.5 -42c24 0 48 5.66699 72 17s45.333 26 64 44l17 -49h75v324c0 32.667 -9 62.167 -27 88.5
s-42.5 47.166 -73.5 62.499s-65.167 23 -102.5 23c-22.667 0 -52.167 -4.33301 -88.5 -13s-63.166 -18.667 -80.499 -30l31 -92c49.333 22 96 33 140 33zM164.5 197.502c14.333 15 33.835 22.5 58.502 22.5h109v-87c-16.667 -17.333 -35.334 -31 -56.001 -41
s-41.334 -15 -62.001 -15c-22 0 -39.333 6.5 -52 19.5s-19 28.167 -19 45.5c0 22 7.16699 40.5 21.5 55.5zM186.502 624.002c11 11.333 16.5 25 16.5 41c0 16.667 -5.5 30.834 -16.5 42.501s-24.833 17.5 -41.5 17.5s-30.834 -5.83301 -42.501 -17.5
s-17.5 -25.834 -17.5 -42.501c0 -16 5.83301 -29.667 17.5 -41s25.834 -17 42.501 -17s30.5 5.66699 41.5 17zM369.002 624.002c11.333 11.333 17 25 17 41c0 16.667 -5.66699 30.834 -17 42.501s-25.333 17.5 -42 17.5c-16 0 -30 -5.83301 -42 -17.5
s-18 -25.834 -18 -42.501c0 -16 6 -29.667 18 -41s26 -17 42 -17c16.667 0 30.667 5.66699 42 17z" />
    <glyph glyph-name="aring" unicode="&#xe5;" horiz-adv-x="498" 
d="M243 396c57.333 0 86.666 -33.665 87.999 -100.998h-106c-54 0 -97.5 -13.333 -130.5 -40s-49.5 -64.334 -49.5 -113.001c0 -46.667 14.5 -84 43.5 -112s71.5 -42 127.5 -42c24 0 48 5.66699 72 17s45.333 26 64 44l17 -49h75v324c0 32.667 -9 62.167 -27 88.5
s-42.5 47.166 -73.5 62.499s-65.167 23 -102.5 23c-22.667 0 -52.167 -4.33301 -88.5 -13s-63.166 -18.667 -80.499 -30l31 -92c49.333 22 96 33 140 33zM164.5 197.502c14.333 15 33.835 22.5 58.502 22.5h109v-87c-16.667 -17.333 -35.334 -31 -56.001 -41
s-41.334 -15 -62.001 -15c-22 0 -39.333 6.5 -52 19.5s-19 28.167 -19 45.5c0 22 7.16699 40.5 21.5 55.5zM170.002 756.002c-20 -18.667 -30 -41.667 -30 -69c0 -26.667 10 -48.834 30 -66.501s44 -26.5 72 -26.5s52 8.83301 72 26.5s30 39.834 30 66.501
c0 27.333 -10 50.333 -30 69s-44 28 -72 28s-52 -9.33301 -72 -28zM213.502 659.002c-8.33301 8 -12.5 17.333 -12.5 28c0 11.333 4 21 12 29s17.667 12 29 12s20.833 -4 28.5 -12s11.5 -17.667 11.5 -29c0 -10.667 -4 -20 -12 -28s-17.333 -12 -28 -12s-20.167 4 -28.5 12z
" />
    <glyph glyph-name="ae" unicode="&#xe6;" horiz-adv-x="812" 
d="M449 213c11.333 -86.667 63.0029 -130.001 155.003 -130.001c26 0 49.167 3.5 69.5 10.5s44.833 17.833 73.5 32.5l34 -82c-54 -37.333 -113.667 -56 -179 -56c-92.667 0 -162.667 25.667 -210 77c-22.667 -22.667 -47.834 -41.167 -75.501 -55.5
s-61.167 -21.5 -100.5 -21.5c-56 0 -98.5 14 -127.5 42s-43.5 65.333 -43.5 112c0 48.667 16.5 86.334 49.5 113.001s76.5 40 130.5 40h106c-0.666992 31.333 -8 56 -22 74s-36 27 -66 27c-44 0 -90.667 -11 -140 -33l-31 92c17.333 11.333 44.166 21.333 80.499 30
s65.833 13 88.5 13c32 0 61.833 -5.66699 89.5 -17s50.834 -27.333 69.501 -48c43.333 43.333 99.666 65 168.999 65c71.333 0 125.166 -24.167 161.499 -72.5s54.5 -109.5 54.5 -183.5v-29h-336zM640.003 372.499c-18.667 19.667 -43.333 29.5 -74 29.5
c-32 0 -57.833 -9.83301 -77.5 -29.5s-32.167 -47.834 -37.5 -84.501h226c-6 36.667 -18.333 64.834 -37 84.501zM292.004 93.499c20 11 38.333 26.5 55 46.5c-8 24 -13 50.667 -15 80h-109c-24.667 0 -44.167 -7.5 -58.5 -22.5s-21.5 -33.5 -21.5 -55.5
c0 -17.333 6.33301 -32.5 19 -45.5s30 -19.5 52 -19.5c32 0 58 5.5 78 16.5z" />
    <glyph glyph-name="ccedilla" unicode="&#xe7;" horiz-adv-x="468" 
d="M380 5c-25.333 -8 -50.001 -13.332 -74.001 -15.999l-10 -25c20.667 -6.66699 38 -18.167 52 -34.5s21 -33.5 21 -51.5c0 -32 -12 -56.5 -36 -73.5s-53 -25.5 -87 -25.5c-13.333 0 -29.166 2.33301 -47.499 7s-32.166 10.667 -41.499 18l26 68
c9.33301 -4.66699 20.166 -9 32.499 -13s22.5 -6 30.5 -6c10.667 0 20.167 2 28.5 6s12.5 9.66699 12.5 17c0 12 -8.33301 22.167 -25 30.5s-38 13.833 -64 16.5l27 68c-61.333 10.667 -109.5 38.334 -144.5 83.001s-52.5 101 -52.5 169c0 50.667 10.167 95.167 30.5 133.5
s49.5 68.166 87.5 89.499s82.333 32 133 32c22.667 0 50.667 -4.5 84 -13.5s60.333 -20.833 81 -35.5l-32 -80c-26 11.333 -48.833 19.666 -68.5 24.999s-41.167 8 -64.5 8c-40 0 -72.5 -15 -97.5 -45s-37.833 -68 -38.5 -114c0 -47.333 12.167 -85.666 36.5 -114.999
s56.833 -44 97.5 -44c24.667 0 47 2.66699 67 8s42 13.666 66 24.999l33 -82c-16.667 -12 -37.667 -22 -63 -30z" />
    <glyph glyph-name="egrave" unicode="&#xe8;" horiz-adv-x="509" 
d="M427 427c-36.667 47.333 -90.666 71.001 -161.999 71.001c-48.667 0 -90.834 -10.667 -126.501 -32s-63 -51.166 -82 -89.499s-28.5 -82.833 -28.5 -133.5c0 -78.667 23.167 -140.834 69.5 -186.501s113.5 -68.5 201.5 -68.5c65.333 0 125 18.667 179 56l-34 82
c-28.667 -14.667 -53.167 -25.5 -73.5 -32.5s-43.5 -10.5 -69.5 -10.5c-93.333 0 -145 43.333 -155 130h336v33c0 73.333 -18.333 133.666 -55 180.999zM184.501 372.001c19.667 20 45.499 29.999 77.499 29.999c31.333 0 56.333 -9.66699 75 -29s31 -47.666 37 -84.999
h-226c4.66699 36 16.834 64 36.501 84zM275 750h-118l92 -161l78 21z" />
    <glyph glyph-name="eacute" unicode="&#xe9;" horiz-adv-x="509" 
d="M427 427c-36.667 47.333 -90.666 71.001 -161.999 71.001c-48.667 0 -90.834 -10.667 -126.501 -32s-63 -51.166 -82 -89.499s-28.5 -82.833 -28.5 -133.5c0 -78.667 23.167 -140.834 69.5 -186.501s113.5 -68.5 201.5 -68.5c65.333 0 125 18.667 179 56l-34 82
c-28.667 -14.667 -53.167 -25.5 -73.5 -32.5s-43.5 -10.5 -69.5 -10.5c-93.333 0 -145 43.333 -155 130h336v33c0 73.333 -18.333 133.666 -55 180.999zM184.501 372.001c19.667 20 45.499 29.999 77.499 29.999c31.333 0 56.333 -9.66699 75 -29s31 -47.666 37 -84.999
h-226c4.66699 36 16.834 64 36.501 84zM245 750l-53 -140l78 -21l92 161h-117z" />
    <glyph glyph-name="ecircumflex" unicode="&#xea;" horiz-adv-x="509" 
d="M427 427c-36.667 47.333 -90.666 71.001 -161.999 71.001c-48.667 0 -90.834 -10.667 -126.501 -32s-63 -51.166 -82 -89.499s-28.5 -82.833 -28.5 -133.5c0 -78.667 23.167 -140.834 69.5 -186.501s113.5 -68.5 201.5 -68.5c65.333 0 125 18.667 179 56l-34 82
c-28.667 -14.667 -53.167 -25.5 -73.5 -32.5s-43.5 -10.5 -69.5 -10.5c-93.333 0 -145 43.333 -155 130h336v33c0 73.333 -18.333 133.666 -55 180.999zM184.501 372.001c19.667 20 45.499 29.999 77.499 29.999c31.333 0 56.333 -9.66699 75 -29s31 -47.666 37 -84.999
h-226c4.66699 36 16.834 64 36.501 84zM433 602l-140 148h-68l-140 -148l104 -13l72 76l70 -76z" />
    <glyph glyph-name="edieresis" unicode="&#xeb;" horiz-adv-x="509" 
d="M427 427c-36.667 47.333 -90.666 71.001 -161.999 71.001c-48.667 0 -90.834 -10.667 -126.501 -32s-63 -51.166 -82 -89.499s-28.5 -82.833 -28.5 -133.5c0 -78.667 23.167 -140.834 69.5 -186.501s113.5 -68.5 201.5 -68.5c65.333 0 125 18.667 179 56l-34 82
c-28.667 -14.667 -53.167 -25.5 -73.5 -32.5s-43.5 -10.5 -69.5 -10.5c-93.333 0 -145 43.333 -155 130h336v33c0 73.333 -18.333 133.666 -55 180.999zM184.501 372.001c19.667 20 45.499 29.999 77.499 29.999c31.333 0 56.333 -9.66699 75 -29s31 -47.666 37 -84.999
h-226c4.66699 36 16.834 64 36.501 84zM203.5 624c11 11.333 16.5 25 16.5 41c0 16.667 -5.5 30.834 -16.5 42.501s-24.833 17.5 -41.5 17.5s-30.834 -5.83301 -42.501 -17.5s-17.5 -25.834 -17.5 -42.501c0 -16 5.83301 -29.667 17.5 -41s25.834 -17 42.501 -17
s30.5 5.66699 41.5 17zM386 624c11.333 11.333 17 25 17 41c0 16.667 -5.66699 30.834 -17 42.501s-25.333 17.5 -42 17.5c-16 0 -30 -5.83301 -42 -17.5s-18 -25.834 -18 -42.501c0 -16 6 -29.667 18 -41s26 -17 42 -17c16.667 0 30.667 5.66699 42 17z" />
    <glyph glyph-name="igrave" unicode="&#xec;" horiz-adv-x="228" 
d="M58 485v-485h113v485h-113zM125 750h-118l92 -161l78 21z" />
    <glyph glyph-name="iacute" unicode="&#xed;" horiz-adv-x="228" 
d="M58 485v-485h113v485h-113zM95 750l-53 -140l78 -21l92 161h-117z" />
    <glyph glyph-name="icircumflex" unicode="&#xee;" horiz-adv-x="228" 
d="M58 485v-485h113v485h-113zM283 602l-140 148h-68l-140 -148l104 -13l72 76l70 -76z" />
    <glyph glyph-name="idieresis" unicode="&#xef;" horiz-adv-x="228" 
d="M58 485v-485h113v485h-113zM53.5 624c11 11.333 16.5 25 16.5 41c0 16.667 -5.5 30.834 -16.5 42.501s-24.833 17.5 -41.5 17.5s-30.834 -5.83301 -42.501 -17.5s-17.5 -25.834 -17.5 -42.501c0 -16 5.83301 -29.667 17.5 -41s25.834 -17 42.501 -17
s30.5 5.66699 41.5 17zM236 624c11.333 11.333 17 25 17 41c0 16.667 -5.66699 30.834 -17 42.501s-25.333 17.5 -42 17.5c-16 0 -30 -5.83301 -42 -17.5s-18 -25.834 -18 -42.501c0 -16 6 -29.667 18 -41s26 -17 42 -17c16.667 0 30.667 5.66699 42 17z" />
    <glyph glyph-name="eth" unicode="&#xf0;" horiz-adv-x="556" 
d="M477.5 460.5c34.333 -64.333 51.5 -131.166 51.5 -200.499c0 -54.667 -10 -102.5 -30 -143.5s-49 -72.833 -87 -95.5s-83 -34 -135 -34c-50.667 0 -94.667 10.667 -132 32s-66.166 51.166 -86.499 89.499s-30.5 83.166 -30.5 134.499c0 50 10.167 94.333 30.5 133
s49 68.667 86 90s80.167 32 129.5 32c14.667 0 32.667 -2.33301 54 -7c-23.333 29.333 -54 59 -92 89l-128 -67l-42 77l84 43c-17.333 10 -42 21.667 -74 35l39 82c45.333 -14.667 91.666 -35.667 138.999 -63l108 55l42 -75l-69 -36
c60.667 -49.333 108.167 -106.166 142.5 -170.499zM375.5 129c25 30 37.5 67.666 37.5 112.999s-6.33301 87.333 -19 126c-32.667 22.667 -71 34 -115 34c-40 0 -72.5 -15 -97.5 -45s-37.833 -68 -38.5 -114c0 -47.333 12.167 -85.666 36.5 -114.999s56.833 -44 97.5 -44
s73.5 15 98.5 45z" />
    <glyph glyph-name="ntilde" unicode="&#xf1;" horiz-adv-x="553" 
d="M312 406c50 0 74.999 -33.668 74.999 -101.001v-305h113v312c0 58.667 -12.667 104.834 -38 138.501s-66.333 50.5 -123 50.5c-29.333 0 -60.666 -6.66699 -93.999 -20s-64 -31.333 -92 -54l-20 58h-75v-485h112v339c54 44.667 101.333 67 142 67zM362.499 686.999
c-5.66699 -6.66699 -12.5 -9.99902 -20.5 -9.99902c-10 0 -18.667 1.5 -26 4.5s-15.666 7.5 -24.999 13.5c-10 6.66699 -19.333 11.667 -28 15s-19.667 5 -33 5c-29.333 0 -53.5 -8.83301 -72.5 -26.5s-28.5 -46.167 -28.5 -85.5h75
c0.666992 8.66699 4.16699 16.5 10.5 23.5s13.166 10.5 20.499 10.5c10 0 18.167 -1.5 24.5 -4.5s14.5 -7.5 24.5 -13.5c9.33301 -6.66699 18.333 -11.834 27 -15.501s19.334 -5.5 32.001 -5.5c29.333 0 53.5 9 72.5 27s28.5 46.667 28.5 86h-72
c-0.666992 -9.33301 -3.83398 -17.333 -9.50098 -24z" />
    <glyph glyph-name="ograve" unicode="&#xf2;" horiz-adv-x="556" 
d="M498 109c-20.667 -38.667 -50.002 -68.6621 -88.002 -89.9951s-82.333 -32 -133 -32s-94.667 10.667 -132 32s-66.166 51.166 -86.499 89.499s-30.5 83.166 -30.5 134.499c0 50.667 10.167 95.167 30.5 133.5s49.5 68.166 87.5 89.499s82.333 32 133 32
s94.834 -10.5 132.501 -31.5s66.667 -50.833 87 -89.5s30.5 -83.334 30.5 -134.001s-10.333 -95.334 -31 -134.001zM375.498 129.005c25 30 37.5 67.666 37.5 112.999c0 47.333 -12.167 85.833 -36.5 115.5s-56.833 44.5 -97.5 44.5c-40 0 -72.5 -15 -97.5 -45
s-37.833 -68 -38.5 -114c0 -47.333 12.167 -85.666 36.5 -114.999s56.833 -44 97.5 -44s73.5 15 98.5 45zM288.998 750.004h-118l92 -161l78 21z" />
    <glyph glyph-name="oacute" unicode="&#xf3;" horiz-adv-x="556" 
d="M498 109c-20.667 -38.667 -50.002 -68.6621 -88.002 -89.9951s-82.333 -32 -133 -32s-94.667 10.667 -132 32s-66.166 51.166 -86.499 89.499s-30.5 83.166 -30.5 134.499c0 50.667 10.167 95.167 30.5 133.5s49.5 68.166 87.5 89.499s82.333 32 133 32
s94.834 -10.5 132.501 -31.5s66.667 -50.833 87 -89.5s30.5 -83.334 30.5 -134.001s-10.333 -95.334 -31 -134.001zM375.498 129.005c25 30 37.5 67.666 37.5 112.999c0 47.333 -12.167 85.833 -36.5 115.5s-56.833 44.5 -97.5 44.5c-40 0 -72.5 -15 -97.5 -45
s-37.833 -68 -38.5 -114c0 -47.333 12.167 -85.666 36.5 -114.999s56.833 -44 97.5 -44s73.5 15 98.5 45zM258.998 750.004l-53 -140l78 -21l92 161h-117z" />
    <glyph glyph-name="ocircumflex" unicode="&#xf4;" horiz-adv-x="556" 
d="M498 109c-20.667 -38.667 -50.002 -68.6621 -88.002 -89.9951s-82.333 -32 -133 -32s-94.667 10.667 -132 32s-66.166 51.166 -86.499 89.499s-30.5 83.166 -30.5 134.499c0 50.667 10.167 95.167 30.5 133.5s49.5 68.166 87.5 89.499s82.333 32 133 32
s94.834 -10.5 132.501 -31.5s66.667 -50.833 87 -89.5s30.5 -83.334 30.5 -134.001s-10.333 -95.334 -31 -134.001zM375.498 129.005c25 30 37.5 67.666 37.5 112.999c0 47.333 -12.167 85.833 -36.5 115.5s-56.833 44.5 -97.5 44.5c-40 0 -72.5 -15 -97.5 -45
s-37.833 -68 -38.5 -114c0 -47.333 12.167 -85.666 36.5 -114.999s56.833 -44 97.5 -44s73.5 15 98.5 45zM446.998 602.004l-140 148h-68l-140 -148l104 -13l72 76l70 -76z" />
    <glyph glyph-name="otilde" unicode="&#xf5;" horiz-adv-x="556" 
d="M498 109c-20.667 -38.667 -50.002 -68.6621 -88.002 -89.9951s-82.333 -32 -133 -32s-94.667 10.667 -132 32s-66.166 51.166 -86.499 89.499s-30.5 83.166 -30.5 134.499c0 50.667 10.167 95.167 30.5 133.5s49.5 68.166 87.5 89.499s82.333 32 133 32
s94.834 -10.5 132.501 -31.5s66.667 -50.833 87 -89.5s30.5 -83.334 30.5 -134.001s-10.333 -95.334 -31 -134.001zM375.498 129.005c25 30 37.5 67.666 37.5 112.999c0 47.333 -12.167 85.833 -36.5 115.5s-56.833 44.5 -97.5 44.5c-40 0 -72.5 -15 -97.5 -45
s-37.833 -68 -38.5 -114c0 -47.333 12.167 -85.666 36.5 -114.999s56.833 -44 97.5 -44s73.5 15 98.5 45zM352.498 687.004c-5.66699 -6.66699 -12.5 -9.99902 -20.5 -9.99902c-10 0 -18.667 1.5 -26 4.5s-15.666 7.5 -24.999 13.5c-10 6.66699 -19.333 11.667 -28 15
s-19.667 5 -33 5c-29.333 0 -53.5 -8.83301 -72.5 -26.5s-28.5 -46.167 -28.5 -85.5h75c0.666992 8.66699 4.16699 16.5 10.5 23.5s13.166 10.5 20.499 10.5c10 0 18.167 -1.5 24.5 -4.5s14.5 -7.5 24.5 -13.5c9.33301 -6.66699 18.333 -11.834 27 -15.501
s19.334 -5.5 32.001 -5.5c29.333 0 53.5 9 72.5 27s28.5 46.667 28.5 86h-72c-0.666992 -9.33301 -3.83398 -17.333 -9.50098 -24z" />
    <glyph glyph-name="odieresis" unicode="&#xf6;" horiz-adv-x="556" 
d="M498 109c-20.667 -38.667 -50.002 -68.6621 -88.002 -89.9951s-82.333 -32 -133 -32s-94.667 10.667 -132 32s-66.166 51.166 -86.499 89.499s-30.5 83.166 -30.5 134.499c0 50.667 10.167 95.167 30.5 133.5s49.5 68.166 87.5 89.499s82.333 32 133 32
s94.834 -10.5 132.501 -31.5s66.667 -50.833 87 -89.5s30.5 -83.334 30.5 -134.001s-10.333 -95.334 -31 -134.001zM375.498 129.005c25 30 37.5 67.666 37.5 112.999c0 47.333 -12.167 85.833 -36.5 115.5s-56.833 44.5 -97.5 44.5c-40 0 -72.5 -15 -97.5 -45
s-37.833 -68 -38.5 -114c0 -47.333 12.167 -85.666 36.5 -114.999s56.833 -44 97.5 -44s73.5 15 98.5 45zM217.498 624.004c11 11.333 16.5 25 16.5 41c0 16.667 -5.5 30.834 -16.5 42.501s-24.833 17.5 -41.5 17.5s-30.834 -5.83301 -42.501 -17.5
s-17.5 -25.834 -17.5 -42.501c0 -16 5.83301 -29.667 17.5 -41s25.834 -17 42.501 -17s30.5 5.66699 41.5 17zM399.998 624.004c11.333 11.333 17 25 17 41c0 16.667 -5.66699 30.834 -17 42.501s-25.333 17.5 -42 17.5c-16 0 -30 -5.83301 -42 -17.5
s-18 -25.834 -18 -42.501c0 -16 6 -29.667 18 -41s26 -17 42 -17c16.667 0 30.667 5.66699 42 17z" />
    <glyph glyph-name="divide" unicode="&#xf7;" horiz-adv-x="506" 
d="M303 381c14 14 21 30.667 21 50c0 20 -7 37 -21 51s-31 21 -51 21s-37 -7 -51 -21s-21 -31 -21 -51c0 -19.333 7 -36 21 -50s31 -21 51 -21s37 7 51 21zM39 229h437l-10 89h-436zM303.5 53.5c14.333 14.333 21.5 31.166 21.5 50.499c0 20 -7.16699 37 -21.5 51
s-31.5 21 -51.5 21c-19.333 0 -36 -7 -50 -21s-21 -31 -21 -51c0 -19.333 7 -36.166 21 -50.499s30.667 -21.5 50 -21.5c20 0 37.167 7.16699 51.5 21.5z" />
    <glyph glyph-name="oslash" unicode="&#xf8;" horiz-adv-x="563" 
d="M411.5 466.5c37.667 -21 66.665 -50.8281 86.998 -89.4951s30.5 -83.334 30.5 -134.001s-10.333 -95.334 -31 -134.001s-50 -68.667 -88 -90s-82.333 -32 -133 -32s-94.667 10.667 -132 32s-66.166 51.166 -86.499 89.499s-30.5 83.166 -30.5 134.499
c0 50.667 10.167 95.167 30.5 133.5s49.5 68.166 87.5 89.499s82.333 32 133 32s94.834 -10.5 132.501 -31.5zM181.498 357.005c-25 -30 -37.833 -68 -38.5 -114c0 -42.667 9.66699 -77.667 29 -105l143 259c-12 3.33301 -24 5 -36 5c-40 0 -72.5 -15 -97.5 -45z
M375.498 129.005c25 30 37.499 67.668 37.499 113.001c0 35.333 -7.33301 66.666 -22 93.999l-140 -250c10.667 -1.33301 19.334 -2 26.001 -2c40.667 0 73.5 15 98.5 45z" />
    <glyph glyph-name="ugrave" unicode="&#xf9;" horiz-adv-x="553" 
d="M241 79c-50 0 -74.999 33.667 -74.999 101v305h-112v-312c0 -126 53.333 -189 160 -189c29.333 0 60.666 6.66699 93.999 20s64 31.333 92 54l20 -58h76v485h-113v-339c-54 -44.667 -101.333 -67 -142 -67zM288.001 750h-118l92 -161l78 21z" />
    <glyph glyph-name="uacute" unicode="&#xfa;" horiz-adv-x="553" 
d="M241 79c-50 0 -74.999 33.667 -74.999 101v305h-112v-312c0 -126 53.333 -189 160 -189c29.333 0 60.666 6.66699 93.999 20s64 31.333 92 54l20 -58h76v485h-113v-339c-54 -44.667 -101.333 -67 -142 -67zM257.001 750l-53 -140l78 -21l92 161h-117z" />
    <glyph glyph-name="ucircumflex" unicode="&#xfb;" horiz-adv-x="553" 
d="M241 79c-50 0 -74.999 33.667 -74.999 101v305h-112v-312c0 -126 53.333 -189 160 -189c29.333 0 60.666 6.66699 93.999 20s64 31.333 92 54l20 -58h76v485h-113v-339c-54 -44.667 -101.333 -67 -142 -67zM446.001 602l-140 148h-68l-140 -148l104 -13l72 76l70 -76z
" />
    <glyph glyph-name="udieresis" unicode="&#xfc;" horiz-adv-x="553" 
d="M241 79c-50 0 -74.999 33.667 -74.999 101v305h-112v-312c0 -126 53.333 -189 160 -189c29.333 0 60.666 6.66699 93.999 20s64 31.333 92 54l20 -58h76v485h-113v-339c-54 -44.667 -101.333 -67 -142 -67zM215.501 624c11 11.333 16.5 25 16.5 41
c0 16.667 -5.5 30.834 -16.5 42.501s-24.833 17.5 -41.5 17.5s-30.834 -5.83301 -42.501 -17.5s-17.5 -25.834 -17.5 -42.501c0 -16 5.83301 -29.667 17.5 -41s25.834 -17 42.501 -17s30.5 5.66699 41.5 17zM398.001 624c11.333 11.333 17 25 17 41
c0 16.667 -5.66699 30.834 -17 42.501s-25.333 17.5 -42 17.5c-16 0 -30 -5.83301 -42 -17.5s-18 -25.834 -18 -42.501c0 -16 6 -29.667 18 -41s26 -17 42 -17c16.667 0 30.667 5.66699 42 17z" />
    <glyph glyph-name="yacute" unicode="&#xfd;" horiz-adv-x="488" 
d="M116.5 -91.5c-19.667 -12.333 -45.8311 -25.5 -78.498 -39.5l39 -90c41.333 9.33301 79.166 27 113.499 53s58.166 56.667 71.499 92l216 561h-118l-117 -322l-124 340l-109 -36l172 -444l-25 -66c-7.33301 -20 -20.833 -36.167 -40.5 -48.5zM219.003 750l-53 -140
l78 -21l92 161h-117z" />
    <glyph glyph-name="thorn" unicode="&#xfe;" horiz-adv-x="541" 
d="M400 466.5c36.667 -21 64.833 -50.835 84.5 -89.502s29.5 -84 29.5 -136c0 -50 -10 -94.167 -30 -132.5s-48.5 -68.166 -85.5 -89.499s-80.167 -32 -129.5 -32c-12 0 -26.5 2.33301 -43.5 7s-33.5 11.334 -49.5 20.001v-222l-112 -11v914l112 11v-235
c33.333 18 65 27 95 27c49.333 0 92.333 -10.5 129 -31.5zM363.499 127.998c23 29.333 34.501 67 34.501 113c0 48 -11.333 86.833 -34 116.5s-54.334 44.5 -95.001 44.5c-33.333 0 -64.333 -10.667 -93 -32v-256c26.667 -20 57.667 -30 93 -30c40 0 71.5 14.667 94.5 44z
" />
    <glyph glyph-name="ydieresis" unicode="&#xff;" horiz-adv-x="488" 
d="M116.5 -91.5c-19.667 -12.333 -45.8311 -25.5 -78.498 -39.5l39 -90c41.333 9.33301 79.166 27 113.499 53s58.166 56.667 71.499 92l216 561h-118l-117 -322l-124 340l-109 -36l172 -444l-25 -66c-7.33301 -20 -20.833 -36.167 -40.5 -48.5zM177.503 624
c11 11.333 16.5 25 16.5 41c0 16.667 -5.5 30.834 -16.5 42.501s-24.833 17.5 -41.5 17.5s-30.834 -5.83301 -42.501 -17.5s-17.5 -25.834 -17.5 -42.501c0 -16 5.83301 -29.667 17.5 -41s25.834 -17 42.501 -17s30.5 5.66699 41.5 17zM360.003 624
c11.333 11.333 17 25 17 41c0 16.667 -5.66699 30.834 -17 42.501s-25.333 17.5 -42 17.5c-16 0 -30 -5.83301 -42 -17.5s-18 -25.834 -18 -42.501c0 -16 6 -29.667 18 -41s26 -17 42 -17c16.667 0 30.667 5.66699 42 17z" />
    <glyph glyph-name="Amacron" unicode="&#x100;" horiz-adv-x="641" 
d="M121 0l65 171h267l67 -180l111 16l-262 673h-99l-260 -680h111zM317 527l102 -265h-201zM429 859h-246v-89h256z" />
    <glyph glyph-name="amacron" unicode="&#x101;" horiz-adv-x="498" 
d="M243 396c57.333 0 86.666 -33.665 87.999 -100.998h-106c-54 0 -97.5 -13.333 -130.5 -40s-49.5 -64.334 -49.5 -113.001c0 -46.667 14.5 -84 43.5 -112s71.5 -42 127.5 -42c24 0 48 5.66699 72 17s45.333 26 64 44l17 -49h75v324c0 32.667 -9 62.167 -27 88.5
s-42.5 47.166 -73.5 62.499s-65.167 23 -102.5 23c-22.667 0 -52.167 -4.33301 -88.5 -13s-63.166 -18.667 -80.499 -30l31 -92c49.333 22 96 33 140 33zM164.5 197.502c14.333 15 33.835 22.5 58.502 22.5h109v-87c-16.667 -17.333 -35.334 -31 -56.001 -41
s-41.334 -15 -62.001 -15c-22 0 -39.333 6.5 -52 19.5s-19 28.167 -19 45.5c0 22 7.16699 40.5 21.5 55.5zM360.002 709.002h-247v-89h256z" />
    <glyph glyph-name="Abreve" unicode="&#x102;" horiz-adv-x="641" 
d="M121 0l65 171h267l67 -180l111 16l-262 673h-99l-260 -680h111zM317 527l102 -265h-201zM366.5 845.5c-11.667 -15 -28.167 -22.5 -49.5 -22.5s-37.333 7.33301 -48 22s-16 32 -16 52h-78c0 -43.333 12.167 -79.833 36.5 -109.5s59.5 -44.834 105.5 -45.501
c46.667 0.666992 82.167 15.834 106.5 45.501s36.5 66.167 36.5 109.5h-76c0 -19.333 -5.83301 -36.5 -17.5 -51.5z" />
    <glyph glyph-name="abreve" unicode="&#x103;" horiz-adv-x="498" 
d="M243 396c57.333 0 86.666 -33.665 87.999 -100.998h-106c-54 0 -97.5 -13.333 -130.5 -40s-49.5 -64.334 -49.5 -113.001c0 -46.667 14.5 -84 43.5 -112s71.5 -42 127.5 -42c24 0 48 5.66699 72 17s45.333 26 64 44l17 -49h75v324c0 32.667 -9 62.167 -27 88.5
s-42.5 47.166 -73.5 62.499s-65.167 23 -102.5 23c-22.667 0 -52.167 -4.33301 -88.5 -13s-63.166 -18.667 -80.499 -30l31 -92c49.333 22 96 33 140 33zM164.5 197.502c14.333 15 33.835 22.5 58.502 22.5h109v-87c-16.667 -17.333 -35.334 -31 -56.001 -41
s-41.334 -15 -62.001 -15c-22 0 -39.333 6.5 -52 19.5s-19 28.167 -19 45.5c0 22 7.16699 40.5 21.5 55.5zM294.502 695.502c-11.667 -15 -28.167 -22.5 -49.5 -22.5s-37.333 7.33301 -48 22s-16 32 -16 52h-78c0 -43.333 12.167 -79.833 36.5 -109.5
s59.5 -44.834 105.5 -45.501c46.667 0.666992 82.167 15.834 106.5 45.501s36.5 66.167 36.5 109.5h-76c0 -19.333 -5.83301 -36.5 -17.5 -51.5z" />
    <glyph glyph-name="Aogonek" unicode="&#x104;" horiz-adv-x="641" 
d="M604 -207c-33.333 0 -60.499 10.333 -81.499 31s-31.5 46.334 -31.5 77.001c0 12.667 3.33301 27.667 10 45s14.334 32.666 23.001 45.999l-4 -1l-67 180h-267l-65 -171h-111l260 680h99l262 -673l-21 -3h27c-12 -10 -23.5 -24.667 -34.5 -44
s-16.5 -35.666 -16.5 -48.999c0 -10.667 3.16699 -19.167 9.5 -25.5s15.166 -9.5 26.499 -9.5c6 0 13.167 1.66699 21.5 5s16.166 7.66602 23.499 12.999l33 -69c-27.333 -21.333 -59.333 -32 -96 -32zM317.001 527l-99 -265h201z" />
    <glyph glyph-name="aogonek" unicode="&#x105;" horiz-adv-x="498" 
d="M440 -207c-33.333 0 -60.498 10.3301 -81.498 30.9971s-31.5 46.334 -31.5 77.001c0 14.667 4.16699 32.167 12.5 52.5s17.833 36.5 28.5 48.5l-16 47c-18.667 -18 -40 -32.667 -64 -44s-48 -17 -72 -17c-56 0 -98.5 14 -127.5 42s-43.5 65.333 -43.5 112
c0 48.667 16.5 86.334 49.5 113.001s76.5 40 130.5 40h106c-1.33301 67.333 -30.666 101 -87.999 101c-44 0 -90.667 -11 -140 -33l-31 92c17.333 11.333 44.166 21.333 80.499 30s65.833 13 88.5 13c37.333 0 71.5 -7.66699 102.5 -23s55.5 -36.166 73.5 -62.499
s27 -55.833 27 -88.5v-320h29c-12 -10 -23.5 -24.667 -34.5 -44s-16.5 -35.666 -16.5 -48.999c0 -10.667 3.16699 -19.167 9.5 -25.5s15.166 -9.5 26.499 -9.5c6 0 13.167 1.66699 21.5 5s16.166 7.66602 23.499 12.999l33 -69c-27.333 -21.333 -59.333 -32 -96 -32z
M223.002 219.997c-24.667 0 -44.1689 -7.5 -58.502 -22.5s-21.5 -33.5 -21.5 -55.5c0 -17.333 6.33301 -32.5 19 -45.5s30 -19.5 52 -19.5c20.667 0 41.334 5 62.001 15s39.334 23.667 56.001 41v87h-109z" />
    <glyph glyph-name="Cacute" unicode="&#x106;" 
d="M451 683c-34.667 7.33301 -63.998 11 -87.998 11c-65.333 0 -122.5 -15.333 -171.5 -46s-86.833 -73.167 -113.5 -127.5s-40 -115.833 -40 -184.5c0 -65.333 12.167 -124.5 36.5 -177.5s60.5 -95 108.5 -126s106 -46.5 174 -46.5c29.333 0 61.833 4 97.5 12
s65.5 18 89.5 30l-43 84c-47.333 -20.667 -97 -31 -149 -31c-40.667 0 -75.834 11.5 -105.501 34.5s-52.334 53.833 -68.001 92.5s-23.5 81.667 -23.5 129c0 52 9 97.833 27 137.5s42.5 70.334 73.5 92.001s65.833 32.5 104.5 32.5c27.333 0 49.5 -1.83301 66.5 -5.5
s43.167 -11.167 78.5 -22.5l34 81c-24 13.333 -53.333 23.666 -88 30.999zM349.002 900l-53 -140l78 -21l92 161h-117z" />
    <glyph glyph-name="cacute" unicode="&#x107;" horiz-adv-x="468" 
d="M344 92c-20 -5.33301 -42.3311 -8.00488 -66.998 -8.00488c-40.667 0 -73.167 14.667 -97.5 44s-36.5 67.666 -36.5 114.999c0.666992 46 13.5 84 38.5 114s57.5 45 97.5 45c23.333 0 44.833 -2.66699 64.5 -8s42.5 -13.666 68.5 -24.999l32 80
c-20.667 14.667 -47.667 26.5 -81 35.5s-61.333 13.5 -84 13.5c-50.667 0 -95 -10.667 -133 -32s-67.167 -51.166 -87.5 -89.499s-30.5 -82.833 -30.5 -133.5c0 -51.333 10.167 -96.166 30.5 -134.499s49.166 -68.166 86.499 -89.499s81.333 -32 132 -32
c23.333 0 51.666 4.33301 84.999 13s60.333 20.334 81 35.001l-33 82c-24 -11.333 -46 -19.666 -66 -24.999zM234.002 749.995l-53 -140l78 -21l92 161h-117z" />
    <glyph glyph-name="Ccaron" unicode="&#x10c;" 
d="M451 683c-34.667 7.33301 -63.998 11 -87.998 11c-65.333 0 -122.5 -15.333 -171.5 -46s-86.833 -73.167 -113.5 -127.5s-40 -115.833 -40 -184.5c0 -65.333 12.167 -124.5 36.5 -177.5s60.5 -95 108.5 -126s106 -46.5 174 -46.5c29.333 0 61.833 4 97.5 12
s65.5 18 89.5 30l-43 84c-47.333 -20.667 -97 -31 -149 -31c-40.667 0 -75.834 11.5 -105.501 34.5s-52.334 53.833 -68.001 92.5s-23.5 81.667 -23.5 129c0 52 9 97.833 27 137.5s42.5 70.334 73.5 92.001s65.833 32.5 104.5 32.5c27.333 0 49.5 -1.83301 66.5 -5.5
s43.167 -11.167 78.5 -22.5l34 81c-24 13.333 -53.333 23.666 -88 30.999zM190.002 887l140 -148h69l139 148l-102 13l-71 -76l-71 76z" />
    <glyph glyph-name="ccaron" unicode="&#x10d;" horiz-adv-x="468" 
d="M344 92c-20 -5.33301 -42.3311 -8.00488 -66.998 -8.00488c-40.667 0 -73.167 14.667 -97.5 44s-36.5 67.666 -36.5 114.999c0.666992 46 13.5 84 38.5 114s57.5 45 97.5 45c23.333 0 44.833 -2.66699 64.5 -8s42.5 -13.666 68.5 -24.999l32 80
c-20.667 14.667 -47.667 26.5 -81 35.5s-61.333 13.5 -84 13.5c-50.667 0 -95 -10.667 -133 -32s-67.167 -51.166 -87.5 -89.499s-30.5 -82.833 -30.5 -133.5c0 -51.333 10.167 -96.166 30.5 -134.499s49.166 -68.166 86.499 -89.499s81.333 -32 132 -32
c23.333 0 51.666 4.33301 84.999 13s60.333 20.334 81 35.001l-33 82c-24 -11.333 -46 -19.666 -66 -24.999zM80.002 736.995l140 -148h69l139 148l-102 13l-71 -76l-71 76z" />
    <glyph glyph-name="Dcaron" unicode="&#x10e;" horiz-adv-x="684" 
d="M505 43c46.667 28.667 82 68.833 106 120.5s36 111.834 36 180.501c0 101.333 -26 182.666 -78 243.999s-128.667 92 -230 92h-251v-680h249c65.333 -0 121.333 14.333 168 43zM485 520.499c31.333 -42.333 47.001 -101.499 47.001 -177.499
c0 -82.667 -17.5 -144.834 -52.5 -186.501s-82.833 -62.5 -143.5 -62.5h-136v490h143c63.333 0 110.666 -21.167 141.999 -63.5zM153.001 887l140 -148h69l139 148l-102 13l-71 -76l-71 76z" />
    <glyph glyph-name="dcaron" unicode="&#x10f;" horiz-adv-x="736" 
d="M685.5 709c13.667 -15.333 20.499 -34.667 20.499 -58c0 -35.333 -11.667 -71.833 -35 -109.5s-52.333 -65.834 -87 -84.501l-26 53c20 16.667 34.833 31 44.5 43s16.167 27.333 19.5 46c-12 0.666992 -23.667 7.83398 -35 21.501s-17 28.167 -17 43.5
c0 16.667 6.66699 32.167 20 46.5s29 21.5 47 21.5c18.667 0 34.834 -7.66699 48.501 -23zM489.999 704.999v-704.999h-61l-24 40c-20.667 -16.667 -42.834 -29.667 -66.501 -39s-46.5 -14 -68.5 -14c-49.333 0 -92.166 10.667 -128.499 32s-64.333 51.333 -84 90
s-29.5 83.667 -29.5 135c0 50.667 9.83301 95.167 29.5 133.5s48 68 85 89s80.167 31.5 129.5 31.5c15.333 0 32.333 -2.83301 51 -8.5s36.667 -13.834 54 -24.501v230zM177.499 128c23 -29.333 54.5 -44 94.5 -44c20 0 38.333 3.16699 55 9.5s33.334 16.5 50.001 30.5v238
c-16 14 -32.333 24.167 -49 30.5s-35.334 9.5 -56.001 9.5c-40 0 -71.5 -14.667 -94.5 -44s-34.5 -67 -34.5 -113c0 -48.667 11.5 -87.667 34.5 -117z" />
    <glyph glyph-name="Dcroat" unicode="&#x110;" horiz-adv-x="684" 
d="M569 588c52 -61.333 78 -142.665 78 -243.998c0 -68.667 -12 -128.834 -36 -180.501s-59.333 -91.834 -106 -120.501s-102.667 -43 -168 -43h-249v296h-59l-10 87h69v297h251c101.333 0 178 -30.667 230 -92zM479.5 156.501c35 41.667 52.499 103.833 52.499 186.5
c0 76 -15.667 135.167 -47 177.5s-78.666 63.5 -141.999 63.5h-143v-201h81l9 -87h-90v-202h136c60.667 0 108.5 20.833 143.5 62.5z" />
    <glyph glyph-name="dcroat" unicode="&#x111;" horiz-adv-x="558" 
d="M490 550v-549.999h-61l-25 41c-20.667 -16.667 -43.167 -29.834 -67.5 -39.501s-46.5 -14.5 -66.5 -14.5c-49.333 0 -92.166 10.667 -128.499 32s-64.333 51.333 -84 90s-29.5 83.667 -29.5 135c0 50.667 9.83301 95.167 29.5 133.5s48 68 85 89s80.167 31.5 129.5 31.5
c14 0 30.667 -3 50 -9s37.666 -14 54.999 -24v85h-72l-11 82h83v63l113 10v-73h63l10 -82h-73zM177.5 128.001c23 -29.333 54.5 -44 94.5 -44c20 0 38.333 3.16699 55 9.5s33.334 16.5 50.001 30.5v238c-16 14 -32.333 24.167 -49 30.5s-35.334 9.5 -56.001 9.5
c-40 0 -71.5 -14.667 -94.5 -44s-34.5 -67 -34.5 -113c0 -48.667 11.5 -87.667 34.5 -117z" />
    <glyph glyph-name="Emacron" unicode="&#x112;" 
d="M200 88v213h243l-17 88h-226v203h298l-16 88h-394v-680h453l-17 88h-324zM410 859h-246v-89h256z" />
    <glyph glyph-name="emacron" unicode="&#x113;" horiz-adv-x="509" 
d="M427 427c-36.667 47.333 -90.666 71.001 -161.999 71.001c-48.667 0 -90.834 -10.667 -126.501 -32s-63 -51.166 -82 -89.499s-28.5 -82.833 -28.5 -133.5c0 -78.667 23.167 -140.834 69.5 -186.501s113.5 -68.5 201.5 -68.5c65.333 0 125 18.667 179 56l-34 82
c-28.667 -14.667 -53.167 -25.5 -73.5 -32.5s-43.5 -10.5 -69.5 -10.5c-93.333 0 -145 43.333 -155 130h336v33c0 73.333 -18.333 133.666 -55 180.999zM184.501 372.001c19.667 20 45.499 29.999 77.499 29.999c31.333 0 56.333 -9.66699 75 -29s31 -47.666 37 -84.999
h-226c4.66699 36 16.834 64 36.501 84zM377 709h-247v-89h256z" />
    <glyph glyph-name="Edotaccent" unicode="&#x116;" 
d="M200 88v213h243l-17 88h-226v203h298l-16 88h-394v-680h453l-17 88h-324zM345 769.5c12.667 13 19 28.5 19 46.5c0 18.667 -6.33301 34.667 -19 48s-28.334 20 -47.001 20s-34.5 -6.66699 -47.5 -20s-19.5 -29.333 -19.5 -48c0 -18 6.5 -33.5 19.5 -46.5
s28.833 -19.5 47.5 -19.5s34.334 6.5 47.001 19.5z" />
    <glyph glyph-name="edotaccent" unicode="&#x117;" horiz-adv-x="509" 
d="M427 427c-36.667 47.333 -90.666 71.001 -161.999 71.001c-48.667 0 -90.834 -10.667 -126.501 -32s-63 -51.166 -82 -89.499s-28.5 -82.833 -28.5 -133.5c0 -78.667 23.167 -140.834 69.5 -186.501s113.5 -68.5 201.5 -68.5c65.333 0 125 18.667 179 56l-34 82
c-28.667 -14.667 -53.167 -25.5 -73.5 -32.5s-43.5 -10.5 -69.5 -10.5c-93.333 0 -145 43.333 -155 130h336v33c0 73.333 -18.333 133.666 -55 180.999zM184.501 372.001c19.667 20 45.499 29.999 77.499 29.999c31.333 0 56.333 -9.66699 75 -29s31 -47.666 37 -84.999
h-226c4.66699 36 16.834 64 36.501 84zM309 619.5c12.667 13 19 28.5 19 46.5c0 18.667 -6.33301 34.667 -19 48s-28.334 20 -47.001 20s-34.5 -6.66699 -47.5 -20s-19.5 -29.333 -19.5 -48c0 -18 6.5 -33.5 19.5 -46.5s28.833 -19.5 47.5 -19.5s34.334 6.5 47.001 19.5z
" />
    <glyph glyph-name="Eogonek" unicode="&#x118;" 
d="M449 -207c-33.333 0 -60.498 10.333 -81.498 31s-31.5 46.334 -31.5 77.001c0 14.667 4 31.667 12 51s17 35.333 27 48h-287v680h394l16 -88h-298v-203h226l17 -88h-243v-213h324l17 -88h-64c-11.333 -11.333 -21.833 -26 -31.5 -44s-14.5 -33 -14.5 -45
c0 -10.667 3.16699 -19.167 9.5 -25.5s15.166 -9.5 26.499 -9.5c6 0 13.167 1.66699 21.5 5s16.166 7.66602 23.499 12.999l33 -69c-27.333 -21.333 -59.333 -32 -96 -32z" />
    <glyph glyph-name="eogonek" unicode="&#x119;" horiz-adv-x="509" 
d="M146 213c10 -86.667 61.668 -130.001 155.001 -130.001c26 0 49.167 3.5 69.5 10.5s44.833 17.833 73.5 32.5l34 -82c-24.667 -17.333 -50.667 -30.666 -78 -39.999h6c-12 -10 -23.5 -24.667 -34.5 -44s-16.5 -35.666 -16.5 -48.999c0 -10.667 3.16699 -19.167 9.5 -25.5
s15.166 -9.5 26.499 -9.5c6 0 13.167 1.66699 21.5 5s16.166 7.66602 23.499 12.999l33 -69c-27.333 -21.333 -59.333 -32 -96 -32c-33.333 0 -60.5 10.333 -81.5 31s-31.5 46.334 -31.5 77.001c0 12.667 3 27.167 9 43.5s13.333 30.833 22 43.5
c-85.333 1.33301 -150.5 24.666 -195.5 69.999s-67.5 107 -67.5 185c0 50.667 9.5 95.167 28.5 133.5s46.333 68.166 82 89.499s77.834 32 126.501 32c71.333 0 125.333 -23.667 162 -71s55 -107.666 55 -180.999v-33h-336zM337.001 372.999
c-18.667 19.333 -43.666 29.001 -74.999 29.001c-32 0 -57.833 -10 -77.5 -30s-31.834 -48 -36.501 -84h226c-6 37.333 -18.333 65.666 -37 84.999z" />
    <glyph glyph-name="Ecaron" unicode="&#x11a;" 
d="M200 88v213h243l-17 88h-226v203h298l-16 88h-394v-680h453l-17 88h-324zM125 887l140 -148h69l139 148l-102 13l-71 -76l-71 76z" />
    <glyph glyph-name="ecaron" unicode="&#x11b;" horiz-adv-x="509" 
d="M427 427c-36.667 47.333 -90.666 71.001 -161.999 71.001c-48.667 0 -90.834 -10.667 -126.501 -32s-63 -51.166 -82 -89.499s-28.5 -82.833 -28.5 -133.5c0 -78.667 23.167 -140.834 69.5 -186.501s113.5 -68.5 201.5 -68.5c65.333 0 125 18.667 179 56l-34 82
c-28.667 -14.667 -53.167 -25.5 -73.5 -32.5s-43.5 -10.5 -69.5 -10.5c-93.333 0 -145 43.333 -155 130h336v33c0 73.333 -18.333 133.666 -55 180.999zM184.501 372.001c19.667 20 45.499 29.999 77.499 29.999c31.333 0 56.333 -9.66699 75 -29s31 -47.666 37 -84.999
h-226c4.66699 36 16.834 64 36.501 84zM91 737l140 -148h69l139 148l-102 13l-71 -76l-71 76z" />
    <glyph glyph-name="Gbreve" unicode="&#x11e;" horiz-adv-x="629" 
d="M479 95c-34.667 -9.33301 -69.6611 -13.999 -104.994 -13.999c-42.667 0 -80.5 10.5 -113.5 31.5s-58.833 50.833 -77.5 89.5s-28 83.667 -28 135c0 55.333 10.667 102.833 32 142.5s50 69.5 86 89.5s75.667 30 119 30c27.333 0 49.166 -1.83301 65.499 -5.5
s42.5 -11.167 78.5 -22.5l35 81c-24.667 13.333 -54.834 23.666 -90.501 30.999s-65.834 11 -90.501 11c-66.667 0 -126.834 -15.167 -180.501 -45.5s-95.667 -72.833 -126 -127.5s-45.5 -116.334 -45.5 -185.001c0 -65.333 13.667 -124.666 41 -177.999
s66.666 -95.333 117.999 -126s111.333 -46 180 -46c38 0 75.167 4.5 111.5 13.5s67.166 20.833 92.499 35.5v329h-238l-9 -86h145v-183zM425.506 845.501c-11.667 -15 -28.167 -22.5 -49.5 -22.5s-37.333 7.33301 -48 22s-16 32 -16 52h-78
c0 -43.333 12.167 -79.833 36.5 -109.5s59.5 -44.834 105.5 -45.501c46.667 0.666992 82.167 15.834 106.5 45.501s36.5 66.167 36.5 109.5h-76c0 -19.333 -5.83301 -36.5 -17.5 -51.5z" />
    <glyph glyph-name="gbreve" unicode="&#x11f;" horiz-adv-x="554" 
d="M490 -33c0 -60.667 -21.834 -108.665 -65.501 -143.998s-103.5 -53 -179.5 -53c-24 0 -55.167 4.66699 -93.5 14s-68.5 21.666 -90.5 36.999l34 81c30 -14 55.833 -24.333 77.5 -31s44.834 -10 69.501 -10c40 0 72.5 9.5 97.5 28.5s37.5 45.167 37.5 78.5v52
c-17.333 -10.667 -35.333 -18.834 -54 -24.501s-36.334 -8.5 -53.001 -8.5c-49.333 0 -92.166 10.667 -128.499 32s-64.333 51.333 -84 90s-29.5 83.667 -29.5 135c0 50.667 9.83301 95.167 29.5 133.5s48 68 85 89s80.167 31.5 129.5 31.5c20 0 42.333 -4.66699 67 -14
s46.667 -22 66 -38l24 39h61v-518zM326.999 93.502c16.667 6.33301 33.334 16.5 50.001 30.5v238c-16 14 -32.333 24.167 -49 30.5s-35.334 9.5 -56.001 9.5c-40 0 -71.5 -14.667 -94.5 -44s-34.5 -67 -34.5 -113c0 -48.667 11.5 -87.667 34.5 -117s54.5 -44 94.5 -44
c20 0 38.333 3.16699 55 9.5zM308.499 695.502c-11.667 -15 -28.167 -22.5 -49.5 -22.5s-37.333 7.33301 -48 22s-16 32 -16 52h-78c0 -43.333 12.167 -79.833 36.5 -109.5s59.5 -44.834 105.5 -45.501c46.667 0.666992 82.167 15.834 106.5 45.501s36.5 66.167 36.5 109.5
h-76c0 -19.333 -5.83301 -36.5 -17.5 -51.5z" />
    <glyph glyph-name="Gcommaaccent" unicode="&#x122;" horiz-adv-x="629" 
d="M479 95c-34.667 -9.33301 -69.6611 -13.999 -104.994 -13.999c-42.667 0 -80.5 10.5 -113.5 31.5s-58.833 50.833 -77.5 89.5s-28 83.667 -28 135c0 55.333 10.667 102.833 32 142.5s50 69.5 86 89.5s75.667 30 119 30c27.333 0 49.166 -1.83301 65.499 -5.5
s42.5 -11.167 78.5 -22.5l35 81c-24.667 13.333 -54.834 23.666 -90.501 30.999s-65.834 11 -90.501 11c-66.667 0 -126.834 -15.167 -180.501 -45.5s-95.667 -72.833 -126 -127.5s-45.5 -116.334 -45.5 -185.001c0 -65.333 13.667 -124.666 41 -177.999
s66.666 -95.333 117.999 -126s111.333 -46 180 -46c38 0 75.167 4.5 111.5 13.5s67.166 20.833 92.499 35.5v329h-238l-9 -86h145v-183zM332.006 -41.999c-13.333 -14 -20 -29.333 -20 -46c0 -16 5.66699 -31 17 -45s23 -21 35 -21c-3.33301 -14 -10 -26.5 -20 -37.5
s-21 -19.167 -33 -24.5l25 -53c31.333 14.667 57.5 37.5 78.5 68.5s31.5 63.833 31.5 98.5c0 24 -6.5 43.5 -19.5 58.5s-28.833 22.5 -47.5 22.5c-18 0 -33.667 -7 -47 -21z" />
    <glyph glyph-name="gcommaaccent" unicode="&#x123;" horiz-adv-x="554" 
d="M219.5 570c-13 15.333 -19.5 34.667 -19.5 58c0 34 10.5 66.333 31.5 97s46.833 54 77.5 70l26 -54c-12 -5.33301 -23.167 -13.333 -33.5 -24s-16.833 -23 -19.5 -37c11.333 0 23 -7 35 -21s18 -28.667 18 -44c0 -16.667 -6.83301 -32.167 -20.5 -46.5
s-29.5 -21.5 -47.5 -21.5c-18.667 0 -34.5 7.66699 -47.5 23zM490 -32.999c0 -60.667 -21.835 -108.666 -65.502 -143.999s-103.5 -53 -179.5 -53c-24 0 -55.167 4.66699 -93.5 14s-68.5 21.666 -90.5 36.999l34 81c30 -14 55.833 -24.333 77.5 -31s44.834 -10 69.501 -10
c40 0 72.5 9.5 97.5 28.5s37.5 45.167 37.5 78.5v53c-18 -10.667 -36.333 -19 -55 -25s-36 -9 -52 -9c-49.333 0 -92.166 10.667 -128.499 32s-64.333 51.333 -84 90s-29.5 83.667 -29.5 135c0 50.667 9.83301 95.167 29.5 133.5s48 68 85 89s80.167 31.5 129.5 31.5
c18.667 0 40.5 -4.66699 65.5 -14s47.5 -22 67.5 -38l24 39h61v-518zM326.998 93.502c16.667 6.33301 33.334 16.5 50.001 30.5v238c-16 14 -32.333 24.167 -49 30.5s-35.334 9.5 -56.001 9.5c-40 0 -71.5 -14.667 -94.5 -44s-34.5 -67 -34.5 -113
c0 -48.667 11.5 -87.667 34.5 -117s54.5 -44 94.5 -44c20 0 38.333 3.16699 55 9.5z" />
    <glyph glyph-name="Imacron" unicode="&#x12a;" horiz-adv-x="287" 
d="M88 680v-680h112v680h-112zM257 859h-246v-89h256z" />
    <glyph glyph-name="imacron" unicode="&#x12b;" horiz-adv-x="228" 
d="M58 485v-485h113v485h-113zM227 709h-247v-89h256z" />
    <glyph glyph-name="Iogonek" unicode="&#x12e;" horiz-adv-x="287" 
d="M170 -207c-33.333 0 -60.498 10.333 -81.498 31s-31.5 46.334 -31.5 77.001c0 14.667 4 31.667 12 51s17 35.333 27 48h-8v680h112v-676h3l-3 -3v-1h-2c-11.333 -11.333 -21.833 -26 -31.5 -44s-14.5 -33 -14.5 -45c0 -10.667 3.16699 -19.167 9.5 -25.5
s15.166 -9.5 26.499 -9.5c6 0 13.167 1.66699 21.5 5s16.166 7.66602 23.499 12.999l33 -69c-27.333 -21.333 -59.333 -32 -96 -32z" />
    <glyph glyph-name="iogonek" unicode="&#x12f;" horiz-adv-x="228" 
d="M64.5 619.5c-13 13 -19.5 28.5 -19.5 46.5c0 18.667 6.5 34.667 19.5 48s28.833 20 47.5 20s34.334 -6.66699 47.001 -20s19 -29.333 19 -48c0 -18 -6.33301 -33.5 -19 -46.5s-28.334 -19.5 -47.001 -19.5s-34.5 6.5 -47.5 19.5zM123 -207
c-33.333 0 -60.498 10.333 -81.498 31s-31.5 46.334 -31.5 77.001c0 15.333 4.5 33.5 13.5 54.5s18.833 37.167 29.5 48.5h5v481h113v-485h-20c-11.333 -11.333 -21.833 -26 -31.5 -44s-14.5 -33 -14.5 -45c0 -10.667 3.16699 -19.167 9.5 -25.5s15.166 -9.5 26.499 -9.5
c6 0 13.167 1.66699 21.5 5s16.166 7.66602 23.499 12.999l33 -69c-27.333 -21.333 -59.333 -32 -96 -32z" />
    <glyph glyph-name="Idotaccent" unicode="&#x130;" horiz-adv-x="287" 
d="M88 680v-680h112v680h-112zM192 769.5c12.667 13 19 28.5 19 46.5c0 18.667 -6.33301 34.667 -19 48s-28.334 20 -47.001 20s-34.5 -6.66699 -47.5 -20s-19.5 -29.333 -19.5 -48c0 -18 6.5 -33.5 19.5 -46.5s28.833 -19.5 47.5 -19.5s34.334 6.5 47.001 19.5z" />
    <glyph glyph-name="dotlessi" unicode="&#x131;" horiz-adv-x="228" 
d="M58 485v-485h113v485h-113z" />
    <glyph glyph-name="Kcommaaccent" unicode="&#x136;" horiz-adv-x="641" 
d="M200 224v-224h-112v680h112v-300l303 315l81 -65l-237 -251l284 -379h-138l-223 299zM301 -42c-13.333 -14 -20 -29.333 -20 -46c0 -16 5.66699 -31 17 -45s23 -21 35 -21c-3.33301 -14 -10 -26.5 -20 -37.5s-21 -19.167 -33 -24.5l25 -53
c31.333 14.667 57.5 37.5 78.5 68.5s31.5 63.833 31.5 98.5c0 24 -6.5 43.5 -19.5 58.5s-28.833 22.5 -47.5 22.5c-18 0 -33.667 -7 -47 -21z" />
    <glyph glyph-name="kcommaaccent" unicode="&#x137;" horiz-adv-x="502" 
d="M237 220l135 -220h130l-186 292l140 129l-64 77l-212 -201v409l-112 -11v-695h112v167zM228 -42c-13.333 -14 -20 -29.333 -20 -46c0 -16 5.66699 -31 17 -45s23 -21 35 -21c-3.33301 -14 -10 -26.5 -20 -37.5s-21 -19.167 -33 -24.5l25 -53
c31.333 14.667 57.5 37.5 78.5 68.5s31.5 63.833 31.5 98.5c0 24 -6.5 43.5 -19.5 58.5s-28.833 22.5 -47.5 22.5c-18 0 -33.667 -7 -47 -21z" />
    <glyph glyph-name="Lacute" unicode="&#x139;" horiz-adv-x="529" 
d="M200 680h-112v-680h431l-16 88h-303v592zM215 900l-53 -140l78 -21l92 161h-117z" />
    <glyph glyph-name="lacute" unicode="&#x13a;" horiz-adv-x="247" 
d="M140 900l-52 -140l77 -21l93 161h-118zM68 673v-673h112v685z" />
    <glyph glyph-name="Lcommaaccent" unicode="&#x13b;" horiz-adv-x="529" 
d="M200 680h-112v-680h431l-16 88h-303v592zM309 -42c-13.333 -14 -20 -29.333 -20 -46c0 -16 5.66699 -31 17 -45s23 -21 35 -21c-3.33301 -14 -10 -26.5 -20 -37.5s-21 -19.167 -33 -24.5l25 -53c31.333 14.667 57.5 37.5 78.5 68.5s31.5 63.833 31.5 98.5
c0 24 -6.5 43.5 -19.5 58.5s-28.833 22.5 -47.5 22.5c-18 0 -33.667 -7 -47 -21z" />
    <glyph glyph-name="lcommaaccent" unicode="&#x13c;" horiz-adv-x="247" 
d="M68 695v-695h112v706zM83 -42c-13.333 -14 -20 -29.333 -20 -46c0 -16 5.66699 -31 17 -45s23 -21 35 -21c-3.33301 -14 -10 -26.5 -20 -37.5s-21 -19.167 -33 -24.5l25 -53c31.333 14.667 57.5 37.5 78.5 68.5s31.5 63.833 31.5 98.5c0 24 -6.5 43.5 -19.5 58.5
s-28.833 22.5 -47.5 22.5c-18 0 -33.667 -7 -47 -21z" />
    <glyph glyph-name="Lcaron" unicode="&#x13d;" horiz-adv-x="529" 
d="M200 680h-112v-680h431l-16 88h-303v592zM372.5 710.5c-13 -14.333 -19.499 -29.8311 -19.499 -46.498c0 -16 5.66699 -30.667 17 -44s23 -20.333 35 -21c-3.33301 -18.667 -9.83301 -33.834 -19.5 -45.501s-24.5 -26.167 -44.5 -43.5l25 -53
c34.667 18.667 63.667 46.667 87 84s35 74 35 110c0 23.333 -6.83301 42.666 -20.5 57.999s-29.834 23 -48.501 23c-18 0 -33.5 -7.16699 -46.5 -21.5z" />
    <glyph glyph-name="lcaron" unicode="&#x13e;" horiz-adv-x="424" 
d="M279 710.5c-13.333 -14.333 -20 -29.832 -20 -46.499c0 -16 5.66699 -30.667 17 -44s23 -20.333 35 -21c-3.33301 -18.667 -9.83301 -34 -19.5 -46s-24.5 -26.333 -44.5 -43l25 -53c34.667 18.667 63.667 46.667 87 84s35 74 35 110
c0 23.333 -6.83301 42.666 -20.5 57.999s-29.834 23 -48.501 23c-17.333 0 -32.666 -7.16699 -45.999 -21.5zM68 695.001v-695h112v706z" />
    <glyph glyph-name="Lslash" unicode="&#x141;" horiz-adv-x="535" 
d="M55 193l-45 77l78 61v349h112v-262l108 85l45 -77l-153 -120v-218h303l16 -88h-431v219z" />
    <glyph glyph-name="lslash" unicode="&#x142;" horiz-adv-x="343" 
d="M228 706l-112 -11v-313l-116 -91l45 -77l71 55v-269h112v357l115 91l-46 76l-69 -55v237z" />
    <glyph glyph-name="Nacute" unicode="&#x143;" horiz-adv-x="729" 
d="M534 0h107v680h-113v-479l-334 479h-106v-680h112v482zM355 900l-53 -140l78 -21l92 161h-117z" />
    <glyph glyph-name="nacute" unicode="&#x144;" horiz-adv-x="553" 
d="M312 406c50 0 74.999 -33.668 74.999 -101.001v-305h113v312c0 58.667 -12.667 104.834 -38 138.501s-66.333 50.5 -123 50.5c-29.333 0 -60.666 -6.66699 -93.999 -20s-64 -31.333 -92 -54l-20 58h-75v-485h112v339c54 44.667 101.333 67 142 67zM268.999 749.999
l-53 -140l78 -21l92 161h-117z" />
    <glyph glyph-name="Ncommaaccent" unicode="&#x145;" horiz-adv-x="729" 
d="M534 0h107v680h-113v-479l-334 479h-106v-680h112v482zM325 -42c-13.333 -14 -20 -29.333 -20 -46c0 -16 5.66699 -31 17 -45s23 -21 35 -21c-3.33301 -14 -10 -26.5 -20 -37.5s-21 -19.167 -33 -24.5l25 -53c31.333 14.667 57.5 37.5 78.5 68.5s31.5 63.833 31.5 98.5
c0 24 -6.5 43.5 -19.5 58.5s-28.833 22.5 -47.5 22.5c-18 0 -33.667 -7 -47 -21z" />
    <glyph glyph-name="ncommaaccent" unicode="&#x146;" horiz-adv-x="553" 
d="M312 406c50 0 74.999 -33.668 74.999 -101.001v-305h113v312c0 58.667 -12.667 104.834 -38 138.501s-66.333 50.5 -123 50.5c-29.333 0 -60.666 -6.66699 -93.999 -20s-64 -31.333 -92 -54l-20 58h-75v-485h112v339c54 44.667 101.333 67 142 67zM241.999 -42.001
c-13.333 -14 -20 -29.333 -20 -46c0 -16 5.66699 -31 17 -45s23 -21 35 -21c-3.33301 -14 -10 -26.5 -20 -37.5s-21 -19.167 -33 -24.5l25 -53c31.333 14.667 57.5 37.5 78.5 68.5s31.5 63.833 31.5 98.5c0 24 -6.5 43.5 -19.5 58.5s-28.833 22.5 -47.5 22.5
c-18 0 -33.667 -7 -47 -21z" />
    <glyph glyph-name="Ncaron" unicode="&#x147;" horiz-adv-x="729" 
d="M534 0h107v680h-113v-479l-334 479h-106v-680h112v482zM197 887l140 -148h69l139 148l-102 13l-71 -76l-71 76z" />
    <glyph glyph-name="ncaron" unicode="&#x148;" horiz-adv-x="553" 
d="M312 406c50 0 74.999 -33.668 74.999 -101.001v-305h113v312c0 58.667 -12.667 104.834 -38 138.501s-66.333 50.5 -123 50.5c-29.333 0 -60.666 -6.66699 -93.999 -20s-64 -31.333 -92 -54l-20 58h-75v-485h112v339c54 44.667 101.333 67 142 67zM114.999 736.999
l140 -148h69l139 148l-102 13l-71 -76l-71 76z" />
    <glyph glyph-name="Omacron" unicode="&#x14c;" horiz-adv-x="733" 
d="M196 647.5c-50 -31 -88.834 -73.502 -116.501 -127.502s-41.5 -115 -41.5 -183c0 -66.667 13.5 -126.667 40.5 -180s65.333 -95.166 115 -125.499s106.834 -45.5 171.501 -45.5c64 0.666992 121 16.334 171 47.001s89 73 117 127s42 115.333 42 184
c0 66.667 -13.5 126.667 -40.5 180s-65.5 95.333 -115.5 126s-107.667 46 -173 46c-63.333 -1.33301 -120 -17.5 -170 -48.5zM182.999 473.998c18.667 40 44.333 71 77 93s68.667 33 108 33c41.333 0 77.833 -11 109.5 -33s56.167 -52.333 73.5 -91s26 -82.667 26 -132
c0 -53.333 -9.33301 -99.833 -28 -139.5s-44.167 -70.167 -76.5 -91.5s-68.5 -32 -108.5 -32c-41.333 0 -77.833 11 -109.5 33s-56.167 52.5 -73.5 91.5s-26 83.167 -26 132.5c0 50.667 9.33301 96 28 136zM476.998 858.998h-246v-89h256z" />
    <glyph glyph-name="omacron" unicode="&#x14d;" horiz-adv-x="556" 
d="M498 109c-20.667 -38.667 -50.002 -68.6621 -88.002 -89.9951s-82.333 -32 -133 -32s-94.667 10.667 -132 32s-66.166 51.166 -86.499 89.499s-30.5 83.166 -30.5 134.499c0 50.667 10.167 95.167 30.5 133.5s49.5 68.166 87.5 89.499s82.333 32 133 32
s94.834 -10.5 132.501 -31.5s66.667 -50.833 87 -89.5s30.5 -83.334 30.5 -134.001s-10.333 -95.334 -31 -134.001zM375.498 129.005c25 30 37.5 67.666 37.5 112.999c0 47.333 -12.167 85.833 -36.5 115.5s-56.833 44.5 -97.5 44.5c-40 0 -72.5 -15 -97.5 -45
s-37.833 -68 -38.5 -114c0 -47.333 12.167 -85.666 36.5 -114.999s56.833 -44 97.5 -44s73.5 15 98.5 45zM390.998 709.004h-247v-89h256z" />
    <glyph glyph-name="Ohungarumlaut" unicode="&#x150;" horiz-adv-x="733" 
d="M196 647.5c-50 -31 -88.834 -73.502 -116.501 -127.502s-41.5 -115 -41.5 -183c0 -66.667 13.5 -126.667 40.5 -180s65.333 -95.166 115 -125.499s106.834 -45.5 171.501 -45.5c64 0.666992 121 16.334 171 47.001s89 73 117 127s42 115.333 42 184
c0 66.667 -13.5 126.667 -40.5 180s-65.5 95.333 -115.5 126s-107.667 46 -173 46c-63.333 -1.33301 -120 -17.5 -170 -48.5zM182.999 473.998c18.667 40 44.333 71 77 93s68.667 33 108 33c41.333 0 77.833 -11 109.5 -33s56.167 -52.333 73.5 -91s26 -82.667 26 -132
c0 -53.333 -9.33301 -99.833 -28 -139.5s-44.167 -70.167 -76.5 -91.5s-68.5 -32 -108.5 -32c-41.333 0 -77.833 11 -109.5 33s-56.167 52.5 -73.5 91.5s-26 83.167 -26 132.5c0 50.667 9.33301 96 28 136zM276.998 899.998l-53 -140l78 -21l92 161h-117zM458.998 899.998
l-53 -140l78 -21l93 161h-118z" />
    <glyph glyph-name="ohungarumlaut" unicode="&#x151;" horiz-adv-x="556" 
d="M498 109c-20.667 -38.667 -50.002 -68.6621 -88.002 -89.9951s-82.333 -32 -133 -32s-94.667 10.667 -132 32s-66.166 51.166 -86.499 89.499s-30.5 83.166 -30.5 134.499c0 50.667 10.167 95.167 30.5 133.5s49.5 68.166 87.5 89.499s82.333 32 133 32
s94.834 -10.5 132.501 -31.5s66.667 -50.833 87 -89.5s30.5 -83.334 30.5 -134.001s-10.333 -95.334 -31 -134.001zM375.498 129.005c25 30 37.5 67.666 37.5 112.999c0 47.333 -12.167 85.833 -36.5 115.5s-56.833 44.5 -97.5 44.5c-40 0 -72.5 -15 -97.5 -45
s-37.833 -68 -38.5 -114c0 -47.333 12.167 -85.666 36.5 -114.999s56.833 -44 97.5 -44s73.5 15 98.5 45zM190.998 750.004l-53 -140l78 -21l92 161h-117zM372.998 750.004l-53 -140l78 -21l93 161h-118z" />
    <glyph glyph-name="OE" unicode="&#x152;" horiz-adv-x="968" 
d="M495 9c-49.333 -15.333 -95.333 -23 -138 -23c-68 0 -126 15.5 -174 46.5s-84.167 73 -108.5 126s-36.5 112.167 -36.5 177.5c0 68.667 13.333 130.167 40 184.5s64.5 96.833 113.5 127.5s106.167 46 171.5 46c16.667 0 37.167 -2 61.5 -6s47.833 -9.66699 70.5 -17v9
h394l17 -88h-299v-203h227l17 -88h-244v-213h325l16 -88h-453v9zM495 109l-0.000976562 465.001c-30.667 9.33301 -54.334 15.833 -71.001 19.5s-38 5.5 -64 5.5c-38.667 0 -73.5 -10.833 -104.5 -32.5s-55.5 -52.334 -73.5 -92.001s-27 -85.5 -27 -137.5
c0 -47.333 7.83301 -90.333 23.5 -129s38.334 -69.5 68.001 -92.5s64.834 -34.5 105.501 -34.5c48 0 95.667 9.33301 143 28z" />
    <glyph glyph-name="oe" unicode="&#x153;" horiz-adv-x="826" 
d="M463 213c10 -86.667 61.335 -129.998 154.002 -129.998c26 0 49.333 3.5 70 10.5s45.334 17.833 74.001 32.5l34 -82c-54.667 -37.333 -114.334 -56 -179.001 -56c-72 0 -130 15.333 -174 46c-20.667 -14 -47.667 -25.333 -81 -34s-61.333 -13 -84 -13
c-50.667 0 -94.667 10.667 -132 32s-66.166 51.166 -86.499 89.499s-30.5 83.166 -30.5 134.499c0 50.667 10.167 95.167 30.5 133.5s49.5 68.166 87.5 89.499s82.333 32 133 32c21.333 0 47.666 -4 78.999 -12s57.666 -18.667 78.999 -32c40 29.333 88.333 44 145 44
c71.333 0 125.166 -23.667 161.499 -71s54.5 -107.666 54.5 -180.999v-33h-335zM179.502 128.002c24.333 -29.333 56.8311 -44.002 97.498 -44.002c34.667 0 68.334 6.33301 101.001 19c-22.667 38.667 -34 85.334 -34 140.001c0 54 10.667 100.667 32 140
c-31.333 12.667 -63.666 19 -96.999 19c-40 0 -72.5 -15 -97.5 -45s-37.833 -68 -38.5 -114c0 -47.333 12.167 -85.666 36.5 -114.999zM579 402c-32 0 -57.834 -10 -77.501 -30s-32.167 -48 -37.5 -84h227c-13.333 76 -50.666 114 -111.999 114z" />
    <glyph glyph-name="Racute" unicode="&#x154;" horiz-adv-x="616" 
d="M200 0l0.00195312 265h82c23.333 0 41.666 1 54.999 3l148 -268h121l-169 296c35.333 16 63.666 39.333 84.999 70s32 67 32 109c0 68 -24.333 119.167 -73 153.5s-112 51.5 -190 51.5h-203v-680h112zM398.002 559c25.333 -18 38.001 -47.667 38.001 -89
c0 -39.333 -13.667 -68 -41 -86s-63.333 -27 -108 -27h-87v229h89c47.333 0 83.666 -9 108.999 -27zM278.003 900l-53 -140l78 -21l92 161h-117z" />
    <glyph glyph-name="racute" unicode="&#x155;" horiz-adv-x="352" 
d="M258 370c32 16.667 60 25 84 25l-23 90c-23.333 0 -50.5 -8.33301 -81.5 -25s-58.5 -35 -82.5 -55l-37 80h-60v-485h112v309c26.667 24 56 44.333 88 61zM165 750l-53 -140l78 -21l92 161h-117z" />
    <glyph glyph-name="Rcommaaccent" unicode="&#x156;" horiz-adv-x="616" 
d="M200 0l0.00195312 265h82c23.333 0 41.666 1 54.999 3l148 -268h121l-169 296c35.333 16 63.666 39.333 84.999 70s32 67 32 109c0 68 -24.333 119.167 -73 153.5s-112 51.5 -190 51.5h-203v-680h112zM398.002 559c25.333 -18 38.001 -47.667 38.001 -89
c0 -39.333 -13.667 -68 -41 -86s-63.333 -27 -108 -27h-87v229h89c47.333 0 83.666 -9 108.999 -27zM291.003 -42c-13.333 -14 -20 -29.333 -20 -46c0 -16 5.66699 -31 17 -45s23 -21 35 -21c-3.33301 -14 -10 -26.5 -20 -37.5s-21 -19.167 -33 -24.5l25 -53
c31.333 14.667 57.5 37.5 78.5 68.5s31.5 63.833 31.5 98.5c0 24 -6.5 43.5 -19.5 58.5s-28.833 22.5 -47.5 22.5c-18 0 -33.667 -7 -47 -21z" />
    <glyph glyph-name="rcommaaccent" unicode="&#x157;" horiz-adv-x="352" 
d="M258 370c32 16.667 60 25 84 25l-23 90c-23.333 0 -50.5 -8.33301 -81.5 -25s-58.5 -35 -82.5 -55l-37 80h-60v-485h112v309c26.667 24 56 44.333 88 61zM70 -42c-13.333 -14 -20 -29.333 -20 -46c0 -16 5.66699 -31 17 -45s23 -21 35 -21
c-3.33301 -14 -10 -26.5 -20 -37.5s-21 -19.167 -33 -24.5l25 -53c31.333 14.667 57.5 37.5 78.5 68.5s31.5 63.833 31.5 98.5c0 24 -6.5 43.5 -19.5 58.5s-28.833 22.5 -47.5 22.5c-18 0 -33.667 -7 -47 -21z" />
    <glyph glyph-name="Rcaron" unicode="&#x158;" horiz-adv-x="616" 
d="M200 0l0.00195312 265h82c23.333 0 41.666 1 54.999 3l148 -268h121l-169 296c35.333 16 63.666 39.333 84.999 70s32 67 32 109c0 68 -24.333 119.167 -73 153.5s-112 51.5 -190 51.5h-203v-680h112zM398.002 559c25.333 -18 38.001 -47.667 38.001 -89
c0 -39.333 -13.667 -68 -41 -86s-63.333 -27 -108 -27h-87v229h89c47.333 0 83.666 -9 108.999 -27zM120.003 887l140 -148h69l139 148l-102 13l-71 -76l-71 76z" />
    <glyph glyph-name="rcaron" unicode="&#x159;" horiz-adv-x="352" 
d="M258 370c32 16.667 60 25 84 25l-23 90c-23.333 0 -50.5 -8.33301 -81.5 -25s-58.5 -35 -82.5 -55l-37 80h-60v-485h112v309c26.667 24 56 44.333 88 61zM12 737l140 -148h69l139 148l-102 13l-71 -76l-71 76z" />
    <glyph glyph-name="Sacute" unicode="&#x15a;" horiz-adv-x="522" 
d="M139 4.5c42 -11.667 77.3281 -17.5 105.995 -17.5c52.667 0 97.834 7.83301 135.501 23.5s66.167 37.5 85.5 65.5s29 60 29 96c0 33.333 -8.16699 62.5 -24.5 87.5s-37.333 46.333 -63 64s-59.834 37.5 -102.501 59.5c-40.667 20.667 -70.5 36.5 -89.5 47.5
s-34.333 23.667 -46 38s-17.5 30.833 -17.5 49.5c0 26 11 45.667 33 59s50.333 20 85 20c27.333 0 51.833 -3.33301 73.5 -10s45.167 -16 70.5 -28l38 89c-28 14 -58.167 25.5 -90.5 34.5s-64.166 13.5 -95.499 13.5c-46.667 0 -87.167 -7.83301 -121.5 -23.5
s-60.666 -37 -78.999 -64s-27.5 -57.5 -27.5 -91.5c0 -47.333 15.833 -86.833 47.5 -118.5s78.834 -63.5 141.501 -95.5c37.333 -18.667 65.833 -33.667 85.5 -45s35.834 -24.166 48.501 -38.499s19 -30.166 19 -47.499c0 -27.333 -11.667 -48.5 -35 -63.5
s-57 -22.5 -101 -22.5c-27.333 0 -56.666 4.66699 -87.999 14s-58.333 19.666 -81 30.999l-25 -90c17.333 -12.667 47 -24.834 89 -36.501zM250.995 900l-53 -140l78 -21l92 161h-117z" />
    <glyph glyph-name="sacute" unicode="&#x15b;" horiz-adv-x="421" 
d="M109.5 -0.5c32.333 -8.33301 60.498 -12.4961 84.498 -12.4961c64.667 0 114.167 13 148.5 39s51.5 62.667 51.5 110c0 67.333 -55 120.666 -165 159.999c-27.333 9.33301 -48.666 18.666 -63.999 27.999s-23.333 19.666 -24 30.999c0 14.667 7 27 21 37s31.333 15 52 15
c22.667 0 43.834 -2.83301 63.501 -8.5s41.167 -13.834 64.5 -24.501l35 76c-21.333 14.667 -47.833 26.334 -79.5 35.001s-58.834 13 -81.501 13c-57.333 0 -102.666 -12.833 -135.999 -38.5s-50 -60.834 -50 -105.501c0 -64 53.333 -113.333 160 -148
c64 -20.667 96 -45.667 96 -75c0 -16 -9 -28.667 -27 -38s-39.667 -14 -65 -14c-40 0 -83 11 -129 33l-34 -78c20 -14.667 46.167 -26.167 78.5 -34.5zM195.998 750.004l-53 -140l78 -21l92 161h-117z" />
    <glyph glyph-name="Scedilla" unicode="&#x15e;" horiz-adv-x="522" 
d="M439 46c-37.333 -33.333 -89.6641 -52.666 -156.997 -57.999l-10 -24c20.667 -6.66699 38 -18.167 52 -34.5s21 -33.5 21 -51.5c0 -32 -12 -56.5 -36 -73.5s-53 -25.5 -87 -25.5c-13.333 0 -29.166 2.33301 -47.499 7s-32.166 10.667 -41.499 18l26 68
c9.33301 -4.66699 20.166 -9 32.499 -13s22.5 -6 30.5 -6c10.667 0 20.167 2 28.5 6s12.5 9.66699 12.5 17c0 12 -8.33301 22.167 -25 30.5s-38 13.833 -64 16.5l27 68c-28 4 -56.833 10.833 -86.5 20.5s-51.167 19.5 -64.5 29.5l25 90
c22.667 -11.333 49.667 -21.666 81 -30.999s60.666 -14 87.999 -14c44 0 77.667 7.5 101 22.5s35 36.167 35 63.5c0 17.333 -6.33301 33.166 -19 47.499s-28.834 27.166 -48.501 38.499s-48.167 26.333 -85.5 45c-62.667 32 -109.834 63.833 -141.501 95.5
s-47.5 71.167 -47.5 118.5c0 34 9.16699 64.5 27.5 91.5s44.666 48.333 78.999 64s74.833 23.5 121.5 23.5c31.333 0 63.166 -4.5 95.499 -13.5s62.5 -20.5 90.5 -34.5l-38 -89c-25.333 12 -48.833 21.333 -70.5 28s-46.167 10 -73.5 10c-34.667 0 -63 -6.66699 -85 -20
s-33 -33 -33 -59c0 -18.667 5.83301 -35.167 17.5 -49.5s27 -27 46 -38s48.833 -26.833 89.5 -47.5c42.667 -22 76.834 -41.833 102.501 -59.5s46.667 -39 63 -64s24.5 -54.167 24.5 -87.5c0 -50.667 -18.667 -92.667 -56 -126z" />
    <glyph glyph-name="scedilla" unicode="&#x15f;" horiz-adv-x="421" 
d="M352 34c-28 -25.333 -68.666 -40.3359 -121.999 -45.0029l-10 -25c20.667 -6.66699 38 -18.167 52 -34.5s21 -33.5 21 -51.5c0 -32 -12 -56.5 -36 -73.5s-53 -25.5 -87 -25.5c-13.333 0 -29.166 2.33301 -47.499 7s-32.166 10.667 -41.499 18l26 68
c9.33301 -4.66699 20.166 -9 32.499 -13s22.5 -6 30.5 -6c10.667 0 20.167 2 28.5 6s12.5 9.66699 12.5 17c0 12 -8.33301 22.167 -25 30.5s-38 13.833 -64 16.5l27 68c-21.333 3.33301 -42.833 8.66602 -64.5 15.999s-39.5 16.333 -53.5 27l34 78c46 -22 89 -33 129 -33
c25.333 0 47 4.66699 65 14s27 22 27 38c0 29.333 -32 54.333 -96 75c-106.667 34.667 -160 84 -160 148c0 44.667 16.667 79.834 50 105.501s78.666 38.5 135.999 38.5c22.667 0 49.834 -4.33301 81.501 -13s58.167 -20.334 79.5 -35.001l-35 -76
c-23.333 10.667 -44.833 18.834 -64.5 24.501s-40.834 8.5 -63.501 8.5c-20.667 0 -38 -5 -52 -15s-21 -22.333 -21 -37c0.666992 -11.333 8.66699 -21.666 24 -30.999s36.666 -18.666 63.999 -27.999c110 -39.333 165 -92.666 165 -159.999c0 -42.667 -14 -76.667 -42 -102
z" />
    <glyph glyph-name="Scaron" unicode="&#x160;" horiz-adv-x="522" 
d="M139 4.5c42 -11.667 77.3281 -17.5 105.995 -17.5c52.667 0 97.834 7.83301 135.501 23.5s66.167 37.5 85.5 65.5s29 60 29 96c0 33.333 -8.16699 62.5 -24.5 87.5s-37.333 46.333 -63 64s-59.834 37.5 -102.501 59.5c-40.667 20.667 -70.5 36.5 -89.5 47.5
s-34.333 23.667 -46 38s-17.5 30.833 -17.5 49.5c0 26 11 45.667 33 59s50.333 20 85 20c27.333 0 51.833 -3.33301 73.5 -10s45.167 -16 70.5 -28l38 89c-28 14 -58.167 25.5 -90.5 34.5s-64.166 13.5 -95.499 13.5c-46.667 0 -87.167 -7.83301 -121.5 -23.5
s-60.666 -37 -78.999 -64s-27.5 -57.5 -27.5 -91.5c0 -47.333 15.833 -86.833 47.5 -118.5s78.834 -63.5 141.501 -95.5c37.333 -18.667 65.833 -33.667 85.5 -45s35.834 -24.166 48.501 -38.499s19 -30.166 19 -47.499c0 -27.333 -11.667 -48.5 -35 -63.5
s-57 -22.5 -101 -22.5c-27.333 0 -56.666 4.66699 -87.999 14s-58.333 19.666 -81 30.999l-25 -90c17.333 -12.667 47 -24.834 89 -36.501zM92.9951 887l140 -148h69l139 148l-102 13l-71 -76l-71 76z" />
    <glyph glyph-name="scaron" unicode="&#x161;" horiz-adv-x="421" 
d="M109.5 -0.5c32.333 -8.33301 60.498 -12.4961 84.498 -12.4961c64.667 0 114.167 13 148.5 39s51.5 62.667 51.5 110c0 67.333 -55 120.666 -165 159.999c-27.333 9.33301 -48.666 18.666 -63.999 27.999s-23.333 19.666 -24 30.999c0 14.667 7 27 21 37s31.333 15 52 15
c22.667 0 43.834 -2.83301 63.501 -8.5s41.167 -13.834 64.5 -24.501l35 76c-21.333 14.667 -47.833 26.334 -79.5 35.001s-58.834 13 -81.501 13c-57.333 0 -102.666 -12.833 -135.999 -38.5s-50 -60.834 -50 -105.501c0 -64 53.333 -113.333 160 -148
c64 -20.667 96 -45.667 96 -75c0 -16 -9 -28.667 -27 -38s-39.667 -14 -65 -14c-40 0 -83 11 -129 33l-34 -78c20 -14.667 46.167 -26.167 78.5 -34.5zM41.998 737.004l140 -148h69l139 148l-102 13l-71 -76l-71 76z" />
    <glyph glyph-name="Tcedilla" unicode="&#x162;" horiz-adv-x="581" 
d="M361 -70.5c14 -16.333 20.999 -33.5 20.999 -51.5c0 -32 -12 -56.5 -36 -73.5s-53 -25.5 -87 -25.5c-13.333 0 -29.166 2.33301 -47.499 7s-32.166 10.667 -41.499 18l26 68c9.33301 -4.66699 20.166 -9 32.499 -13s22.5 -6 30.5 -6c10.667 0 20.167 2 28.5 6
s12.5 9.66699 12.5 17c0 12 -8.33301 22.167 -25 30.5s-38 13.833 -64 16.5l31 77h-18v591h-214v89h544l17 -89h-233v-591h-14l-15 -36c20.667 -6.66699 38 -18.167 52 -34.5z" />
    <glyph glyph-name="tcedilla" unicode="&#x163;" horiz-adv-x="360" 
d="M296 -70.5c14 -16.333 21 -33.499 21 -51.499c0 -32 -12 -56.5 -36 -73.5s-53 -25.5 -87 -25.5c-13.333 0 -29.166 2.33301 -47.499 7s-32.166 10.667 -41.499 18l26 68c9.33301 -4.66699 20.166 -9 32.499 -13s22.5 -6 30.5 -6c10.667 0 20.167 2 28.5 6
s12.5 9.66699 12.5 17c0 12 -8.33301 22.167 -25 30.5s-38 13.833 -64 16.5l29 72c-30.667 11.333 -54.167 29.666 -70.5 54.999s-24.5 57 -24.5 95v250h-67v86h67v119l112 22v-141h88l34 -86h-122v-231c0 -26 5.83301 -46.833 17.5 -62.5s29.167 -23.5 52.5 -23.5
c15.333 0 32 4 50 12l31 -83c-10 -6.66699 -23.833 -12.5 -41.5 -17.5s-33.834 -7.5 -48.501 -7.5h-2l-7 -18c20.667 -6.66699 38 -18.167 52 -34.5z" />
    <glyph glyph-name="Tcaron" unicode="&#x164;" horiz-adv-x="581" 
d="M10 591h214v-591h114v591h233l-17 89h-544v-89zM109 887l140 -148h69l139 148l-102 13l-71 -76l-71 76z" />
    <glyph glyph-name="tcaron" unicode="&#x165;" horiz-adv-x="510" 
d="M365 710.5c-13.333 -14.333 -20 -29.8311 -20 -46.498c0 -15.333 5.66699 -29.833 17 -43.5s23 -20.834 35 -21.501c-3.33301 -18.667 -9.83301 -34 -19.5 -46s-24.5 -26.333 -44.5 -43l26 -53c34 18.667 62.667 46.667 86 84s35 74 35 110
c0 23.333 -6.66699 42.666 -20 57.999s-29.333 23 -48 23c-18 0 -33.667 -7.16699 -47 -21.5zM192 622.002l-112.001 -22v-119h-67v-86h67v-250c0 -52.667 15.333 -93 46 -121s73 -42 127 -42c14.667 0 30.834 2.5 48.501 7.5s31.5 10.833 41.5 17.5l-31 83
c-18 -8 -34.667 -12 -50 -12c-23.333 0 -40.833 7.83301 -52.5 23.5s-17.5 36.5 -17.5 62.5v231h122l-34 86h-88v141z" />
    <glyph glyph-name="Umacron" unicode="&#x16a;" horiz-adv-x="700" 
d="M78 245c0 -48.667 11.1689 -92.5 33.502 -131.5s54 -69.5 95 -91.5s88.833 -33 143.5 -33s102.5 11 143.5 33s72.667 52.5 95 91.5s33.5 82.833 33.5 131.5v435h-113v-426c0 -54.667 -14.333 -97.167 -43 -127.5s-67.334 -45.5 -116.001 -45.5s-87.334 15 -116.001 45
s-43 72.667 -43 128v426h-113v-435zM461.002 859h-246v-89h256z" />
    <glyph glyph-name="umacron" unicode="&#x16b;" horiz-adv-x="553" 
d="M241 79c-50 0 -74.999 33.667 -74.999 101v305h-112v-312c0 -126 53.333 -189 160 -189c29.333 0 60.666 6.66699 93.999 20s64 31.333 92 54l20 -58h76v485h-113v-339c-54 -44.667 -101.333 -67 -142 -67zM390.001 709h-247v-89h256z" />
    <glyph glyph-name="Uring" unicode="&#x16e;" horiz-adv-x="700" 
d="M78 245c0 -48.667 11.1689 -92.5 33.502 -131.5s54 -69.5 95 -91.5s88.833 -33 143.5 -33s102.5 11 143.5 33s72.667 52.5 95 91.5s33.5 82.833 33.5 131.5v435h-113v-426c0 -54.667 -14.333 -97.167 -43 -127.5s-67.334 -45.5 -116.001 -45.5s-87.334 15 -116.001 45
s-43 72.667 -43 128v426h-113v-435zM275.002 906c-20 -18.667 -30 -41.667 -30 -69c0 -26.667 10 -48.834 30 -66.501s44 -26.5 72 -26.5s52 8.83301 72 26.5s30 39.834 30 66.501c0 27.333 -10 50.333 -30 69s-44 28 -72 28s-52 -9.33301 -72 -28zM318.502 809
c-8.33301 8 -12.5 17.333 -12.5 28c0 11.333 4 21 12 29s17.667 12 29 12s20.833 -4 28.5 -12s11.5 -17.667 11.5 -29c0 -10.667 -4 -20 -12 -28s-17.333 -12 -28 -12s-20.167 4 -28.5 12z" />
    <glyph glyph-name="uring" unicode="&#x16f;" horiz-adv-x="553" 
d="M241 79c-50 0 -74.999 33.667 -74.999 101v305h-112v-312c0 -126 53.333 -189 160 -189c29.333 0 60.666 6.66699 93.999 20s64 31.333 92 54l20 -58h76v485h-113v-339c-54 -44.667 -101.333 -67 -142 -67zM199.001 756c-20 -18.667 -30 -41.667 -30 -69
c0 -26.667 10 -48.834 30 -66.501s44 -26.5 72 -26.5s52 8.83301 72 26.5s30 39.834 30 66.501c0 27.333 -10 50.333 -30 69s-44 28 -72 28s-52 -9.33301 -72 -28zM242.501 659c-8.33301 8 -12.5 17.333 -12.5 28c0 11.333 4 21 12 29s17.667 12 29 12s20.833 -4 28.5 -12
s11.5 -17.667 11.5 -29c0 -10.667 -4 -20 -12 -28s-17.333 -12 -28 -12s-20.167 4 -28.5 12z" />
    <glyph glyph-name="Uhungarumlaut" unicode="&#x170;" horiz-adv-x="700" 
d="M78 245c0 -48.667 11.1689 -92.5 33.502 -131.5s54 -69.5 95 -91.5s88.833 -33 143.5 -33s102.5 11 143.5 33s72.667 52.5 95 91.5s33.5 82.833 33.5 131.5v435h-113v-426c0 -54.667 -14.333 -97.167 -43 -127.5s-67.334 -45.5 -116.001 -45.5s-87.334 15 -116.001 45
s-43 72.667 -43 128v426h-113v-435zM261.002 900l-53 -140l78 -21l92 161h-117zM443.002 900l-53 -140l78 -21l93 161h-118z" />
    <glyph glyph-name="uhungarumlaut" unicode="&#x171;" horiz-adv-x="553" 
d="M241 79c-50 0 -74.999 33.667 -74.999 101v305h-112v-312c0 -126 53.333 -189 160 -189c29.333 0 60.666 6.66699 93.999 20s64 31.333 92 54l20 -58h76v485h-113v-339c-54 -44.667 -101.333 -67 -142 -67zM190.001 750l-53 -140l78 -21l92 161h-117zM372.001 750
l-53 -140l78 -21l93 161h-118z" />
    <glyph glyph-name="Uogonek" unicode="&#x172;" horiz-adv-x="700" 
d="M622 245c0 -44 -9.16699 -84.168 -27.5 -120.501s-44.666 -66 -78.999 -89s-74.5 -37.5 -120.5 -43.5c-10.667 -12 -19.834 -25.833 -27.501 -41.5s-11.5 -28.834 -11.5 -39.501s3.16699 -19.167 9.5 -25.5s15.166 -9.5 26.499 -9.5c6 0 13.167 1.66699 21.5 5
s16.166 7.66602 23.499 12.999l33 -69c-27.333 -21.333 -59.333 -32 -96 -32c-33.333 0 -60.5 10.333 -81.5 31s-31.5 46.334 -31.5 77.001c0 13.333 3.33301 28.833 10 46.5s14.667 32.834 24 45.501c-66.667 10.667 -119.5 38.834 -158.5 84.501s-58.5 101.5 -58.5 167.5
v435h113v-426c0 -55.333 14.333 -98 43 -128s67.334 -45 116.001 -45s87.334 15.167 116.001 45.5s43 72.833 43 127.5v426h113v-435z" />
    <glyph glyph-name="uogonek" unicode="&#x173;" horiz-adv-x="553" 
d="M480 -207c-33.333 0 -60.499 10.332 -81.499 30.999s-31.5 46.334 -31.5 77.001c0 15.333 4.5 33.5 13.5 54.5s18.833 37.167 29.5 48.5h9l-19 54c-28 -22.667 -58.667 -40.667 -92 -54s-64.666 -20 -93.999 -20c-106.667 0 -160 63 -160 189v312h112v-305
c0 -67.333 25 -101 75 -101c40.667 0 88 22.333 142 67v339h113v-481h17c-12 -10 -23.5 -24.667 -34.5 -44s-16.5 -35.666 -16.5 -48.999c0 -10.667 3.16699 -19.167 9.5 -25.5s15.166 -9.5 26.499 -9.5c6 0 13.167 1.66699 21.5 5s16.166 7.66602 23.499 12.999l33 -69
c-27.333 -21.333 -59.333 -32 -96 -32z" />
    <glyph glyph-name="Ydieresis" unicode="&#x178;" horiz-adv-x="593" 
d="M583 680h-119l-175 -299l-169 315l-110 -36l224 -392v-268h112l1 266zM238.5 774c11 11.333 16.5 25 16.5 41c0 16.667 -5.5 30.834 -16.5 42.501s-24.833 17.5 -41.5 17.5s-30.834 -5.83301 -42.501 -17.5s-17.5 -25.834 -17.5 -42.501c0 -16 5.83301 -29.667 17.5 -41
s25.834 -17 42.501 -17s30.5 5.66699 41.5 17zM421 774c11.333 11.333 17 25 17 41c0 16.667 -5.66699 30.834 -17 42.501s-25.333 17.5 -42 17.5c-16 0 -30 -5.83301 -42 -17.5s-18 -25.834 -18 -42.501c0 -16 6 -29.667 18 -41s26 -17 42 -17
c16.667 0 30.667 5.66699 42 17z" />
    <glyph glyph-name="Zacute" unicode="&#x179;" horiz-adv-x="570" 
d="M549 591l-13 89h-490l14 -89h359l-401 -503l13 -88h520l-12 88h-399zM280 900l-53 -140l78 -21l92 161h-117z" />
    <glyph glyph-name="zacute" unicode="&#x17a;" horiz-adv-x="438" 
d="M55 393h218l-257 -334l14 -59h393l-10 90h-257l261 332l-6 63h-379zM200 750l-53 -140l78 -21l92 161h-117z" />
    <glyph glyph-name="Zdotaccent" unicode="&#x17b;" horiz-adv-x="570" 
d="M549 591l-13 89h-490l14 -89h359l-401 -503l13 -88h520l-12 88h-399zM341 769.5c12.667 13 19 28.5 19 46.5c0 18.667 -6.33301 34.667 -19 48s-28.334 20 -47.001 20s-34.5 -6.66699 -47.5 -20s-19.5 -29.333 -19.5 -48c0 -18 6.5 -33.5 19.5 -46.5
s28.833 -19.5 47.5 -19.5s34.334 6.5 47.001 19.5z" />
    <glyph glyph-name="zdotaccent" unicode="&#x17c;" horiz-adv-x="438" 
d="M55 393h218l-257 -334l14 -59h393l-10 90h-257l261 332l-6 63h-379zM264 619.5c12.667 13 19 28.5 19 46.5c0 18.667 -6.33301 34.667 -19 48s-28.334 20 -47.001 20s-34.5 -6.66699 -47.5 -20s-19.5 -29.333 -19.5 -48c0 -18 6.5 -33.5 19.5 -46.5
s28.833 -19.5 47.5 -19.5s34.334 6.5 47.001 19.5z" />
    <glyph glyph-name="Zcaron" unicode="&#x17d;" horiz-adv-x="570" 
d="M549 591l-13 89h-490l14 -89h359l-401 -503l13 -88h520l-12 88h-399zM122 887l140 -148h69l139 148l-102 13l-71 -76l-71 76z" />
    <glyph glyph-name="zcaron" unicode="&#x17e;" horiz-adv-x="438" 
d="M55 393h218l-257 -334l14 -59h393l-10 90h-257l261 332l-6 63h-379zM46 737l140 -148h69l139 148l-102 13l-71 -76l-71 76z" />
    <glyph glyph-name="florin" unicode="&#x192;" horiz-adv-x="407" 
d="M147 393v-319c0 -26.667 -5.33301 -47.5 -16 -62.5s-27.334 -22.5 -50.001 -22.5c-11.333 0 -28.333 4 -51 12l-30 -83c9.33301 -7.33301 23 -13.5 41 -18.5s34.333 -7.5 49 -7.5c53.333 0 95 15.167 125 45.5s45 71.5 45 123.5v332h127l-36 86h-91v39
c0 26.667 5.33301 47.667 16 63s27.334 23 50.001 23c11.333 0 28.333 -4 51 -12l30 84c-9.33301 7.33301 -22.833 13.5 -40.5 18.5s-33.834 7.5 -48.501 7.5c-53.333 0 -95.166 -15.333 -125.499 -46s-45.5 -72 -45.5 -124v-53h-74v-86h74z" />
    <glyph glyph-name="Scommaaccent" unicode="&#x218;" horiz-adv-x="522" 
d="M139 4.5c42 -11.667 77.3281 -17.5 105.995 -17.5c52.667 0 97.834 7.83301 135.501 23.5s66.167 37.5 85.5 65.5s29 60 29 96c0 33.333 -8.16699 62.5 -24.5 87.5s-37.333 46.333 -63 64s-59.834 37.5 -102.501 59.5c-40.667 20.667 -70.5 36.5 -89.5 47.5
s-34.333 23.667 -46 38s-17.5 30.833 -17.5 49.5c0 26 11 45.667 33 59s50.333 20 85 20c27.333 0 51.833 -3.33301 73.5 -10s45.167 -16 70.5 -28l38 89c-28 14 -58.167 25.5 -90.5 34.5s-64.166 13.5 -95.499 13.5c-46.667 0 -87.167 -7.83301 -121.5 -23.5
s-60.666 -37 -78.999 -64s-27.5 -57.5 -27.5 -91.5c0 -47.333 15.833 -86.833 47.5 -118.5s78.834 -63.5 141.501 -95.5c37.333 -18.667 65.833 -33.667 85.5 -45s35.834 -24.166 48.501 -38.499s19 -30.166 19 -47.499c0 -27.333 -11.667 -48.5 -35 -63.5
s-57 -22.5 -101 -22.5c-27.333 0 -56.666 4.66699 -87.999 14s-58.333 19.666 -81 30.999l-25 -90c17.333 -12.667 47 -24.834 89 -36.501zM200.995 -42c-13.333 -14 -20 -29.333 -20 -46c0 -16 5.66699 -31 17 -45s23 -21 35 -21c-3.33301 -14 -10 -26.5 -20 -37.5
s-21 -19.167 -33 -24.5l25 -53c31.333 14.667 57.5 37.5 78.5 68.5s31.5 63.833 31.5 98.5c0 24 -6.5 43.5 -19.5 58.5s-28.833 22.5 -47.5 22.5c-18 0 -33.667 -7 -47 -21z" />
    <glyph glyph-name="scommaaccent" unicode="&#x219;" horiz-adv-x="421" 
d="M109.5 -0.5c32.333 -8.33301 60.498 -12.4961 84.498 -12.4961c64.667 0 114.167 13 148.5 39s51.5 62.667 51.5 110c0 67.333 -55 120.666 -165 159.999c-27.333 9.33301 -48.666 18.666 -63.999 27.999s-23.333 19.666 -24 30.999c0 14.667 7 27 21 37s31.333 15 52 15
c22.667 0 43.834 -2.83301 63.501 -8.5s41.167 -13.834 64.5 -24.501l35 76c-21.333 14.667 -47.833 26.334 -79.5 35.001s-58.834 13 -81.501 13c-57.333 0 -102.666 -12.833 -135.999 -38.5s-50 -60.834 -50 -105.501c0 -64 53.333 -113.333 160 -148
c64 -20.667 96 -45.667 96 -75c0 -16 -9 -28.667 -27 -38s-39.667 -14 -65 -14c-40 0 -83 11 -129 33l-34 -78c20 -14.667 46.167 -26.167 78.5 -34.5zM148.998 -41.9961c-13.333 -14 -20 -29.333 -20 -46c0 -16 5.66699 -31 17 -45s23 -21 35 -21
c-3.33301 -14 -10 -26.5 -20 -37.5s-21 -19.167 -33 -24.5l25 -53c31.333 14.667 57.5 37.5 78.5 68.5s31.5 63.833 31.5 98.5c0 24 -6.5 43.5 -19.5 58.5s-28.833 22.5 -47.5 22.5c-18 0 -33.667 -7 -47 -21z" />
    <glyph glyph-name="Tcommaaccent" unicode="&#x21a;" horiz-adv-x="581" 
d="M10 591h214v-591h114v591h233l-17 89h-544v-89zM238 -42c-13.333 -14 -20 -29.333 -20 -46c0 -16 5.66699 -31 17 -45s23 -21 35 -21c-3.33301 -14 -10 -26.5 -20 -37.5s-21 -19.167 -33 -24.5l25 -53c31.333 14.667 57.5 37.5 78.5 68.5s31.5 63.833 31.5 98.5
c0 24 -6.5 43.5 -19.5 58.5s-28.833 22.5 -47.5 22.5c-18 0 -33.667 -7 -47 -21z" />
    <glyph glyph-name="tcommaaccent" unicode="&#x21b;" horiz-adv-x="360" 
d="M192 622l-112.001 -22v-119h-67v-86h67v-250c0 -52.667 15.333 -93 46 -121s73 -42 127 -42c14.667 0 30.834 2.5 48.501 7.5s31.5 10.833 41.5 17.5l-31 83c-18 -8 -34.667 -12 -50 -12c-23.333 0 -40.833 7.83301 -52.5 23.5s-17.5 36.5 -17.5 62.5v231h122l-34 86h-88
v141zM172.999 -42c-13.333 -14 -20 -29.333 -20 -46c0 -16 5.66699 -31 17 -45s23 -21 35 -21c-3.33301 -14 -10 -26.5 -20 -37.5s-21 -19.167 -33 -24.5l25 -53c31.333 14.667 57.5 37.5 78.5 68.5s31.5 63.833 31.5 98.5c0 24 -6.5 43.5 -19.5 58.5
s-28.833 22.5 -47.5 22.5c-18 0 -33.667 -7 -47 -21z" />
    <glyph glyph-name="circumflex" unicode="&#x2c6;" horiz-adv-x="368" 
d="M358 602l-140 148h-68l-140 -148l104 -13l72 76l70 -76z" />
    <glyph glyph-name="caron" unicode="&#x2c7;" horiz-adv-x="368" 
d="M10 737l140 -148h69l139 148l-102 13l-71 -76l-71 76z" />
    <glyph glyph-name="uni02C9" unicode="&#x2c9;" horiz-adv-x="276" 
d="M256 709h-246v-89h256z" />
    <glyph glyph-name="breve" unicode="&#x2d8;" horiz-adv-x="305" 
d="M201.5 695.5c-11.667 -15 -28.167 -22.5 -49.5 -22.5s-37.333 7.33301 -48 22s-16 32 -16 52h-78c0 -43.333 12.167 -79.833 36.5 -109.5s59.5 -44.834 105.5 -45.501c46.667 0.666992 82.167 15.834 106.5 45.501s36.5 66.167 36.5 109.5h-76
c0 -19.333 -5.83301 -36.5 -17.5 -51.5z" />
    <glyph glyph-name="dotaccent" unicode="&#x2d9;" horiz-adv-x="153" 
d="M124 619.5c12.667 13 19 28.5 19 46.5c0 18.667 -6.33301 34.667 -19 48s-28.334 20 -47.001 20s-34.5 -6.66699 -47.5 -20s-19.5 -29.333 -19.5 -48c0 -18 6.5 -33.5 19.5 -46.5s28.833 -19.5 47.5 -19.5s34.334 6.5 47.001 19.5z" />
    <glyph glyph-name="ring" unicode="&#x2da;" horiz-adv-x="224" 
d="M40 756c-20 -18.667 -30 -41.667 -30 -69c0 -26.667 10 -48.834 30 -66.501s44 -26.5 72 -26.5s52 8.83301 72 26.5s30 39.834 30 66.501c0 27.333 -10 50.333 -30 69s-44 28 -72 28s-52 -9.33301 -72 -28zM83.5 659c-8.33301 8 -12.5 17.333 -12.5 28
c0 11.333 4 21 12 29s17.667 12 29 12s20.833 -4 28.5 -12s11.5 -17.667 11.5 -29c0 -10.667 -4 -20 -12 -28s-17.333 -12 -28 -12s-20.167 4 -28.5 12z" />
    <glyph glyph-name="ogonek" unicode="&#x2db;" horiz-adv-x="229" 
d="M23.5 -44.5c-9 -21 -13.502 -39.166 -13.502 -54.499c0 -30.667 10.5 -56.334 31.5 -77.001s48.167 -31 81.5 -31c36.667 0 68.667 10.667 96 32l-33 69c-7.33301 -5.33301 -15.166 -9.66602 -23.499 -12.999s-15.5 -5 -21.5 -5c-11.333 0 -20.166 3.16699 -26.499 9.5
s-9.5 14.833 -9.5 25.5c0 13.333 5.5 29.666 16.5 48.999s22.5 34 34.5 44h-103c-10.667 -11.333 -20.5 -27.5 -29.5 -48.5z" />
    <glyph glyph-name="tilde" unicode="&#x2dc;" horiz-adv-x="335" 
d="M243.5 687c-5.66699 -6.66699 -12.5 -9.99902 -20.5 -9.99902c-10 0 -18.667 1.5 -26 4.5s-15.666 7.5 -24.999 13.5c-10 6.66699 -19.333 11.667 -28 15s-19.667 5 -33 5c-29.333 0 -53.5 -8.83301 -72.5 -26.5s-28.5 -46.167 -28.5 -85.5h75
c0.666992 8.66699 4.16699 16.5 10.5 23.5s13.166 10.5 20.499 10.5c10 0 18.167 -1.5 24.5 -4.5s14.5 -7.5 24.5 -13.5c9.33301 -6.66699 18.333 -11.834 27 -15.501s19.334 -5.5 32.001 -5.5c29.333 0 53.5 9 72.5 27s28.5 46.667 28.5 86h-72
c-0.666992 -9.33301 -3.83398 -17.333 -9.50098 -24z" />
    <glyph glyph-name="hungarumlaut" unicode="&#x2dd;" horiz-adv-x="373" 
d="M63 750l-53 -140l78 -21l92 161h-117zM245 750l-53 -140l78 -21l93 161h-118z" />
    <glyph glyph-name="pi" unicode="&#x3c0;" horiz-adv-x="638" 
d="M414 397v-397h113v397h101v88h-618v-88h101v-397h112v397h191z" />
    <glyph glyph-name="tm_Anusvara" unicode="&#xb82;" horiz-adv-x="0" 
d="M62 654c19.333 10.667 34.833 25 46.5 43s17.5 37.667 17.5 59c0 22.667 -5.83301 43.167 -17.5 61.5s-27.167 32.833 -46.5 43.5s-40 16 -62 16c-21.333 0 -41.666 -5.33301 -60.999 -16s-34.833 -25.167 -46.5 -43.5s-17.5 -38.833 -17.5 -61.5
c0 -21.333 5.83301 -41 17.5 -59s27.167 -32.333 46.5 -43s39.666 -16 60.999 -16c22 0 42.667 5.33301 62 16zM-34 724c-8.66699 8.66699 -13 19.666 -13 32.999c0 14 4.33301 25.5 13 34.5s20 13.5 34 13.5s25.5 -4.66699 34.5 -14s13.5 -20.666 13.5 -33.999
s-4.5 -24.333 -13.5 -33s-20.5 -13 -34.5 -13s-25.333 4.33301 -34 13z" />
    <glyph glyph-name="tm_Visarga" unicode="&#xb83;" horiz-adv-x="682" 
d="M402.5 304c19 10.667 34.333 25 46 43s17.5 37.667 17.5 59c0 22.667 -5.83301 43.167 -17.5 61.5s-27 32.833 -46 43.5s-39.5 16 -61.5 16s-42.5 -5.33301 -61.5 -16s-34.333 -25.167 -46 -43.5s-17.5 -38.833 -17.5 -61.5c0 -21.333 5.83301 -41 17.5 -59
s27 -32.333 46 -43s39.5 -16 61.5 -16s42.5 5.33301 61.5 16zM306.5 374c-9 8.66699 -13.5 19.667 -13.5 33c0 14 4.5 25.333 13.5 34s20.5 13 34.5 13c13.333 0 24.5 -4.33301 33.5 -13s13.5 -20 13.5 -34c0 -13.333 -4.5 -24.333 -13.5 -33s-20.167 -13 -33.5 -13
c-14 0 -25.5 4.33301 -34.5 13zM234 2c19.333 10.667 34.833 25 46.5 43s17.5 38 17.5 60s-5.83301 42.167 -17.5 60.5s-27.167 32.833 -46.5 43.5s-40 16 -62 16c-21.333 0 -41.5 -5.33301 -60.5 -16s-34.333 -25.167 -46 -43.5s-17.5 -38.5 -17.5 -60.5
s5.83301 -42 17.5 -60s27 -32.333 46 -43s39.167 -16 60.5 -16c22 0 42.667 5.33301 62 16zM571 2c19.333 10.667 34.833 25 46.5 43s17.5 38 17.5 60s-5.83301 42.167 -17.5 60.5s-27.167 32.833 -46.5 43.5s-40 16 -62 16c-21.333 0 -41.666 -5.33301 -60.999 -16
s-34.833 -25.167 -46.5 -43.5s-17.5 -38.5 -17.5 -60.5s5.83301 -42 17.5 -60s27.167 -32.333 46.5 -43s39.666 -16 60.999 -16c22 0 42.667 5.33301 62 16zM138.5 72c-9 8.66699 -13.5 19.667 -13.5 33s4.5 24.666 13.5 33.999s20.167 14 33.5 14
c14 0 25.5 -4.66699 34.5 -14s13.5 -20.666 13.5 -33.999s-4.5 -24.333 -13.5 -33s-20.5 -13 -34.5 -13c-13.333 0 -24.5 4.33301 -33.5 13zM475.5 72c-9 8.66699 -13.5 19.667 -13.5 33s4.5 24.666 13.5 33.999s20.167 14 33.5 14c14 0 25.5 -4.66699 34.5 -14
s13.5 -20.666 13.5 -33.999s-4.5 -24.333 -13.5 -33s-20.5 -13 -34.5 -13c-13.333 0 -24.5 4.33301 -33.5 13z" />
    <glyph glyph-name="tm_A" unicode="&#xb85;" horiz-adv-x="1087" 
d="M1000 -126l-100.998 -0.00292969v181h-193c-32.667 -62 -82 -110.667 -148 -146s-144 -53 -234 -53c-56.667 0 -107.5 7.33301 -152.5 22s-80.167 34.834 -105.5 60.501s-38 54.834 -38 87.501s11.833 58.667 35.5 78s58.834 29 105.501 29h458
c9.33301 30 14 61.333 14 94c0 42 -7.83301 79.667 -23.5 113s-37.834 59.333 -66.501 78s-62.334 28 -101.001 28c-16 0 -32.333 -1.66699 -49 -5c23.333 -9.33301 41.833 -23.666 55.5 -42.999s20.5 -41.333 20.5 -66c0 -38.667 -12.667 -70.334 -38 -95.001
s-58 -37 -98 -37c-40.667 0 -74.334 12.167 -101.001 36.5s-40 55.166 -40 92.499c0 38.667 10.667 73.334 32 104.001s51 54.667 89 72s81 26 129 26c58.667 0 110.5 -13.167 155.5 -39.5s79.833 -62.5 104.5 -108.5s37 -98 37 -156
c0 -31.333 -3.66699 -62.666 -11 -93.999h163v380h101v-639zM372.502 295.497c9 9 13.5 20.167 13.5 33.5s-4.33301 24.166 -13 32.499s-19.667 12.5 -33 12.5c-14 0 -25.5 -4.16699 -34.5 -12.5s-13.5 -19.166 -13.5 -32.499s4.5 -24.5 13.5 -33.5s20.167 -13.5 33.5 -13.5
s24.5 4.5 33.5 13.5zM478.502 -29.0029c45 20 81.166 48 108.499 84h-421c-11.333 0 -19.666 -2.66699 -24.999 -8s-8 -12.333 -8 -21c0 -15.333 8 -29.5 24 -42.5s38.5 -23.333 67.5 -31s62.167 -11.5 99.5 -11.5c58 0 109.5 10 154.5 30z" />
    <glyph glyph-name="tm_Aa" unicode="&#xb86;" horiz-adv-x="1290" 
d="M1231 56.5c32.667 -33 49.0039 -76.1689 49.0039 -129.502c0 -58 -16.833 -110.167 -50.5 -156.5s-80.334 -82.5 -140.001 -108.5s-127.5 -39 -203.5 -39c-48.667 0 -91.667 6.83301 -129 20.5s-66.333 32.5 -87 56.5s-31 51 -31 81c0 37.333 13.667 67.5 41 90.5
s63.666 34.5 108.999 34.5h21v-79h-21c-14 0 -25.667 -4.16699 -35 -12.5s-14 -19.5 -14 -33.5c0 -20.667 13.833 -38 41.5 -52s62.5 -21 104.5 -21c56 0 105.833 9.33301 149.5 28s77.667 44.667 102 78s36.5 71 36.5 113c0 26.667 -7.33301 49 -22 67s-34.667 27 -60 27
c-27.333 0 -49.5 -8.83301 -66.5 -26.5s-25.5 -39.834 -25.5 -66.501v-54h-101v181h-193c-32.667 -62 -82 -110.667 -148 -146s-144 -53 -234 -53c-56.667 0 -107.5 7.33301 -152.5 22s-80.167 34.834 -105.5 60.501s-38 54.834 -38 87.501s11.833 58.667 35.5 78
s58.834 29 105.501 29h458c9.33301 30 14 61.333 14 94c0 42 -7.83301 79.667 -23.5 113s-37.834 59.333 -66.501 78s-62.334 28 -101.001 28c-16 0 -32.333 -1.66699 -49 -5c23.333 -9.33301 41.833 -23.666 55.5 -42.999s20.5 -41.333 20.5 -66
c0 -38.667 -12.667 -70.334 -38 -95.001s-58 -37 -98 -37c-40.667 0 -74.334 12.167 -101.001 36.5s-40 55.166 -40 92.499c0 38.667 10.667 73.334 32 104.001s51 54.667 89 72s81 26 129 26c58.667 0 110.5 -13.167 155.5 -39.5s79.833 -62.5 104.5 -108.5s37 -98 37 -156
c0 -31.333 -3.66699 -62.666 -11 -93.999h163v380h101v-437c29.333 20 63.666 30 102.999 30c52.667 0 95.334 -16.5 128.001 -49.5zM372.504 295.498c9 9 13.5 20.167 13.5 33.5s-4.33301 24.166 -13 32.499s-19.667 12.5 -33 12.5c-14 0 -25.5 -4.16699 -34.5 -12.5
s-13.5 -19.166 -13.5 -32.499s4.5 -24.5 13.5 -33.5s20.167 -13.5 33.5 -13.5s24.5 4.5 33.5 13.5zM478.504 -29.002c45 20 81.166 48 108.499 84h-421c-11.333 0 -19.666 -2.66699 -24.999 -8s-8 -12.333 -8 -21c0 -15.333 8 -29.5 24 -42.5s38.5 -23.333 67.5 -31
s62.167 -11.5 99.5 -11.5c58 0 109.5 10 154.5 30z" />
    <glyph glyph-name="tm_I" unicode="&#xb87;" horiz-adv-x="1056" 
d="M765.5 664c64.333 -31.333 114.336 -75 150.003 -131s53.5 -119 53.5 -189v-492h-101v490c0 54.667 -13.5 103.5 -40.5 146.5s-65 76.667 -114 101s-104.833 36.5 -167.5 36.5c-70.667 0 -132.334 -12.333 -185.001 -37s-93.334 -59 -122.001 -103s-43 -94.333 -43 -151
c0 -73.333 17.333 -142 52 -206c54 15.333 113 23 177 23c56.667 0 110.667 -7.33301 162 -22c27.333 54.667 41 113.334 41 176.001c0 42 -11.667 75.833 -35 101.5s-55.666 38.5 -96.999 38.5c-16 0 -29.667 -1.33301 -41 -4c24.667 -8.66699 44.334 -23 59.001 -43
s22 -43.333 22 -70c-0.666992 -37.333 -13.834 -68.166 -39.501 -92.499s-58.167 -36.5 -97.5 -36.5c-40.667 0 -74.167 12.167 -100.5 36.5s-39.5 55.166 -39.5 92.499c0 38.667 9.66699 73.334 29 104.001s47 54.667 83 72s77.667 26 125 26s88.666 -9.66699 123.999 -29
s62.333 -46 81 -80s28 -72.667 28 -116c0 -74.667 -18 -145.334 -54 -212.001c38.667 -20.667 68.667 -45.834 90 -75.501s32 -61.5 32 -95.5c0 -35.333 -14.167 -64.333 -42.5 -87s-64.833 -34 -109.5 -34c-76.667 0 -152.334 17.333 -227.001 52
c-76.667 -34.667 -156 -52 -238 -52c-44.667 0 -81.167 11.333 -109.5 34s-42.5 51.667 -42.5 87c0 34 11.5 65.833 34.5 95.5s54.833 54.834 95.5 75.501c-42 75.333 -63 155.666 -63 240.999c0 72.667 18.667 137.5 56 194.5s90 101.5 158 133.5s147 48 237 48
c82 0 155.167 -15.667 219.5 -47zM438.003 288c10.667 10.667 15.998 24.334 15.998 41.001c0 16 -5.33301 29.167 -16 39.5s-24 15.5 -40 15.5c-16.667 0 -30.5 -5.16699 -41.5 -15.5s-16.5 -23.5 -16.5 -39.5c0 -16.667 5.33301 -30.334 16 -41.001s24.334 -16 41.001 -16
s30.334 5.33301 41.001 16zM298.001 54c34.667 -42.667 74.668 -77.667 120.001 -105c47.333 28 87.666 63 120.999 105c-38 8.66699 -76 13 -114 13c-42.667 0 -85 -4.33301 -127 -13zM326.002 -92c-46.667 33.333 -86.665 71 -119.998 113
c-48.667 -26 -73 -57.333 -73 -94c0 -11.333 5.66699 -20.833 17 -28.5s25.666 -11.5 42.999 -11.5c45.333 0 89.666 7 132.999 21zM675.004 -22.5c-11.333 15.667 -27.334 29.834 -48.001 42.501c-32.667 -42.667 -72 -80.334 -118 -113.001
c41.333 -13.333 82.333 -20 123 -20c16.667 0 30.834 3.83301 42.501 11.5s17.5 17.167 17.5 28.5c0 18 -5.66699 34.833 -17 50.5z" />
    <glyph glyph-name="tm_Ii" unicode="&#xb88;" horiz-adv-x="784" 
d="M188 434v-434h-100v513h671l15 -79h-236v-434h-101v434h-249zM356.5 170.5c11.667 11.667 17.5 26.5 17.5 44.5c0 17.333 -5.83301 31.833 -17.5 43.5s-26.5 17.5 -44.5 17.5c-17.333 0 -31.833 -5.83301 -43.5 -17.5s-17.5 -26.167 -17.5 -43.5
c0 -18 5.83301 -32.833 17.5 -44.5s26.167 -17.5 43.5 -17.5c18 0 32.833 5.83301 44.5 17.5zM706 170.5c12 11.667 18.002 26.5 18.002 44.5c0 17.333 -6 31.833 -18 43.5s-27 17.5 -45 17.5c-16.667 0 -30.834 -5.83301 -42.501 -17.5s-17.5 -26.167 -17.5 -43.5
c0 -18 5.66699 -32.833 17 -44.5s25.666 -17.5 42.999 -17.5c18 0 33 5.83301 45 17.5z" />
    <glyph glyph-name="tm_U" unicode="&#xb89;" horiz-adv-x="999" 
d="M989 0l-914.997 0.000976562v79h222c41.333 0 77.666 8.33301 108.999 25s55.666 39.667 72.999 69s26 62.666 26 99.999c0 33.333 -7.66699 63 -23 89s-37 46.5 -65 61.5s-60.333 22.5 -97 22.5c-50.667 0 -94.334 -12.333 -131.001 -37h9c44.667 0 81 -13 109 -39
s42 -59 42 -99c0 -26.667 -6.83301 -50.834 -20.5 -72.501s-32.5 -38.667 -56.5 -51s-51 -18.5 -81 -18.5c-47.333 0 -86.166 14.167 -116.499 42.5s-45.5 64.5 -45.5 108.5c0 47.333 12.667 90.166 38 128.499s60.166 68.333 104.499 90s93.833 32.5 148.5 32.5
c56.667 0 107 -11.167 151 -33.5s78.333 -53 103 -92s37 -83.167 37 -132.5c0 -39.333 -7.66699 -75.666 -23 -108.999s-37.333 -61.666 -66 -84.999h468v-79zM239.003 322.001c-13.333 13.333 -30.333 20 -51 20s-37.667 -6.66699 -51 -20s-20 -30.333 -20 -51
c0 -20 6.66699 -36.667 20 -50s30.333 -20 51 -20s37.667 6.66699 51 20s20 30 20 50c0 20.667 -6.66699 37.667 -20 51z" />
    <glyph glyph-name="tm_Uu" unicode="&#xb8a;" horiz-adv-x="1647" 
d="M1637 0l-1563 0.00292969v79h222c41.333 0 77.666 8.33301 108.999 25s55.666 39.667 72.999 69s26 62.666 26 99.999c0 33.333 -7.66699 63 -23 89s-37 46.5 -65 61.5s-60.333 22.5 -97 22.5c-50.667 0 -94.334 -12.333 -131.001 -37h9c44.667 0 81 -13 109 -39
s42 -59 42 -99c0 -26.667 -6.83301 -50.834 -20.5 -72.501s-32.5 -38.667 -56.5 -51s-51 -18.5 -81 -18.5c-47.333 0 -86.166 14.167 -116.499 42.5s-45.5 64.5 -45.5 108.5c0 47.333 12.667 90.166 38 128.499s60.166 68.333 104.499 90s93.833 32.5 148.5 32.5
c56.667 0 107 -11.167 151 -33.5s78.333 -53 103 -92s37 -83.167 37 -132.5c0 -39.333 -7.83301 -75.5 -23.5 -108.5s-37.834 -61.5 -66.501 -85.5h1117v-79zM787.504 141.503c-35 16.333 -62.499 39 -82.499 68s-30 61.5 -30 97.5c0 42.667 10.833 80.834 32.5 114.501
s52.167 60 91.5 79s84.666 28.5 135.999 28.5c34.667 0 67.167 -6 97.5 -18s56.5 -29 78.5 -51v53h471l15 -79h-132v-303h-101v303h-152v-303h-101v158c0 29.333 -7.5 55.833 -22.5 79.5s-36 42.167 -63 55.5s-57.167 20 -90.5 20c-46 0 -83.5 -12.833 -112.5 -38.5
s-43.5 -58.5 -43.5 -98.5c0 -20 4 -38.667 12 -56c0.666992 34.667 13 62.667 37 84s54.333 32 91 32c40 0 72.833 -11.167 98.5 -33.5s38.5 -51.5 38.5 -87.5c0 -36.667 -13.833 -67.334 -41.5 -92.001s-63.5 -37 -107.5 -37c-44.667 0 -84.5 8.16699 -119.5 24.5z
M239.005 322.003c-13.333 13.333 -30.333 20 -51 20s-37.667 -6.66699 -51 -20s-20 -30.333 -20 -51c0 -20 6.66699 -36.667 20 -50s30.333 -20 51 -20s37.667 6.66699 51 20s20 30 20 50c0 20.667 -6.66699 37.667 -20 51zM877.505 282.503
c-10.333 -9.66699 -15.5 -22.167 -15.5 -37.5s5.16699 -28.166 15.5 -38.499s23.5 -15.5 39.5 -15.5c14.667 0 27 5.16699 37 15.5s15 23.166 15 38.499s-4.83301 27.833 -14.5 37.5s-22.167 14.5 -37.5 14.5c-16 0 -29.167 -4.83301 -39.5 -14.5z" />
    <glyph glyph-name="tm_E" unicode="&#xb8e;" horiz-adv-x="895" 
d="M703 434l0.00195312 -434.002h-101v434h-202c-83.333 0 -145.333 -17.667 -186 -53s-61 -83.333 -61 -144c0 -37.333 8.66699 -69.666 26 -96.999v4c0 30.667 7.16699 58.334 21.5 83.001s34.166 44 59.499 58s54 21 86 21c34.667 0 65.667 -7 93 -21
s48.833 -33.5 64.5 -58.5s23.5 -52.833 23.5 -83.5s-8.16699 -58.167 -24.5 -82.5s-39 -43.5 -68 -57.5s-61.5 -21 -97.5 -21c-56.667 0 -106.834 11.167 -150.501 33.5s-77.667 52.833 -102 91.5s-36.5 82 -36.5 130c0 54 13 101.833 39 143.5s64.667 74.167 116 97.5
s114 35 188 35h480l14 -79h-182zM288.502 202.498c-15.667 -15.667 -23.5 -35.5 -23.5 -59.5c0 -23.333 7.83301 -42.666 23.5 -57.999s35.167 -23 58.5 -23c24 0 43.833 7.66699 59.5 23s23.5 34.666 23.5 57.999c0 24 -7.83301 43.833 -23.5 59.5s-35.5 23.5 -59.5 23.5
c-23.333 0 -42.833 -7.83301 -58.5 -23.5z" />
    <glyph glyph-name="tm_Ee" unicode="&#xb8f;" horiz-adv-x="895" 
d="M703 434l0.00195312 -422.003c0 -42 -4.16699 -74.333 -12.5 -97s-26.833 -38.667 -55.5 -48l-374 -117l-38 77l328 106c22 6.66699 36 17.834 42 33.501s9 41.5 9 77.5v390h-202c-83.333 0 -145.333 -17.667 -186 -53s-61 -83.333 -61 -144
c0 -37.333 8.66699 -69.666 26 -96.999v4c0 30.667 7.16699 58.334 21.5 83.001s34.166 44 59.499 58s54 21 86 21c34.667 0 65.667 -7 93 -21s48.833 -33.5 64.5 -58.5s23.5 -52.833 23.5 -83.5s-8.16699 -58.167 -24.5 -82.5s-39 -43.5 -68 -57.5s-61.5 -21 -97.5 -21
c-56.667 0 -106.834 11.167 -150.501 33.5s-77.667 52.833 -102 91.5s-36.5 82 -36.5 130c0 54 13 101.833 39 143.5s64.667 74.167 116 97.5s114 35 188 35h480l14 -79h-182zM288.502 202.497c-15.667 -15.667 -23.5 -35.5 -23.5 -59.5
c0 -23.333 7.83301 -42.666 23.5 -57.999s35.167 -23 58.5 -23c24 0 43.833 7.66699 59.5 23s23.5 34.666 23.5 57.999c0 24 -7.83301 43.833 -23.5 59.5s-35.5 23.5 -59.5 23.5c-23.333 0 -42.833 -7.83301 -58.5 -23.5z" />
    <glyph glyph-name="tm_Ai" unicode="&#xb90;" horiz-adv-x="816" 
d="M745 31.5c6 -21 9.00293 -42.167 9.00293 -63.5c0 -33.333 -8 -63 -24 -89s-38.333 -46.5 -67 -61.5s-61.334 -22.5 -98.001 -22.5c-33.333 0 -62.666 6 -87.999 18s-46.333 29 -63 51c-17.333 -22 -39.5 -39 -66.5 -51s-57.833 -18 -92.5 -18
c-39.333 0 -74.833 7.83301 -106.5 23.5s-56.334 37.334 -74.001 65.001s-26.5 58.834 -26.5 93.501c0 59.333 21.167 107.166 63.5 143.499s111.166 61.166 206.499 74.499l180 24c54.667 7.33301 95.667 23 123 47s41.333 53.667 42 89c0 26.667 -7.66699 48.5 -23 65.5
s-35.666 25.5 -60.999 25.5c-30.667 0 -55.167 -9.83301 -73.5 -29.5s-27.5 -44.167 -27.5 -73.5v-69h-100v69c0 30 -10.5 54.667 -31.5 74s-49.167 29 -84.5 29c-24.667 0 -47.667 -6.33301 -69 -19c29.333 -3.33301 53 -14.666 71 -33.999s27 -43 27 -71
c0 -31.333 -11.333 -57.5 -34 -78.5s-51.334 -31.5 -86.001 -31.5s-63.334 11.5 -86.001 34.5s-34 51.833 -34 86.5c0 36.667 9.16699 70 27.5 100s43.5 53.833 75.5 71.5s68 26.5 108 26.5c34 0 65 -6.66699 93 -20s52 -32 72 -56c18.667 24 40.834 42.667 66.501 56
s54.167 20 85.5 20c36.667 0 69.334 -7.5 98.001 -22.5s51 -35.833 67 -62.5s24 -57 24 -91c0 -58.667 -22.5 -107.5 -67.5 -146.5s-112.5 -64.5 -202.5 -76.5l-180 -24c-60 -8 -102.5 -22.833 -127.5 -44.5s-37.5 -51.167 -37.5 -88.5c0 -27.333 9.5 -50 28.5 -68
s43.5 -27 73.5 -27c30.667 0 56.167 9.83301 76.5 29.5s30.5 44.167 30.5 73.5v69h101v-69c0 -29.333 9.66699 -53.833 29 -73.5s43.666 -29.5 72.999 -29.5c27.333 0 48.166 8.66699 62.499 26s21.5 39.666 21.5 66.999c0 14.667 -3 33.5 -9 56.5s-15 44.833 -27 65.5
l103 6c13.333 -25.333 23 -48.5 29 -69.5zM207.003 351.5c-8 8.33301 -18.333 12.5 -31 12.5c-13.333 0 -24.166 -4.16699 -32.499 -12.5s-12.5 -18.833 -12.5 -31.5s4.16699 -23 12.5 -31s19.166 -12 32.499 -12c12.667 0 23 4 31 12s12 18.333 12 31s-4 23.167 -12 31.5z
" />
    <glyph glyph-name="tm_O" unicode="&#xb92;" horiz-adv-x="826" 
d="M581.5 64c19.667 -13.333 47.833 -20.002 84.5 -20.002h79v-79h-79c-9.33301 0 -22 0.666992 -38 2v-13c0 -33.333 -8.5 -63.166 -25.5 -89.499s-41.167 -46.833 -72.5 -61.5s-68 -22 -110 -22c-42.667 0 -80 7.33301 -112 22s-56.667 35.167 -74 61.5
s-26 56.166 -26 89.499v46h101v-46c0 -26 9.66699 -47 29 -63s46.666 -24 81.999 -24s62.666 8 81.999 24s29 37 29 63v45c-24.667 15.333 -43.5 35.333 -56.5 60s-19.5 52.334 -19.5 83.001v127h92c0.666992 -22 7.33398 -39.833 20.001 -53.5s29 -20.5 49 -20.5
c18.667 0 33.667 7.66699 45 23s17 35.666 17 60.999c0 32 -11.833 60.833 -35.5 86.5s-56 45.834 -97 60.501s-87.167 22 -138.5 22c-67.333 0 -125.5 -12.167 -174.5 -36.5s-80.833 -56.5 -95.5 -96.5c22 18 48.333 27 79 27c38.667 0 70.5 -11.5 95.5 -34.5
s37.5 -52.167 37.5 -87.5c0 -37.333 -13 -67.833 -39 -91.5s-59.333 -35.5 -100 -35.5c-51.333 0 -92 16.167 -122 48.5s-45 74.5 -45 126.5c0 50.667 15.333 96.334 46 137.001s73.5 72.334 128.5 95.001s118.167 34 189.5 34c72 0 136.5 -11 193.5 -33
s101.667 -52.333 134 -91s48.5 -82.334 48.5 -131.001c0 -50 -15.5 -90.667 -46.5 -122s-70.833 -47 -119.5 -47c-25.333 0 -48.333 5.66699 -69 17c2.66699 -28.667 13.834 -49.667 33.501 -63zM173.499 255.498c-9.66699 -9 -14.502 -20.833 -14.502 -35.5
s4.83301 -26.834 14.5 -36.501s21.834 -14.5 36.501 -14.5c15.333 0 27.833 4.83301 37.5 14.5s14.5 21.834 14.5 36.501s-4.66699 26.5 -14 35.5s-21.666 13.5 -36.999 13.5s-27.833 -4.5 -37.5 -13.5z" />
    <glyph glyph-name="tm_Oo" unicode="&#xb93;" horiz-adv-x="826" 
d="M581.5 64c19.667 -13.333 47.832 -20 84.499 -20h79v-79h-79c-14.667 0 -27.334 1 -38.001 3v-14c0 -32.667 -9.66699 -62.167 -29 -88.5s-46.333 -47 -81 -62s-73.667 -22.5 -117 -22.5c-40.667 0 -77.167 6.16699 -109.5 18.5s-57.666 29.5 -75.999 51.5
s-27.5 46.667 -27.5 74c0 37.333 13.667 67.666 41 90.999s63.666 35 108.999 35h21v-78h-21c-13.333 0 -24.5 -4.66699 -33.5 -14s-13.5 -20.666 -13.5 -33.999c0 -16.667 10.333 -30.5 31 -41.5s47 -16.5 79 -16.5c38 0 69.167 8.16699 93.5 24.5s36.5 37.166 36.5 62.499
v45c-24.667 16 -43.5 36 -56.5 60s-19.5 51.667 -19.5 83v127h92c0.666992 -22 7.33398 -39.833 20.001 -53.5s29 -20.5 49 -20.5c18.667 0 33.667 7.66699 45 23s17 35.666 17 60.999c0 32 -11.833 60.833 -35.5 86.5s-56 45.834 -97 60.501s-87.167 22 -138.5 22
c-67.333 0 -125.5 -12.167 -174.5 -36.5s-80.833 -56.5 -95.5 -96.5c22 18 48.333 27 79 27c38.667 0 70.5 -11.5 95.5 -34.5s37.5 -52.167 37.5 -87.5c0 -37.333 -13 -67.833 -39 -91.5s-59.333 -35.5 -100 -35.5c-51.333 0 -92 16.167 -122 48.5s-45 74.5 -45 126.5
c0 50.667 15.333 96.334 46 137.001s73.5 72.334 128.5 95.001s118.167 34 189.5 34c72 0 136.5 -11 193.5 -33s101.667 -52.333 134 -91s48.5 -82.334 48.5 -131.001c0 -50 -15.5 -90.667 -46.5 -122s-70.833 -47 -119.5 -47c-25.333 0 -48.333 5.66699 -69 17
c2.66699 -28.667 13.834 -49.667 33.501 -63zM173.498 255.5c-9.66699 -9 -14.502 -20.833 -14.502 -35.5s4.83301 -26.834 14.5 -36.501s21.834 -14.5 36.501 -14.5c15.333 0 27.833 4.83301 37.5 14.5s14.5 21.834 14.5 36.501s-4.66699 26.5 -14 35.5
s-21.666 13.5 -36.999 13.5s-27.833 -4.5 -37.5 -13.5z" />
    <glyph glyph-name="tm_Au" unicode="&#xb94;" horiz-adv-x="2074" 
d="M581.5 64c19.667 -13.333 47.833 -20.002 84.5 -20.002h79v-79h-79c-9.33301 0 -22 0.666992 -38 2v-13c0 -33.333 -8.5 -63.166 -25.5 -89.499s-41.167 -46.833 -72.5 -61.5s-68 -22 -110 -22c-42.667 0 -80 7.33301 -112 22s-56.667 35.167 -74 61.5
s-26 56.166 -26 89.499v46h101v-46c0 -26 9.66699 -47 29 -63s46.666 -24 81.999 -24s62.666 8 81.999 24s29 37 29 63v45c-24.667 15.333 -43.5 35.333 -56.5 60s-19.5 52.334 -19.5 83.001v127h92c0.666992 -22 7.33398 -39.833 20.001 -53.5s29 -20.5 49 -20.5
c18.667 0 33.667 7.66699 45 23s17 35.666 17 60.999c0 32 -11.833 60.833 -35.5 86.5s-56 45.834 -97 60.501s-87.167 22 -138.5 22c-67.333 0 -125.5 -12.167 -174.5 -36.5s-80.833 -56.5 -95.5 -96.5c22 18 48.333 27 79 27c38.667 0 70.5 -11.5 95.5 -34.5
s37.5 -52.167 37.5 -87.5c0 -37.333 -13 -67.833 -39 -91.5s-59.333 -35.5 -100 -35.5c-51.333 0 -92 16.167 -122 48.5s-45 74.5 -45 126.5c0 50.667 15.333 96.334 46 137.001s73.5 72.334 128.5 95.001s118.167 34 189.5 34c72 0 136.5 -11 193.5 -33
s101.667 -52.333 134 -91s48.5 -82.334 48.5 -131.001c0 -50 -15.5 -90.667 -46.5 -122s-70.833 -47 -119.5 -47c-25.333 0 -48.333 5.66699 -69 17c2.66699 -28.667 13.834 -49.667 33.501 -63zM173.499 255.498c-9.66699 -9 -14.502 -20.833 -14.502 -35.5
s4.83301 -26.834 14.5 -36.501s21.834 -14.5 36.501 -14.5c15.333 0 27.833 4.83301 37.5 14.5s14.5 21.834 14.5 36.501s-4.66699 26.5 -14 35.5s-21.666 13.5 -36.999 13.5s-27.833 -4.5 -37.5 -13.5zM1881 433.998l0.00292969 -434.002h-100v434h-225v-434h-101v228
c0 41.333 -10.333 78.666 -31 111.999s-49.334 59.333 -86.001 78s-78.334 28 -125.001 28c-48 0 -89.667 -9 -125 -27s-62.333 -42.833 -81 -74.5s-28 -67.5 -28 -107.5c0 -37.333 8.66699 -69.666 26 -96.999v4c0 30.667 7.16699 58.334 21.5 83.001s34.166 44 59.499 58
s54 21 86 21c34.667 0 65.667 -7 93 -21s48.833 -33.5 64.5 -58.5s23.5 -52.833 23.5 -83.5s-8.16699 -58.167 -24.5 -82.5s-39 -43.5 -68 -57.5s-61.5 -21 -97.5 -21c-56.667 0 -106.834 11.167 -150.501 33.5s-77.667 52.833 -102 91.5s-36.5 82 -36.5 130
c0 56.667 14 107.334 42 152.001s67.5 79.5 118.5 104.5s110.5 37.5 178.5 37.5c49.333 0 94.833 -8.83301 136.5 -26.5s76.834 -42.167 105.501 -73.5v82h594l15 -79h-183zM1114.5 202.496c-15.667 -15.667 -23.5 -35.5 -23.5 -59.5
c0 -23.333 7.83301 -42.666 23.5 -57.999s35.167 -23 58.5 -23c24 0 43.833 7.66699 59.5 23s23.5 34.666 23.5 57.999c0 24 -7.83301 43.833 -23.5 59.5s-35.5 23.5 -59.5 23.5c-23.333 0 -42.833 -7.83301 -58.5 -23.5z" />
    <glyph glyph-name="tm_Ka" unicode="&#xb95;" horiz-adv-x="768" 
d="M683.5 261.5c38.333 -30.333 57.501 -69.833 57.501 -118.5c0 -31.333 -9 -59.166 -27 -83.499s-44.167 -43.333 -78.5 -57s-75.166 -20.5 -122.499 -20.5v80c40.667 0 71.167 7.16699 91.5 21.5s30.5 34.166 30.5 59.499c0 26 -9 46.667 -27 62s-45.333 23 -82 23h-30
v-23c0 -42.667 -10 -81 -30 -115s-48.667 -60.5 -86 -79.5s-81 -28.5 -131 -28.5c-42 0 -79 7 -111 21s-56.667 33.5 -74 58.5s-26 53.167 -26 84.5c0 34.667 10.167 64.667 30.5 90s49.166 44.333 86.499 57v220h506l15 -79h-180v-127h29
c67.333 0 120.166 -15.167 158.499 -45.5zM256.001 307h139v127h-139v-127zM256.001 228c-36 0 -63.833 -7.33203 -83.5 -21.999s-29.5 -34.667 -29.5 -60c0 -23.333 9.5 -42.333 28.5 -57s44.833 -22 77.5 -22c46 0 81.833 12.667 107.5 38s38.5 58.666 38.5 99.999v23
h-139z" />
    <glyph glyph-name="tm_Nga" unicode="&#xb99;" horiz-adv-x="1022" 
d="M934 0h-587.001v79h146c43.333 0 75.666 10.333 96.999 31s32 48.667 32 84c0 26 -7.5 48 -22.5 66s-34.833 27 -59.5 27c-27.333 0 -49.666 -8.83301 -66.999 -26.5s-26 -39.5 -26 -65.5v-39h-100v278h-159v-434h-100v513h527l15 -79h-183v-91
c30.667 20 65.334 30 104.001 30c52.667 0 95.167 -16.5 127.5 -49.5s48.5 -76.167 48.5 -129.5c0 -46 -13.333 -84.333 -40 -115h147v434h100v-513z" />
    <glyph glyph-name="tm_Ca" unicode="&#xb9a;" horiz-adv-x="703" 
d="M496 228l0.000976562 -23c0 -42.667 -10 -81 -30 -115s-48.667 -60.5 -86 -79.5s-81 -28.5 -131 -28.5c-42 0 -79 7 -111 21s-56.667 33.5 -74 58.5s-26 53.167 -26 84.5c0 34.667 10.167 64.667 30.5 90s49.166 44.333 86.499 57v220h506l15 -79h-180v-127h165l15 -79
h-180zM256.001 307h139v127h-139v-127zM256.001 228c-36 0 -63.833 -7.33203 -83.5 -21.999s-29.5 -34.667 -29.5 -60c0 -23.333 9.5 -42.333 28.5 -57s44.833 -22 77.5 -22c46 0 81.833 12.667 107.5 38s38.5 58.666 38.5 99.999v23h-139z" />
    <glyph glyph-name="tm_Ja" unicode="&#xb9c;" horiz-adv-x="816" 
d="M725 55c28.667 -28 42.9961 -64.665 42.9961 -109.998c0 -28 -7.66699 -53.167 -23 -75.5s-37 -39.833 -65 -52.5s-60.333 -19 -97 -19h-94v79h94c22.667 0 41.667 6.5 57 19.5s23 29.167 23 48.5c0 20 -5.5 36.167 -16.5 48.5s-24.833 18.5 -41.5 18.5
c-25.333 0 -47.5 -7.33301 -66.5 -22s-42.167 -37.667 -69.5 -69c-23.333 -26.667 -44.166 -48.334 -62.499 -65.001s-40.666 -31 -66.999 -43s-56.166 -18 -89.499 -18c-39.333 0 -74.333 7.83301 -105 23.5s-54.5 37.167 -71.5 64.5s-25.5 58.666 -25.5 93.999
c0 59.333 21.167 107.166 63.5 143.499s111.166 61.166 206.499 74.499l180 24c54.667 7.33301 95.667 23 123 47s41.333 53.667 42 89c0 26.667 -7.66699 48.5 -23 65.5s-35.666 25.5 -60.999 25.5c-30.667 0 -55.167 -9.83301 -73.5 -29.5s-27.5 -44.167 -27.5 -73.5v-69
h-100v69c0 30 -10.5 54.667 -31.5 74s-49.167 29 -84.5 29c-24.667 0 -47.667 -6.33301 -69 -19c29.333 -3.33301 53 -14.666 71 -33.999s27 -43 27 -71c0 -31.333 -11.333 -57.5 -34 -78.5s-51.334 -31.5 -86.001 -31.5s-63.334 11.5 -86.001 34.5s-34 51.833 -34 86.5
c0 36.667 9.16699 70 27.5 100s43.5 53.833 75.5 71.5s68 26.5 108 26.5c34 0 65 -6.66699 93 -20s52 -32 72 -56c18.667 24 40.834 42.667 66.501 56s54.167 20 85.5 20c36.667 0 69.334 -7.5 98.001 -22.5s51 -35.833 67 -62.5s24 -57 24 -91
c0 -58.667 -22.5 -107.5 -67.5 -146.5s-112.5 -64.5 -202.5 -76.5l-180 -24c-59.333 -8 -101.5 -22.667 -126.5 -44s-37.833 -50.333 -38.5 -87c0 -28 8.66699 -51.167 26 -69.5s41 -27.5 71 -27.5c26 0 49.667 7.83301 71 23.5s47.333 39.834 78 72.501
c24.667 26 46.334 47 65.001 63s40.167 29.667 64.5 41s51.166 17 80.499 17c48.667 0 87.334 -14 116.001 -42zM206.996 351.502c-8 8.33301 -18.333 12.5 -31 12.5c-13.333 0 -24.166 -4.16699 -32.499 -12.5s-12.5 -18.833 -12.5 -31.5s4.16699 -23 12.5 -31
s19.166 -12 32.499 -12c12.667 0 23 4 31 12s12 18.333 12 31s-4 23.167 -12 31.5z" />
    <glyph glyph-name="tm_Nya" unicode="&#xb9e;" horiz-adv-x="1280" 
d="M1180.5 285.5c34.333 -42.333 51.499 -96.502 51.499 -162.502c0 -78 -22.833 -146.333 -68.5 -205s-111.167 -104 -196.5 -136s-186 -48 -302 -48c-119.333 0 -224.166 18.333 -314.499 55s-160 88.667 -209 156s-73.5 145.666 -73.5 234.999
c0 62.667 13.5 125.667 40.5 189s61.833 114.666 104.5 153.999l103 -10c-42 -36 -76.333 -84.5 -103 -145.5s-40 -124.167 -40 -189.5c0 -72 20.667 -135.167 62 -189.5s99.166 -96.166 173.499 -125.499s159.833 -44 256.5 -44c93.333 0 174.833 12.167 244.5 36.5
s123.334 59.333 161.001 105s56.5 99.834 56.5 162.501c0 42 -7.66699 75.833 -23 101.5s-39.666 38.5 -72.999 38.5c-27.333 0 -50.333 -10.333 -69 -31s-28 -45.667 -28 -75v-157h-100v434h-177c-83.333 0 -145.166 -17.667 -185.499 -53s-60.5 -83.333 -60.5 -144
c0 -37.333 8.66699 -69.666 26 -96.999v4c0 30.667 7.16699 58.334 21.5 83.001s34.166 44 59.499 58s54 21 86 21c34.667 0 65.667 -7 93 -21s48.666 -33.5 63.999 -58.5s23 -52.833 23 -83.5s-8.16699 -58.167 -24.5 -82.5s-38.833 -43.5 -67.5 -57.5s-61 -21 -97 -21
c-56.667 0 -107 11.167 -151 33.5s-78.167 52.833 -102.5 91.5s-36.5 82 -36.5 130c0 54 13 101.833 39 143.5s64.667 74.167 116 97.5s114 35 188 35h454l15 -79h-183v-120c30 23.333 63.667 35 101 35c62.667 0 111.167 -21.167 145.5 -63.5zM545.999 202.498
c-15.333 -15.667 -23 -35.5 -23 -59.5c0 -23.333 7.66699 -42.666 23 -57.999s35 -23 59 -23s43.833 7.66699 59.5 23s23.5 34.666 23.5 57.999c0 24 -7.83301 43.833 -23.5 59.5s-35.5 23.5 -59.5 23.5s-43.667 -7.83301 -59 -23.5z" />
    <glyph glyph-name="tm_Tta" unicode="&#xb9f;" horiz-adv-x="726" 
d="M188 518l-100 -5v-513h628l-15 79h-513v439z" />
    <glyph glyph-name="tm_Nna" unicode="&#xba3;" horiz-adv-x="1755" 
d="M1563 434l0.00195312 -434.001h-101v434h-89c-41.333 0 -80 -6.66699 -116 -20c30 -32 53 -68 69 -108s24 -82.667 24 -128c0 -58 -16.5 -105.167 -49.5 -141.5s-77.167 -54.5 -132.5 -54.5c-36.667 0 -69 8.33301 -97 25s-49.5 39.834 -64.5 69.501
s-22.5 63.5 -22.5 101.5c0 46 9.83301 89.5 29.5 130.5s47.167 76.833 82.5 107.5c-42 20 -87 30 -135 30c-52 0 -99 -11.333 -141 -34c37.333 -31.333 66.166 -67.166 86.499 -107.499s30.5 -82.5 30.5 -126.5c0 -58 -16.667 -105.167 -50 -141.5
s-77.666 -54.5 -132.999 -54.5c-36.667 0 -69 8.33301 -97 25s-49.5 39.834 -64.5 69.501s-22.5 63.5 -22.5 101.5c0 42.667 8 83.667 24 123s38.667 74.666 68 105.999c-58 26 -123 39 -195 39c-63.333 0 -118.666 -9.33301 -165.999 -28s-83.833 -44.334 -109.5 -77.001
s-38.5 -69.667 -38.5 -111c0 -36.667 8.66699 -68.334 26 -95.001v9c0 30.667 7.16699 58.334 21.5 83.001s34.166 44 59.499 58s54 21 86 21c34.667 0 65.667 -7 93 -21s48.833 -33.5 64.5 -58.5s23.5 -52.833 23.5 -83.5s-8.16699 -58.167 -24.5 -82.5
s-39 -43.5 -68 -57.5s-61.5 -21 -97.5 -21c-56.667 0 -106.834 10.667 -150.501 32s-77.667 50.833 -102 88.5s-36.5 80.167 -36.5 127.5c0 57.333 17.333 108.833 52 154.5s83.667 81.5 147 107.5s136.666 39 219.999 39c50 0 97.833 -5.5 143.5 -16.5
s87.5 -26.5 125.5 -46.5c66 42 141 63 225 63s158 -19.667 222 -59c58 27.333 121.333 41 190 41h357l15 -79h-182zM1225.5 278.999c-13 31.333 -31.166 59.334 -54.499 84.001c-26 -23.333 -46 -50.833 -60 -82.5s-21 -65.834 -21 -102.501
c0 -33.333 6.66699 -60.166 20 -80.499s32.666 -30.5 57.999 -30.5s44.5 10.167 57.5 30.5s19.5 47.166 19.5 80.499c0 36 -6.5 69.667 -19.5 101zM811.503 97.5c13 20.333 19.501 47.166 19.501 80.499c0 34 -7.5 66 -22.5 96s-36.5 57 -64.5 81
c-21.333 -24 -38 -51 -50 -81s-18 -62 -18 -96c0 -33.333 6.66699 -60.166 20 -80.499s32.666 -30.5 57.999 -30.5s44.5 10.167 57.5 30.5zM288.504 202.5c-15.667 -15.667 -23.5 -35.5 -23.5 -59.5c0 -23.333 7.83301 -42.666 23.5 -57.999s35.167 -23 58.5 -23
c24 0 43.833 7.66699 59.5 23s23.5 34.666 23.5 57.999c0 24 -7.83301 43.833 -23.5 59.5s-35.5 23.5 -59.5 23.5c-23.333 0 -42.833 -7.83301 -58.5 -23.5z" />
    <glyph glyph-name="tm_Ta" unicode="&#xba4;" horiz-adv-x="787" 
d="M634.5 277.5c36.333 -19.667 64.6689 -47.166 85.002 -82.499s30.5 -75 30.5 -119c0 -49.333 -12.167 -93.5 -36.5 -132.5s-58.333 -69.667 -102 -92s-92.834 -33.5 -147.501 -33.5h-180c-45.333 0 -80.666 -5.16699 -105.999 -15.5s-44.666 -25.833 -57.999 -46.5
l-82 49c14 28 41.833 50.333 83.5 67s94.167 25 157.5 25h185c34.667 0 65.667 7.66699 93 23s48.666 36.666 63.999 63.999s23 58 23 92c0 44 -12.333 80.333 -37 109s-56.334 43 -95.001 43h-16v-23c0 -42.667 -10 -81 -30 -115s-48.667 -60.5 -86 -79.5
s-81 -28.5 -131 -28.5c-42 0 -79 7 -111 21s-56.667 33.5 -74 58.5s-26 53.167 -26 84.5c0 34.667 10.167 64.667 30.5 90s49.166 44.333 86.499 57v220h506l15 -79h-180v-127h15c46 0 87.167 -9.83301 123.5 -29.5zM256.003 307.001h139v127h-139v-127zM256.003 228.001
c-36 0 -63.833 -7.33203 -83.5 -21.999s-29.5 -34.667 -29.5 -60c0 -23.333 9.5 -42.333 28.5 -57s44.833 -22 77.5 -22c46 0 81.833 12.667 107.5 38s38.5 58.666 38.5 99.999v23h-139z" />
    <glyph glyph-name="tm_Na" unicode="&#xba8;" horiz-adv-x="794" 
d="M653 317.5c30 -21 53.167 -49.999 69.5 -86.999s24.5 -79.167 24.5 -126.5c0 -55.333 -10.333 -104.5 -31 -147.5s-50.667 -76.667 -90 -101s-85.333 -36.5 -138 -36.5h-153c-46 0 -81.667 -5.16699 -107 -15.5s-45 -25.833 -59 -46.5l-81 49c30 60.667 110 91 240 91
h160c48.667 0 86.5 19.167 113.5 57.5s40.5 88.166 40.5 149.499c0 47.333 -8.66699 85.5 -26 114.5s-42 43.5 -74 43.5c-27.333 0 -50 -9.5 -68 -28.5s-27 -42.833 -27 -71.5v-162h-100v434h-159v-434h-100v513h527l15 -79h-183v-119c30 22.667 64.333 34 103 34
s73 -10.5 103 -31.5z" />
    <glyph glyph-name="tm_Nnna" unicode="&#xba9;" horiz-adv-x="1342" 
d="M1150 434l0.000976562 -434h-101v434h-90c-47.333 0 -91.666 -9 -132.999 -27c35.333 -31.333 62.666 -66.666 81.999 -105.999s29 -80.333 29 -123c0 -58 -16.667 -105.167 -50 -141.5s-77.666 -54.5 -132.999 -54.5c-36.667 0 -69 8.33301 -97 25
s-49.5 39.834 -64.5 69.501s-22.5 63.5 -22.5 101.5c0 43.333 8.5 84.166 25.5 122.499s41.167 72.5 72.5 102.5c-58.667 28.667 -125.667 43 -201 43c-63.333 0 -118.666 -9.33301 -165.999 -28s-83.833 -44.334 -109.5 -77.001s-38.5 -69.667 -38.5 -111
c0 -36.667 8.66699 -68.334 26 -95.001v9c0 30.667 7.16699 58.334 21.5 83.001s34.166 44 59.499 58s54 21 86 21c34.667 0 65.667 -7 93 -21s48.833 -33.5 64.5 -58.5s23.5 -52.833 23.5 -83.5s-8.16699 -58.167 -24.5 -82.5s-39 -43.5 -68 -57.5s-61.5 -21 -97.5 -21
c-56.667 0 -106.834 10.667 -150.501 32s-77.667 50.833 -102 88.5s-36.5 80.167 -36.5 127.5c0 57.333 17.333 108.833 52 154.5s83.667 81.5 147 107.5s136.666 39 219.999 39c52 0 101.833 -6 149.5 -18s91.5 -29 131.5 -51c64 34 134.333 51 211 51h358l15 -79h-182z
M811.501 97.5c13 20.333 19.502 47.166 19.502 80.499s-7.33301 65 -22 95s-35.334 56.667 -62.001 80c-22.667 -22.667 -40.167 -49 -52.5 -79s-18.5 -62 -18.5 -96c0 -33.333 6.66699 -60.166 20 -80.499s32.666 -30.5 57.999 -30.5s44.5 10.167 57.5 30.5zM288.503 202.5
c-15.667 -15.667 -23.5 -35.5 -23.5 -59.5c0 -23.333 7.83301 -42.666 23.5 -57.999s35.167 -23 58.5 -23c24 0 43.833 7.66699 59.5 23s23.5 34.666 23.5 57.999c0 24 -7.83301 43.833 -23.5 59.5s-35.5 23.5 -59.5 23.5c-23.333 0 -42.833 -7.83301 -58.5 -23.5z" />
    <glyph glyph-name="tm_Pa" unicode="&#xbaa;" horiz-adv-x="737" 
d="M88 0v513l100 5v-439h361v434h101v-513h-562z" />
    <glyph glyph-name="tm_Ma" unicode="&#xbae;" horiz-adv-x="872" 
d="M711.5 493c36.333 -25.333 64.167 -60.333 83.5 -105s29 -95.667 29 -153c0 -72 -18.5 -129.167 -55.5 -171.5s-92.833 -63.5 -167.5 -63.5h-513v513l100 5v-439h194v227c0 70 17.667 125 53 165s85 60 149 60c48.667 0 91.167 -12.667 127.5 -38zM693.001 119.5
c17.333 27 25.999 65.5 25.999 115.5c0 63.333 -11.667 114.333 -35 153s-56.666 58 -99.999 58c-67.333 0 -101 -47.667 -101 -143v-224h118c44 0 74.667 13.5 92 40.5z" />
    <glyph glyph-name="tm_Ya" unicode="&#xbaf;" horiz-adv-x="955" 
d="M867 0l-461.999 0.00195312v32c-34.667 -33.333 -76.334 -50 -125.001 -50c-64.667 0 -114.5 19.333 -149.5 58s-52.5 92 -52.5 160v313l100 5v-316c0 -44.667 8.5 -78.334 25.5 -101.001s43.5 -34 79.5 -34c40 0 70.333 14.167 91 42.5s31 66.166 31 113.499v290h101
v-434h260v434h101v-513z" />
    <glyph glyph-name="tm_Ra" unicode="&#xbb0;" horiz-adv-x="706" 
d="M514 12c0 -27.333 -1.33301 -49.5 -4 -66.5s-9 -32.167 -19 -45.5s-25.333 -24.333 -46 -33l-283 -117l-38 84l238 99c22 9.33301 36 21.5 42 36.5s9 39.833 9 74.5v390h-225v-434h-100v513h593l15 -79h-182v-422z" />
    <glyph glyph-name="tm_Rra" unicode="&#xbb1;" horiz-adv-x="875" 
d="M766.5 449c41 -54.667 61.501 -126.667 61.501 -216c0 -82 -12.5 -154 -37.5 -216s-63.167 -110.5 -114.5 -145.5s-115 -52.5 -191 -52.5h-160c-46 0 -81.667 -5.16699 -107 -15.5s-45 -25.833 -59 -46.5l-81 49c14 28 41.833 50.167 83.5 66.5s94.167 24.5 157.5 24.5
h166c79.333 0 138.666 30.333 177.999 91s59 142.334 59 245.001c0 65.333 -10.5 117.166 -31.5 155.499s-53.833 57.5 -98.5 57.5c-34.667 0 -61.5 -12.167 -80.5 -36.5s-28.5 -59.833 -28.5 -106.5v-303h-101v292c0 44.667 -9.33301 81.5 -28 110.5s-45.667 43.5 -81 43.5
c-32 0 -55.833 -12.167 -71.5 -36.5s-23.5 -59.166 -23.5 -104.499v-305h-100v315c0 65.333 16.5 117.666 49.5 156.999s79.5 59 139.5 59c33.333 0 63.5 -7.33301 90.5 -22s49.5 -35.334 67.5 -62.001c18.667 26.667 42.5 47.334 71.5 62.001s60.833 22 95.5 22
c75.333 0 133.5 -27.333 174.5 -82z" />
    <glyph glyph-name="tm_La" unicode="&#xbb2;" horiz-adv-x="1066" 
d="M996.5 379.5c14.333 -52.333 21.5029 -99.8311 21.5029 -142.498c0 -78 -18.5 -140 -55.5 -186s-90.833 -69 -161.5 -69c-64.667 0 -114.667 20 -150 60s-53 95.667 -53 167v46c0 58.667 -19 105 -57 139s-90 51 -156 51c-48 0 -89.5 -9 -124.5 -27
s-61.667 -42.667 -80 -74s-27.5 -67 -27.5 -107c0 -38 9 -71 27 -99v6c0 30.667 7.16699 58.167 21.5 82.5s34.166 43.5 59.499 57.5s53.666 21 84.999 21c34.667 0 65.667 -7 93 -21s48.833 -33.333 64.5 -58s23.5 -52.334 23.5 -83.001s-8.16699 -58.167 -24.5 -82.5
s-39 -43.5 -68 -57.5s-61.5 -21 -97.5 -21c-56.667 0 -106.834 11.167 -150.501 33.5s-77.667 52.833 -102 91.5s-36.5 82 -36.5 130c0 55.333 13.667 105.333 41 150s66.5 79.834 117.5 105.501s110.5 38.5 178.5 38.5c62.667 0 117.667 -11.333 165 -34
s83.833 -54.834 109.5 -96.501s38.5 -90.167 38.5 -145.5v-46c0 -46.667 9 -81.834 27 -105.501s44.333 -35.5 79 -35.5c37.333 0 64.833 15 82.5 45s26.5 71.333 26.5 124c0 42 -7.16699 89 -21.5 141s-34.5 97 -60.5 135l102 14c28 -46 49.167 -95.167 63.5 -147.5z
M288.503 202.502c-15.667 -15.667 -23.5 -35.5 -23.5 -59.5c0 -23.333 7.83301 -42.666 23.5 -57.999s35.167 -23 58.5 -23c24 0 43.833 7.66699 59.5 23s23.5 34.666 23.5 57.999c0 24 -7.83301 43.833 -23.5 59.5s-35.5 23.5 -59.5 23.5
c-23.333 0 -42.833 -7.83301 -58.5 -23.5z" />
    <glyph glyph-name="tm_Lla" unicode="&#xbb3;" horiz-adv-x="1248" 
d="M1055 434l0.00292969 -434.002h-100v434h-225v-434h-101v228c0 41.333 -10.333 78.666 -31 111.999s-49.334 59.333 -86.001 78s-78.334 28 -125.001 28c-48 0 -89.667 -9 -125 -27s-62.333 -42.833 -81 -74.5s-28 -67.5 -28 -107.5
c0 -37.333 8.66699 -69.666 26 -96.999v4c0 30.667 7.16699 58.334 21.5 83.001s34.166 44 59.499 58s54 21 86 21c34.667 0 65.667 -7 93 -21s48.833 -33.5 64.5 -58.5s23.5 -52.833 23.5 -83.5s-8.16699 -58.167 -24.5 -82.5s-39 -43.5 -68 -57.5s-61.5 -21 -97.5 -21
c-56.667 0 -106.834 11.167 -150.501 33.5s-77.667 52.833 -102 91.5s-36.5 82 -36.5 130c0 56.667 14 107.334 42 152.001s67.5 79.5 118.5 104.5s110.5 37.5 178.5 37.5c49.333 0 94.833 -8.83301 136.5 -26.5s76.834 -42.167 105.501 -73.5v82h594l15 -79h-183z
M288.503 202.498c-15.667 -15.667 -23.5 -35.5 -23.5 -59.5c0 -23.333 7.83301 -42.666 23.5 -57.999s35.167 -23 58.5 -23c24 0 43.833 7.66699 59.5 23s23.5 34.666 23.5 57.999c0 24 -7.83301 43.833 -23.5 59.5s-35.5 23.5 -59.5 23.5
c-23.333 0 -42.833 -7.83301 -58.5 -23.5z" />
    <glyph glyph-name="tm_Llla" unicode="&#xbb4;" horiz-adv-x="872" 
d="M483 -27c0 -26 5.66699 -44.667 17 -56s28 -17 50 -17h149l15 -78h-171c-17.333 -36.667 -45.166 -66.5 -83.499 -89.5s-81.833 -34.5 -130.5 -34.5c-40.667 0 -77 7.66699 -109 23s-57 37 -75 65s-27 60 -27 96h101c0 -29.333 10.333 -53 31 -71s47 -27 79 -27
c30 0 55.167 5.83301 75.5 17.5s34.5 27.167 42.5 46.5c-20 10 -35.833 24.667 -47.5 44s-17.5 42 -17.5 68v40h-294v513l100 5v-439h194v227c0 70 17.667 125 53 165s85 60 149 60c48.667 0 91.167 -12.667 127.5 -38s64.166 -60.333 83.499 -105s29 -95.667 29 -153
c0 -72 -18.5 -129.167 -55.5 -171.5s-92.833 -63.5 -167.5 -63.5h-118v-27zM601 79c44 0 74.666 13.5 91.999 40.5s26 65.5 26 115.5c0 63.333 -11.667 114.333 -35 153s-56.666 58 -99.999 58c-67.333 0 -101 -47.667 -101 -143v-224h118z" />
    <glyph glyph-name="tm_Va" unicode="&#xbb5;" horiz-adv-x="1074" 
d="M987 0l-410.999 -0.00488281v79c35.333 53.333 53 112 53 176c0 57.333 -20.167 103.5 -60.5 138.5s-97.833 52.5 -172.5 52.5c-48.667 0 -91.5 -9 -128.5 -27s-65.333 -42.833 -85 -74.5s-29.5 -67.5 -29.5 -107.5c0 -37.333 8.66699 -69.666 26 -96.999v4
c0 30.667 7.33301 58.334 22 83.001s34.667 44 60 58s53.666 21 84.999 21c34.667 0 65.667 -7 93 -21s48.833 -33.5 64.5 -58.5s23.5 -52.833 23.5 -83.5s-8.16699 -58.167 -24.5 -82.5s-39 -43.5 -68 -57.5s-61.5 -21 -97.5 -21c-56.667 0 -106.834 11.167 -150.501 33.5
s-77.667 52.833 -102 91.5s-36.5 82 -36.5 130c0 56.667 14.5 107.334 43.5 152.001s69.833 79.5 122.5 104.5s113.334 37.5 182.001 37.5c66 0 124.833 -11.833 176.5 -35.5s91.667 -56.5 120 -98.5s42.5 -89.333 42.5 -142c0 -31.333 -4.16699 -62.166 -12.5 -92.499
s-19.833 -58.166 -34.5 -83.499h198v434h101v-513zM288.501 202.495c-15.667 -15.667 -23.5 -35.5 -23.5 -59.5c0 -23.333 7.83301 -42.666 23.5 -57.999s35.167 -23 58.5 -23c24 0 43.833 7.66699 59.5 23s23.5 34.666 23.5 57.999c0 24 -7.83301 43.833 -23.5 59.5
s-35.5 23.5 -59.5 23.5c-23.333 0 -42.833 -7.83301 -58.5 -23.5z" />
    <glyph glyph-name="tm_Sha" unicode="&#xbb6;" horiz-adv-x="1107" 
d="M1003.5 449.5c37 -42.333 55.499 -99.168 55.499 -170.501c0 -57.333 -9.66699 -108.5 -29 -153.5s-47.166 -80.167 -83.499 -105.5s-78.833 -38 -127.5 -38c-64 0 -113.833 19.833 -149.5 59.5s-53.5 94.834 -53.5 165.501v227h-128v-234
c0 -68 -18.167 -121.333 -54.5 -160s-86.5 -58 -150.5 -58s-114.167 19.333 -150.5 58s-54.5 92 -54.5 160v313l100 5v-316c0 -90 35 -135 105 -135c69.333 0 104 45 104 135v311h448c75.333 0 131.5 -21.167 168.5 -63.5zM918.499 124.998c23 38.667 34.5 90 34.5 154
c0 50 -8.5 88.333 -25.5 115s-47.833 40 -92.5 40h-117v-223c0 -96 33.667 -144 101 -144c43.333 0 76.5 19.333 99.5 58z" />
    <glyph glyph-name="tm_Ssa" unicode="&#xbb7;" horiz-adv-x="1444" 
d="M1136 0l0.000976562 -243.004h-101v243h-459v79c35.333 53.333 53 112 53 176c0 56.667 -20.333 102.667 -61 138s-98 53 -172 53c-48.667 0 -91.5 -9 -128.5 -27s-65.333 -42.833 -85 -74.5s-29.5 -67.5 -29.5 -107.5c0 -37.333 8.66699 -69.666 26 -96.999v4
c0 30.667 7.16699 58.334 21.5 83.001s34.166 44 59.499 58s54 21 86 21c34.667 0 65.667 -7 93 -21s48.833 -33.5 64.5 -58.5s23.5 -52.833 23.5 -83.5s-8.16699 -58.167 -24.5 -82.5s-39 -43.5 -68 -57.5s-61.5 -21 -97.5 -21c-56.667 0 -106.834 11.167 -150.501 33.5
s-77.667 52.833 -102 91.5s-36.5 82 -36.5 130c0 56.667 14.5 107.334 43.5 152.001s69.833 79.5 122.5 104.5s113.334 37.5 182.001 37.5c66 0 124.833 -11.833 176.5 -35.5s91.667 -56.5 120 -98.5s42.5 -89.333 42.5 -142c0 -31.333 -4.16699 -62.166 -12.5 -92.499
s-19.833 -58.166 -34.5 -83.499h347v116c-20 -1.33301 -35.333 -2 -46 -2c-41.333 0 -78.166 7.5 -110.499 22.5s-57.666 35.667 -75.999 62s-27.5 55.833 -27.5 88.5c0 49.333 16.833 89.166 50.5 119.499s78.167 45.5 133.5 45.5c53.333 0 96.166 -15.333 128.499 -46
s48.5 -70.667 48.5 -120v-47c25.333 14 48.166 31 68.499 51s37.5 41.667 51.5 65h101v-434h-221zM1035 281.996l0.000976562 78c0 26 -6.66699 46.833 -20 62.5s-32 23.5 -56 23.5c-24.667 0 -43.834 -7.33301 -57.501 -22s-20.5 -34 -20.5 -58
c0 -24.667 9.83301 -45.5 29.5 -62.5s45.834 -25.5 78.501 -25.5c17.333 0 32.666 1.33301 45.999 4zM1256 294.996c-35.333 -33.333 -75.333 -58.333 -120 -75v-141h120v216zM288.502 202.496c-15.667 -15.667 -23.5 -35.5 -23.5 -59.5
c0 -23.333 7.83301 -42.666 23.5 -57.999s35.167 -23 58.5 -23c24 0 43.833 7.66699 59.5 23s23.5 34.666 23.5 57.999c0 24 -7.83301 43.833 -23.5 59.5s-35.5 23.5 -59.5 23.5c-23.333 0 -42.833 -7.83301 -58.5 -23.5z" />
    <glyph glyph-name="tm_Sa" unicode="&#xbb8;" horiz-adv-x="1371" 
d="M1301.5 379.5c14.333 -52.333 21.502 -99.832 21.502 -142.499c0 -78 -18.333 -140 -55 -186s-90.334 -69 -161.001 -69c-65.333 0 -115.666 19.833 -150.999 59.5s-53 95.5 -53 167.5v105c0 41.333 -7 73.5 -21 96.5s-37.333 34.5 -70 34.5c-36 0 -64 -17.5 -84 -52.5
s-30 -80.833 -30 -137.5v-255h-100v255c0 58.667 -19 105 -57 139s-90 51 -156 51c-48 0 -89.5 -9 -124.5 -27s-61.667 -42.667 -80 -74s-27.5 -67 -27.5 -107c0 -38 9 -71 27 -99v6c0 30.667 7.16699 58.167 21.5 82.5s34.166 43.5 59.499 57.5s53.666 21 84.999 21
c34.667 0 65.667 -7 93 -21s48.833 -33.333 64.5 -58s23.5 -52.334 23.5 -83.001s-8.16699 -58.167 -24.5 -82.5s-39 -43.5 -68 -57.5s-61.5 -21 -97.5 -21c-56.667 0 -106.834 11.167 -150.501 33.5s-77.667 52.833 -102 91.5s-36.5 82 -36.5 130
c0 55.333 13.667 105.333 41 150s66.5 79.834 117.5 105.501s110.5 38.5 178.5 38.5c58 0 109.5 -9.83301 154.5 -29.5s80.833 -47.5 107.5 -83.5c16.667 36 39.334 63.833 68.001 83.5s62 29.5 100 29.5c62 0 109 -19.333 141 -58s48 -90.334 48 -155.001v-109
c0 -46.667 8.83301 -81.834 26.5 -105.501s43.834 -35.5 78.501 -35.5c37.333 0 64.666 15 81.999 45s26 71.333 26 124c0 42.667 -7 89.834 -21 141.501s-34.333 96.5 -61 134.5l103 14c28 -46 49.167 -95.167 63.5 -147.5zM288.502 202.501
c-15.667 -15.667 -23.5 -35.5 -23.5 -59.5c0 -23.333 7.83301 -42.666 23.5 -57.999s35.167 -23 58.5 -23c24 0 43.833 7.66699 59.5 23s23.5 34.666 23.5 57.999c0 24 -7.83301 43.833 -23.5 59.5s-35.5 23.5 -59.5 23.5c-23.333 0 -42.833 -7.83301 -58.5 -23.5z" />
    <glyph glyph-name="tm_Ha" unicode="&#xbb9;" horiz-adv-x="1652" 
d="M1543.5 449c41 -54.667 61.5 -126.669 61.5 -216.002c0 -82 -12.5 -154 -37.5 -216s-63 -110.5 -114 -145.5s-114.5 -52.5 -190.5 -52.5h-968c-46 0 -81.667 -5.16699 -107 -15.5s-44.666 -25.833 -57.999 -46.5l-82 49c14 28 41.833 50.167 83.5 66.5
s94.167 24.5 157.5 24.5h974c79.333 0 138.5 30.333 177.5 91s58.5 142.334 58.5 245.001c0 65.333 -10.5 117.166 -31.5 155.499s-53.5 57.5 -97.5 57.5c-34.667 0 -61.5 -12.167 -80.5 -36.5s-28.5 -59.833 -28.5 -106.5v-303h-101v292c0 44.667 -9.5 81.5 -28.5 110.5
s-45.833 43.5 -80.5 43.5c-64 0 -96 -47 -96 -141v-305h-379v79c35.333 53.333 53 112 53 176c0 56.667 -20.333 102.667 -61 138s-98 53 -172 53c-48.667 0 -91.5 -9 -128.5 -27s-65.333 -42.833 -85 -74.5s-29.5 -67.5 -29.5 -107.5c0 -37.333 8.66699 -69.666 26 -96.999
v4c0 30.667 7.16699 58.334 21.5 83.001s34.166 44 59.499 58s54 21 86 21c34.667 0 65.667 -7 93 -21s48.833 -33.5 64.5 -58.5s23.5 -52.833 23.5 -83.5s-8.16699 -58.167 -24.5 -82.5s-39 -43.5 -68 -57.5s-61.5 -21 -97.5 -21c-56.667 0 -106.834 11.167 -150.501 33.5
s-77.667 52.833 -102 91.5s-36.5 82 -36.5 130c0 56.667 14.5 107.334 43.5 152.001s69.833 79.5 122.5 104.5s113.334 37.5 182.001 37.5c66 0 124.833 -11.833 176.5 -35.5s91.667 -56.5 120 -98.5s42.5 -89.333 42.5 -142c0 -63.333 -15.667 -122 -47 -176h167v236
c0 65.333 16.667 117.666 50 156.999s80 59 140 59c33.333 0 63.5 -7.33301 90.5 -22s49.5 -35.334 67.5 -62.001c18.667 26.667 42.5 47.334 71.5 62.001s60.833 22 95.5 22c74.667 0 132.5 -27.333 173.5 -82zM288.5 202.498c-15.667 -15.667 -23.5 -35.5 -23.5 -59.5
c0 -23.333 7.83301 -42.666 23.5 -57.999s35.167 -23 58.5 -23c24 0 43.833 7.66699 59.5 23s23.5 34.666 23.5 57.999c0 24 -7.83301 43.833 -23.5 59.5s-35.5 23.5 -59.5 23.5c-23.333 0 -42.833 -7.83301 -58.5 -23.5z" />
    <glyph glyph-name="tm_VowelAa" unicode="&#xbbe;" horiz-adv-x="686" 
d="M393 0v434h-205v-434h-100v513h573l15 -79h-182v-434h-101z" />
    <glyph glyph-name="tm_VowelI" unicode="&#xbbf;" horiz-adv-x="276" 
d="M38 759.5c48 -25 85.001 -59.833 111.001 -104.5s39 -95.334 39 -152.001v-503h-100v503c0 62.667 -19.5 113.167 -58.5 151.5s-91.833 57.5 -158.5 57.5c-46 0 -81.833 -9 -107.5 -27s-38.5 -42.333 -38.5 -73c0 -30 8.5 -54 25.5 -72s41.833 -27 74.5 -27h19l1 -72h-20
c-61.333 0 -109.833 15.833 -145.5 47.5s-53.834 72.834 -54.501 123.501c0 36 10 68 30 96s48.5 49.833 85.5 65.5s80.5 23.5 130.5 23.5c63.333 0 119 -12.5 167 -37.5z" />
    <glyph glyph-name="tm_VowelIi" unicode="&#xbc0;" horiz-adv-x="0" 
d="M-32.5 852.5c36.333 -17 65.1689 -40.1641 86.502 -69.4971s32 -61 32 -95c0 -36.667 -12 -67 -36 -91s-54.667 -36 -92 -36s-68.333 11.167 -93 33.5s-37 50.833 -37 85.5c0 24 6.16699 45.667 18.5 65s29.5 33.666 51.5 42.999c-13.333 2.66699 -29.333 4 -48 4
c-47.333 0 -85.333 -13 -114 -39s-43 -59.667 -43 -101c0 -40.667 12.167 -74 36.5 -100s55.166 -39 92.499 -39v-77c-44.667 0 -84.834 9.16699 -120.501 27.5s-63.667 44 -84 77s-30.5 70.167 -30.5 111.5c0 43.333 11 82.166 33 116.499s53 61.166 93 80.499
s85.667 29 137 29c42 0 81.167 -8.5 117.5 -25.5zM-7.49707 645.003c9 9.33301 13.5 21 13.5 35c0 13.333 -4.5 24.666 -13.5 33.999s-20.5 14 -34.5 14s-25.667 -4.66699 -35 -14s-14 -20.666 -14 -33.999c0 -14 4.66699 -25.667 14 -35s21 -14 35 -14
s25.5 4.66699 34.5 14z" />
    <glyph glyph-name="tm_VowelU" unicode="&#xbc1;" horiz-adv-x="472" 
d="M352 492.5c28.667 -13.667 51.166 -32.834 67.499 -57.501s24.5 -52.334 24.5 -83.001s-7.66699 -58.5 -23 -83.5s-36.666 -44.5 -63.999 -58.5s-58.333 -21 -93 -21c-32.667 0 -62.167 7 -88.5 21s-47 33.333 -62 58s-22.5 52.334 -22.5 83.001
s8.33301 58.334 25 83.001h-304v79h443c36 0 68.333 -6.83301 97 -20.5zM324.499 292.5c15.667 15.667 23.5 35.5 23.5 59.5s-7.83301 43.667 -23.5 59s-35.5 23 -59.5 23s-43.667 -7.66699 -59 -23s-23 -35 -23 -59s7.66699 -43.833 23 -59.5s35 -23.5 59 -23.5
s43.833 7.83301 59.5 23.5z" />
    <glyph glyph-name="tm_VowelUu" unicode="&#xbc2;" horiz-adv-x="687" 
d="M521 577.5c43.333 -23 77.332 -54.833 101.999 -95.5s37 -86.334 37 -137.001c0 -54 -14 -102.333 -42 -145s-67.333 -76 -118 -100s-108.334 -36 -173.001 -36h-66v79h66c44.667 0 84.167 8.66699 118.5 26s61 41.333 80 72s28.5 65.334 28.5 104.001
c0 35.333 -7.66699 67.166 -23 95.499s-36.666 50.5 -63.999 66.5s-58.333 24 -93 24c-33.333 0 -63.666 -6.33301 -90.999 -19c46.667 -4 85.167 -20.833 115.5 -50.5s45.5 -66.167 45.5 -109.5c0 -30.667 -7.5 -58.167 -22.5 -82.5s-35.833 -43.333 -62.5 -57
s-57 -20.5 -91 -20.5c-33.333 0 -63 7.33301 -89 22s-46.333 34.834 -61 60.501s-22 54.834 -22 87.501c0 22.667 3.33301 46.667 10 72h-294v79h335c24.667 31.333 56.667 55.666 96 72.999s83.333 26 132 26c54 0 102.667 -11.5 146 -34.5zM323.499 411.5
c-16.333 15 -39.5 22.501 -69.5 22.501h-52c-10.667 -22.667 -16 -46.334 -16 -71.001c0 -27.333 7.66699 -49.5 23 -66.5s35.333 -25.5 60 -25.5c23.333 0 42.333 7.5 57 22.5s22 34.5 22 58.5c0 24.667 -8.16699 44.5 -24.5 59.5z" />
    <glyph glyph-name="tm_VowelE" unicode="&#xbc6;" horiz-adv-x="818" 
d="M574 633.5c50 -27.667 88.501 -66.833 115.501 -117.5s40.5 -109 40.5 -175v-341h-101v341c0 76 -20.5 136.5 -61.5 181.5s-96.833 67.5 -167.5 67.5c-50 0 -93.667 -11.333 -131 -34s-66 -54.334 -86 -95.001s-30 -87 -30 -139c0 -61.333 10.333 -112.666 31 -153.999
c5.33301 40.667 23.166 73.834 53.499 99.501s67.5 38.5 111.5 38.5c34.667 0 65.5 -7 92.5 -21s48 -33.333 63 -58s22.5 -52.667 22.5 -84c0 -30.667 -8.16699 -58.167 -24.5 -82.5s-39 -43.5 -68 -57.5s-61.5 -21 -97.5 -21c-55.333 0 -105 14.5 -149 43.5
s-78.333 69.167 -103 120.5s-37 110 -37 176c0 68 14.5 128.667 43.5 182s70.167 95.166 123.5 125.499s115 45.5 185 45.5c66 0 124 -13.833 174 -41.5zM288.501 202.501c-15.667 -15.667 -23.5 -35.5 -23.5 -59.5c0 -23.333 7.83301 -42.666 23.5 -57.999
s35.167 -23 58.5 -23c24 0 43.833 7.66699 59.5 23s23.5 34.666 23.5 57.999c0 24 -7.83301 43.833 -23.5 59.5s-35.5 23.5 -59.5 23.5c-23.333 0 -42.833 -7.83301 -58.5 -23.5z" />
    <glyph glyph-name="tm_VowelEe" unicode="&#xbc7;" horiz-adv-x="686" 
d="M593.5 250.5c30.333 -27 45.5 -61.167 45.5 -102.5c0 -32 -9.33301 -60.5 -28 -85.5s-45.834 -44.667 -81.501 -59s-77.5 -21.5 -125.5 -21.5c-69.333 0 -131 14.833 -185 44.5s-96 70.834 -126 123.501s-45 112.334 -45 179.001c0 66 15 125.333 45 178
s72 93.834 126 123.501s115.667 44.5 185 44.5c48 0 89.833 -7.16699 125.5 -21.5s62.834 -34 81.501 -59s28 -53.5 28 -85.5c0 -41.333 -15.167 -75.5 -45.5 -102.5s-68.5 -40.5 -114.5 -40.5c-44 0 -80 13.5 -108 40.5s-42 61.5 -42 103.5c0 31.333 10.333 58.333 31 81
c-62.667 -6.66699 -112.5 -33.834 -149.5 -81.501s-56.167 -107.834 -57.5 -180.501c1.33301 -73.333 20.5 -133.833 57.5 -181.5s86.833 -74.834 149.5 -81.501c-20.667 22.667 -31 49.667 -31 81c0 42 14 76.5 42 103.5s64 40.5 108 40.5c46 0 84.167 -13.5 114.5 -40.5z
M528.5 464c12.333 12 18.5 27.667 18.5 47c0 18.667 -6 34 -18 46s-27.333 18 -46 18s-34.167 -6 -46.5 -18s-18.5 -27.333 -18.5 -46s6 -34.167 18 -46.5s27.333 -18.5 46 -18.5s34.167 6 46.5 18zM436 192.5c-12 -12.333 -18 -27.833 -18 -46.5s6.16699 -34 18.5 -46
s27.833 -18 46.5 -18s34 6 46 18s18 27.333 18 46s-6.16699 34.167 -18.5 46.5s-27.833 18.5 -46.5 18.5s-34 -6.16699 -46 -18.5z" />
    <glyph glyph-name="tm_VowelAi" unicode="&#xbc8;" horiz-adv-x="1262" 
d="M1086.5 498c41.667 -22 73.334 -52.666 95.001 -91.999s32.5 -84.333 32.5 -135c0 -42 -7 -88.333 -21 -139s-35 -99.334 -63 -146.001l-103 14c26.667 38 47 82.167 61 132.5s21 96.5 21 138.5c0 52.667 -14.667 95 -44 127s-72.333 48 -129 48
c-42.667 0 -83 -10 -121 -30c38.667 -32 68.667 -68.5 90 -109.5s32 -83.833 32 -128.5c0 -58 -16.667 -105.167 -50 -141.5s-77.666 -54.5 -132.999 -54.5c-36.667 0 -69 8.33301 -97 25s-49.5 39.834 -64.5 69.501s-22.5 63.5 -22.5 101.5
c0 42.667 8.16699 83.5 24.5 122.5s38.833 74.5 67.5 106.5c-58 26 -123 39 -195 39c-63.333 0 -118.666 -9.33301 -165.999 -28s-83.833 -44.334 -109.5 -77.001s-38.5 -69.667 -38.5 -111c0 -36.667 8.66699 -68.334 26 -95.001v9c0 30.667 7.16699 58.334 21.5 83.001
s34.166 44 59.499 58s54 21 86 21c34.667 0 65.667 -7 93 -21s48.833 -33.5 64.5 -58.5s23.5 -52.833 23.5 -83.5s-8.16699 -58.167 -24.5 -82.5s-39 -43.5 -68 -57.5s-61.5 -21 -97.5 -21c-56.667 0 -106.834 10.667 -150.501 32s-77.667 50.833 -102 88.5
s-36.5 80.167 -36.5 127.5c0 57.333 17.333 108.833 52 154.5s83.667 81.5 147 107.5s136.666 39 219.999 39c98 0 187.333 -20.667 268 -62c30 20 62.167 35.333 96.5 46s69.166 16 104.499 16c58.667 0 108.834 -11 150.501 -33zM811.5 97.501
c13 20.333 19.502 47.166 19.502 80.499c0 34.667 -7.66699 67.167 -23 97.5s-37.333 57.5 -66 81.5c-20.667 -24 -36.834 -51.333 -48.501 -82s-17.5 -63 -17.5 -97c0 -33.333 6.66699 -60.166 20 -80.499s32.666 -30.5 57.999 -30.5s44.5 10.167 57.5 30.5z
M288.502 202.501c-15.667 -15.667 -23.5 -35.5 -23.5 -59.5c0 -23.333 7.83301 -42.666 23.5 -57.999s35.167 -23 58.5 -23c24 0 43.833 7.66699 59.5 23s23.5 34.666 23.5 57.999c0 24 -7.83301 43.833 -23.5 59.5s-35.5 23.5 -59.5 23.5
c-23.333 0 -42.833 -7.83301 -58.5 -23.5z" />
    <glyph glyph-name="tm_VowelO" unicode="&#xbca;" horiz-adv-x="2000" 
d="M574 633.5c50 -27.667 88.501 -66.833 115.501 -117.5s40.5 -109 40.5 -175v-341h-101v341c0 76 -20.5 136.5 -61.5 181.5s-96.833 67.5 -167.5 67.5c-50 0 -93.667 -11.333 -131 -34s-66 -54.334 -86 -95.001s-30 -87 -30 -139c0 -61.333 10.333 -112.666 31 -153.999
c5.33301 40.667 23.166 73.834 53.499 99.501s67.5 38.5 111.5 38.5c34.667 0 65.5 -7 92.5 -21s48 -33.333 63 -58s22.5 -52.667 22.5 -84c0 -30.667 -8.16699 -58.167 -24.5 -82.5s-39 -43.5 -68 -57.5s-61.5 -21 -97.5 -21c-55.333 0 -105 14.5 -149 43.5
s-78.333 69.167 -103 120.5s-37 110 -37 176c0 68 14.5 128.667 43.5 182s70.167 95.166 123.5 125.499s115 45.5 185 45.5c66 0 124 -13.833 174 -41.5zM288.501 202.501c-15.667 -15.667 -23.5 -35.5 -23.5 -59.5c0 -23.333 7.83301 -42.666 23.5 -57.999
s35.167 -23 58.5 -23c24 0 43.833 7.66699 59.5 23s23.5 34.666 23.5 57.999c0 24 -7.83301 43.833 -23.5 59.5s-35.5 23.5 -59.5 23.5c-23.333 0 -42.833 -7.83301 -58.5 -23.5zM1687 0.000976562v434h-205v-434h-100v513h573l15 -79h-182v-434h-101zM1072 467.001
c5.33301 5.33301 8 12.333 8 21s-2.66699 15.834 -8 21.501s-12.333 8.5 -21 8.5s-15.667 -2.83301 -21 -8.5s-8 -12.834 -8 -21.501s2.66699 -15.667 8 -21s12.333 -8 21 -8s15.667 2.66699 21 8zM941.001 494.001c-5.33301 -5.33301 -8 -12.333 -8 -21
s2.66699 -15.667 8 -21s12.333 -8 21 -8s15.667 2.66699 21 8s8 12.333 8 21s-2.66699 15.667 -8 21s-12.333 8 -21 8s-15.667 -2.66699 -21 -8zM1162 452.001c5.33301 5.33301 8 12.333 8 21s-2.66699 15.667 -8 21s-12.333 8 -21 8s-15.667 -2.66699 -21 -8
s-8 -12.333 -8 -21s2.66699 -15.667 8 -21s12.333 -8 21 -8s15.667 2.66699 21 8zM864.501 443.501c-5.66699 -5.66699 -8.5 -12.834 -8.5 -21.501s2.83301 -15.667 8.5 -21s12.834 -8 21.501 -8s15.667 2.66699 21 8s8 12.333 8 21s-2.66699 15.834 -8 21.501
s-12.333 8.5 -21 8.5s-15.834 -2.83301 -21.501 -8.5zM1238.5 401.001c5.66699 5.33301 8.5 12.333 8.5 21s-2.83301 15.834 -8.5 21.501s-12.834 8.5 -21.501 8.5s-15.667 -2.83301 -21 -8.5s-8 -12.834 -8 -21.501s2.66699 -15.667 8 -21s12.333 -8 21 -8
s15.834 2.66699 21.501 8zM816.501 364.501c-5.66699 -5.66699 -8.5 -12.834 -8.5 -21.501s2.83301 -15.667 8.5 -21s12.834 -8 21.501 -8s15.667 2.66699 21 8s8 12.333 8 21s-2.66699 15.834 -8 21.501s-12.333 8.5 -21 8.5s-15.834 -2.83301 -21.501 -8.5zM1286 322.001
c5.33301 5.33301 8 12.333 8 21s-2.66699 15.834 -8 21.501s-12.333 8.5 -21 8.5s-15.667 -2.83301 -21 -8.5s-8 -12.834 -8 -21.501s2.66699 -15.667 8 -21s12.333 -8 21 -8s15.667 2.66699 21 8zM802.501 278.501c-5.66699 -5.66699 -8.5 -12.834 -8.5 -21.501
s2.83301 -15.5 8.5 -20.5s12.834 -7.5 21.501 -7.5s15.667 2.5 21 7.5s8 11.833 8 20.5s-2.66699 15.834 -8 21.501s-12.333 8.5 -21 8.5s-15.834 -2.83301 -21.501 -8.5zM1300.5 236.501c5.66699 5 8.5 11.833 8.5 20.5s-2.83301 15.834 -8.5 21.501
s-12.834 8.5 -21.501 8.5s-15.667 -2.83301 -21 -8.5s-8 -12.834 -8 -21.501s2.66699 -15.5 8 -20.5s12.333 -7.5 21 -7.5s15.834 2.5 21.501 7.5zM816.501 195.001c-5.66699 -5.33301 -8.5 -12.333 -8.5 -21s2.83301 -15.667 8.5 -21s12.834 -8 21.501 -8
s15.667 2.66699 21 8s8 12.333 8 21s-2.66699 15.667 -8 21s-12.333 8 -21 8s-15.834 -2.66699 -21.501 -8zM1286 153.001c5.33301 5.33301 8 12.333 8 21s-2.66699 15.667 -8 21s-12.333 8 -21 8s-15.667 -2.66699 -21 -8s-8 -12.333 -8 -21s2.66699 -15.667 8 -21
s12.333 -8 21 -8s15.667 2.66699 21 8zM863.501 115.001c-5.66699 -5.33301 -8.5 -12.333 -8.5 -21s2.83301 -15.667 8.5 -21s12.834 -8 21.501 -8s15.667 2.66699 21 8s8 12.333 8 21s-2.66699 15.667 -8 21s-12.333 8 -21 8s-15.834 -2.66699 -21.501 -8zM1239.5 73.001
c5.66699 5.33301 8.5 12.333 8.5 21s-2.83301 15.667 -8.5 21s-12.834 8 -21.501 8s-15.667 -2.66699 -21 -8s-8 -12.333 -8 -21s2.66699 -15.667 8 -21s12.333 -8 21 -8s15.834 2.66699 21.501 8zM941.001 65.501c-5.33301 -5.66699 -8 -12.834 -8 -21.501
s2.66699 -15.667 8 -21s12.333 -8 21 -8s15.667 2.66699 21 8s8 12.333 8 21s-2.66699 15.834 -8 21.501s-12.333 8.5 -21 8.5s-15.667 -2.83301 -21 -8.5zM1162 23.001c5.33301 5.33301 8 12.333 8 21s-2.66699 15.834 -8 21.501s-12.333 8.5 -21 8.5
s-15.667 -2.83301 -21 -8.5s-8 -12.834 -8 -21.501s2.66699 -15.667 8 -21s12.333 -8 21 -8s15.667 2.66699 21 8zM1072 8.00098c5.33301 5.33301 8 12.333 8 21s-2.66699 15.834 -8 21.501s-12.333 8.5 -21 8.5s-15.667 -2.83301 -21 -8.5s-8 -12.834 -8 -21.501
s2.66699 -15.667 8 -21s12.333 -8 21 -8s15.667 2.66699 21 8z" />
    </font>
</defs>
</svg>
