<?xml version="1.0" standalone="no"?>
<!DOCTYPE svg PUBLIC "-//W3C//DTD SVG 1.1//EN" "http://www.w3.org/Graphics/SVG/1.1/DTD/svg11.dtd" >
<svg>
<metadata>
Created by FontForge 20090914 at Fri Mar 31 17:23:46 2017
 By www-data
Copyright 2014 Pria Ravichandran (pria.ravichandran@gmail.com)
</metadata>
<defs>
<font id="Catamaran-Thin" horiz-adv-x="572" >
  <font-face 
    font-family="Catamaran Thin"
    font-weight="250"
    font-stretch="normal"
    units-per-em="1000"
    panose-1="0 0 3 0 0 0 0 0 0 0"
    ascent="770"
    descent="-230"
    x-height="485"
    cap-height="680"
    bbox="-534.002 -376.999 2484 1320"
    underline-thickness="50"
    underline-position="-75"
    unicode-range="U+000D-U+FB02"
  />
<missing-glyph horiz-adv-x="628" 
d="M528 0v696h-428v-696h428zM149 39v618h329v-618h-329z" />
    <glyph glyph-name=".notdef" horiz-adv-x="628" 
d="M528 0v696h-428v-696h428zM149 39v618h329v-618h-329z" />
    <glyph glyph-name="uni0000" horiz-adv-x="0" 
 />
    <glyph glyph-name="uni0000" horiz-adv-x="0" 
 />
    <glyph glyph-name="nonmarkingreturn" unicode="&#xd;" horiz-adv-x="0" 
 />
    <glyph glyph-name="space" unicode=" " horiz-adv-x="240" 
 />
    <glyph glyph-name="exclam" unicode="!" horiz-adv-x="138" 
d="M108 702h-54v-517l45 -21zM40.5 65c-7 -7.33301 -10.5 -16.333 -10.5 -27s3.5 -19.667 10.5 -27s16.167 -11 27.5 -11c10.667 0 19.834 3.66699 27.501 11s11.5 16.333 11.5 27s-3.83301 19.667 -11.5 27s-16.834 11 -27.501 11c-11.333 0 -20.5 -3.66699 -27.5 -11z" />
    <glyph glyph-name="quotedbl" unicode="&#x22;" horiz-adv-x="275" 
d="M55 690.5c-6.66699 -7.66699 -10.002 -16.834 -10.002 -27.501c0 -8 3.33301 -16.333 10 -25s15.334 -13 26.001 -13c-0.666992 -33.333 -21 -60.666 -61 -81.999l16 -25c27.333 13.333 48.5 32.5 63.5 57.5s22.5 52.833 22.5 83.5c0 10.667 -3.66699 20.5 -11 29.5
s-16.666 13.5 -27.999 13.5c-12 0 -21.333 -3.83301 -28 -11.5zM177.998 690.5c-6.66699 -7.66699 -10.002 -16.834 -10.002 -27.501c0 -8 3.33301 -16.333 10 -25s15.334 -13 26.001 -13c-0.666992 -33.333 -21 -60.666 -61 -81.999l16 -25
c27.333 13.333 48.5 32.5 63.5 57.5s22.5 52.833 22.5 83.5c0 10.667 -3.66699 20.5 -11 29.5s-16.666 13.5 -27.999 13.5c-12 0 -21.333 -3.83301 -28 -11.5z" />
    <glyph glyph-name="numbersign" unicode="#" horiz-adv-x="497" 
d="M216 371l33 131h-47l-33 -131h-139l8 -39h121l-38 -153h-91l8 -39h73l-34 -136l46 -4l35 140h131l-34 -136l46 -4l35 140h131l-7 39h-114l38 153h83l-7 39h-66l33 131h-47l-33 -131h-131zM168 179l38 153h131l-38 -153h-131z" />
    <glyph glyph-name="dollar" unicode="$" horiz-adv-x="534" 
d="M109 6.5c-27.333 7.66699 -45.3311 15.1699 -53.998 22.5029l15 39c21.333 -10.667 46.666 -19.834 75.999 -27.501s59.333 -11.5 90 -11.5c36.667 0 68.5 6 95.5 18s47.333 28 61 48s20.5 41.667 20.5 65c0 35.333 -14.5 66 -43.5 92s-74.833 52 -137.5 78
c-61.333 25.333 -107 54.166 -137 86.499s-45 71.833 -45 118.5c0 38 12.667 71 38 99s60.333 46.667 105 56v97l40 10v-103c6.66699 1.33301 14.334 2 23.001 2c15.333 0 30 -1 44 -3v97l41 10v-114c29.333 -6.66699 57 -16.334 83 -29.001l-22 -36
c-24 10.667 -46.333 19 -67 25s-46.334 9 -77.001 9c-46.667 0 -84.334 -12 -113.001 -36s-43 -53.667 -43 -89c0 -36.667 14.667 -68.5 44 -95.5s75 -53.5 137 -79.5c62.667 -26 108.5 -54.5 137.5 -85.5s43.5 -68.5 43.5 -112.5c0 -36.667 -10.5 -68.667 -31.5 -96
s-51.5 -47.333 -91.5 -60v-112h-41v103c-21.333 -3.33301 -42.333 -5 -63 -5h-4v-98h-40v101c-28.667 3.33301 -56.667 8.83301 -84 16.5z" />
    <glyph glyph-name="percent" unicode="%" horiz-adv-x="809" 
d="M264 -4l309 710l-47 4l-308 -710zM114.5 681c-23 -14 -41.166 -33.833 -54.499 -59.5s-20 -55.5 -20 -89.5c0 -52.667 14.167 -94 42.5 -124s65.166 -45 110.499 -45c27.333 0 52.5 7 75.5 21s41.333 33.833 55 59.5s20.5 55.167 20.5 88.5
c0 53.333 -13.833 95 -41.5 125s-64.5 45 -110.5 45c-28.667 0 -54.5 -7 -77.5 -21zM268.001 629.5c19.333 -23.667 29.001 -56.168 29.001 -97.501s-10.167 -73.666 -30.5 -96.999s-44.833 -35 -73.5 -35c-29.333 0 -54.333 12 -75 36s-31 56 -31 96c0 28 5 52 15 72
s23 35.167 39 45.5s33 15.5 51 15.5c31.333 0 56.666 -11.833 75.999 -35.5zM539.502 316.999c-23 -14 -41.166 -33.833 -54.499 -59.5s-20 -55.5 -20 -89.5c0 -52.667 14.167 -94 42.5 -124s65.166 -45 110.499 -45c27.333 0 52.5 7 75.5 21s41.333 33.833 55 59.5
s20.5 55.167 20.5 88.5c0 53.333 -13.833 95 -41.5 125s-64.5 45 -110.5 45c-28.667 0 -54.5 -7 -77.5 -21zM693.003 264.999c19.333 -23.333 29.001 -55.667 29.001 -97s-10.167 -73.666 -30.5 -96.999s-44.833 -35 -73.5 -35c-29.333 0 -54.333 12 -75 36s-31 56 -31 96
c0 41.333 10.5 73.666 31.5 96.999s45.5 35 73.5 35c31.333 0 56.666 -11.667 75.999 -35z" />
    <glyph glyph-name="ampersand" unicode="&#x26;" horiz-adv-x="647" 
d="M507 120c18 30 31.833 63 41.5 99s14.5 72.333 14.5 109l-36 11c0 -30.667 -4.5 -62.834 -13.5 -96.501s-21.833 -64.5 -38.5 -92.5l-198 185c-37.333 35.333 -64.833 67.5 -82.5 96.5s-26.5 60.5 -26.5 94.5c0 22.667 5.66699 43.834 17 63.501s27 35.5 47 47.5
s42.333 18 67 18c26.667 0 47.5 -2.5 62.5 -7.5s34.833 -13.5 59.5 -25.5l20 35c-18 10.667 -40 19.834 -66 27.501s-54.333 11.5 -85 11.5c-31.333 0 -60 -7.83301 -86 -23.5s-46.333 -36.834 -61 -63.501s-22 -55.667 -22 -87c0 -41.333 12.333 -80.666 37 -117.999
c-33.333 -22 -59.666 -50.833 -78.999 -86.5s-29 -74.834 -29 -117.501c0 -43.333 10.333 -81 31 -113s49 -56.667 85 -74s76 -26 120 -26c40.667 0 78.167 9 112.5 27s63.166 42.667 86.499 74l97 -88l25 27zM380 52c-28 -16 -58.334 -24 -91.001 -24
s-63.667 7.16699 -93 21.5s-53.166 34.833 -71.499 61.5s-27.5 57 -27.5 91c0 34.667 7.16699 66.5 21.5 95.5s35.5 53.5 63.5 73.5c13.333 -16.667 33.333 -37 60 -61l211 -193c-20.667 -27.333 -45 -49 -73 -65z" />
    <glyph glyph-name="quotesingle" unicode="'" horiz-adv-x="152" 
d="M55 690.5c-6.66699 -7.66699 -10.002 -16.834 -10.002 -27.501c0 -8 3.33301 -16.333 10 -25s15.334 -13 26.001 -13c-0.666992 -33.333 -21 -60.666 -61 -81.999l16 -25c27.333 13.333 48.5 32.5 63.5 57.5s22.5 52.833 22.5 83.5c0 10.667 -3.66699 20.5 -11 29.5
s-16.666 13.5 -27.999 13.5c-12 0 -21.333 -3.83301 -28 -11.5z" />
    <glyph glyph-name="parenleft" unicode="(" horiz-adv-x="239" 
d="M156 72c-16.667 41.333 -30 85.002 -40 131.002s-15 85.333 -15 118c0 32 5 70.667 15 116s23.333 88.333 40 129s34.334 71 53.001 91l-40 18c-39.333 -50 -69 -107.333 -89 -172s-30 -125.667 -30 -183c0 -58 10 -119.333 30 -184s49.667 -122.334 89 -173.001l40 18
c-18.667 19.333 -36.334 49.666 -53.001 90.999z" />
    <glyph glyph-name="parenright" unicode=")" horiz-adv-x="239" 
d="M82 565.5c16.667 -41 30.167 -84.333 40.5 -130s15.5 -84.5 15.5 -116.5s-5.16699 -71 -15.5 -117s-23.833 -89.5 -40.5 -130.5s-34 -71.167 -52 -90.5l40 -18c38.667 51.333 68.167 109.333 88.5 174s30.5 125.667 30.5 183c0 56 -10.167 116.5 -30.5 181.5
s-49.833 122.833 -88.5 173.5l-40 -18c18 -20 35.333 -50.5 52 -91.5z" />
    <glyph glyph-name="asterisk" unicode="*" horiz-adv-x="313" 
d="M137 654l-115 31l-12 -32l115 -29l-79 -119l36 -16l74 113l79 -113l31 16l-79 119l116 29l-13 32l-118 -31v120h-35v-120z" />
    <glyph glyph-name="plus" unicode="+" horiz-adv-x="527" 
d="M287 531l-49 3v-242h-208l8 -37h200v-247l49 -4v251h210l-10 37h-200v239z" />
    <glyph glyph-name="comma" unicode="," horiz-adv-x="152" 
d="M55 64.5c-6.66699 -7.66699 -10.002 -16.834 -10.002 -27.501c0 -8 3.33301 -16.333 10 -25s15.334 -13 26.001 -13c-0.666992 -33.333 -21 -60.666 -61 -81.999l16 -25c27.333 13.333 48.5 32.5 63.5 57.5s22.5 52.833 22.5 83.5c0 10.667 -3.66699 20.5 -11 29.5
s-16.666 13.5 -27.999 13.5c-12 0 -21.333 -3.83301 -28 -11.5z" />
    <glyph glyph-name="hyphen" unicode="-" horiz-adv-x="311" 
d="M38 253h243l-8 39h-243z" />
    <glyph glyph-name="period" unicode="." horiz-adv-x="137" 
d="M95.5 11c7.66699 7.33301 11.5 16.333 11.5 27s-3.83301 19.667 -11.5 27s-16.834 11 -27.501 11c-11.333 0 -20.5 -3.66699 -27.5 -11s-10.5 -16.333 -10.5 -27s3.5 -19.667 10.5 -27s16.167 -11 27.5 -11c10.667 0 19.834 3.66699 27.501 11z" />
    <glyph glyph-name="slash" unicode="/" horiz-adv-x="375" 
d="M56 -4l309 710l-47 4l-308 -710z" />
    <glyph glyph-name="zero" unicode="0" horiz-adv-x="570" 
d="M71.5 133c21 -46 50.167 -81.834 87.5 -107.501s79.666 -38.5 126.999 -38.5c46.667 0 88.5 13 125.5 39s66 62 87 108s31.5 97.667 31.5 155c0 55.333 -10.5 105 -31.5 149s-50 78.5 -87 103.5s-78.833 37.5 -125.5 37.5c-47.333 0 -89.666 -12.5 -126.999 -37.5
s-66.5 -59.667 -87.5 -104s-31.5 -94.166 -31.5 -149.499c0 -57.333 10.5 -109 31.5 -155zM116 417.999c16.667 37.333 39.834 66.667 69.501 88s63.167 32 100.5 32c36.667 0 69.667 -10.833 99 -32.5s52.333 -51.667 69 -90s25 -81.5 25 -129.5
c0 -49.333 -8.33301 -93.666 -25 -132.999s-39.667 -70 -69 -92s-62.333 -33 -99 -33c-37.333 0 -70.833 11.333 -100.5 34s-52.834 54 -69.501 94s-25 85 -25 135c0 47.333 8.33301 89.666 25 126.999z" />
    <glyph glyph-name="one" unicode="1" horiz-adv-x="300" 
d="M185 566l-175 -85l18 -36l143 63v-508h49v566h-35z" />
    <glyph glyph-name="two" unicode="2" horiz-adv-x="470" 
d="M118.5 564c-29 -10 -55.834 -22.333 -80.501 -37l22 -34c24 14 48.167 25.167 72.5 33.5s52.5 12.5 84.5 12.5c43.333 0 79.166 -11.5 107.499 -34.5s42.5 -52.167 42.5 -87.5c0 -32 -8.16699 -60.333 -24.5 -85s-47.166 -56 -92.499 -94l-225 -188v-50h425l-8 39h-367
l195 157c50.667 41.333 88.167 79.5 112.5 114.5s36.5 70.833 36.5 107.5c0 30.667 -8.66699 58.167 -26 82.5s-41.166 43.5 -71.499 57.5s-64.5 21 -102.5 21s-71.5 -5 -100.5 -15z" />
    <glyph glyph-name="three" unicode="3" horiz-adv-x="447" 
d="M11 520l30.999 -31.001c50 32.667 103.333 49 160 49c26.667 0 50.5 -5.83301 71.5 -17.5s37.167 -27 48.5 -46s17 -38.5 17 -58.5c0 -38.667 -16 -70 -48 -94s-75.667 -36 -131 -36h-34l10 -39h18c66.667 0 116.167 -12.667 148.5 -38s48.5 -60.333 48.5 -105
c0 -26 -7.5 -49.667 -22.5 -71s-34.667 -38 -59 -50s-49.833 -18 -76.5 -18c-34 0 -62.667 3.66699 -86 11s-48 18.666 -74 33.999l-33 -34c26 -14.667 55.5 -27 88.5 -37s66.833 -15 101.5 -15c42 0 79 8 111 24s56.833 37.833 74.5 65.5s26.5 58.5 26.5 92.5
c0 40 -11.5 74.833 -34.5 104.5s-53.5 48.834 -91.5 57.501c32.667 10.667 59.834 29.5 81.501 56.5s32.5 57.833 32.5 92.5c0 28.667 -7 55.334 -21 80.001s-35 44.5 -63 59.5s-61.667 22.5 -101 22.5c-67.333 0 -132 -19.667 -194 -59z" />
    <glyph glyph-name="four" unicode="4" horiz-adv-x="512" 
d="M375 571h-28l-337 -446l9 -51h307v-143h49v143h109l8 39h-117v458zM60 113l266 357v-357h-266z" />
    <glyph glyph-name="five" unicode="5" horiz-adv-x="491" 
d="M174 271.5c24 11.667 48.332 17.499 72.999 17.499c46 0 82.833 -14.5 110.5 -43.5s41.5 -67.5 41.5 -115.5c0 -49.333 -15.5 -89.166 -46.5 -119.499s-73.833 -45.5 -128.5 -45.5c-56 0 -109.333 15 -160 45l-24 -36c62.667 -33.333 122.667 -50 180 -50
c48.667 0 90.334 9.33301 125.001 28s61 43.5 79 74.5s27 65.5 27 103.5c0 58 -17.333 105.833 -52 143.5s-86.667 56.5 -156 56.5c-17.333 0 -36.333 -3.5 -57 -10.5s-39.667 -17.167 -57 -30.5l11 238h269l3 39h-317l-15 -336h36c14.667 16 34 29.833 58 41.5z" />
    <glyph glyph-name="six" unicode="6" horiz-adv-x="492" 
d="M359.5 359.5c30.333 -18.333 53.333 -42.5 69 -72.5s23.5 -62.333 23.5 -97s-8.5 -67.667 -25.5 -99s-40.5 -56.5 -70.5 -75.5s-64 -28.5 -102 -28.5c-64.667 0 -116.5 23.833 -155.5 71.5s-58.5 114.834 -58.5 201.501c0 71.333 16.167 134 48.5 188s74 96.667 125 128
s104.833 50.666 161.5 57.999l18 -40c-41.333 -2 -84 -15 -128 -39s-82.167 -57 -114.5 -99s-52.5 -89.333 -60.5 -142c46 48.667 100.333 73 163 73c40.667 0 76.167 -9.16699 106.5 -27.5zM331 50.5c22.667 15 40.0029 34.668 52.0029 59.001s18 49.5 18 75.5
c0 46 -13.333 84.333 -40 115s-62.667 46 -108 46c-32.667 0 -64.334 -9 -95.001 -27s-54.334 -39 -71.001 -63c1.33301 -72.667 16.166 -128.834 44.499 -168.501s68.5 -59.5 120.5 -59.5c30 0 56.333 7.5 79 22.5z" />
    <glyph glyph-name="seven" unicode="7" horiz-adv-x="429" 
d="M387 566h-377l8 -39h342l-237 -576l46 -20l240 606z" />
    <glyph glyph-name="eight" unicode="8" horiz-adv-x="501" 
d="M114.5 596.5c-31 -31 -46.501 -69.499 -46.501 -115.499c0 -32 10.167 -60.5 30.5 -85.5s46.5 -43.833 78.5 -56.5c-24.667 -5.33301 -47.5 -17 -68.5 -35s-37.667 -39 -50 -63s-18.5 -48 -18.5 -72c0 -52.667 18 -96.167 54 -130.5s88.333 -51.5 157 -51.5
c45.333 0 83.833 8.33301 115.5 25s55.334 38.667 71.001 66s23.5 57.666 23.5 90.999c0 40.667 -13.5 77 -40.5 109s-58.833 52.333 -95.5 61c30 13.333 55.5 32.5 76.5 57.5s31.5 53.167 31.5 84.5c0 28 -6.5 54.333 -19.5 79s-33.167 44.667 -60.5 60s-61.333 23 -102 23
c-60 0 -105.5 -15.5 -136.5 -46.5zM348.999 567.501c23.333 -23 35 -50.833 35 -83.5c0 -28 -12.167 -54.167 -36.5 -78.5s-56.5 -39.5 -96.5 -45.5c-40.667 6 -73 20.833 -97 44.5s-36 50.167 -36 79.5c0 32 11.167 59.667 33.5 83s54.5 35 96.5 35
c44 0 77.667 -11.5 101 -34.5zM368.499 264.001c27.667 -28.667 41.498 -62.6699 41.498 -102.003c0 -25.333 -7.16699 -48.166 -21.5 -68.499s-33.666 -36.333 -57.999 -48s-50.833 -17.5 -79.5 -17.5c-30 0 -57.167 5.83301 -81.5 17.5s-43.5 27.834 -57.5 48.501
s-21 43.334 -21 68.001c0 40 13.833 74.167 41.5 102.5s67.167 45.5 118.5 51.5c50.667 -6 89.834 -23.333 117.501 -52z" />
    <glyph glyph-name="nine" unicode="9" horiz-adv-x="492" 
d="M393.5 506.5c39 -47.667 58.5 -114.834 58.5 -201.501c0 -71.333 -16.167 -134 -48.5 -188s-74 -96.667 -125 -128s-104.833 -50.666 -161.5 -57.999l-18 40c41.333 2 84 15 128 39s82.167 57 114.5 99s52.5 89.333 60.5 142c-46 -48.667 -100.333 -73 -163 -73
c-40.667 0 -76.167 9.16699 -106.5 27.5s-53.333 42.5 -69 72.5s-23.5 62.333 -23.5 97s8.5 67.667 25.5 99s40.5 56.5 70.5 75.5s64 28.5 102 28.5c64.667 0 116.5 -23.833 155.5 -71.5zM333 246c30.667 18 54.666 39.001 71.999 63.001
c-2 73.333 -17.167 129.666 -45.5 168.999s-68.166 59 -119.499 59c-30 0 -56.333 -7.5 -79 -22.5s-40 -34.667 -52 -59s-18 -49.5 -18 -75.5c0 -46 13.333 -84.333 40 -115s62.667 -46 108 -46c32 0 63.333 9 94 27z" />
    <glyph glyph-name="colon" unicode=":" horiz-adv-x="137" 
d="M95.5 376c7.66699 7.33301 11.5 16.333 11.5 27s-3.83301 19.667 -11.5 27s-16.834 11 -27.501 11c-11.333 0 -20.5 -3.66699 -27.5 -11s-10.5 -16.333 -10.5 -27s3.5 -19.667 10.5 -27s16.167 -11 27.5 -11c10.667 0 19.834 3.66699 27.501 11zM95.5 57
c7.66699 7.33301 11.5 16.333 11.5 27s-3.83301 19.667 -11.5 27s-16.834 11 -27.501 11c-11.333 0 -20.5 -3.66699 -27.5 -11s-10.5 -16.333 -10.5 -27s3.5 -19.667 10.5 -27s16.167 -11 27.5 -11c10.667 0 19.834 3.66699 27.501 11z" />
    <glyph glyph-name="semicolon" unicode=";" horiz-adv-x="152" 
d="M110.5 376c7.66699 7.33301 11.5 16.333 11.5 27s-3.83301 19.667 -11.5 27s-16.834 11 -27.501 11c-11.333 0 -20.5 -3.66699 -27.5 -11s-10.5 -16.333 -10.5 -27s3.5 -19.667 10.5 -27s16.167 -11 27.5 -11c10.667 0 19.834 3.66699 27.501 11zM55 110.5
c-6.66699 -7.66699 -10.002 -16.834 -10.002 -27.501c0 -8 3.33301 -16.333 10 -25s15.334 -13 26.001 -13c-0.666992 -33.333 -21 -60.666 -61 -81.999l16 -25c27.333 13.333 48.5 32.5 63.5 57.5s22.5 52.833 22.5 83.5c0 10.667 -3.66699 20.5 -11 29.5
s-16.666 13.5 -27.999 13.5c-12 0 -21.333 -3.83301 -28 -11.5z" />
    <glyph glyph-name="less" unicode="&#x3c;" horiz-adv-x="322" 
d="M302 436l-23 34l-249 -211v-28l249 -212l23 35l-226 191z" />
    <glyph glyph-name="equal" unicode="=" horiz-adv-x="497" 
d="M38 332h429l-7 39h-430zM38 140h429l-7 39h-430z" />
    <glyph glyph-name="greater" unicode="&#x3e;" horiz-adv-x="322" 
d="M20 435l226 -191l-226 -191l23 -34l249 211v28l-249 212z" />
    <glyph glyph-name="question" unicode="?" horiz-adv-x="392" 
d="M85 684.5c-30.667 -11.667 -55.666 -26.166 -74.999 -43.499l8 -41c30 21.333 56.833 36.833 80.5 46.5s52.167 14.5 85.5 14.5c38.667 0 69.167 -10.833 91.5 -32.5s33.5 -52.167 33.5 -91.5c0 -38 -15.167 -72.333 -45.5 -103s-71.833 -54.334 -124.5 -71.001l7 -205
l33 -21l10 195c54.667 24 97.167 54.667 127.5 92s45.5 75.333 45.5 114c0 50 -15 89.833 -45 119.5s-73.667 44.5 -131 44.5c-36.667 0 -70.334 -5.83301 -101.001 -17.5zM126.501 65.001c-7 -7.33301 -10.5 -16.333 -10.5 -27s3.5 -19.667 10.5 -27s16.167 -11 27.5 -11
c10.667 0 19.834 3.66699 27.501 11s11.5 16.333 11.5 27s-3.83301 19.667 -11.5 27s-16.834 11 -27.501 11c-11.333 0 -20.5 -3.66699 -27.5 -11z" />
    <glyph glyph-name="at" unicode="@" horiz-adv-x="760" 
d="M440 404c-38.667 0 -74.165 -8.33203 -106.498 -24.999s-58.166 -39.667 -77.499 -69s-29 -62.333 -29 -99c0 -42.667 14.5 -77.5 43.5 -104.5s66.833 -40.5 113.5 -40.5c15.333 0 31.666 3.16699 48.999 9.5s32.333 14.166 45 23.499
c18.667 -25.333 45.334 -38 80.001 -38c50.667 0 90.334 20.833 119.001 62.5s43 101.834 43 180.501c0 55.333 -12.833 105 -38.5 149s-61.334 78.5 -107.001 103.5s-98.167 37.5 -157.5 37.5c-78.667 0 -146.334 -17 -203.001 -51s-99.834 -80 -129.501 -138
s-44.5 -122 -44.5 -192c0 -62 14 -116.333 42 -163s65.5 -82.667 112.5 -108s98.167 -38 153.5 -38c76 0 138.333 12.667 187 38l-13 38c-20 -11.333 -44.833 -20 -74.5 -26s-59.167 -9 -88.5 -9c-50 0 -95.333 11 -136 33s-72.834 53.333 -96.501 94s-35.5 88 -35.5 142
c0 66.667 13.833 125.667 41.5 177s66 91.166 115 119.499s104.5 42.5 166.5 42.5c52.667 0 98.5 -10.667 137.5 -32s68.833 -51.333 89.5 -90s31 -83.334 31 -134.001c0 -63.333 -10.5 -111.666 -31.5 -144.999s-47.833 -50 -80.5 -50c-38.667 0 -58 20.667 -58 62
c0 8 0.333008 14.333 1 19l24 201l-16 20h-71zM307.002 132.001c-19.333 19.333 -28.999 45.667 -28.999 79c0 31.333 7.16699 58.833 21.5 82.5s33.5 41.834 57.5 54.501s50 19 78 19h45l-23 -177c-1.33301 -10.667 -2 -19.334 -2 -26.001c0 -14 2.33301 -27 7 -39
c-8.66699 -6 -20.334 -11.167 -35.001 -15.5s-29 -6.5 -43 -6.5c-32 0 -57.667 9.66699 -77 29z" />
    <glyph glyph-name="A" unicode="A" 
d="M59 0l77 213h295l81 -219l50 11l-259 675h-46l-247 -680h49zM281 614l136 -362h-267z" />
    <glyph glyph-name="B" unicode="B" horiz-adv-x="565" 
d="M455 44c46.667 29.333 70 77.332 70 143.999c0 45.333 -12.167 82.333 -36.5 111s-58.5 49.667 -102.5 63c30 14.667 54.333 33.834 73 57.501s28 51.5 28 83.5c0 64 -21.5 109.5 -64.5 136.5s-103.167 40.5 -180.5 40.5h-142v-680h169c77.333 0 139.333 14.667 186 44z
M388 608.499c31.333 -21.667 47 -57.165 47 -106.498c0 -44.667 -18 -77.334 -54 -98.001s-82.667 -31.334 -140 -32.001h-91v269h104c58 0 102.667 -10.833 134 -32.5zM425 296.501c32 -24.333 47.999 -61.167 47.999 -110.5c0 -50 -17.667 -87 -53 -111
s-81.666 -36 -138.999 -36h-131v294h142c56.667 0 101 -12.167 133 -36.5z" />
    <glyph glyph-name="C" unicode="C" horiz-adv-x="553" 
d="M447.5 684c-33.667 6.66699 -62.832 9.99902 -87.499 9.99902c-63.333 0 -118.5 -15.833 -165.5 -47.5s-82.833 -74.667 -107.5 -129s-37 -114.833 -37 -181.5c0 -64 11.167 -122.5 33.5 -175.5s56.333 -95.333 102 -127s101.834 -47.5 168.501 -47.5
c28 0 58.5 3.66699 91.5 11s58.833 16 77.5 26l-24 36c-21.333 -9.33301 -43.5 -16.666 -66.5 -21.999s-50.833 -8 -83.5 -8c-50 0 -93.5 14 -130.5 42s-65.167 65.5 -84.5 112.5s-29 98.167 -29 153.5c0 62.667 11 117.667 33 165s52.167 83.833 90.5 109.5
s81.5 38.834 129.5 39.501c32.667 0 58.667 -2.33301 78 -7s41.666 -12.334 66.999 -23.001l20 36c-16.667 11.333 -41.834 20.333 -75.501 27z" />
    <glyph glyph-name="D" unicode="D" horiz-adv-x="662" 
d="M482.5 45.5c43.667 30.333 76.168 71.5 97.501 123.5s32 110.333 32 175c0 100 -23.333 181 -70 243s-119.334 93 -218.001 93h-224v-680h221c64 0 117.833 15.167 161.5 45.5zM458.501 601c34.333 -26.667 60 -62.5 77 -107.5s25.5 -95.167 25.5 -150.5
c0 -58 -10 -110 -30 -156s-48.167 -82.167 -84.5 -108.5s-77.833 -39.5 -124.5 -39.5h-173v602h183c50 0 92.167 -13.333 126.5 -40z" />
    <glyph glyph-name="E" unicode="E" horiz-adv-x="495" 
d="M149 39v290h245l-5 39h-240v273h303l-5 39h-347v-680h375l-6 39h-320z" />
    <glyph glyph-name="F" unicode="F" horiz-adv-x="463" 
d="M149 641h294l-7 39h-336v-680h49v325h235l-6 39h-229v277z" />
    <glyph glyph-name="G" unicode="G" horiz-adv-x="614" 
d="M503 52c-42 -15.333 -82.6641 -23.002 -121.997 -23.002c-52.667 0 -100 13.167 -142 39.5s-74.833 62.833 -98.5 109.5s-35.5 99.334 -35.5 158.001c0 60.667 12.333 115 37 163s58.667 85.667 102 113s92 41 146 41c32 0 58 -2.33301 78 -7s42.333 -12 67 -22l19 33
c-16.667 11.333 -42.334 20.333 -77.001 27s-64.334 10 -89.001 10c-64 0 -121.833 -15.333 -173.5 -46s-92 -73.167 -121 -127.5s-43.5 -115.833 -43.5 -184.5c0 -66.667 13.333 -126.5 40 -179.5s65.167 -94.667 115.5 -125s109.166 -45.5 176.499 -45.5
c28.667 0 59.5 4.33301 92.5 13s58.833 19.334 77.5 32.001v311h-196l-6 -39h153v-251z" />
    <glyph glyph-name="H" unicode="H" horiz-adv-x="655" 
d="M506 680v-316h-357v321l-49 -5v-680h49v325h357v-325h49v680h-49z" />
    <glyph glyph-name="I" unicode="I" horiz-adv-x="249" 
d="M100 680v-680h49v680h-49z" />
    <glyph glyph-name="J" unicode="J" horiz-adv-x="237" 
d="M90 -12c-5.33301 -14 -13.832 -24.833 -25.499 -32.5s-29.834 -16.167 -54.501 -25.5l24 -32c32 9.33301 56 20 72 32s26.833 26.5 32.5 43.5s8.5 39.833 8.5 68.5v638h-49v-631c0 -26.667 -2.66699 -47 -8 -61z" />
    <glyph glyph-name="K" unicode="K" horiz-adv-x="580" 
d="M149 269v-269h-49v680h49v-355l336 370l34 -32l-250 -266l301 -397h-62l-272 362z" />
    <glyph glyph-name="L" unicode="L" horiz-adv-x="491" 
d="M149 680h-49v-680h381l-5 39h-327v641z" />
    <glyph glyph-name="M" unicode="M" horiz-adv-x="723" 
d="M574 0h49v680h-27l-235 -362l-239 362h-22v-680h49v561l204 -316l20 4l201 317v-566z" />
    <glyph glyph-name="N" unicode="N" horiz-adv-x="658" 
d="M163 545l368 -545h27v680h-49v-569l-34 59l-347 510h-28v-680h49v574z" />
    <glyph glyph-name="O" unicode="O" horiz-adv-x="707" 
d="M199 649.5c-46.667 -31 -83.165 -73.667 -109.498 -128s-39.5 -115.833 -39.5 -184.5c0 -67.333 12.833 -127.666 38.5 -180.999s61.5 -95 107.5 -125s97.667 -45 155 -45c58 0 110.333 15.5 157 46.5s83.167 73.667 109.5 128s39.5 115.833 39.5 184.5
c0 67.333 -12.833 127.666 -38.5 180.999s-61.334 95 -107.001 125s-97.167 45 -154.5 45c-58.667 0 -111.334 -15.5 -158.001 -46.5zM137.502 500c21.667 48 51.667 85.668 90 113.001s81.833 41 130.5 41c46.667 0 88.5 -13.333 125.5 -40s66 -63.5 87 -110.5
s31.5 -100.167 31.5 -159.5c0 -60.667 -10.833 -115 -32.5 -163s-51.667 -85.667 -90 -113s-81.833 -41 -130.5 -41c-46.667 0 -88.5 13.333 -125.5 40s-66 63.667 -87 111s-31.5 100.666 -31.5 159.999c0 60 10.833 114 32.5 162z" />
    <glyph glyph-name="P" unicode="P" horiz-adv-x="548" 
d="M252 264c75.333 0 136.833 17.667 184.5 53s71.5 88 71.5 158c0 70.667 -22 122.5 -66 155.5s-103.667 49.5 -179 49.5h-163v-680h49v264h103zM409.5 599.5c32.333 -27 48.501 -68.832 48.501 -125.499c0 -54.667 -18.333 -96.834 -55 -126.501s-83 -44.5 -139 -44.5
h-115v337h126c57.333 0 102.166 -13.5 134.499 -40.5z" />
    <glyph glyph-name="Q" unicode="Q" horiz-adv-x="707" 
d="M633.5 199.5c-15.667 -45 -37.8369 -83.833 -66.5039 -116.5l83 -82l-32 -25l-82 77c-25.333 -22 -53.666 -38.667 -84.999 -50s-64.666 -17 -99.999 -17c-57.333 0 -109 15 -155 45s-81.833 71.667 -107.5 125s-38.5 113.666 -38.5 180.999
c0 68.667 13.167 130.167 39.5 184.5s62.833 97 109.5 128s99.334 46.5 158.001 46.5c57.333 0 108.833 -15 154.5 -45s81.334 -71.667 107.001 -125s38.5 -113.666 38.5 -180.999c0 -52 -7.83301 -100.5 -23.5 -145.5zM500.997 85l-96.001 90.9971l34 33l93 -91
c22 28.667 39.167 62.334 51.5 101.001s18.5 80.334 18.5 125.001c0 59.333 -10.5 112.5 -31.5 159.5s-50 83.833 -87 110.5s-78.833 40 -125.5 40c-48.667 0 -92.167 -13.667 -130.5 -41s-68.333 -65 -90 -113s-32.5 -102 -32.5 -162
c0 -59.333 10.5 -112.666 31.5 -159.999s50 -84.333 87 -111s78.833 -40 125.5 -40c58.667 0 109.334 19.333 152.001 58z" />
    <glyph glyph-name="R" unicode="R" 
d="M149 0l0.000976562 285.999h103c33.333 0 63.666 3.33301 90.999 10l164 -296h55l-177 309c38 14.667 68 36.834 90 66.501s33 66.5 33 110.5c0 68 -21.833 117.333 -65.5 148s-103.5 46 -179.5 46h-163v-680h49zM404.501 602.999
c35.667 -24.667 53.5 -64.332 53.5 -118.999c0 -52.667 -20 -92.334 -60 -119.001s-88 -40 -144 -40h-105v315h116c57.333 0 103.833 -12.333 139.5 -37z" />
    <glyph glyph-name="S" unicode="S" horiz-adv-x="504" 
d="M132.5 0.5c40.333 -9 75.165 -13.501 104.498 -13.501c72 0 127.833 15.5 167.5 46.5s59.5 72.167 59.5 123.5c0 44 -14.5 81.5 -43.5 112.5s-74.833 59.5 -137.5 85.5c-62 26 -107.667 52.5 -137 79.5s-44 58.833 -44 95.5c0 35.333 14.333 65 43 89
s66.334 36 113.001 36c30.667 0 56.334 -3 77.001 -9s43 -14.333 67 -25l22 36c-22.667 11.333 -48.5 20.666 -77.5 27.999s-59.167 11 -90.5 11c-42 0 -78.5 -7 -109.5 -21s-54.833 -33.167 -71.5 -57.5s-25 -51.833 -25 -82.5c0 -46.667 15 -86.167 45 -118.5
s75.667 -61.166 137 -86.499c62.667 -26 108.5 -52 137.5 -78s43.5 -56.667 43.5 -92c0 -23.333 -6.83301 -45 -20.5 -65s-34 -36 -61 -48s-58.833 -18 -95.5 -18c-30.667 0 -60.667 3.83301 -90 11.5s-54.666 16.834 -75.999 27.501l-15 -39
c11.333 -10 37.166 -19.5 77.499 -28.5z" />
    <glyph glyph-name="T" unicode="T" horiz-adv-x="534" 
d="M10 641h232v-641h49v641h233l-5 39h-509v-39z" />
    <glyph glyph-name="U" unicode="U" horiz-adv-x="658" 
d="M90 239c0 -48.667 9.33203 -91.998 27.999 -129.998s46 -67.667 82 -89s79 -32 129 -32c50.667 0 93.834 10.667 129.501 32s62.834 51 81.501 89s28 81.333 28 130v441h-49v-444c0 -38.667 -7.66699 -73.834 -23 -105.501s-37.333 -56.5 -66 -74.5
s-62.334 -27 -101.001 -27c-37.333 0 -70.5 9.16699 -99.5 27.5s-51.333 43.166 -67 74.499s-23.5 66.333 -23.5 105v444h-49v-441z" />
    <glyph glyph-name="V" unicode="V" 
d="M269 -1h46l247 680h-49l-222 -614l-231 620l-50 -11z" />
    <glyph glyph-name="W" unicode="W" horiz-adv-x="812" 
d="M579 -1l-172 594l-152 -594h-46l-199 675l50 11l171 -606l152 600h49l169 -600l152 600h49l-177 -680h-46z" />
    <glyph glyph-name="X" unicode="X" horiz-adv-x="523" 
d="M454 0h59l-215 337l215 343h-54l-188 -301l-185 312l-48 -23l199 -318l-227 -350h58l193 311z" />
    <glyph glyph-name="Y" unicode="Y" horiz-adv-x="530" 
d="M520 680h-57l-204 -359l-200 368l-49 -21l225 -399v-269h49v274z" />
    <glyph glyph-name="Z" unicode="Z" horiz-adv-x="539" 
d="M509 631l-5 49h-457l10 -39h406l-433 -591l6 -50h468l-5 39h-420z" />
    <glyph glyph-name="bracketleft" unicode="[" horiz-adv-x="265" 
d="M247 -49h-98v706h98l8 39h-155v-784h155z" />
    <glyph glyph-name="backslash" unicode="\" horiz-adv-x="375" 
d="M10 706l308 -710l47 4l-308 710z" />
    <glyph glyph-name="bracketright" unicode="]" horiz-adv-x="265" 
d="M18 657h98v-706h-98l-8 -39h155v784h-155z" />
    <glyph glyph-name="asciicircum" unicode="^" horiz-adv-x="417" 
d="M397 143l-172 247h-43l-172 -247h48l146 205l145 -205h48z" />
    <glyph glyph-name="underscore" unicode="_" horiz-adv-x="429" 
d="M38 0h361l-8 39h-361z" />
    <glyph glyph-name="grave" unicode="`" horiz-adv-x="137" 
d="M71 742h-61l85 -153l32 11z" />
    <glyph glyph-name="a" unicode="a" horiz-adv-x="475" 
d="M171 449c19.333 5.33301 43.667 8 73 8c38 0 66.833 -10.5 86.5 -31.5s29.5 -49.167 29.5 -84.5v-60h-135c-51.333 0 -93 -12.833 -125 -38.5s-48 -61.167 -48 -106.5c0 -44 14 -79.833 42 -107.5s68.333 -41.5 121 -41.5c29.333 0 57 6 83 18s47.667 27.667 65 47l8 -52
h38v340c0 48.667 -14.5 87.167 -43.5 115.5s-70.5 42.5 -124.5 42.5c-22 0 -49 -4 -81 -12s-56.667 -18 -74 -30l19 -33c24.667 12 46.667 20.667 66 26zM134.501 214c21 20 52.501 30 94.501 30h131v-135c-16.667 -24.667 -36.834 -44.334 -60.501 -59.001
s-50.5 -22 -80.5 -22c-35.333 0 -63.5 10.333 -84.5 31s-31.5 46.334 -31.5 77.001c0 32 10.5 58 31.5 78z" />
    <glyph glyph-name="b" unicode="b" horiz-adv-x="512" 
d="M419.5 428c35 -46.667 52.498 -109.333 52.498 -188c0 -75.333 -18.667 -136.333 -56 -183s-90.666 -70 -159.999 -70c-22.667 0 -46 5 -70 15s-45.333 22.333 -64 37l-14 -39h-28v696l49 10v-260c38.667 34.667 83.334 52 134.001 52c69.333 0 121.5 -23.333 156.5 -70z
M346.498 56.501c24.333 19 42.833 44.5 55.5 76.5s19 67.333 19 106c0 63.333 -13.333 115.5 -40 156.5s-66 61.5 -118 61.5c-29.333 0 -54 -5.5 -74 -16.5s-40 -27.167 -60 -48.5v-309c40.667 -36.667 83.667 -55 129 -55c34.667 0 64.167 9.5 88.5 28.5z" />
    <glyph glyph-name="c" unicode="c" horiz-adv-x="449" 
d="M361.5 49c-14.333 -7.33301 -29.834 -12.6689 -46.501 -16.002s-35.334 -5 -56.001 -5c-35.333 0 -65.666 9.66699 -90.999 29s-44.5 45.5 -57.5 78.5s-19.5 69.833 -19.5 110.5c0 38 7 73.167 21 105.5s34.167 58 60.5 77s56.833 28.5 91.5 28.5
c26.667 0 49 -2.83301 67 -8.5s38.667 -14.167 62 -25.5l20 33c-18.667 12 -42.667 22 -72 30s-54.333 12 -75 12c-46.667 0 -87 -10.833 -121 -32.5s-60 -51.667 -78 -90s-27 -81.833 -27 -130.5c0 -77.333 19 -139.666 57 -186.999s92 -71 162 -71
c22 0 47.5 3.83301 76.5 11.5s53.167 17.5 72.5 29.5l-20 34c-3.33301 -1.33301 -12.166 -5.66602 -26.499 -12.999z" />
    <glyph glyph-name="d" unicode="d" horiz-adv-x="512" 
d="M432 0l-26.998 -0.000976562l-18 43c-40.667 -37.333 -86.667 -56 -138 -56c-69.333 0 -121.5 23.333 -156.5 70s-52.5 109.334 -52.5 188.001c0 75.333 18.667 136.333 56 183s90.666 70 159.999 70c21.333 0 43.166 -4.33301 65.499 -13s42.833 -19.667 61.5 -33v244
l49 9v-705zM323.002 44.499c20 11 40 27.167 60 48.5v309c-40.667 36.667 -83.667 55 -129 55c-34.667 0 -64.167 -9.5 -88.5 -28.5s-42.833 -44.5 -55.5 -76.5s-19 -67.333 -19 -106c0 -63.333 13.333 -115.5 40 -156.5s66 -61.5 118 -61.5c29.333 0 54 5.5 74 16.5z" />
    <glyph glyph-name="e" unicode="e" horiz-adv-x="480" 
d="M416.5 373.5c-15.667 39 -37.832 69.501 -66.499 91.501s-61.334 33 -98.001 33c-68.667 0 -121.167 -23.167 -157.5 -69.5s-54.5 -107.5 -54.5 -183.5c0 -78.667 19.167 -141.334 57.5 -188.001s95.833 -70 172.5 -70c22.667 0 49.5 3.5 80.5 10.5
s55.833 16.167 74.5 27.5l-20 37c-20.667 -10.667 -41.667 -19 -63 -25s-48 -9 -80 -9c-56.667 0 -99.167 20 -127.5 60s-42.833 91.333 -43.5 154h349c0 48.667 -7.83301 92.5 -23.5 131.5zM138.502 406.501c25.667 33.667 61.165 50.5 106.498 50.5
c44.667 0 78.334 -16.5 101.001 -49.5s36.667 -75.833 42 -128.5h-295c4.66699 51.333 19.834 93.833 45.501 127.5z" />
    <glyph glyph-name="f" unicode="f" horiz-adv-x="264" 
d="M93 0h49.001v433h109l-21 37h-88v109c0 54.667 23 82 69 82c6 0 13.333 -1 22 -3s15 -4 19 -6l12 37c-22.667 8.66699 -44.667 13 -66 13c-34.667 0 -60.834 -12.333 -78.501 -37s-26.5 -58.667 -26.5 -102v-93h-73v-37h73v-433z" />
    <glyph glyph-name="g" unicode="g" horiz-adv-x="508" 
d="M432 -62c0 -50 -16.668 -90.5 -50.001 -121.5s-80.666 -46.5 -141.999 -46.5c-22.667 0 -51.5 4 -86.5 12s-61.167 17.667 -78.5 29l19 35c26.667 -12 50.334 -20.833 71.001 -26.5s45 -8.5 73 -8.5c42.667 0 77.5 10 104.5 30s40.5 49 40.5 87v111
c-38.667 -34.667 -83.334 -52 -134.001 -52c-69.333 0 -121.5 23.333 -156.5 70s-52.5 109.334 -52.5 188.001c0 75.333 18.667 136.333 56 183s90.666 70 159.999 70c23.333 0 47.333 -5.33301 72 -16s46.334 -23.334 65.001 -38.001l12 41h27v-547zM322.999 44.5
c20 11 40 27.167 60 48.5v309c-40.667 36.667 -83.667 55 -129 55c-34.667 0 -64.167 -9.5 -88.5 -28.5s-42.833 -44.5 -55.5 -76.5s-19 -67.333 -19 -106c0 -63.333 13.333 -115.5 40 -156.5s66 -61.5 118 -61.5c29.333 0 54 5.5 74 16.5z" />
    <glyph glyph-name="h" unicode="h" horiz-adv-x="510" 
d="M409 454.5c23.333 -29 35.001 -68.166 35.001 -117.499v-337h-49v337c0 37.333 -6.66699 66.666 -20 87.999s-37 32 -71 32c-52.667 0 -111 -32.667 -175 -98v-359h-49v696l49 10v-296c21.333 24.667 47.833 45.5 79.5 62.5s62.167 25.5 91.5 25.5
c49.333 0 85.666 -14.5 108.999 -43.5z" />
    <glyph glyph-name="i" unicode="i" horiz-adv-x="189" 
d="M122 611c7.33301 7.33301 11.002 16.333 11.002 27s-3.83301 19.667 -11.5 27s-16.834 11 -27.501 11c-11.333 0 -20.5 -3.66699 -27.5 -11s-10.5 -16.333 -10.5 -27s3.5 -19.667 10.5 -27s16.167 -11 27.5 -11s20.666 3.66699 27.999 11zM70.002 485v-485h49v485h-49z
" />
    <glyph glyph-name="j" unicode="j" horiz-adv-x="206" 
d="M73.5 611c-7 7.33301 -10.502 16.333 -10.502 27s3.5 19.667 10.5 27s16.167 11 27.5 11c10.667 0 19.834 -3.66699 27.501 -11s11.5 -16.333 11.5 -27s-3.66699 -19.667 -11 -27s-16.666 -11 -27.999 -11s-20.5 3.66699 -27.5 11zM118.498 -136
c-5 -18.667 -15.1699 -34.666 -30.5029 -47.999s-38.666 -25 -69.999 -35l-18 36c22.667 8.66699 39.334 18 50.001 28s17.834 22.5 21.501 37.5s5.5 36.167 5.5 63.5v539h49v-547c0 -30.667 -2.5 -55.334 -7.5 -74.001z" />
    <glyph glyph-name="k" unicode="k" horiz-adv-x="449" 
d="M203 280l187 -280h59l-213 313l155 154l-37 31l-225 -234v442l-49 -10v-696h49v206z" />
    <glyph glyph-name="l" unicode="l" horiz-adv-x="209" 
d="M80 696v-696h49v706z" />
    <glyph glyph-name="m" unicode="m" horiz-adv-x="776" 
d="M678 455c21.333 -28.667 31.998 -68.002 31.998 -118.002v-337h-49v337c0 38.667 -5.66699 68.334 -17 89.001s-32.666 31 -63.999 31c-46.667 0 -100.667 -30 -162 -90c0.666992 -6.66699 1 -16.667 1 -30v-337h-49v337c0 38.667 -5.66699 68.334 -17 89.001
s-32.666 31 -63.999 31c-25.333 0 -52.5 -8.83301 -81.5 -26.5s-58.5 -41.5 -88.5 -71.5v-359h-49v485h38l10 -76c20.667 24 47.334 44.833 80.001 62.5s61.667 26.5 87 26.5c65.333 0 107 -29.333 125 -88c20.667 24 47.167 44.667 79.5 62s61.166 26 86.499 26
c46.667 0 80.667 -14.333 102 -43z" />
    <glyph glyph-name="n" unicode="n" horiz-adv-x="500" 
d="M294 457c34 0 57.666 -10.668 70.999 -32.001s20 -50.666 20 -87.999v-337h49v337c0 49.333 -11.667 88.5 -35 117.5s-59.666 43.5 -108.999 43.5c-29.333 0 -60 -8.66699 -92 -26s-58.667 -38.333 -80 -63l-10 76h-38v-485h49v359c64 65.333 122.333 98 175 98z" />
    <glyph glyph-name="o" unicode="o" horiz-adv-x="523" 
d="M456.5 110.5c-17.667 -38.333 -43.5 -68.5 -77.5 -90.5s-74 -33 -120 -33c-70 0.666992 -124 24.5 -162 71.5s-57 109.167 -57 186.5c0 48 8.83301 91.167 26.5 129.5s43.5 68.5 77.5 90.5s74.333 33 121 33c70 -0.666992 123.833 -24.5 161.5 -71.5
s56.5 -109.167 56.5 -186.5c0 -48 -8.83301 -91.167 -26.5 -129.5zM350.5 56.5c26.333 19 46.5 44.667 60.5 77s21 67.5 21 105.5c0 40.667 -6.5 77.5 -19.5 110.5s-32.167 59.167 -57.5 78.5s-55.666 29 -90.999 29c-34.667 0 -65.167 -9.5 -91.5 -28.5
s-46.5 -44.667 -60.5 -77s-21 -67.5 -21 -105.5c0 -40.667 6.5 -77.5 19.5 -110.5s32.167 -59.167 57.5 -78.5s55.666 -29 90.999 -29c34.667 0 65.167 9.5 91.5 28.5z" />
    <glyph glyph-name="p" unicode="p" horiz-adv-x="508" 
d="M415.5 428c35 -46.667 52.498 -109.333 52.498 -188c0 -75.333 -18.667 -136.333 -56 -183s-90.666 -70 -159.999 -70c-21.333 0 -43.166 4.33301 -65.499 13s-42.833 19.667 -61.5 33v-241l-49 -11v704h28l14 -46c41.333 39.333 88.333 59 141 59
c69.333 0 121.5 -23.333 156.5 -70zM342.498 56.501c24.333 19 42.833 44.5 55.5 76.5s19 67.333 19 106c0 63.333 -13.333 115.5 -40 156.5s-66 61.5 -118 61.5c-29.333 0 -54 -5.5 -74 -16.5s-40 -27.167 -60 -48.5v-309c40.667 -36.667 83.667 -55 129 -55
c34.667 0 64.167 9.5 88.5 28.5z" />
    <glyph glyph-name="q" unicode="q" horiz-adv-x="508" 
d="M432 -208l-48.998 -11.001v258c-39.333 -34.667 -84 -52 -134 -52c-69.333 0 -121.5 23.333 -156.5 70s-52.5 109.334 -52.5 188.001c0 75.333 18.667 136.333 56 183s90.666 70 159.999 70c23.333 0 47.166 -5.16699 71.499 -15.5s45.833 -22.833 64.5 -37.5l13 40h27
v-693zM323.002 44.499c20 11 40 27.167 60 48.5v309c-40.667 36.667 -83.667 55 -129 55c-34.667 0 -64.167 -9.5 -88.5 -28.5s-42.833 -44.5 -55.5 -76.5s-19 -67.333 -19 -106c0 -63.333 13.333 -115.5 40 -156.5s66 -61.5 118 -61.5c29.333 0 54 5.5 74 16.5z" />
    <glyph glyph-name="r" unicode="r" horiz-adv-x="302" 
d="M199.5 419c33 18.667 63.833 27.999 92.5 27.999l-17 38c-22.667 0 -49.167 -8.16699 -79.5 -24.5s-56.833 -33.833 -79.5 -52.5l-18 77h-28v-485h49v357c20.667 22.667 47.5 43.334 80.5 62.001z" />
    <glyph glyph-name="s" unicode="s" horiz-adv-x="406" 
d="M111.5 -2.5c29 -7 54.832 -10.5 77.499 -10.5c118 0 177 45.333 177 136c0 31.333 -13.167 58.5 -39.5 81.5s-62.166 43.5 -107.499 61.5c-38.667 15.333 -68.667 31 -90 47s-32 34.333 -32 55c0 24 10.5 44.833 31.5 62.5s48.167 26.5 81.5 26.5
c26 0 47.333 -2.83301 64 -8.5s36.667 -14.167 60 -25.5l20 35c-16 11.333 -37.5 20.833 -64.5 28.5s-51.167 11.5 -72.5 11.5c-52.667 0 -93.667 -12.5 -123 -37.5s-44 -57.167 -44 -96.5c0 -53.333 47 -98.333 141 -135c85.333 -33.333 128 -70 128 -110
c0 -28 -11.333 -50.167 -34 -66.5s-54 -24.5 -94 -24.5c-22.667 0 -44.167 3.33301 -64.5 10s-42.5 16 -66.5 28l-18 -41c17.333 -11.333 40.5 -20.5 69.5 -27.5z" />
    <glyph glyph-name="t" unicode="t" horiz-adv-x="292" 
d="M141 623l-49 -22.001v-131h-72v-37h72v-317c0 -41.333 9.33301 -73.166 28 -95.499s44 -33.5 76 -33.5c12.667 0 25.667 1.66699 39 5c16 4.66699 25 7 27 7l-12 38c-14 -6 -27.667 -9 -41 -9c-22.667 0 -39.667 9.16699 -51 27.5s-17 40.833 -17 67.5v310h109l-21 37
h-88v153z" />
    <glyph glyph-name="u" unicode="u" horiz-adv-x="500" 
d="M206 28c-34 0 -57.666 10.668 -70.999 32.001s-20 50.666 -20 87.999v337h-49v-337c0 -49.333 11.667 -88.5 35 -117.5s59.666 -43.5 108.999 -43.5c29.333 0 60 8.66699 92 26s58.667 38.333 80 63l10 -76h38v485h-49v-359c-64 -65.333 -122.333 -98 -175 -98z" />
    <glyph glyph-name="v" unicode="v" horiz-adv-x="430" 
d="M370 485l-154 -429l-160 436l-46 -18l183 -474h47l180 485h-50z" />
    <glyph glyph-name="w" unicode="w" horiz-adv-x="642" 
d="M582 485l-116 -421l-126 421h-42l-123 -421l-119 427l-46 -18l143 -473h47l115 409l126 -409h47l144 485h-50z" />
    <glyph glyph-name="x" unicode="x" horiz-adv-x="405" 
d="M327 0h55l-147 232l160 253h-54l-132 -218l-136 227l-43 -20l141 -230l-161 -244h56l130 207z" />
    <glyph glyph-name="y" unicode="y" horiz-adv-x="430" 
d="M126.5 -149c-15.667 -12.667 -36.833 -23.334 -63.5 -32.001l5 -38c32 6.66699 59.667 19.334 83 38.001s40 41.667 50 69l219 597h-50l-154 -429l-160 435l-46 -18l183 -473l-31 -98c-8 -21.333 -19.833 -38.333 -35.5 -51z" />
    <glyph glyph-name="z" unicode="z" horiz-adv-x="432" 
d="M73 448h277l-322 -417l8 -31h362l-10 37h-309l325 416l-3 32h-344z" />
    <glyph glyph-name="braceleft" unicode="{" horiz-adv-x="265" 
d="M174.5 349c12.333 19.333 18.5 42.6719 18.5 70.0049c0 18.667 -6.33301 42 -19 70s-19 51.667 -19 71c0 15.333 6.33301 29.166 19 41.499s30.334 18.5 53.001 18.5h19l9 39h-26c-40.667 0 -71.5 -9.33301 -92.5 -28s-31.5 -44.334 -31.5 -77.001
c0 -20.667 6 -44.667 18 -72c12 -26.667 18 -50.667 18 -72c0 -24 -7.83301 -44 -23.5 -60s-33.834 -24 -54.501 -24h-33v-38h33c20.667 0 38.834 -8 54.501 -24s23.5 -36 23.5 -60c0 -20.667 -6 -44.667 -18 -72c-12 -26.667 -18 -50.667 -18 -72
c0 -32.667 10.5 -58.334 31.5 -77.001s51.833 -28 92.5 -28h26l-9 39h-19c-22.667 0 -40.334 6.16699 -53.001 18.5s-19 26.166 -19 41.499c0 19.333 6.33301 43 19 71s19 51.333 19 70c0 27.333 -6.16699 50.666 -18.5 69.999s-27.5 33.333 -45.5 42
c18 8.66699 33.167 22.667 45.5 42z" />
    <glyph glyph-name="bar" unicode="|" horiz-adv-x="249" 
d="M149 -4v710l-49 4v-710z" />
    <glyph glyph-name="braceright" unicode="}" horiz-adv-x="265" 
d="M90.5 265c-12.333 -19.333 -18.5 -42.6719 -18.5 -70.0049c0 -18.667 6.33301 -42 19 -70s19 -51.667 19 -71c0 -15.333 -6.33301 -29.166 -19 -41.499s-30.334 -18.5 -53.001 -18.5h-19l-9 -39h26c40.667 0 71.5 9.33301 92.5 28s31.5 44.334 31.5 77.001
c0 21.333 -6 45.333 -18 72c-12 27.333 -18 51.333 -18 72c0 24 7.83301 44 23.5 60s33.834 24 54.501 24h33v38h-33c-20.667 0 -38.834 8 -54.501 24s-23.5 36 -23.5 60c0 21.333 6 45.333 18 72c12 27.333 18 51.333 18 72c0 32.667 -10.5 58.334 -31.5 77.001
s-51.833 28 -92.5 28h-26l9 -39h19c22.667 0 40.334 -6.16699 53.001 -18.5s19 -26.166 19 -41.499c0 -19.333 -6.33301 -43 -19 -71s-19 -51.333 -19 -70c0 -27.333 6.16699 -50.666 18.5 -69.999s27.5 -33.333 45.5 -42c-18 -8.66699 -33.167 -22.667 -45.5 -42z" />
    <glyph glyph-name="asciitilde" unicode="~" horiz-adv-x="374" 
d="M84 245c9.33301 8 20.333 12 33 12c23.333 0 47 -8 71 -24s47.333 -24 70 -24c26 0 46.833 7.5 62.5 22.5s23.5 34.167 23.5 57.5h-40c0 -12 -4.66699 -22 -14 -30s-20.333 -12 -33 -12c-17.333 0 -38 8 -62 24s-50 24 -78 24c-26 0 -47 -7.33301 -63 -22
s-24 -34 -24 -58h40c0 12 4.66699 22 14 30z" />
    <glyph glyph-name="uni00A0" unicode="&#xa0;" horiz-adv-x="230" 
 />
    <glyph glyph-name="exclamdown" unicode="&#xa1;" horiz-adv-x="138" 
d="M97.5 637c7 7.33301 10.5 16.333 10.5 27s-3.5 19.667 -10.5 27s-16.167 11 -27.5 11c-10.667 0 -19.834 -3.66699 -27.501 -11s-11.5 -16.333 -11.5 -27s3.83301 -19.667 11.5 -27s16.834 -11 27.501 -11c11.333 0 20.5 3.66699 27.5 11zM30 0h54v517l-45 21z" />
    <glyph glyph-name="cent" unicode="&#xa2;" horiz-adv-x="449" 
d="M349.5 2.5c-23 -7 -44.832 -11.5 -65.499 -13.5v-100h-44v99c-64 4.66699 -113.333 30.167 -148 76.5s-52 106.5 -52 180.5c0 69.333 17.667 127 53 173s84.333 72.333 147 79v98l44 10v-108c20.667 -2 43.167 -6.83301 67.5 -14.5s44.833 -16.5 61.5 -26.5l-20 -33
c-23.333 11.333 -44 19.833 -62 25.5s-40.333 8.5 -67 8.5c-34.667 0 -65.167 -9.5 -91.5 -28.5s-46.5 -44.667 -60.5 -77s-21 -67.5 -21 -105.5c0 -40.667 6.5 -77.5 19.5 -110.5s32.167 -59.167 57.5 -78.5s55.666 -29 90.999 -29c20.667 0 38.334 1.5 53.001 4.5
s28.167 7.16699 40.5 12.5s24.166 11 35.499 17l20 -34c-16 -10 -35.5 -18.5 -58.5 -25.5z" />
    <glyph glyph-name="sterling" unicode="&#xa3;" horiz-adv-x="426" 
d="M410 39l-261.999 0.00292969c13.333 11.333 22.333 25.166 27 41.499s7 37.166 7 62.499v191h162l-22 37h-140v190c0 54.667 23 82 69 82c6 0 13.333 -1 22 -3s15 -4 19 -6l12 37c-22.667 8.66699 -44.667 13 -66 13c-34.667 0 -60.834 -12.333 -78.501 -37
s-26.5 -58.667 -26.5 -102v-174h-73l2 -37h71v-212c0 -54.667 -21.667 -82.334 -65 -83.001l2 -39h346z" />
    <glyph glyph-name="currency" unicode="&#xa4;" horiz-adv-x="661" 
d="M325 -13c33.333 0 64.4971 5.66504 93.4971 16.998s53.833 27 74.5 47l109 -105l29 32l-108 106c16.667 21.333 29.334 45.333 38.001 72s13 54.334 13 83.001c0 30 -4.16699 58.833 -12.5 86.5s-20.166 52.834 -35.499 75.501l105 104l-29 32l-105 -102
c-43.333 42 -97.333 63 -162 63c-33.333 0 -64.5 -5.5 -93.5 -16.5s-54.5 -26.833 -76.5 -47.5l-106 103l-29 -32l106 -104c-32.667 -44 -49 -95.667 -49 -155c0 -64 16 -118.667 48 -164l-105 -104l29 -32l105 102c42.667 -40.667 96.334 -61 161.001 -61zM497.497 132.998
c-17 -32 -40.5 -57.499 -70.5 -76.499s-64 -28.5 -102 -28.5c-35.333 0 -67.333 9.5 -96 28.5s-51 45 -67 78s-24 70.167 -24 111.5c0 37.333 8.5 72.166 25.5 104.499s40.5 58.166 70.5 77.499s63.667 29 101 29c38.667 0 72.167 -9.83301 100.5 -29.5s50 -46.167 65 -79.5
s22.5 -69.666 22.5 -108.999c0 -38.667 -8.5 -74 -25.5 -106z" />
    <glyph glyph-name="yen" unicode="&#xa5;" horiz-adv-x="530" 
d="M284 129h179l5 -39h-184v-90h-49v90h-168l-5 39h173v130h-168l-5 39h157l-209 370l49 21l200 -368l204 359h57l-222 -382h165l5 -39h-184v-130z" />
    <glyph glyph-name="brokenbar" unicode="&#xa6;" horiz-adv-x="249" 
d="M149 406v300l-49 4v-300zM149 -4v292l-49 4v-292z" />
    <glyph glyph-name="section" unicode="&#xa7;" horiz-adv-x="570" 
d="M511 163.5c-12.667 -23 -31.332 -41.8311 -55.999 -56.498c6 -17.333 9 -36 9 -56c0 -51.333 -19.833 -92.5 -59.5 -123.5s-95.5 -46.5 -167.5 -46.5c-29.333 0 -64.166 4.5 -104.499 13.5s-66.166 18.5 -77.499 28.5l15 39
c21.333 -10.667 46.666 -19.834 75.999 -27.501s59.333 -11.5 90 -11.5c36.667 0 68.5 6 95.5 18s47.333 28 61 48s20.5 41.667 20.5 65c0 35.333 -14.5 66 -43.5 92s-74.833 52 -137.5 78c-61.333 25.333 -107 54.166 -137 86.499s-45 71.833 -45 118.5
c0 27.333 6.5 52.166 19.5 74.499s31.833 40.5 56.5 54.5c-6.66699 18 -10 38.333 -10 61c0 30.667 8.33301 58.167 25 82.5s40.5 43.5 71.5 57.5s67.5 21 109.5 21c31.333 0 61.5 -3.66699 90.5 -11s54.833 -16.666 77.5 -27.999l-22 -36c-24 10.667 -46.333 19 -67 25
s-46.334 9 -77.001 9c-46.667 0 -84.334 -12 -113.001 -36s-43 -53.667 -43 -89c0 -36.667 14.667 -68.5 44 -95.5s75 -53.5 137 -79.5c62.667 -26 108.5 -54.5 137.5 -85.5s43.5 -68.5 43.5 -112.5c0 -28.667 -6.33301 -54.5 -19 -77.5zM467.002 192.002
c8 16 12 33.333 12 52c0 35.333 -14.5 66 -43.5 92s-74.833 52 -137.5 78c-72.667 30.667 -122.667 64.667 -150 102c-14.667 -11.333 -26 -25 -34 -41s-12 -33 -12 -51c0 -36.667 14.667 -68.5 44 -95.5s75 -53.5 137 -79.5c72 -30 121.333 -62.667 148 -98
c16 11.333 28 25 36 41z" />
    <glyph glyph-name="dieresis" unicode="&#xa8;" horiz-adv-x="253" 
d="M73 628.5c7.33301 7 11 15.834 11 26.501c0 10 -3.66699 18.5 -11 25.5s-16 10.5 -26 10.5c-11.333 0 -20.333 -3.33301 -27 -10s-10 -15.334 -10 -26.001s3.33301 -19.5 10 -26.5s15.667 -10.5 27 -10.5c10 0 18.667 3.5 26 10.5zM232 628.501
c7.33301 7 11 15.834 11 26.501c0 10 -3.66699 18.5 -11 25.5s-16 10.5 -26 10.5c-11.333 0 -20.333 -3.33301 -27 -10s-10 -15.334 -10 -26.001s3.33301 -19.5 10 -26.5s15.667 -10.5 27 -10.5c10 0 18.667 3.5 26 10.5z" />
    <glyph glyph-name="copyright" unicode="&#xa9;" horiz-adv-x="787" 
d="M702.5 515c-29.667 53.333 -71.333 95.166 -125 125.499s-115.167 45.5 -184.5 45.5c-70 0 -131.833 -15.167 -185.5 -45.5s-95 -72.166 -124 -125.499s-43.5 -113 -43.5 -179s14.167 -125.333 42.5 -178s69.166 -94.167 122.499 -124.5s116 -45.5 188 -45.5
c69.333 0 130.833 15.167 184.5 45.5s95.334 72 125.001 125s44.5 112.167 44.5 177.5c0 66 -14.833 125.667 -44.5 179zM125.001 495.5c25.333 47 61.166 84.167 107.499 111.5s99.833 41 160.5 41s114.334 -13.667 161.001 -41s82.667 -64.666 108 -111.999
s38 -100 38 -158s-12.667 -110.833 -38 -158.5s-61.333 -85.167 -108 -112.5s-100.334 -41 -161.001 -41s-114.167 13.667 -160.5 41s-82.166 64.666 -107.499 111.999s-38 100.333 -38 159s12.667 111.5 38 158.5zM474.501 132c25 8 44.5 18 58.5 30l-20 31
c-36 -22.667 -72.333 -34 -109 -34c-45.333 0 -82.5 16.5 -111.5 49.5s-43.5 77.167 -43.5 132.5s14.5 99.5 43.5 132.5s66.167 49.5 111.5 49.5c36.667 0 73 -11.333 109 -34l20 31c-14 12 -33.5 22 -58.5 30s-47.833 12 -68.5 12c-38 0 -72.667 -8.5 -104 -25.5
s-56.166 -42.167 -74.499 -75.5s-27.5 -73.333 -27.5 -120s9.16699 -86.667 27.5 -120s43.166 -58.5 74.499 -75.5s66 -25.5 104 -25.5c20.667 0 43.5 4 68.5 12z" />
    <glyph glyph-name="ordfeminine" unicode="&#xaa;" horiz-adv-x="332" 
d="M95.5 649.5c10.333 4.33301 21.168 7.66895 32.501 10.002s24 3.5 38 3.5c26 0 45.833 -6.83301 59.5 -20.5s20.5 -32.167 20.5 -55.5v-23h-86c-34.667 0 -63.334 -8.83301 -86.001 -26.5s-34 -41.5 -34 -71.5c0 -29.333 10.333 -53.833 31 -73.5s48.667 -29.5 84 -29.5
c17.333 0 34.5 4.16699 51.5 12.5s31.167 19.166 42.5 32.499l11 -36h32v208c0 34 -11.167 62.833 -33.5 86.5s-53.5 35.5 -93.5 35.5c-14.667 0 -32.5 -2.83301 -53.5 -8.5s-37.5 -12.5 -49.5 -20.5l12 -32c4 1.33301 11.167 4.16602 21.5 8.49902zM106.502 514.003
c14.333 12.667 35.167 19.001 62.5 19.001h77v-86c-10.667 -15.333 -24 -27.5 -40 -36.5s-33 -13.5 -51 -13.5c-20.667 0 -37.5 7.16699 -50.5 21.5s-19.5 30.166 -19.5 47.499c0 19.333 7.16699 35.333 21.5 48z" />
    <glyph glyph-name="guillemotleft" unicode="&#xab;" horiz-adv-x="363" 
d="M191 115l-122 130l122 130l-21 31l-140 -145v-32l140 -145zM343 115l-123 130l123 130l-21 31l-140 -145v-32l140 -145z" />
    <glyph glyph-name="logicalnot" unicode="&#xac;" horiz-adv-x="505" 
d="M18 367h408v-250l49 -5v244l-8 50h-457z" />
    <glyph glyph-name="softhyphen" unicode="&#xad;" horiz-adv-x="120" 
 />
    <glyph glyph-name="registered" unicode="&#xae;" horiz-adv-x="715" 
d="M634.5 645c-27 47.333 -64.499 84.667 -112.499 112s-102.667 41 -164 41c-62.667 0 -118 -13.5 -166 -40.5s-85.333 -64.167 -112 -111.5s-40 -100.333 -40 -159c0 -58 13.5 -110.5 40.5 -157.5s64.667 -84 113 -111s103.166 -40.5 164.499 -40.5s116 13.5 164 40.5
s85.5 64 112.5 111s40.5 99.5 40.5 157.5s-13.5 110.667 -40.5 158zM121.501 627.001c22.333 41.333 53.8311 73.833 94.498 97.5s88 35.5 142 35.5c53.333 0 100.333 -11.833 141 -35.5s72 -56.167 94 -97.5s33 -87.666 33 -138.999c0 -50.667 -11.167 -96.667 -33.5 -138
s-53.666 -74.166 -93.999 -98.499s-87.166 -36.5 -140.499 -36.5c-54 0 -101.333 12.167 -142 36.5s-72.167 57.166 -94.5 98.499s-33.5 87.333 -33.5 138c0 51.333 11.167 97.666 33.5 138.999zM458.999 509.001c14 18 21 39.001 21 63.001
c0 37.333 -12.167 64.666 -36.5 81.999s-57.5 26 -99.5 26h-87v-376h40v158h42c6.66699 0 11.667 0.333008 15 1h14l90 -159h47l-98 165c20.667 8.66699 38 22 52 40zM411.499 631.502c17 -10.333 25.5 -30.5 25.5 -60.5c0 -51.333 -35 -77 -105 -77h-35v153h40
c32.667 0 57.5 -5.16699 74.5 -15.5z" />
    <glyph glyph-name="macron" unicode="&#xaf;" horiz-adv-x="261" 
d="M245 677h-235v-37h241z" />
    <glyph glyph-name="degree" unicode="&#xb0;" horiz-adv-x="243" 
d="M40.5 672c-20.333 -20 -30.5 -44.333 -30.5 -73c0 -30 10 -54.333 30 -73s45.333 -28 76 -28s56.167 9.33301 76.5 28s30.5 43 30.5 73c0 28.667 -10.333 53 -31 73s-46 30 -76 30s-55.167 -10 -75.5 -30zM69.5 551c-13 14.667 -19.499 31 -19.499 49
s6.16699 34.167 18.5 48.5s28.166 21.5 47.499 21.5s35.5 -7.33301 48.5 -22s19.5 -30.667 19.5 -48c0 -18.667 -5.5 -35.167 -16.5 -49.5s-26.833 -21.5 -47.5 -21.5s-37.5 7.33301 -50.5 22z" />
    <glyph glyph-name="plusminus" unicode="&#xb1;" horiz-adv-x="492" 
d="M266 531l-49 3v-189h-187l8 -37h179v-195l49 -5v200h189l-8 37h-181v186zM38 0h424l-8 37h-424z" />
    <glyph glyph-name="twosuperior" unicode="&#xb2;" horiz-adv-x="342" 
d="M97.5 759.5c-27 -7.66699 -49.833 -16.499 -68.5 -26.499l17 -31c53.333 22.667 94.666 34 123.999 34c30.667 0 53.834 -9.33301 69.501 -28s23.5 -39 23.5 -61c0 -16 -5.33301 -34.333 -16 -55c-11.333 -21.333 -33.333 -47 -66 -77l-156 -142v-37h297l-6 33h-240
l131 116c36 32.667 61.833 61.834 77.5 87.501s23.5 52.5 23.5 80.5c0 19.333 -5 38.166 -15 56.499s-25.333 33.166 -46 44.499s-45.667 17 -75 17c-22.667 0 -47.5 -3.83301 -74.5 -11.5z" />
    <glyph glyph-name="threesuperior" unicode="&#xb3;" horiz-adv-x="354" 
d="M77.5 759.5c-23 -7.66699 -45.834 -18.5 -68.501 -32.5l22 -30c39.333 25.333 80.333 38 123 38c29.333 0 53.333 -8.33301 72 -25s28 -36.667 28 -60c0 -30 -10.167 -53.833 -30.5 -71.5s-50.5 -26.5 -90.5 -26.5h-37l7 -33h25c50 0 85.167 -8.66699 105.5 -26
s30.5 -43.333 30.5 -78c0 -29.333 -11.667 -53 -35 -71s-50.666 -27 -81.999 -27c-26.667 0 -49 2.66699 -67 8s-36.667 13.666 -56 24.999l-24 -32c20 -11.333 42.333 -20.833 67 -28.5s50 -11.5 76 -11.5c51.333 0 91.833 13 121.5 39s44.5 59 44.5 99
c0 32 -7.83301 58.667 -23.5 80s-37.5 35.333 -65.5 42c23.333 8 42.5 22.167 57.5 42.5s22.5 43.833 22.5 70.5c0 34.667 -12.333 63.334 -37 86.001s-60.667 34 -108 34c-28.667 0 -54.5 -3.83301 -77.5 -11.5z" />
    <glyph glyph-name="acute" unicode="&#xb4;" horiz-adv-x="137" 
d="M66 742l-56 -142l32 -11l85 153h-61z" />
    <glyph glyph-name="mu" unicode="&#xb5;" horiz-adv-x="510" 
d="M440 0l-37.999 -0.000976562l-10 76c-21.333 -24.667 -48 -45.667 -80 -63s-62.667 -26 -92 -26c-38.667 0 -70.334 9.66699 -95.001 29v-224l-49 -11v704h49v-337c0 -37.333 6.66699 -66.666 20 -87.999s37 -32 71 -32c52.667 0 111 32.667 175 98v359h49v-485z" />
    <glyph glyph-name="paragraph" unicode="&#xb6;" horiz-adv-x="808" 
d="M607 641l-0.000976562 -641h49v641h112v39h-483c-74.667 0 -134.167 -17.333 -178.5 -52s-66.5 -85.667 -66.5 -153c0 -44.667 11.333 -83 34 -115s53.334 -56 92.001 -72s82 -24 130 -24h38v-264h49v641h224z" />
    <glyph glyph-name="periodcentered" unicode="&#xb7;" horiz-adv-x="137" 
d="M95.5 235c7.66699 7.33301 11.5 16.333 11.5 27s-3.83301 19.667 -11.5 27s-16.834 11 -27.501 11c-11.333 0 -20.5 -3.66699 -27.5 -11s-10.5 -16.333 -10.5 -27s3.5 -19.667 10.5 -27s16.167 -11 27.5 -11c10.667 0 19.834 3.66699 27.501 11z" />
    <glyph glyph-name="cedilla" unicode="&#xb8;" horiz-adv-x="206" 
d="M127 -96c18 -12.667 27.001 -26.666 27.001 -41.999c0 -12.667 -6.66699 -23.667 -20 -33s-30 -14 -50 -14c-16.667 0 -36.334 4.66699 -59.001 14l-15 -31c8 -5.33301 19.667 -9.83301 35 -13.5s29.333 -5.5 42 -5.5c32.667 0 59 7.83301 79 23.5s30 36.167 30 61.5
c0 18.667 -8 36.167 -24 52.5s-38.333 27.166 -67 32.499l25 64h-41l-34 -90c30 0 54 -6.33301 72 -19z" />
    <glyph glyph-name="onesuperior" unicode="&#xb9;" horiz-adv-x="240" 
d="M136 765l-126 -65l23 -25l84 41v-380h43v429h-24z" />
    <glyph glyph-name="ordmasculine" unicode="&#xba;" horiz-adv-x="344" 
d="M96.5 681c-23 -14 -41.501 -34.001 -55.501 -60.001s-21 -55.667 -21 -89c0 -34.667 7 -64.834 21 -90.501s32.5 -45.167 55.5 -58.5s48.167 -20 75.5 -20s52.5 7 75.5 21s41.5 33.833 55.5 59.5s21 55.167 21 88.5c0 34.667 -7 64.834 -21 90.501
s-32.667 45.334 -56 59.001s-48.666 20.5 -75.999 20.5c-26.667 0 -51.5 -7 -74.5 -21zM248.499 630.499c20.333 -24.333 30.501 -57.167 30.501 -98.5c0 -28 -5 -52 -15 -72s-23.333 -35.167 -40 -45.5s-34 -15.5 -52 -15.5c-29.333 0 -54.5 12.167 -75.5 36.5
s-31.5 56.5 -31.5 96.5c0 28 5 52.167 15 72.5s23.167 35.833 39.5 46.5s33.5 16 51.5 16c31.333 0 57.166 -12.167 77.499 -36.5z" />
    <glyph glyph-name="guillemotright" unicode="&#xbb;" horiz-adv-x="363" 
d="M20 375l123 -130l-123 -130l21 -31l140 145v32l-140 145zM172 375l122 -130l-122 -130l21 -31l140 145v32l-140 145z" />
    <glyph glyph-name="onequarter" unicode="&#xbc;" horiz-adv-x="710" 
d="M136 765l-126 -65l23 -25l84 41v-380h43v429h-24zM75 -134l501 834h-45l-506 -834h50zM605 321h-28l-253 -352l4 -34h233v-98h44v98h81l4 34h-85v352zM371 -31l190 269v-269h-190z" />
    <glyph glyph-name="onehalf" unicode="&#xbd;" horiz-adv-x="758" 
d="M136 765l-126 -65l23 -25l84 41v-380h43v429h-24zM85 -134l501 834h-45l-506 -834h50zM513.5 313.5c-27 -7.66699 -49.833 -16.499 -68.5 -26.499l17 -31c53.333 22.667 94.666 34 123.999 34c30.667 0 53.834 -9.33301 69.501 -28s23.5 -39 23.5 -61
c0 -16 -5.33301 -34.333 -16 -55c-11.333 -21.333 -33.333 -47 -66 -77l-156 -142v-37h297l-6 33h-240l131 116c36 32.667 61.833 61.834 77.5 87.501s23.5 52.5 23.5 80.5c0 19.333 -5 38.166 -15 56.499s-25.333 33.166 -46 44.499s-45.667 17 -75 17
c-22.667 0 -47.5 -3.83301 -74.5 -11.5z" />
    <glyph glyph-name="threequarters" unicode="&#xbe;" horiz-adv-x="773" 
d="M77.5 759.5c-23 -7.66699 -45.834 -18.5 -68.501 -32.5l22 -30c39.333 25.333 80.333 38 123 38c29.333 0 53.333 -8.33301 72 -25s28 -36.667 28 -60c0 -30 -10.167 -53.833 -30.5 -71.5s-50.5 -26.5 -90.5 -26.5h-37l7 -33h25c50 0 85.167 -8.66699 105.5 -26
s30.5 -43.333 30.5 -78c0 -29.333 -11.667 -53 -35 -71s-50.666 -27 -81.999 -27c-26.667 0 -49 2.66699 -67 8s-36.667 13.666 -56 24.999l-24 -32c20 -11.333 42.333 -20.833 67 -28.5s50 -11.5 76 -11.5c51.333 0 91.833 13 121.5 39s44.5 59 44.5 99
c0 32 -7.83301 58.667 -23.5 80s-37.5 35.333 -65.5 42c23.333 8 42.5 22.167 57.5 42.5s22.5 43.833 22.5 70.5c0 34.667 -12.333 63.334 -37 86.001s-60.667 34 -108 34c-28.667 0 -54.5 -3.83301 -77.5 -11.5zM164.999 -134l501 834h-45l-506 -834h50zM667.999 321h-28
l-253 -352l4 -34h233v-98h44v98h81l4 34h-85v352zM433.999 -31l190 269v-269h-190z" />
    <glyph glyph-name="questiondown" unicode="&#xbf;" horiz-adv-x="392" 
d="M265.5 557c7 7.33301 10.5 16.333 10.5 27s-3.5 19.667 -10.5 27s-16.167 11 -27.5 11c-10.667 0 -19.834 -3.66699 -27.501 -11s-11.5 -16.333 -11.5 -27s3.83301 -19.667 11.5 -27s16.834 -11 27.501 -11c11.333 0 20.5 3.66699 27.5 11zM307 -62.5
c30.667 11.667 55.666 26.166 74.999 43.499l-8 41c-30 -21.333 -56.833 -36.833 -80.5 -46.5s-52.167 -14.5 -85.5 -14.5c-38.667 0 -69.167 10.833 -91.5 32.5s-33.5 52.167 -33.5 91.5c0 38 15.167 72.333 45.5 103s71.833 54.334 124.5 71.001l-7 205l-33 21l-10 -195
c-54.667 -24 -97.167 -54.667 -127.5 -92s-45.5 -75.333 -45.5 -114c0 -50 15 -89.833 45 -119.5s73.667 -44.5 131 -44.5c36.667 0 70.334 5.83301 101.001 17.5z" />
    <glyph glyph-name="Agrave" unicode="&#xc0;" 
d="M59 0l77 213h295l81 -219l50 11l-259 675h-46l-247 -680h49zM281 614l136 -362h-267zM262 892h-61l85 -153l32 11z" />
    <glyph glyph-name="Aacute" unicode="&#xc1;" 
d="M59 0l77 213h295l81 -219l50 11l-259 675h-46l-247 -680h49zM281 614l136 -362h-267zM295 892l-56 -142l32 -11l85 153h-61z" />
    <glyph glyph-name="Acircumflex" unicode="&#xc2;" 
d="M59 0l77 213h295l81 -219l50 11l-259 675h-46l-247 -680h49zM281 614l136 -362h-267zM412 754l-105 139h-40l-106 -143l41 -10l86 118l83 -118z" />
    <glyph glyph-name="Atilde" unicode="&#xc3;" 
d="M59 0l77 213h295l81 -219l50 11l-259 675h-46l-247 -680h49zM281 614l136 -362h-267zM363.5 810.5c-7.66699 -9.66699 -18.166 -14.5 -31.499 -14.5c-16.667 0 -32.667 9.66699 -48 29c-14.667 18.667 -36.334 28 -65.001 28c-24 0 -43.833 -7.66699 -59.5 -23
s-23.5 -38 -23.5 -68h39c3.33301 35.333 18.333 53 45 53c16.667 0 34 -9.33301 52 -28c17.333 -19.333 37.333 -29 60 -29c24 0 43.833 7.66699 59.5 23s23.5 38 23.5 68h-38c-1.33301 -16 -5.83301 -28.833 -13.5 -38.5z" />
    <glyph glyph-name="Adieresis" unicode="&#xc4;" 
d="M59 0l77 213h295l81 -219l50 11l-259 675h-46l-247 -680h49zM281 614l136 -362h-267zM225 778.5c7.33301 7 11 15.834 11 26.501c0 10 -3.66699 18.5 -11 25.5s-16 10.5 -26 10.5c-11.333 0 -20.333 -3.33301 -27 -10s-10 -15.334 -10 -26.001s3.33301 -19.5 10 -26.5
s15.667 -10.5 27 -10.5c10 0 18.667 3.5 26 10.5zM384 778.501c7.33301 7 11 15.834 11 26.501c0 10 -3.66699 18.5 -11 25.5s-16 10.5 -26 10.5c-11.333 0 -20.333 -3.33301 -27 -10s-10 -15.334 -10 -26.001s3.33301 -19.5 10 -26.5s15.667 -10.5 27 -10.5
c10 0 18.667 3.5 26 10.5z" />
    <glyph glyph-name="Aring" unicode="&#xc5;" 
d="M59 0l77 213h295l81 -219l50 11l-259 675h-46l-247 -680h49zM281 614l136 -362h-267zM216.5 885c-17.667 -16 -26.5 -36 -26.5 -60c0 -23.333 8.66699 -42.666 26 -57.999s38.333 -23 63 -23s45.5 7.66699 62.5 23s25.5 34.666 25.5 57.999c0 24 -8.66699 44 -26 60
s-38 24 -62 24s-44.833 -8 -62.5 -24zM243 788.5c-9.33301 9.66699 -14 21.834 -14 36.501c0 15.333 4.66699 28 14 38s21.333 15 36 15s26.5 -5 35.5 -15s13.5 -22.667 13.5 -38c0 -14.667 -4.5 -26.834 -13.5 -36.501s-20.833 -14.5 -35.5 -14.5s-26.667 4.83301 -36 14.5
z" />
    <glyph glyph-name="AE" unicode="&#xc6;" horiz-adv-x="829" 
d="M803 39h-320v290h245l-5 39h-240v273h303l-5 39h-355l-416 -675l50 -10l130 218h244v-213h375zM214 252l220 359v-359h-220z" />
    <glyph glyph-name="Ccedilla" unicode="&#xc7;" horiz-adv-x="553" 
d="M453.5 -1.5c-29 -7 -56.8359 -11.165 -83.5029 -12.498l-15 -37c28.667 -5.33301 51 -16.166 67 -32.499s24 -33.833 24 -52.5c0 -25.333 -10 -45.833 -30 -61.5s-46.333 -23.5 -79 -23.5c-12.667 0 -26.667 1.83301 -42 5.5s-27 8.16699 -35 13.5l15 31
c22.667 -9.33301 42.334 -14 59.001 -14c20 0 36.667 4.66699 50 14s20 20.333 20 33c0 15.333 -9 29.333 -27 42s-42 19 -72 19l24 64c-61.333 4 -112.833 22.167 -154.5 54.5s-72.834 74.166 -93.501 125.499s-31 107.666 -31 168.999c0 66.667 12.333 127.167 37 181.5
s60.5 97.333 107.5 129s102.167 47.5 165.5 47.5c24.667 0 53.834 -3.33301 87.501 -10s58.834 -15.667 75.501 -27l-20 -36c-25.333 10.667 -47.666 18.334 -66.999 23.001s-45.333 7 -78 7c-48 -0.666992 -91.167 -13.834 -129.5 -39.501s-68.5 -62.167 -90.5 -109.5
s-33 -102.333 -33 -165c0 -55.333 9.66699 -106.5 29 -153.5s47.5 -84.5 84.5 -112.5s80.5 -42 130.5 -42c32.667 0 60.5 2.66699 83.5 8s45.167 12.666 66.5 21.999l24 -36c-17.333 -9.33301 -40.5 -17.5 -69.5 -24.5z" />
    <glyph glyph-name="Egrave" unicode="&#xc8;" horiz-adv-x="495" 
d="M149 39v290h245l-5 39h-240v273h303l-5 39h-347v-680h375l-6 39h-320zM256 892h-61l85 -153l32 11z" />
    <glyph glyph-name="Eacute" unicode="&#xc9;" horiz-adv-x="495" 
d="M149 39v290h245l-5 39h-240v273h303l-5 39h-347v-680h375l-6 39h-320zM289 892l-56 -142l32 -11l85 153h-61z" />
    <glyph glyph-name="Ecircumflex" unicode="&#xca;" horiz-adv-x="495" 
d="M149 39v290h245l-5 39h-240v273h303l-5 39h-347v-680h375l-6 39h-320zM406 754l-105 139h-40l-106 -143l41 -10l86 118l83 -118z" />
    <glyph glyph-name="Edieresis" unicode="&#xcb;" horiz-adv-x="495" 
d="M149 39v290h245l-5 39h-240v273h303l-5 39h-347v-680h375l-6 39h-320zM219 778.5c7.33301 7 11 15.834 11 26.501c0 10 -3.66699 18.5 -11 25.5s-16 10.5 -26 10.5c-11.333 0 -20.333 -3.33301 -27 -10s-10 -15.334 -10 -26.001s3.33301 -19.5 10 -26.5
s15.667 -10.5 27 -10.5c10 0 18.667 3.5 26 10.5zM378 778.501c7.33301 7 11 15.834 11 26.501c0 10 -3.66699 18.5 -11 25.5s-16 10.5 -26 10.5c-11.333 0 -20.333 -3.33301 -27 -10s-10 -15.334 -10 -26.001s3.33301 -19.5 10 -26.5s15.667 -10.5 27 -10.5
c10 0 18.667 3.5 26 10.5z" />
    <glyph glyph-name="Igrave" unicode="&#xcc;" horiz-adv-x="249" 
d="M100 680v-680h49v680h-49zM106 892h-61l85 -153l32 11z" />
    <glyph glyph-name="Iacute" unicode="&#xcd;" horiz-adv-x="249" 
d="M100 680v-680h49v680h-49zM139 892l-56 -142l32 -11l85 153h-61z" />
    <glyph glyph-name="Icircumflex" unicode="&#xce;" horiz-adv-x="249" 
d="M100 680v-680h49v680h-49zM256 754l-105 139h-40l-106 -143l41 -10l86 118l83 -118z" />
    <glyph glyph-name="Idieresis" unicode="&#xcf;" horiz-adv-x="249" 
d="M100 680v-680h49v680h-49zM69 778.5c7.33301 7 11 15.834 11 26.501c0 10 -3.66699 18.5 -11 25.5s-16 10.5 -26 10.5c-11.333 0 -20.333 -3.33301 -27 -10s-10 -15.334 -10 -26.001s3.33301 -19.5 10 -26.5s15.667 -10.5 27 -10.5c10 0 18.667 3.5 26 10.5zM228 778.501
c7.33301 7 11 15.834 11 26.501c0 10 -3.66699 18.5 -11 25.5s-16 10.5 -26 10.5c-11.333 0 -20.333 -3.33301 -27 -10s-10 -15.334 -10 -26.001s3.33301 -19.5 10 -26.5s15.667 -10.5 27 -10.5c10 0 18.667 3.5 26 10.5z" />
    <glyph glyph-name="Eth" unicode="&#xd0;" horiz-adv-x="662" 
d="M542 587c46.667 -62 69.999 -143 69.999 -243c0 -64.667 -10.667 -123 -32 -175s-53.833 -93.167 -97.5 -123.5s-97.5 -45.5 -161.5 -45.5h-221v314h-80l-10 39h90v327h224c98.667 0 171.334 -31 218.001 -93zM446.499 78.5c36.333 26.333 64.5 62.5 84.5 108.5
s30 98 30 156c0 55.333 -8.5 105.5 -25.5 150.5s-42.667 80.833 -77 107.5s-76.5 40 -126.5 40h-183v-288h109l10 -39h-119v-275h173c46.667 0 88.167 13.167 124.5 39.5z" />
    <glyph glyph-name="Ntilde" unicode="&#xd1;" horiz-adv-x="658" 
d="M163 545l368 -545h27v680h-49v-569l-34 59l-347 510h-28v-680h49v574zM412.5 810.5c-7.66699 -9.66699 -18.166 -14.5 -31.499 -14.5c-16.667 0 -32.667 9.66699 -48 29c-14.667 18.667 -36.334 28 -65.001 28c-24 0 -43.833 -7.66699 -59.5 -23s-23.5 -38 -23.5 -68h39
c3.33301 35.333 18.333 53 45 53c16.667 0 34 -9.33301 52 -28c17.333 -19.333 37.333 -29 60 -29c24 0 43.833 7.66699 59.5 23s23.5 38 23.5 68h-38c-1.33301 -16 -5.83301 -28.833 -13.5 -38.5z" />
    <glyph glyph-name="Ograve" unicode="&#xd2;" horiz-adv-x="707" 
d="M199 649.5c-46.667 -31 -83.165 -73.667 -109.498 -128s-39.5 -115.833 -39.5 -184.5c0 -67.333 12.833 -127.666 38.5 -180.999s61.5 -95 107.5 -125s97.667 -45 155 -45c58 0 110.333 15.5 157 46.5s83.167 73.667 109.5 128s39.5 115.833 39.5 184.5
c0 67.333 -12.833 127.666 -38.5 180.999s-61.334 95 -107.001 125s-97.167 45 -154.5 45c-58.667 0 -111.334 -15.5 -158.001 -46.5zM137.502 500c21.667 48 51.667 85.668 90 113.001s81.833 41 130.5 41c46.667 0 88.5 -13.333 125.5 -40s66 -63.5 87 -110.5
s31.5 -100.167 31.5 -159.5c0 -60.667 -10.833 -115 -32.5 -163s-51.667 -85.667 -90 -113s-81.833 -41 -130.5 -41c-46.667 0 -88.5 13.333 -125.5 40s-66 63.667 -87 111s-31.5 100.666 -31.5 159.999c0 60 10.833 114 32.5 162zM338.002 892.001h-61l85 -153l32 11z" />
    <glyph glyph-name="Oacute" unicode="&#xd3;" horiz-adv-x="707" 
d="M199 649.5c-46.667 -31 -83.165 -73.667 -109.498 -128s-39.5 -115.833 -39.5 -184.5c0 -67.333 12.833 -127.666 38.5 -180.999s61.5 -95 107.5 -125s97.667 -45 155 -45c58 0 110.333 15.5 157 46.5s83.167 73.667 109.5 128s39.5 115.833 39.5 184.5
c0 67.333 -12.833 127.666 -38.5 180.999s-61.334 95 -107.001 125s-97.167 45 -154.5 45c-58.667 0 -111.334 -15.5 -158.001 -46.5zM137.502 500c21.667 48 51.667 85.668 90 113.001s81.833 41 130.5 41c46.667 0 88.5 -13.333 125.5 -40s66 -63.5 87 -110.5
s31.5 -100.167 31.5 -159.5c0 -60.667 -10.833 -115 -32.5 -163s-51.667 -85.667 -90 -113s-81.833 -41 -130.5 -41c-46.667 0 -88.5 13.333 -125.5 40s-66 63.667 -87 111s-31.5 100.666 -31.5 159.999c0 60 10.833 114 32.5 162zM371.002 892.001l-56 -142l32 -11l85 153
h-61z" />
    <glyph glyph-name="Ocircumflex" unicode="&#xd4;" horiz-adv-x="707" 
d="M199 649.5c-46.667 -31 -83.165 -73.667 -109.498 -128s-39.5 -115.833 -39.5 -184.5c0 -67.333 12.833 -127.666 38.5 -180.999s61.5 -95 107.5 -125s97.667 -45 155 -45c58 0 110.333 15.5 157 46.5s83.167 73.667 109.5 128s39.5 115.833 39.5 184.5
c0 67.333 -12.833 127.666 -38.5 180.999s-61.334 95 -107.001 125s-97.167 45 -154.5 45c-58.667 0 -111.334 -15.5 -158.001 -46.5zM137.502 500c21.667 48 51.667 85.668 90 113.001s81.833 41 130.5 41c46.667 0 88.5 -13.333 125.5 -40s66 -63.5 87 -110.5
s31.5 -100.167 31.5 -159.5c0 -60.667 -10.833 -115 -32.5 -163s-51.667 -85.667 -90 -113s-81.833 -41 -130.5 -41c-46.667 0 -88.5 13.333 -125.5 40s-66 63.667 -87 111s-31.5 100.666 -31.5 159.999c0 60 10.833 114 32.5 162zM488.002 754.001l-105 139h-40l-106 -143
l41 -10l86 118l83 -118z" />
    <glyph glyph-name="Otilde" unicode="&#xd5;" horiz-adv-x="707" 
d="M199 649.5c-46.667 -31 -83.165 -73.667 -109.498 -128s-39.5 -115.833 -39.5 -184.5c0 -67.333 12.833 -127.666 38.5 -180.999s61.5 -95 107.5 -125s97.667 -45 155 -45c58 0 110.333 15.5 157 46.5s83.167 73.667 109.5 128s39.5 115.833 39.5 184.5
c0 67.333 -12.833 127.666 -38.5 180.999s-61.334 95 -107.001 125s-97.167 45 -154.5 45c-58.667 0 -111.334 -15.5 -158.001 -46.5zM137.502 500c21.667 48 51.667 85.668 90 113.001s81.833 41 130.5 41c46.667 0 88.5 -13.333 125.5 -40s66 -63.5 87 -110.5
s31.5 -100.167 31.5 -159.5c0 -60.667 -10.833 -115 -32.5 -163s-51.667 -85.667 -90 -113s-81.833 -41 -130.5 -41c-46.667 0 -88.5 13.333 -125.5 40s-66 63.667 -87 111s-31.5 100.666 -31.5 159.999c0 60 10.833 114 32.5 162zM439.502 810.501
c-7.66699 -9.66699 -18.166 -14.5 -31.499 -14.5c-16.667 0 -32.667 9.66699 -48 29c-14.667 18.667 -36.334 28 -65.001 28c-24 0 -43.833 -7.66699 -59.5 -23s-23.5 -38 -23.5 -68h39c3.33301 35.333 18.333 53 45 53c16.667 0 34 -9.33301 52 -28
c17.333 -19.333 37.333 -29 60 -29c24 0 43.833 7.66699 59.5 23s23.5 38 23.5 68h-38c-1.33301 -16 -5.83301 -28.833 -13.5 -38.5z" />
    <glyph glyph-name="Odieresis" unicode="&#xd6;" horiz-adv-x="707" 
d="M199 649.5c-46.667 -31 -83.165 -73.667 -109.498 -128s-39.5 -115.833 -39.5 -184.5c0 -67.333 12.833 -127.666 38.5 -180.999s61.5 -95 107.5 -125s97.667 -45 155 -45c58 0 110.333 15.5 157 46.5s83.167 73.667 109.5 128s39.5 115.833 39.5 184.5
c0 67.333 -12.833 127.666 -38.5 180.999s-61.334 95 -107.001 125s-97.167 45 -154.5 45c-58.667 0 -111.334 -15.5 -158.001 -46.5zM137.502 500c21.667 48 51.667 85.668 90 113.001s81.833 41 130.5 41c46.667 0 88.5 -13.333 125.5 -40s66 -63.5 87 -110.5
s31.5 -100.167 31.5 -159.5c0 -60.667 -10.833 -115 -32.5 -163s-51.667 -85.667 -90 -113s-81.833 -41 -130.5 -41c-46.667 0 -88.5 13.333 -125.5 40s-66 63.667 -87 111s-31.5 100.666 -31.5 159.999c0 60 10.833 114 32.5 162zM301.002 778.501
c7.33301 7 11 15.834 11 26.501c0 10 -3.66699 18.5 -11 25.5s-16 10.5 -26 10.5c-11.333 0 -20.333 -3.33301 -27 -10s-10 -15.334 -10 -26.001s3.33301 -19.5 10 -26.5s15.667 -10.5 27 -10.5c10 0 18.667 3.5 26 10.5zM460.002 778.502c7.33301 7 11 15.834 11 26.501
c0 10 -3.66699 18.5 -11 25.5s-16 10.5 -26 10.5c-11.333 0 -20.333 -3.33301 -27 -10s-10 -15.334 -10 -26.001s3.33301 -19.5 10 -26.5s15.667 -10.5 27 -10.5c10 0 18.667 3.5 26 10.5z" />
    <glyph glyph-name="multiply" unicode="&#xd7;" horiz-adv-x="470" 
d="M374 31l-143 176l-150 -176h-51l183 219l-166 214h49l140 -176l153 176h51l-183 -219l166 -214h-49z" />
    <glyph glyph-name="Oslash" unicode="&#xd8;" horiz-adv-x="707" 
d="M511.5 651c45.667 -30 81.332 -71.667 106.999 -125s38.5 -113.666 38.5 -180.999c0 -68.667 -13.167 -130.167 -39.5 -184.5s-62.833 -97 -109.5 -128s-99 -46.5 -157 -46.5c-57.333 0 -109 15 -155 45s-81.833 71.667 -107.5 125s-38.5 113.666 -38.5 180.999
c0 68.667 13.167 130.167 39.5 184.5s62.833 97 109.5 128s99.334 46.5 158.001 46.5c57.333 0 108.833 -15 154.5 -45zM133.998 184c19.333 -46 46 -82.667 80 -110l238 559c-28 14 -59.333 21 -94 21c-48.667 0 -92.167 -13.667 -130.5 -41s-68.333 -65 -90 -113
s-32.5 -102 -32.5 -162c0 -56.667 9.66699 -108 29 -154zM479.498 68c38.333 27.333 68.333 64.998 90 112.998s32.5 102.333 32.5 163c0 56.667 -9.5 107.834 -28.5 153.501s-45.167 81.834 -78.5 108.501l-239 -558c28 -14 59 -21 93 -21c48.667 0 92.167 13.667 130.5 41
z" />
    <glyph glyph-name="Ugrave" unicode="&#xd9;" horiz-adv-x="658" 
d="M90 239c0 -48.667 9.33203 -91.998 27.999 -129.998s46 -67.667 82 -89s79 -32 129 -32c50.667 0 93.834 10.667 129.501 32s62.834 51 81.501 89s28 81.333 28 130v441h-49v-444c0 -38.667 -7.66699 -73.834 -23 -105.501s-37.333 -56.5 -66 -74.5
s-62.334 -27 -101.001 -27c-37.333 0 -70.5 9.16699 -99.5 27.5s-51.333 43.166 -67 74.499s-23.5 66.333 -23.5 105v444h-49v-441zM309.999 892.002h-61l85 -153l32 11z" />
    <glyph glyph-name="Uacute" unicode="&#xda;" horiz-adv-x="658" 
d="M90 239c0 -48.667 9.33203 -91.998 27.999 -129.998s46 -67.667 82 -89s79 -32 129 -32c50.667 0 93.834 10.667 129.501 32s62.834 51 81.501 89s28 81.333 28 130v441h-49v-444c0 -38.667 -7.66699 -73.834 -23 -105.501s-37.333 -56.5 -66 -74.5
s-62.334 -27 -101.001 -27c-37.333 0 -70.5 9.16699 -99.5 27.5s-51.333 43.166 -67 74.499s-23.5 66.333 -23.5 105v444h-49v-441zM342.999 892.002l-56 -142l32 -11l85 153h-61z" />
    <glyph glyph-name="Ucircumflex" unicode="&#xdb;" horiz-adv-x="658" 
d="M90 239c0 -48.667 9.33203 -91.998 27.999 -129.998s46 -67.667 82 -89s79 -32 129 -32c50.667 0 93.834 10.667 129.501 32s62.834 51 81.501 89s28 81.333 28 130v441h-49v-444c0 -38.667 -7.66699 -73.834 -23 -105.501s-37.333 -56.5 -66 -74.5
s-62.334 -27 -101.001 -27c-37.333 0 -70.5 9.16699 -99.5 27.5s-51.333 43.166 -67 74.499s-23.5 66.333 -23.5 105v444h-49v-441zM459.999 754.002l-105 139h-40l-106 -143l41 -10l86 118l83 -118z" />
    <glyph glyph-name="Udieresis" unicode="&#xdc;" horiz-adv-x="658" 
d="M90 239c0 -48.667 9.33203 -91.998 27.999 -129.998s46 -67.667 82 -89s79 -32 129 -32c50.667 0 93.834 10.667 129.501 32s62.834 51 81.501 89s28 81.333 28 130v441h-49v-444c0 -38.667 -7.66699 -73.834 -23 -105.501s-37.333 -56.5 -66 -74.5
s-62.334 -27 -101.001 -27c-37.333 0 -70.5 9.16699 -99.5 27.5s-51.333 43.166 -67 74.499s-23.5 66.333 -23.5 105v444h-49v-441zM272.999 778.502c7.33301 7 11 15.834 11 26.501c0 10 -3.66699 18.5 -11 25.5s-16 10.5 -26 10.5c-11.333 0 -20.333 -3.33301 -27 -10
s-10 -15.334 -10 -26.001s3.33301 -19.5 10 -26.5s15.667 -10.5 27 -10.5c10 0 18.667 3.5 26 10.5zM431.999 778.503c7.33301 7 11 15.834 11 26.501c0 10 -3.66699 18.5 -11 25.5s-16 10.5 -26 10.5c-11.333 0 -20.333 -3.33301 -27 -10s-10 -15.334 -10 -26.001
s3.33301 -19.5 10 -26.5s15.667 -10.5 27 -10.5c10 0 18.667 3.5 26 10.5z" />
    <glyph glyph-name="Yacute" unicode="&#xdd;" horiz-adv-x="530" 
d="M520 680h-57l-204 -359l-200 368l-49 -21l225 -399v-269h49v274zM273 892l-56 -142l32 -11l85 153h-61z" />
    <glyph glyph-name="Thorn" unicode="&#xde;" horiz-adv-x="548" 
d="M442 550.5c44 -33 66 -84.833 66 -155.5c0 -70 -23.833 -122.667 -71.5 -158s-109.167 -53 -184.5 -53h-103v-184h-49v680h49v-80h114c75.333 0 135 -16.5 179 -49.5zM403 267.5c36.667 29.667 54.999 71.833 54.999 126.5c0 56.667 -16.167 98.5 -48.5 125.5
s-77.166 40.5 -134.499 40.5h-126v-337h115c56 0 102.333 14.833 139 44.5z" />
    <glyph glyph-name="germandbls" unicode="&#xdf;" horiz-adv-x="544" 
d="M130 473c0 48 13.001 87.666 39.001 118.999s62.667 47 110 47c38 0 69.833 -12.167 95.5 -36.5s38.5 -57.833 38.5 -100.5c0 -43.333 -12.833 -75.833 -38.5 -97.5s-67.834 -32.5 -126.501 -32.5h-27v-39h45c56.667 0 101 -12.167 133 -36.5s48 -61.166 48 -110.499
c0 -50 -17.5 -87 -52.5 -111s-81.167 -36 -138.5 -36h-51v-39h38c78 0 140.167 14.667 186.5 44s69.5 77.333 69.5 144c0 42 -12.167 77.833 -36.5 107.5s-55.5 49.834 -93.5 60.501c30.667 12.667 54.334 31.667 71.001 57s25 55.333 25 90c0 56 -17.833 99.5 -53.5 130.5
s-80.834 46.5 -135.501 46.5c-62 0 -110.167 -18.333 -144.5 -55s-51.5 -87.334 -51.5 -152.001v-473h50v473z" />
    <glyph glyph-name="agrave" unicode="&#xe0;" horiz-adv-x="475" 
d="M171 449c19.333 5.33301 43.667 8 73 8c38 0 66.833 -10.5 86.5 -31.5s29.5 -49.167 29.5 -84.5v-60h-135c-51.333 0 -93 -12.833 -125 -38.5s-48 -61.167 -48 -106.5c0 -44 14 -79.833 42 -107.5s68.333 -41.5 121 -41.5c29.333 0 57 6 83 18s47.667 27.667 65 47l8 -52
h38v340c0 48.667 -14.5 87.167 -43.5 115.5s-70.5 42.5 -124.5 42.5c-22 0 -49 -4 -81 -12s-56.667 -18 -74 -30l19 -33c24.667 12 46.667 20.667 66 26zM134.501 214c21 20 52.501 30 94.501 30h131v-135c-16.667 -24.667 -36.834 -44.334 -60.501 -59.001
s-50.5 -22 -80.5 -22c-35.333 0 -63.5 10.333 -84.5 31s-31.5 46.334 -31.5 77.001c0 32 10.5 58 31.5 78zM219.002 742h-61l85 -153l32 11z" />
    <glyph glyph-name="aacute" unicode="&#xe1;" horiz-adv-x="475" 
d="M171 449c19.333 5.33301 43.667 8 73 8c38 0 66.833 -10.5 86.5 -31.5s29.5 -49.167 29.5 -84.5v-60h-135c-51.333 0 -93 -12.833 -125 -38.5s-48 -61.167 -48 -106.5c0 -44 14 -79.833 42 -107.5s68.333 -41.5 121 -41.5c29.333 0 57 6 83 18s47.667 27.667 65 47l8 -52
h38v340c0 48.667 -14.5 87.167 -43.5 115.5s-70.5 42.5 -124.5 42.5c-22 0 -49 -4 -81 -12s-56.667 -18 -74 -30l19 -33c24.667 12 46.667 20.667 66 26zM134.501 214c21 20 52.501 30 94.501 30h131v-135c-16.667 -24.667 -36.834 -44.334 -60.501 -59.001
s-50.5 -22 -80.5 -22c-35.333 0 -63.5 10.333 -84.5 31s-31.5 46.334 -31.5 77.001c0 32 10.5 58 31.5 78zM253.002 742l-56 -142l32 -11l85 153h-61z" />
    <glyph glyph-name="acircumflex" unicode="&#xe2;" horiz-adv-x="475" 
d="M171 449c19.333 5.33301 43.667 8 73 8c38 0 66.833 -10.5 86.5 -31.5s29.5 -49.167 29.5 -84.5v-60h-135c-51.333 0 -93 -12.833 -125 -38.5s-48 -61.167 -48 -106.5c0 -44 14 -79.833 42 -107.5s68.333 -41.5 121 -41.5c29.333 0 57 6 83 18s47.667 27.667 65 47l8 -52
h38v340c0 48.667 -14.5 87.167 -43.5 115.5s-70.5 42.5 -124.5 42.5c-22 0 -49 -4 -81 -12s-56.667 -18 -74 -30l19 -33c24.667 12 46.667 20.667 66 26zM134.501 214c21 20 52.501 30 94.501 30h131v-135c-16.667 -24.667 -36.834 -44.334 -60.501 -59.001
s-50.5 -22 -80.5 -22c-35.333 0 -63.5 10.333 -84.5 31s-31.5 46.334 -31.5 77.001c0 32 10.5 58 31.5 78zM375.002 603l-105 139h-40l-106 -143l41 -10l86 118l83 -118z" />
    <glyph glyph-name="atilde" unicode="&#xe3;" horiz-adv-x="475" 
d="M171 449c19.333 5.33301 43.667 8 73 8c38 0 66.833 -10.5 86.5 -31.5s29.5 -49.167 29.5 -84.5v-60h-135c-51.333 0 -93 -12.833 -125 -38.5s-48 -61.167 -48 -106.5c0 -44 14 -79.833 42 -107.5s68.333 -41.5 121 -41.5c29.333 0 57 6 83 18s47.667 27.667 65 47l8 -52
h38v340c0 48.667 -14.5 87.167 -43.5 115.5s-70.5 42.5 -124.5 42.5c-22 0 -49 -4 -81 -12s-56.667 -18 -74 -30l19 -33c24.667 12 46.667 20.667 66 26zM134.501 214c21 20 52.501 30 94.501 30h131v-135c-16.667 -24.667 -36.834 -44.334 -60.501 -59.001
s-50.5 -22 -80.5 -22c-35.333 0 -63.5 10.333 -84.5 31s-31.5 46.334 -31.5 77.001c0 32 10.5 58 31.5 78zM328.502 660.5c-7.66699 -9.66699 -18.166 -14.5 -31.499 -14.5c-16.667 0 -32.667 9.66699 -48 29c-14.667 18.667 -36.334 28 -65.001 28
c-24 0 -43.833 -7.66699 -59.5 -23s-23.5 -38 -23.5 -68h39c3.33301 35.333 18.333 53 45 53c16.667 0 34 -9.33301 52 -28c17.333 -19.333 37.333 -29 60 -29c24 0 43.833 7.66699 59.5 23s23.5 38 23.5 68h-38c-1.33301 -16 -5.83301 -28.833 -13.5 -38.5z" />
    <glyph glyph-name="adieresis" unicode="&#xe4;" horiz-adv-x="475" 
d="M171 449c19.333 5.33301 43.667 8 73 8c38 0 66.833 -10.5 86.5 -31.5s29.5 -49.167 29.5 -84.5v-60h-135c-51.333 0 -93 -12.833 -125 -38.5s-48 -61.167 -48 -106.5c0 -44 14 -79.833 42 -107.5s68.333 -41.5 121 -41.5c29.333 0 57 6 83 18s47.667 27.667 65 47l8 -52
h38v340c0 48.667 -14.5 87.167 -43.5 115.5s-70.5 42.5 -124.5 42.5c-22 0 -49 -4 -81 -12s-56.667 -18 -74 -30l19 -33c24.667 12 46.667 20.667 66 26zM134.501 214c21 20 52.501 30 94.501 30h131v-135c-16.667 -24.667 -36.834 -44.334 -60.501 -59.001
s-50.5 -22 -80.5 -22c-35.333 0 -63.5 10.333 -84.5 31s-31.5 46.334 -31.5 77.001c0 32 10.5 58 31.5 78zM190.002 628.5c7.33301 7 11 15.834 11 26.501c0 10 -3.66699 18.5 -11 25.5s-16 10.5 -26 10.5c-11.333 0 -20.333 -3.33301 -27 -10s-10 -15.334 -10 -26.001
s3.33301 -19.5 10 -26.5s15.667 -10.5 27 -10.5c10 0 18.667 3.5 26 10.5zM349.002 628.501c7.33301 7 11 15.834 11 26.501c0 10 -3.66699 18.5 -11 25.5s-16 10.5 -26 10.5c-11.333 0 -20.333 -3.33301 -27 -10s-10 -15.334 -10 -26.001s3.33301 -19.5 10 -26.5
s15.667 -10.5 27 -10.5c10 0 18.667 3.5 26 10.5z" />
    <glyph glyph-name="aring" unicode="&#xe5;" horiz-adv-x="475" 
d="M171 449c19.333 5.33301 43.667 8 73 8c38 0 66.833 -10.5 86.5 -31.5s29.5 -49.167 29.5 -84.5v-60h-135c-51.333 0 -93 -12.833 -125 -38.5s-48 -61.167 -48 -106.5c0 -44 14 -79.833 42 -107.5s68.333 -41.5 121 -41.5c29.333 0 57 6 83 18s47.667 27.667 65 47l8 -52
h38v340c0 48.667 -14.5 87.167 -43.5 115.5s-70.5 42.5 -124.5 42.5c-22 0 -49 -4 -81 -12s-56.667 -18 -74 -30l19 -33c24.667 12 46.667 20.667 66 26zM134.501 214c21 20 52.501 30 94.501 30h131v-135c-16.667 -24.667 -36.834 -44.334 -60.501 -59.001
s-50.5 -22 -80.5 -22c-35.333 0 -63.5 10.333 -84.5 31s-31.5 46.334 -31.5 77.001c0 32 10.5 58 31.5 78zM175.502 735c-17.667 -16 -26.5 -36 -26.5 -60c0 -23.333 8.66699 -42.666 26 -57.999s38.333 -23 63 -23s45.5 7.66699 62.5 23s25.5 34.666 25.5 57.999
c0 24 -8.66699 44 -26 60s-38 24 -62 24s-44.833 -8 -62.5 -24zM202.002 638.5c-9.33301 9.66699 -14 21.834 -14 36.501c0 15.333 4.66699 28 14 38s21.333 15 36 15s26.5 -5 35.5 -15s13.5 -22.667 13.5 -38c0 -14.667 -4.5 -26.834 -13.5 -36.501
s-20.833 -14.5 -35.5 -14.5s-26.667 4.83301 -36 14.5z" />
    <glyph glyph-name="ae" unicode="&#xe6;" horiz-adv-x="795" 
d="M657 37c21.333 6 42.3301 14.333 62.9971 25l20 -37c-18.667 -11.333 -43.5 -20.5 -74.5 -27.5s-57.833 -10.5 -80.5 -10.5c-44 0 -81.833 8 -113.5 24s-56.834 38.667 -75.501 68c-18.667 -30 -42.167 -52.833 -70.5 -68.5s-65.166 -23.5 -110.499 -23.5
c-52.667 0 -93 13.833 -121 41.5s-42 63.5 -42 107.5c0 45.333 16 80.833 48 106.5s73.667 38.5 125 38.5h131c1.33301 12 2.66602 21.667 3.99902 29v31c0 35.333 -9.83301 63.5 -29.5 84.5s-48.5 31.5 -86.5 31.5c-29.333 0 -53.666 -2.66699 -72.999 -8
s-41.333 -14 -66 -26l-19 33c17.333 12 42 22 74 30s59 12 81 12c40 0 73 -7.66699 99 -23s44.667 -37 56 -65c18 28 41.333 49.667 70 65s62.334 23 101.001 23c36.667 0 69.334 -11 98.001 -33s50.834 -52.5 66.501 -91.5s23.5 -82.833 23.5 -131.5h-349
c0.666992 -62.667 15.167 -114 43.5 -154s70.833 -60 127.5 -60c32 0 58.667 3 80 9zM453.497 406.5c-25.667 -33.667 -40.832 -76.167 -45.499 -127.5h295c-5.33301 52.667 -19.333 95.5 -42 128.5s-56.334 49.5 -101.001 49.5c-45.333 0 -80.833 -16.833 -106.5 -50.5z
M312.499 52.5c25 16.333 46.167 38.834 63.5 67.501c-14 36 -21 77.333 -21 124h-126c-42 0 -73.5 -10 -94.5 -30s-31.5 -46 -31.5 -78c0 -30.667 10.5 -56.334 31.5 -77.001s49.167 -31 84.5 -31c37.333 0 68.5 8.16699 93.5 24.5z" />
    <glyph glyph-name="ccedilla" unicode="&#xe7;" horiz-adv-x="449" 
d="M345 1c-25.333 -7.33301 -48.666 -11.668 -69.999 -13.001l-15 -39c28.667 -5.33301 51 -16.166 67 -32.499s24 -33.833 24 -52.5c0 -25.333 -10 -45.833 -30 -61.5s-46.333 -23.5 -79 -23.5c-12.667 0 -26.667 1.83301 -42 5.5s-27 8.16699 -35 13.5l15 31
c22.667 -9.33301 42.334 -14 59.001 -14c20 0 36.667 4.66699 50 14s20 20.333 20 33c0 15.333 -9 29.333 -27 42s-42 19 -72 19l25 65c-62.667 6 -110.834 32.167 -144.501 78.5s-50.5 105.833 -50.5 178.5c0 48.667 9 92.167 27 130.5s44 68.333 78 90
s74.333 32.5 121 32.5c20.667 0 45.667 -4 75 -12s53.333 -18 72 -30l-20 -33c-23.333 11.333 -44 19.833 -62 25.5s-40.333 8.5 -67 8.5c-34.667 0 -65.167 -9.5 -91.5 -28.5s-46.5 -44.667 -60.5 -77s-21 -67.5 -21 -105.5c0 -40.667 6.5 -77.5 19.5 -110.5
s32.167 -59.167 57.5 -78.5s55.666 -29 90.999 -29c20.667 0 38.334 1.5 53.001 4.5s28.167 7.16699 40.5 12.5s24.166 11 35.499 17l20 -34c-16.667 -10.667 -37.667 -19.667 -63 -27z" />
    <glyph glyph-name="egrave" unicode="&#xe8;" horiz-adv-x="480" 
d="M416.5 373.5c-15.667 39 -37.832 69.501 -66.499 91.501s-61.334 33 -98.001 33c-68.667 0 -121.167 -23.167 -157.5 -69.5s-54.5 -107.5 -54.5 -183.5c0 -78.667 19.167 -141.334 57.5 -188.001s95.833 -70 172.5 -70c22.667 0 49.5 3.5 80.5 10.5
s55.833 16.167 74.5 27.5l-20 37c-20.667 -10.667 -41.667 -19 -63 -25s-48 -9 -80 -9c-56.667 0 -99.167 20 -127.5 60s-42.833 91.333 -43.5 154h349c0 48.667 -7.83301 92.5 -23.5 131.5zM138.502 406.501c25.667 33.667 61.165 50.5 106.498 50.5
c44.667 0 78.334 -16.5 101.001 -49.5s36.667 -75.833 42 -128.5h-295c4.66699 51.333 19.834 93.833 45.501 127.5zM229 742.001h-61l85 -153l32 11z" />
    <glyph glyph-name="eacute" unicode="&#xe9;" horiz-adv-x="480" 
d="M416.5 373.5c-15.667 39 -37.832 69.501 -66.499 91.501s-61.334 33 -98.001 33c-68.667 0 -121.167 -23.167 -157.5 -69.5s-54.5 -107.5 -54.5 -183.5c0 -78.667 19.167 -141.334 57.5 -188.001s95.833 -70 172.5 -70c22.667 0 49.5 3.5 80.5 10.5
s55.833 16.167 74.5 27.5l-20 37c-20.667 -10.667 -41.667 -19 -63 -25s-48 -9 -80 -9c-56.667 0 -99.167 20 -127.5 60s-42.833 91.333 -43.5 154h349c0 48.667 -7.83301 92.5 -23.5 131.5zM138.502 406.501c25.667 33.667 61.165 50.5 106.498 50.5
c44.667 0 78.334 -16.5 101.001 -49.5s36.667 -75.833 42 -128.5h-295c4.66699 51.333 19.834 93.833 45.501 127.5zM263 742.001l-56 -142l32 -11l85 153h-61z" />
    <glyph glyph-name="ecircumflex" unicode="&#xea;" horiz-adv-x="480" 
d="M416.5 373.5c-15.667 39 -37.832 69.501 -66.499 91.501s-61.334 33 -98.001 33c-68.667 0 -121.167 -23.167 -157.5 -69.5s-54.5 -107.5 -54.5 -183.5c0 -78.667 19.167 -141.334 57.5 -188.001s95.833 -70 172.5 -70c22.667 0 49.5 3.5 80.5 10.5
s55.833 16.167 74.5 27.5l-20 37c-20.667 -10.667 -41.667 -19 -63 -25s-48 -9 -80 -9c-56.667 0 -99.167 20 -127.5 60s-42.833 91.333 -43.5 154h349c0 48.667 -7.83301 92.5 -23.5 131.5zM138.502 406.501c25.667 33.667 61.165 50.5 106.498 50.5
c44.667 0 78.334 -16.5 101.001 -49.5s36.667 -75.833 42 -128.5h-295c4.66699 51.333 19.834 93.833 45.501 127.5zM385 603.001l-105 139h-40l-106 -143l41 -10l86 118l83 -118z" />
    <glyph glyph-name="edieresis" unicode="&#xeb;" horiz-adv-x="480" 
d="M416.5 373.5c-15.667 39 -37.832 69.501 -66.499 91.501s-61.334 33 -98.001 33c-68.667 0 -121.167 -23.167 -157.5 -69.5s-54.5 -107.5 -54.5 -183.5c0 -78.667 19.167 -141.334 57.5 -188.001s95.833 -70 172.5 -70c22.667 0 49.5 3.5 80.5 10.5
s55.833 16.167 74.5 27.5l-20 37c-20.667 -10.667 -41.667 -19 -63 -25s-48 -9 -80 -9c-56.667 0 -99.167 20 -127.5 60s-42.833 91.333 -43.5 154h349c0 48.667 -7.83301 92.5 -23.5 131.5zM138.502 406.501c25.667 33.667 61.165 50.5 106.498 50.5
c44.667 0 78.334 -16.5 101.001 -49.5s36.667 -75.833 42 -128.5h-295c4.66699 51.333 19.834 93.833 45.501 127.5zM200 628.501c7.33301 7 11 15.834 11 26.501c0 10 -3.66699 18.5 -11 25.5s-16 10.5 -26 10.5c-11.333 0 -20.333 -3.33301 -27 -10
s-10 -15.334 -10 -26.001s3.33301 -19.5 10 -26.5s15.667 -10.5 27 -10.5c10 0 18.667 3.5 26 10.5zM359 628.502c7.33301 7 11 15.834 11 26.501c0 10 -3.66699 18.5 -11 25.5s-16 10.5 -26 10.5c-11.333 0 -20.333 -3.33301 -27 -10s-10 -15.334 -10 -26.001
s3.33301 -19.5 10 -26.5s15.667 -10.5 27 -10.5c10 0 18.667 3.5 26 10.5z" />
    <glyph glyph-name="igrave" unicode="&#xec;" horiz-adv-x="189" 
d="M70 485v-485h49v485h-49zM75 742h-61l85 -153l32 11z" />
    <glyph glyph-name="iacute" unicode="&#xed;" horiz-adv-x="189" 
d="M70 485v-485h49v485h-49zM109 742l-56 -142l32 -11l85 153h-61z" />
    <glyph glyph-name="icircumflex" unicode="&#xee;" horiz-adv-x="189" 
d="M70 485v-485h49v485h-49zM231 603l-105 139h-40l-106 -143l41 -10l86 118l83 -118z" />
    <glyph glyph-name="idieresis" unicode="&#xef;" horiz-adv-x="189" 
d="M70 485v-485h49v485h-49zM46 628.5c7.33301 7 11 15.834 11 26.501c0 10 -3.66699 18.5 -11 25.5s-16 10.5 -26 10.5c-11.333 0 -20.333 -3.33301 -27 -10s-10 -15.334 -10 -26.001s3.33301 -19.5 10 -26.5s15.667 -10.5 27 -10.5c10 0 18.667 3.5 26 10.5zM205 628.501
c7.33301 7 11 15.834 11 26.501c0 10 -3.66699 18.5 -11 25.5s-16 10.5 -26 10.5c-11.333 0 -20.333 -3.33301 -27 -10s-10 -15.334 -10 -26.001s3.33301 -19.5 10 -26.5s15.667 -10.5 27 -10.5c10 0 18.667 3.5 26 10.5z" />
    <glyph glyph-name="eth" unicode="&#xf0;" horiz-adv-x="523" 
d="M432.5 475.5c33.667 -71 50.498 -149.501 50.498 -235.501c0 -48 -8.83301 -91.167 -26.5 -129.5s-43.5 -68.5 -77.5 -90.5s-74 -33 -120 -33c-70 0.666992 -124 24.5 -162 71.5s-57 109.167 -57 186.5c0 48 8.83301 91.167 26.5 129.5s43.5 68.5 77.5 90.5
s74.333 33 121 33c48 -0.666992 88.667 -13.667 122 -39c-33.333 70 -82.666 129.667 -147.999 179l-130 -66l-19 38l111 55c-32.667 20.667 -66 38.334 -100 53.001l13 32c44.667 -18 87.334 -39.667 128.001 -65l116 57l18 -35l-96 -48
c68 -51.333 118.833 -112.5 152.5 -183.5zM350.498 56.499c26.333 19 46.501 44.666 60.501 76.999s21 67.5 21 105.5c0 54.667 -6.66699 105.334 -20 152.001c-46 44 -95.333 66 -148 66c-34.667 0 -65.167 -9.5 -91.5 -28.5s-46.5 -44.667 -60.5 -77s-21 -67.5 -21 -105.5
c0 -40.667 6.5 -77.5 19.5 -110.5s32.167 -59.167 57.5 -78.5s55.666 -29 90.999 -29c34.667 0 65.167 9.5 91.5 28.5z" />
    <glyph glyph-name="ntilde" unicode="&#xf1;" horiz-adv-x="500" 
d="M294 457c34 0 57.666 -10.668 70.999 -32.001s20 -50.666 20 -87.999v-337h49v337c0 49.333 -11.667 88.5 -35 117.5s-59.666 43.5 -108.999 43.5c-29.333 0 -60 -8.66699 -92 -26s-58.667 -38.333 -80 -63l-10 76h-38v-485h49v359c64 65.333 122.333 98 175 98z
M348.499 660.499c-7.66699 -9.66699 -18.166 -14.5 -31.499 -14.5c-16.667 0 -32.667 9.66699 -48 29c-14.667 18.667 -36.334 28 -65.001 28c-24 0 -43.833 -7.66699 -59.5 -23s-23.5 -38 -23.5 -68h39c3.33301 35.333 18.333 53 45 53c16.667 0 34 -9.33301 52 -28
c17.333 -19.333 37.333 -29 60 -29c24 0 43.833 7.66699 59.5 23s23.5 38 23.5 68h-38c-1.33301 -16 -5.83301 -28.833 -13.5 -38.5z" />
    <glyph glyph-name="ograve" unicode="&#xf2;" horiz-adv-x="523" 
d="M456.5 110.5c-17.667 -38.333 -43.5 -68.5 -77.5 -90.5s-74 -33 -120 -33c-70 0.666992 -124 24.5 -162 71.5s-57 109.167 -57 186.5c0 48 8.83301 91.167 26.5 129.5s43.5 68.5 77.5 90.5s74.333 33 121 33c70 -0.666992 123.833 -24.5 161.5 -71.5
s56.5 -109.167 56.5 -186.5c0 -48 -8.83301 -91.167 -26.5 -129.5zM350.5 56.5c26.333 19 46.5 44.667 60.5 77s21 67.5 21 105.5c0 40.667 -6.5 77.5 -19.5 110.5s-32.167 59.167 -57.5 78.5s-55.666 29 -90.999 29c-34.667 0 -65.167 -9.5 -91.5 -28.5
s-46.5 -44.667 -60.5 -77s-21 -67.5 -21 -105.5c0 -40.667 6.5 -77.5 19.5 -110.5s32.167 -59.167 57.5 -78.5s55.666 -29 90.999 -29c34.667 0 65.167 9.5 91.5 28.5zM244 742h-61l85 -153l32 11z" />
    <glyph glyph-name="oacute" unicode="&#xf3;" horiz-adv-x="523" 
d="M456.5 110.5c-17.667 -38.333 -43.5 -68.5 -77.5 -90.5s-74 -33 -120 -33c-70 0.666992 -124 24.5 -162 71.5s-57 109.167 -57 186.5c0 48 8.83301 91.167 26.5 129.5s43.5 68.5 77.5 90.5s74.333 33 121 33c70 -0.666992 123.833 -24.5 161.5 -71.5
s56.5 -109.167 56.5 -186.5c0 -48 -8.83301 -91.167 -26.5 -129.5zM350.5 56.5c26.333 19 46.5 44.667 60.5 77s21 67.5 21 105.5c0 40.667 -6.5 77.5 -19.5 110.5s-32.167 59.167 -57.5 78.5s-55.666 29 -90.999 29c-34.667 0 -65.167 -9.5 -91.5 -28.5
s-46.5 -44.667 -60.5 -77s-21 -67.5 -21 -105.5c0 -40.667 6.5 -77.5 19.5 -110.5s32.167 -59.167 57.5 -78.5s55.666 -29 90.999 -29c34.667 0 65.167 9.5 91.5 28.5zM278 742l-56 -142l32 -11l85 153h-61z" />
    <glyph glyph-name="ocircumflex" unicode="&#xf4;" horiz-adv-x="523" 
d="M456.5 110.5c-17.667 -38.333 -43.5 -68.5 -77.5 -90.5s-74 -33 -120 -33c-70 0.666992 -124 24.5 -162 71.5s-57 109.167 -57 186.5c0 48 8.83301 91.167 26.5 129.5s43.5 68.5 77.5 90.5s74.333 33 121 33c70 -0.666992 123.833 -24.5 161.5 -71.5
s56.5 -109.167 56.5 -186.5c0 -48 -8.83301 -91.167 -26.5 -129.5zM350.5 56.5c26.333 19 46.5 44.667 60.5 77s21 67.5 21 105.5c0 40.667 -6.5 77.5 -19.5 110.5s-32.167 59.167 -57.5 78.5s-55.666 29 -90.999 29c-34.667 0 -65.167 -9.5 -91.5 -28.5
s-46.5 -44.667 -60.5 -77s-21 -67.5 -21 -105.5c0 -40.667 6.5 -77.5 19.5 -110.5s32.167 -59.167 57.5 -78.5s55.666 -29 90.999 -29c34.667 0 65.167 9.5 91.5 28.5zM400 603l-105 139h-40l-106 -143l41 -10l86 118l83 -118z" />
    <glyph glyph-name="otilde" unicode="&#xf5;" horiz-adv-x="523" 
d="M456.5 110.5c-17.667 -38.333 -43.5 -68.5 -77.5 -90.5s-74 -33 -120 -33c-70 0.666992 -124 24.5 -162 71.5s-57 109.167 -57 186.5c0 48 8.83301 91.167 26.5 129.5s43.5 68.5 77.5 90.5s74.333 33 121 33c70 -0.666992 123.833 -24.5 161.5 -71.5
s56.5 -109.167 56.5 -186.5c0 -48 -8.83301 -91.167 -26.5 -129.5zM350.5 56.5c26.333 19 46.5 44.667 60.5 77s21 67.5 21 105.5c0 40.667 -6.5 77.5 -19.5 110.5s-32.167 59.167 -57.5 78.5s-55.666 29 -90.999 29c-34.667 0 -65.167 -9.5 -91.5 -28.5
s-46.5 -44.667 -60.5 -77s-21 -67.5 -21 -105.5c0 -40.667 6.5 -77.5 19.5 -110.5s32.167 -59.167 57.5 -78.5s55.666 -29 90.999 -29c34.667 0 65.167 9.5 91.5 28.5zM353.5 660.5c-7.66699 -9.66699 -18.166 -14.5 -31.499 -14.5c-16.667 0 -32.667 9.66699 -48 29
c-14.667 18.667 -36.334 28 -65.001 28c-24 0 -43.833 -7.66699 -59.5 -23s-23.5 -38 -23.5 -68h39c3.33301 35.333 18.333 53 45 53c16.667 0 34 -9.33301 52 -28c17.333 -19.333 37.333 -29 60 -29c24 0 43.833 7.66699 59.5 23s23.5 38 23.5 68h-38
c-1.33301 -16 -5.83301 -28.833 -13.5 -38.5z" />
    <glyph glyph-name="odieresis" unicode="&#xf6;" horiz-adv-x="523" 
d="M456.5 110.5c-17.667 -38.333 -43.5 -68.5 -77.5 -90.5s-74 -33 -120 -33c-70 0.666992 -124 24.5 -162 71.5s-57 109.167 -57 186.5c0 48 8.83301 91.167 26.5 129.5s43.5 68.5 77.5 90.5s74.333 33 121 33c70 -0.666992 123.833 -24.5 161.5 -71.5
s56.5 -109.167 56.5 -186.5c0 -48 -8.83301 -91.167 -26.5 -129.5zM350.5 56.5c26.333 19 46.5 44.667 60.5 77s21 67.5 21 105.5c0 40.667 -6.5 77.5 -19.5 110.5s-32.167 59.167 -57.5 78.5s-55.666 29 -90.999 29c-34.667 0 -65.167 -9.5 -91.5 -28.5
s-46.5 -44.667 -60.5 -77s-21 -67.5 -21 -105.5c0 -40.667 6.5 -77.5 19.5 -110.5s32.167 -59.167 57.5 -78.5s55.666 -29 90.999 -29c34.667 0 65.167 9.5 91.5 28.5zM215 628.5c7.33301 7 11 15.834 11 26.501c0 10 -3.66699 18.5 -11 25.5s-16 10.5 -26 10.5
c-11.333 0 -20.333 -3.33301 -27 -10s-10 -15.334 -10 -26.001s3.33301 -19.5 10 -26.5s15.667 -10.5 27 -10.5c10 0 18.667 3.5 26 10.5zM374 628.501c7.33301 7 11 15.834 11 26.501c0 10 -3.66699 18.5 -11 25.5s-16 10.5 -26 10.5c-11.333 0 -20.333 -3.33301 -27 -10
s-10 -15.334 -10 -26.001s3.33301 -19.5 10 -26.5s15.667 -10.5 27 -10.5c10 0 18.667 3.5 26 10.5z" />
    <glyph glyph-name="divide" unicode="&#xf7;" horiz-adv-x="497" 
d="M275.5 388c7.66699 7.33301 11.5 16.333 11.5 27s-3.83301 19.667 -11.5 27s-16.834 11 -27.501 11c-11.333 0 -20.5 -3.66699 -27.5 -11s-10.5 -16.333 -10.5 -27s3.5 -19.667 10.5 -27s16.167 -11 27.5 -11c10.667 0 19.834 3.66699 27.501 11zM38 255h429l-10 37h-427
zM278.5 85c7.66699 7.33301 11.5 16.333 11.5 27s-3.83301 19.667 -11.5 27s-16.834 11 -27.501 11c-11.333 0 -20.5 -3.66699 -27.5 -11s-10.5 -16.333 -10.5 -27s3.5 -19.667 10.5 -27s16.167 -11 27.5 -11c10.667 0 19.834 3.66699 27.501 11z" />
    <glyph glyph-name="oslash" unicode="&#xf8;" horiz-adv-x="523" 
d="M426.5 426.5c37.667 -47 56.5 -109.167 56.5 -186.5c0 -48 -8.83301 -91.167 -26.5 -129.5s-43.5 -68.5 -77.5 -90.5s-74 -33 -120 -33c-70 0.666992 -124 24.5 -162 71.5s-57 109.167 -57 186.5c0 48 8.83301 91.167 26.5 129.5s43.5 68.5 77.5 90.5s74.333 33 121 33
c70 -0.666992 123.833 -24.5 161.5 -71.5zM107 145.5c10.667 -30.333 26 -55.5 46 -75.5l190 366c-24.667 14 -51 21 -79 21c-34.667 0 -65.167 -9.5 -91.5 -28.5s-46.5 -44.667 -60.5 -77s-21 -67.5 -21 -105.5c0 -36.667 5.33301 -70.167 16 -100.5zM350.5 56.5
c26.333 19 46.499 44.667 60.499 77s21 67.5 21 105.5c0 33.333 -4.66699 64.5 -14 93.5s-22.666 53.5 -39.999 73.5l-188 -362c21.333 -10.667 44.333 -16 69 -16c34.667 0 65.167 9.5 91.5 28.5z" />
    <glyph glyph-name="ugrave" unicode="&#xf9;" horiz-adv-x="500" 
d="M206 28c-34 0 -57.666 10.668 -70.999 32.001s-20 50.666 -20 87.999v337h-49v-337c0 -49.333 11.667 -88.5 35 -117.5s59.666 -43.5 108.999 -43.5c29.333 0 60 8.66699 92 26s58.667 38.333 80 63l10 -76h38v485h-49v-359c-64 -65.333 -122.333 -98 -175 -98z
M226.001 742.001h-61l85 -153l32 11z" />
    <glyph glyph-name="uacute" unicode="&#xfa;" horiz-adv-x="500" 
d="M206 28c-34 0 -57.666 10.668 -70.999 32.001s-20 50.666 -20 87.999v337h-49v-337c0 -49.333 11.667 -88.5 35 -117.5s59.666 -43.5 108.999 -43.5c29.333 0 60 8.66699 92 26s58.667 38.333 80 63l10 -76h38v485h-49v-359c-64 -65.333 -122.333 -98 -175 -98z
M260.001 742.001l-56 -142l32 -11l85 153h-61z" />
    <glyph glyph-name="ucircumflex" unicode="&#xfb;" horiz-adv-x="500" 
d="M206 28c-34 0 -57.666 10.668 -70.999 32.001s-20 50.666 -20 87.999v337h-49v-337c0 -49.333 11.667 -88.5 35 -117.5s59.666 -43.5 108.999 -43.5c29.333 0 60 8.66699 92 26s58.667 38.333 80 63l10 -76h38v485h-49v-359c-64 -65.333 -122.333 -98 -175 -98z
M382.001 603.001l-105 139h-40l-106 -143l41 -10l86 118l83 -118z" />
    <glyph glyph-name="udieresis" unicode="&#xfc;" horiz-adv-x="500" 
d="M206 28c-34 0 -57.666 10.668 -70.999 32.001s-20 50.666 -20 87.999v337h-49v-337c0 -49.333 11.667 -88.5 35 -117.5s59.666 -43.5 108.999 -43.5c29.333 0 60 8.66699 92 26s58.667 38.333 80 63l10 -76h38v485h-49v-359c-64 -65.333 -122.333 -98 -175 -98z
M197.001 628.501c7.33301 7 11 15.834 11 26.501c0 10 -3.66699 18.5 -11 25.5s-16 10.5 -26 10.5c-11.333 0 -20.333 -3.33301 -27 -10s-10 -15.334 -10 -26.001s3.33301 -19.5 10 -26.5s15.667 -10.5 27 -10.5c10 0 18.667 3.5 26 10.5zM356.001 628.502
c7.33301 7 11 15.834 11 26.501c0 10 -3.66699 18.5 -11 25.5s-16 10.5 -26 10.5c-11.333 0 -20.333 -3.33301 -27 -10s-10 -15.334 -10 -26.001s3.33301 -19.5 10 -26.5s15.667 -10.5 27 -10.5c10 0 18.667 3.5 26 10.5z" />
    <glyph glyph-name="yacute" unicode="&#xfd;" horiz-adv-x="430" 
d="M126.5 -149c-15.667 -12.667 -36.833 -23.334 -63.5 -32.001l5 -38c32 6.66699 59.667 19.334 83 38.001s40 41.667 50 69l219 597h-50l-154 -429l-160 435l-46 -18l183 -473l-31 -98c-8 -21.333 -19.833 -38.333 -35.5 -51zM224.001 742l-56 -142l32 -11l85 153h-61z
" />
    <glyph glyph-name="thorn" unicode="&#xfe;" horiz-adv-x="508" 
d="M415.5 428c35 -46.667 52.4971 -109.333 52.4971 -188c0 -75.333 -18.667 -136.333 -56 -183s-90.666 -70 -159.999 -70c-21.333 0 -43.166 4.33301 -65.499 13s-42.833 19.667 -61.5 33v-241l-49 -11v915l49 10v-260c38.667 34.667 83.334 52 134.001 52
c69.333 0 121.5 -23.333 156.5 -70zM342.497 56.501c24.333 19 42.833 44.5 55.5 76.5s19 67.333 19 106c0 63.333 -13.333 115.5 -40 156.5s-66 61.5 -118 61.5c-29.333 0 -54 -5.5 -74 -16.5s-40 -27.167 -60 -48.5v-309c40.667 -36.667 83.667 -55 129 -55
c34.667 0 64.167 9.5 88.5 28.5z" />
    <glyph glyph-name="ydieresis" unicode="&#xff;" horiz-adv-x="430" 
d="M126.5 -149c-15.667 -12.667 -36.833 -23.334 -63.5 -32.001l5 -38c32 6.66699 59.667 19.334 83 38.001s40 41.667 50 69l219 597h-50l-154 -429l-160 435l-46 -18l183 -473l-31 -98c-8 -21.333 -19.833 -38.333 -35.5 -51zM161.001 628.5
c7.33301 7 11 15.834 11 26.501c0 10 -3.66699 18.5 -11 25.5s-16 10.5 -26 10.5c-11.333 0 -20.333 -3.33301 -27 -10s-10 -15.334 -10 -26.001s3.33301 -19.5 10 -26.5s15.667 -10.5 27 -10.5c10 0 18.667 3.5 26 10.5zM320.001 628.501c7.33301 7 11 15.834 11 26.501
c0 10 -3.66699 18.5 -11 25.5s-16 10.5 -26 10.5c-11.333 0 -20.333 -3.33301 -27 -10s-10 -15.334 -10 -26.001s3.33301 -19.5 10 -26.5s15.667 -10.5 27 -10.5c10 0 18.667 3.5 26 10.5z" />
    <glyph glyph-name="Amacron" unicode="&#x100;" 
d="M59 0l77 213h295l81 -219l50 11l-259 675h-46l-247 -680h49zM281 614l136 -362h-267zM394 827h-236v-37h241z" />
    <glyph glyph-name="amacron" unicode="&#x101;" horiz-adv-x="475" 
d="M171 449c19.333 5.33301 43.667 8 73 8c38 0 66.833 -10.5 86.5 -31.5s29.5 -49.167 29.5 -84.5v-60h-135c-51.333 0 -93 -12.833 -125 -38.5s-48 -61.167 -48 -106.5c0 -44 14 -79.833 42 -107.5s68.333 -41.5 121 -41.5c29.333 0 57 6 83 18s47.667 27.667 65 47l8 -52
h38v340c0 48.667 -14.5 87.167 -43.5 115.5s-70.5 42.5 -124.5 42.5c-22 0 -49 -4 -81 -12s-56.667 -18 -74 -30l19 -33c24.667 12 46.667 20.667 66 26zM134.501 214c21 20 52.501 30 94.501 30h131v-135c-16.667 -24.667 -36.834 -44.334 -60.501 -59.001
s-50.5 -22 -80.5 -22c-35.333 0 -63.5 10.333 -84.5 31s-31.5 46.334 -31.5 77.001c0 32 10.5 58 31.5 78zM353.002 677h-235v-37h241z" />
    <glyph glyph-name="Abreve" unicode="&#x102;" 
d="M59 0l77 213h295l81 -219l50 11l-259 675h-46l-247 -680h49zM281 614l136 -362h-267zM347 816.5c-16 -17.667 -37.667 -26.5 -65 -26.5c-26.667 0 -48.167 9 -64.5 27s-24.5 39.333 -24.5 64h-41c0 -35.333 11.667 -65.833 35 -91.5s55 -38.5 95 -38.5
c41.333 0 73.333 12.667 96 38s34 56 34 92h-41c0 -25.333 -8 -46.833 -24 -64.5z" />
    <glyph glyph-name="abreve" unicode="&#x103;" horiz-adv-x="475" 
d="M171 449c19.333 5.33301 43.667 8 73 8c38 0 66.833 -10.5 86.5 -31.5s29.5 -49.167 29.5 -84.5v-60h-135c-51.333 0 -93 -12.833 -125 -38.5s-48 -61.167 -48 -106.5c0 -44 14 -79.833 42 -107.5s68.333 -41.5 121 -41.5c29.333 0 57 6 83 18s47.667 27.667 65 47l8 -52
h38v340c0 48.667 -14.5 87.167 -43.5 115.5s-70.5 42.5 -124.5 42.5c-22 0 -49 -4 -81 -12s-56.667 -18 -74 -30l19 -33c24.667 12 46.667 20.667 66 26zM134.501 214c21 20 52.501 30 94.501 30h131v-135c-16.667 -24.667 -36.834 -44.334 -60.501 -59.001
s-50.5 -22 -80.5 -22c-35.333 0 -63.5 10.333 -84.5 31s-31.5 46.334 -31.5 77.001c0 32 10.5 58 31.5 78zM303.002 666.5c-16 -17.667 -37.667 -26.5 -65 -26.5c-26.667 0 -48.167 9 -64.5 27s-24.5 39.333 -24.5 64h-41c0 -35.333 11.667 -65.833 35 -91.5
s55 -38.5 95 -38.5c41.333 0 73.333 12.667 96 38s34 56 34 92h-41c0 -25.333 -8 -46.833 -24 -64.5z" />
    <glyph glyph-name="Aogonek" unicode="&#x104;" 
d="M606.5 -198.5c-14.333 -5.66699 -29.499 -8.49902 -45.499 -8.49902c-30 0 -55 9 -75 27s-30 41 -30 69c0 17.333 5.16699 36 15.5 56s23.5 37.667 39.5 53l-80 215h-295l-77 -213h-49l247 680h46l259 -675l-18 -4l11 -1c-18 -16.667 -31.333 -34 -40 -52
s-13 -38 -13 -60c0 -18 6.66699 -32.333 20 -43s27.333 -16 42 -16c19.333 0 37.666 7 54.999 21l22 -27c-8.66699 -8.66699 -20.167 -15.834 -34.5 -21.501zM281.001 614.001l-131 -362h267z" />
    <glyph glyph-name="aogonek" unicode="&#x105;" horiz-adv-x="475" 
d="M458.5 -198.5c-14.333 -5.66699 -29.5 -8.50098 -45.5 -8.50098c-30 0 -55 9 -75 27s-30 41 -30 69c0 18.667 5.83301 38.834 17.5 60.501s26.5 39.834 44.5 54.501l-7 48c-17.333 -19.333 -39 -35 -65 -47s-53.667 -18 -83 -18c-52.667 0 -93 13.833 -121 41.5
s-42 63.5 -42 107.5c0 45.333 16 80.833 48 106.5s73.667 38.5 125 38.5h135v60c0 35.333 -9.83301 63.5 -29.5 84.5s-48.5 31.5 -86.5 31.5c-29.333 0 -53.666 -2.66699 -72.999 -8s-41.333 -14 -66 -26l-19 33c17.333 12 42 22 74 30s59 12 81 12
c54 0 95.5 -14.167 124.5 -42.5s43.5 -66.833 43.5 -115.5v-340h-2c-18 -16.667 -31.333 -34 -40 -52s-13 -38 -13 -60c0 -18 6.66699 -32.333 20 -43s27.333 -16 42 -16c19.333 0 37.666 7 54.999 21l22 -27c-8.66699 -8.66699 -20.167 -15.834 -34.5 -21.501zM229 243.999
c-42 0 -73.501 -10 -94.501 -30s-31.5 -46 -31.5 -78c0 -30.667 10.5 -56.334 31.5 -77.001s49.167 -31 84.5 -31c30 0 56.833 7.33301 80.5 22s43.834 34.334 60.501 59.001v135h-131z" />
    <glyph glyph-name="Cacute" unicode="&#x106;" horiz-adv-x="553" 
d="M447.5 684c-33.667 6.66699 -62.832 9.99902 -87.499 9.99902c-63.333 0 -118.5 -15.833 -165.5 -47.5s-82.833 -74.667 -107.5 -129s-37 -114.833 -37 -181.5c0 -64 11.167 -122.5 33.5 -175.5s56.333 -95.333 102 -127s101.834 -47.5 168.501 -47.5
c28 0 58.5 3.66699 91.5 11s58.833 16 77.5 26l-24 36c-21.333 -9.33301 -43.5 -16.666 -66.5 -21.999s-50.833 -8 -83.5 -8c-50 0 -93.5 14 -130.5 42s-65.167 65.5 -84.5 112.5s-29 98.167 -29 153.5c0 62.667 11 117.667 33 165s52.167 83.833 90.5 109.5
s81.5 38.834 129.5 39.501c32.667 0 58.667 -2.33301 78 -7s41.666 -12.334 66.999 -23.001l20 36c-16.667 11.333 -41.834 20.333 -75.501 27zM374.002 891.999l-56 -142l32 -11l85 153h-61z" />
    <glyph glyph-name="cacute" unicode="&#x107;" horiz-adv-x="449" 
d="M361.5 49c-14.333 -7.33301 -29.834 -12.6689 -46.501 -16.002s-35.334 -5 -56.001 -5c-35.333 0 -65.666 9.66699 -90.999 29s-44.5 45.5 -57.5 78.5s-19.5 69.833 -19.5 110.5c0 38 7 73.167 21 105.5s34.167 58 60.5 77s56.833 28.5 91.5 28.5
c26.667 0 49 -2.83301 67 -8.5s38.667 -14.167 62 -25.5l20 33c-18.667 12 -42.667 22 -72 30s-54.333 12 -75 12c-46.667 0 -87 -10.833 -121 -32.5s-60 -51.667 -78 -90s-27 -81.833 -27 -130.5c0 -77.333 19 -139.666 57 -186.999s92 -71 162 -71
c22 0 47.5 3.83301 76.5 11.5s53.167 17.5 72.5 29.5l-20 34c-3.33301 -1.33301 -12.166 -5.66602 -26.499 -12.999zM257.999 741.997l-56 -142l32 -11l85 153h-61z" />
    <glyph glyph-name="Ccaron" unicode="&#x10c;" horiz-adv-x="553" 
d="M447.5 684c-33.667 6.66699 -62.832 9.99902 -87.499 9.99902c-63.333 0 -118.5 -15.833 -165.5 -47.5s-82.833 -74.667 -107.5 -129s-37 -114.833 -37 -181.5c0 -64 11.167 -122.5 33.5 -175.5s56.333 -95.333 102 -127s101.834 -47.5 168.501 -47.5
c28 0 58.5 3.66699 91.5 11s58.833 16 77.5 26l-24 36c-21.333 -9.33301 -43.5 -16.666 -66.5 -21.999s-50.833 -8 -83.5 -8c-50 0 -93.5 14 -130.5 42s-65.167 65.5 -84.5 112.5s-29 98.167 -29 153.5c0 62.667 11 117.667 33 165s52.167 83.833 90.5 109.5
s81.5 38.834 129.5 39.501c32.667 0 58.667 -2.33301 78 -7s41.666 -12.334 66.999 -23.001l20 36c-16.667 11.333 -41.834 20.333 -75.501 27zM236.002 881.999l106 -143h40l105 139l-41 14l-83 -118l-86 118z" />
    <glyph glyph-name="ccaron" unicode="&#x10d;" horiz-adv-x="449" 
d="M361.5 49c-14.333 -7.33301 -29.834 -12.6689 -46.501 -16.002s-35.334 -5 -56.001 -5c-35.333 0 -65.666 9.66699 -90.999 29s-44.5 45.5 -57.5 78.5s-19.5 69.833 -19.5 110.5c0 38 7 73.167 21 105.5s34.167 58 60.5 77s56.833 28.5 91.5 28.5
c26.667 0 49 -2.83301 67 -8.5s38.667 -14.167 62 -25.5l20 33c-18.667 12 -42.667 22 -72 30s-54.333 12 -75 12c-46.667 0 -87 -10.833 -121 -32.5s-60 -51.667 -78 -90s-27 -81.833 -27 -130.5c0 -77.333 19 -139.666 57 -186.999s92 -71 162 -71
c22 0 47.5 3.83301 76.5 11.5s53.167 17.5 72.5 29.5l-20 34c-3.33301 -1.33301 -12.166 -5.66602 -26.499 -12.999zM115.999 731.997l106 -143h40l105 139l-41 14l-83 -118l-86 118z" />
    <glyph glyph-name="Dcaron" unicode="&#x10e;" horiz-adv-x="662" 
d="M482.5 45.5c43.667 30.333 76.168 71.5 97.501 123.5s32 110.333 32 175c0 100 -23.333 181 -70 243s-119.334 93 -218.001 93h-224v-680h221c64 0 117.833 15.167 161.5 45.5zM458.501 601c34.333 -26.667 60 -62.5 77 -107.5s25.5 -95.167 25.5 -150.5
c0 -58 -10 -110 -30 -156s-48.167 -82.167 -84.5 -108.5s-77.833 -39.5 -124.5 -39.5h-173v602h183c50 0 92.167 -13.333 126.5 -40zM183.001 882l106 -143h40l105 139l-41 14l-83 -118l-86 118z" />
    <glyph glyph-name="dcaron" unicode="&#x10f;" horiz-adv-x="636" 
d="M432 705l0.00195312 -705.001h-27l-18 43c-40.667 -37.333 -86.667 -56 -138 -56c-69.333 0 -121.5 23.333 -156.5 70s-52.5 109.334 -52.5 188.001c0 75.333 18.667 136.333 56 183s90.666 70 159.999 70c21.333 0 43.166 -4.33301 65.499 -13s42.833 -19.667 61.5 -33
v244zM595.002 688.499c7.33301 -9 11.002 -18.833 11.002 -29.5c0 -30.667 -7.5 -58.5 -22.5 -83.5s-36.167 -44.167 -63.5 -57.5l-16 25c40 21.333 60.333 48.666 61 81.999c-10.667 0 -19.334 4.33301 -26.001 13s-10 17 -10 25c0 10.667 3.33301 19.834 10 27.501
s16 11.5 28 11.5c11.333 0 20.666 -4.5 27.999 -13.5zM323.004 44.499c20 11 40 27.167 60 48.5v309c-40.667 36.667 -83.667 55 -129 55c-34.667 0 -64.167 -9.5 -88.5 -28.5s-42.833 -44.5 -55.5 -76.5s-19 -67.333 -19 -106c0 -63.333 13.333 -115.5 40 -156.5
s66 -61.5 118 -61.5c29.333 0 54 5.5 74 16.5z" />
    <glyph glyph-name="Dcroat" unicode="&#x110;" horiz-adv-x="662" 
d="M542 587c46.667 -62 69.999 -143 69.999 -243c0 -64.667 -10.667 -123 -32 -175s-53.833 -93.167 -97.5 -123.5s-97.5 -45.5 -161.5 -45.5h-221v314h-80l-10 39h90v327h224c98.667 0 171.334 -31 218.001 -93zM446.499 78.5c36.333 26.333 64.5 62.5 84.5 108.5
s30 98 30 156c0 55.333 -8.5 105.5 -25.5 150.5s-42.667 80.833 -77 107.5s-76.5 40 -126.5 40h-183v-288h109l10 -39h-119v-275h173c46.667 0 88.167 13.167 124.5 39.5z" />
    <glyph glyph-name="dcroat" unicode="&#x111;" horiz-adv-x="512" 
d="M432 580l0.00195312 -580.001h-27l-18 43c-40.667 -37.333 -86.667 -56 -138 -56c-69.333 0 -121.5 23.333 -156.5 70s-52.5 109.334 -52.5 188.001c0 75.333 18.667 136.333 56 183s90.666 70 159.999 70c21.333 0 43.166 -4.33301 65.499 -13s42.833 -19.667 61.5 -33
v128h-131l-10 35h141v81l49 9v-90h58l10 -35h-68zM323.002 44.499c20 11 40 27.167 60 48.5v309c-40.667 36.667 -83.667 55 -129 55c-34.667 0 -64.167 -9.5 -88.5 -28.5s-42.833 -44.5 -55.5 -76.5s-19 -67.333 -19 -106c0 -63.333 13.333 -115.5 40 -156.5
s66 -61.5 118 -61.5c29.333 0 54 5.5 74 16.5z" />
    <glyph glyph-name="Emacron" unicode="&#x112;" horiz-adv-x="495" 
d="M149 39v290h245l-5 39h-240v273h303l-5 39h-347v-680h375l-6 39h-320zM388 827h-236v-37h241z" />
    <glyph glyph-name="emacron" unicode="&#x113;" horiz-adv-x="480" 
d="M416.5 373.5c-15.667 39 -37.832 69.501 -66.499 91.501s-61.334 33 -98.001 33c-68.667 0 -121.167 -23.167 -157.5 -69.5s-54.5 -107.5 -54.5 -183.5c0 -78.667 19.167 -141.334 57.5 -188.001s95.833 -70 172.5 -70c22.667 0 49.5 3.5 80.5 10.5
s55.833 16.167 74.5 27.5l-20 37c-20.667 -10.667 -41.667 -19 -63 -25s-48 -9 -80 -9c-56.667 0 -99.167 20 -127.5 60s-42.833 91.333 -43.5 154h349c0 48.667 -7.83301 92.5 -23.5 131.5zM138.502 406.501c25.667 33.667 61.165 50.5 106.498 50.5
c44.667 0 78.334 -16.5 101.001 -49.5s36.667 -75.833 42 -128.5h-295c4.66699 51.333 19.834 93.833 45.501 127.5zM363 677.001h-235v-37h241z" />
    <glyph glyph-name="Edotaccent" unicode="&#x116;" horiz-adv-x="495" 
d="M149 39v290h245l-5 39h-240v273h303l-5 39h-347v-680h375l-6 39h-320zM300.5 779c7.66699 7.33301 11.5 16.333 11.5 27s-3.83301 19.667 -11.5 27s-16.834 11 -27.501 11c-11.333 0 -20.5 -3.66699 -27.5 -11s-10.5 -16.333 -10.5 -27s3.5 -19.667 10.5 -27
s16.167 -11 27.5 -11c10.667 0 19.834 3.66699 27.501 11z" />
    <glyph glyph-name="edotaccent" unicode="&#x117;" horiz-adv-x="480" 
d="M416.5 373.5c-15.667 39 -37.832 69.501 -66.499 91.501s-61.334 33 -98.001 33c-68.667 0 -121.167 -23.167 -157.5 -69.5s-54.5 -107.5 -54.5 -183.5c0 -78.667 19.167 -141.334 57.5 -188.001s95.833 -70 172.5 -70c22.667 0 49.5 3.5 80.5 10.5
s55.833 16.167 74.5 27.5l-20 37c-20.667 -10.667 -41.667 -19 -63 -25s-48 -9 -80 -9c-56.667 0 -99.167 20 -127.5 60s-42.833 91.333 -43.5 154h349c0 48.667 -7.83301 92.5 -23.5 131.5zM138.502 406.501c25.667 33.667 61.165 50.5 106.498 50.5
c44.667 0 78.334 -16.5 101.001 -49.5s36.667 -75.833 42 -128.5h-295c4.66699 51.333 19.834 93.833 45.501 127.5zM275.5 629.001c7.66699 7.33301 11.5 16.333 11.5 27s-3.83301 19.667 -11.5 27s-16.834 11 -27.501 11c-11.333 0 -20.5 -3.66699 -27.5 -11
s-10.5 -16.333 -10.5 -27s3.5 -19.667 10.5 -27s16.167 -11 27.5 -11c10.667 0 19.834 3.66699 27.501 11z" />
    <glyph glyph-name="Eogonek" unicode="&#x118;" horiz-adv-x="495" 
d="M448.5 -198.5c-14.333 -5.66699 -29.5 -8.5 -45.5 -8.5c-30 0 -55 9 -75 27s-30 41 -30 69c0 18 5.33301 37.333 16 58s24.334 38.334 41.001 53.001h-255v680h347l5 -39h-303v-273h240l5 -39h-245v-290h320l6 -39h-78c-18 -16.667 -31.333 -34 -40 -52s-13 -38 -13 -60
c0 -18 6.66699 -32.333 20 -43s27.333 -16 42 -16c19.333 0 37.666 7 54.999 21l22 -27c-8.66699 -8.66699 -20.167 -15.834 -34.5 -21.501z" />
    <glyph glyph-name="eogonek" unicode="&#x119;" horiz-adv-x="480" 
d="M410 -150l21.998 -27.001c-8.66699 -8.66699 -20.167 -15.834 -34.5 -21.501s-29.5 -8.5 -45.5 -8.5c-30 0 -55 9 -75 27s-30 41 -30 69c0 16 4 32.833 12 50.5s19 33.834 33 48.501c-5.33301 -0.666992 -12.666 -1 -21.999 -1c-76.667 0 -134.167 23.333 -172.5 70
s-57.5 109.334 -57.5 188.001c0 76 18.167 137.167 54.5 183.5s88.833 69.5 157.5 69.5c36.667 0 69.334 -11 98.001 -33s50.834 -52.5 66.501 -91.5s23.5 -82.833 23.5 -131.5h-349c0.666992 -62.667 15.167 -114 43.5 -154s70.833 -60 127.5 -60c32 0 58.667 3 80 9
s42.333 14.333 63 25l20 -37c-18.667 -11.333 -46.667 -21.333 -84 -30c-32 -30 -48 -65.667 -48 -107c0 -18 6.66699 -32.333 20 -43s27.333 -16 42 -16c19.333 0 37.666 7 54.999 21zM138.498 406.499c-25.667 -33.667 -40.832 -76.167 -45.499 -127.5h295
c-5.33301 52.667 -19.333 95.5 -42 128.5s-56.334 49.5 -101.001 49.5c-45.333 0 -80.833 -16.833 -106.5 -50.5z" />
    <glyph glyph-name="Ecaron" unicode="&#x11a;" horiz-adv-x="495" 
d="M149 39v290h245l-5 39h-240v273h303l-5 39h-347v-680h375l-6 39h-320zM151 882l106 -143h40l105 139l-41 14l-83 -118l-86 118z" />
    <glyph glyph-name="ecaron" unicode="&#x11b;" horiz-adv-x="480" 
d="M416.5 373.5c-15.667 39 -37.832 69.501 -66.499 91.501s-61.334 33 -98.001 33c-68.667 0 -121.167 -23.167 -157.5 -69.5s-54.5 -107.5 -54.5 -183.5c0 -78.667 19.167 -141.334 57.5 -188.001s95.833 -70 172.5 -70c22.667 0 49.5 3.5 80.5 10.5
s55.833 16.167 74.5 27.5l-20 37c-20.667 -10.667 -41.667 -19 -63 -25s-48 -9 -80 -9c-56.667 0 -99.167 20 -127.5 60s-42.833 91.333 -43.5 154h349c0 48.667 -7.83301 92.5 -23.5 131.5zM138.502 406.501c25.667 33.667 61.165 50.5 106.498 50.5
c44.667 0 78.334 -16.5 101.001 -49.5s36.667 -75.833 42 -128.5h-295c4.66699 51.333 19.834 93.833 45.501 127.5zM121 732.001l106 -143h40l105 139l-41 14l-83 -118l-86 118z" />
    <glyph glyph-name="Gbreve" unicode="&#x11e;" horiz-adv-x="614" 
d="M503 52c-42 -15.333 -82.6641 -23.002 -121.997 -23.002c-52.667 0 -100 13.167 -142 39.5s-74.833 62.833 -98.5 109.5s-35.5 99.334 -35.5 158.001c0 60.667 12.333 115 37 163s58.667 85.667 102 113s92 41 146 41c32 0 58 -2.33301 78 -7s42.333 -12 67 -22l19 33
c-16.667 11.333 -42.334 20.333 -77.001 27s-64.334 10 -89.001 10c-64 0 -121.833 -15.333 -173.5 -46s-92 -73.167 -121 -127.5s-43.5 -115.833 -43.5 -184.5c0 -66.667 13.333 -126.5 40 -179.5s65.167 -94.667 115.5 -125s109.166 -45.5 176.499 -45.5
c28.667 0 59.5 4.33301 92.5 13s58.833 19.334 77.5 32.001v311h-196l-6 -39h153v-251zM454.003 816.498c-16 -17.667 -37.667 -26.5 -65 -26.5c-26.667 0 -48.167 9 -64.5 27s-24.5 39.333 -24.5 64h-41c0 -35.333 11.667 -65.833 35 -91.5s55 -38.5 95 -38.5
c41.333 0 73.333 12.667 96 38s34 56 34 92h-41c0 -25.333 -8 -46.833 -24 -64.5z" />
    <glyph glyph-name="gbreve" unicode="&#x11f;" horiz-adv-x="508" 
d="M432 -62c0 -50 -16.668 -90.5 -50.001 -121.5s-80.666 -46.5 -141.999 -46.5c-22.667 0 -51.5 4 -86.5 12s-61.167 17.667 -78.5 29l19 35c26.667 -12 50.334 -20.833 71.001 -26.5s45 -8.5 73 -8.5c42.667 0 77.5 10 104.5 30s40.5 49 40.5 87v111
c-38.667 -34.667 -83.334 -52 -134.001 -52c-69.333 0 -121.5 23.333 -156.5 70s-52.5 109.334 -52.5 188.001c0 75.333 18.667 136.333 56 183s90.666 70 159.999 70c23.333 0 47.333 -5.33301 72 -16s46.334 -23.334 65.001 -38.001l12 41h27v-547zM322.999 44.5
c20 11 40 27.167 60 48.5v309c-40.667 36.667 -83.667 55 -129 55c-34.667 0 -64.167 -9.5 -88.5 -28.5s-42.833 -44.5 -55.5 -76.5s-19 -67.333 -19 -106c0 -63.333 13.333 -115.5 40 -156.5s66 -61.5 118 -61.5c29.333 0 54 5.5 74 16.5zM314.999 666.5
c-16 -17.667 -37.667 -26.5 -65 -26.5c-26.667 0 -48.167 9 -64.5 27s-24.5 39.333 -24.5 64h-41c0 -35.333 11.667 -65.833 35 -91.5s55 -38.5 95 -38.5c41.333 0 73.333 12.667 96 38s34 56 34 92h-41c0 -25.333 -8 -46.833 -24 -64.5z" />
    <glyph glyph-name="Gcommaaccent" unicode="&#x122;" horiz-adv-x="614" 
d="M503 52c-42 -15.333 -82.6641 -23.002 -121.997 -23.002c-52.667 0 -100 13.167 -142 39.5s-74.833 62.833 -98.5 109.5s-35.5 99.334 -35.5 158.001c0 60.667 12.333 115 37 163s58.667 85.667 102 113s92 41 146 41c32 0 58 -2.33301 78 -7s42.333 -12 67 -22l19 33
c-16.667 11.333 -42.334 20.333 -77.001 27s-64.334 10 -89.001 10c-64 0 -121.833 -15.333 -173.5 -46s-92 -73.167 -121 -127.5s-43.5 -115.833 -43.5 -184.5c0 -66.667 13.333 -126.5 40 -179.5s65.167 -94.667 115.5 -125s109.166 -45.5 176.499 -45.5
c28.667 0 59.5 4.33301 92.5 13s58.833 19.334 77.5 32.001v311h-196l-6 -39h153v-251zM355.003 -32.502c-6.66699 -7.66699 -10.002 -16.834 -10.002 -27.501c0 -8 3.33301 -16.333 10 -25s15.334 -13 26.001 -13c-0.666992 -33.333 -21 -60.666 -61 -81.999l16 -25
c27.333 13.333 48.5 32.5 63.5 57.5s22.5 52.833 22.5 83.5c0 10.667 -3.66699 20.5 -11 29.5s-16.666 13.5 -27.999 13.5c-12 0 -21.333 -3.83301 -28 -11.5z" />
    <glyph glyph-name="gcommaaccent" unicode="&#x123;" horiz-adv-x="508" 
d="M228 588.5c-7.33301 9 -11.002 18.833 -11.002 29.5c0 30.667 7.5 58.5 22.5 83.5s36.167 44.167 63.5 57.5l16 -25c-40 -21.333 -60.333 -48.666 -61 -81.999c10.667 0 19.334 -4.33301 26.001 -13s10 -17 10 -25c0 -10.667 -3.33301 -19.834 -10 -27.501
s-16 -11.5 -28 -11.5c-11.333 0 -20.666 4.5 -27.999 13.5zM431.998 -62c0 -50 -16.668 -90.5 -50.001 -121.5s-80.666 -46.5 -141.999 -46.5c-22.667 0 -51.5 4 -86.5 12s-61.167 17.667 -78.5 29l19 35c26.667 -12 50.334 -20.833 71.001 -26.5s45 -8.5 73 -8.5
c42.667 0 77.5 10 104.5 30s40.5 49 40.5 87v111c-38.667 -34.667 -83.334 -52 -134.001 -52c-69.333 0 -121.5 23.333 -156.5 70s-52.5 109.334 -52.5 188.001c0 75.333 18.667 136.333 56 183s90.666 70 159.999 70c23.333 0 47.333 -5.33301 72 -16
s46.334 -23.334 65.001 -38.001l12 41h27v-547zM322.997 44.5c20 11 40 27.167 60 48.5v309c-40.667 36.667 -83.667 55 -129 55c-34.667 0 -64.167 -9.5 -88.5 -28.5s-42.833 -44.5 -55.5 -76.5s-19 -67.333 -19 -106c0 -63.333 13.333 -115.5 40 -156.5
s66 -61.5 118 -61.5c29.333 0 54 5.5 74 16.5z" />
    <glyph glyph-name="Imacron" unicode="&#x12a;" horiz-adv-x="249" 
d="M100 680v-680h49v680h-49zM238 827h-236v-37h241z" />
    <glyph glyph-name="imacron" unicode="&#x12b;" horiz-adv-x="189" 
d="M70 485v-485h49v485h-49zM209 677h-235v-37h241z" />
    <glyph glyph-name="Iogonek" unicode="&#x12e;" horiz-adv-x="249" 
d="M193.5 -198.5c-14.333 -5.66699 -29.5 -8.5 -45.5 -8.5c-30 0 -55 9 -75 27s-30 41 -30 69c0 18 5.33301 37.333 16 58s24.334 38.334 41.001 53.001v680h49v-680h-7c-18 -16.667 -31.333 -34 -40 -52s-13 -38 -13 -60c0 -18 6.66699 -32.333 20 -43s27.333 -16 42 -16
c19.333 0 37.666 7 54.999 21l22 -27c-8.66699 -8.66699 -20.167 -15.834 -34.5 -21.501z" />
    <glyph glyph-name="iogonek" unicode="&#x12f;" horiz-adv-x="189" 
d="M66.5 629c-7 7.33301 -10.5 16.333 -10.5 27s3.5 19.667 10.5 27s16.167 11 27.5 11c10.667 0 19.834 -3.66699 27.501 -11s11.5 -16.333 11.5 -27s-3.83301 -19.667 -11.5 -27s-16.834 -11 -27.501 -11c-11.333 0 -20.5 3.66699 -27.5 11zM160.5 -198.5
c-14.333 -5.66699 -29.498 -8.49902 -45.498 -8.49902c-30 0 -55 9 -75 27s-30 41 -30 69c0 18.667 5.66699 38.5 17 59.5s25.666 38.833 42.999 53.5v483h49v-485h-10c-18 -16.667 -31.333 -34 -40 -52s-13 -38 -13 -60c0 -18 6.66699 -32.333 20 -43s27.333 -16 42 -16
c19.333 0 37.666 7 54.999 21l22 -27c-8.66699 -8.66699 -20.167 -15.834 -34.5 -21.501z" />
    <glyph glyph-name="Idotaccent" unicode="&#x130;" horiz-adv-x="249" 
d="M100 680v-680h49v680h-49zM150.5 779c7.66699 7.33301 11.5 16.333 11.5 27s-3.83301 19.667 -11.5 27s-16.834 11 -27.501 11c-11.333 0 -20.5 -3.66699 -27.5 -11s-10.5 -16.333 -10.5 -27s3.5 -19.667 10.5 -27s16.167 -11 27.5 -11
c10.667 0 19.834 3.66699 27.501 11z" />
    <glyph glyph-name="dotlessi" unicode="&#x131;" horiz-adv-x="189" 
d="M70 485v-485h49v485h-49z" />
    <glyph glyph-name="Kcommaaccent" unicode="&#x136;" horiz-adv-x="580" 
d="M149 269v-269h-49v680h49v-355l336 370l34 -32l-250 -266l301 -397h-62l-272 362zM305 -32.5c-6.66699 -7.66699 -10.002 -16.834 -10.002 -27.501c0 -8 3.33301 -16.333 10 -25s15.334 -13 26.001 -13c-0.666992 -33.333 -21 -60.666 -61 -81.999l16 -25
c27.333 13.333 48.5 32.5 63.5 57.5s22.5 52.833 22.5 83.5c0 10.667 -3.66699 20.5 -11 29.5s-16.666 13.5 -27.999 13.5c-12 0 -21.333 -3.83301 -28 -11.5z" />
    <glyph glyph-name="kcommaaccent" unicode="&#x137;" horiz-adv-x="449" 
d="M203 280l187 -280h59l-213 313l155 154l-37 31l-225 -234v442l-49 -10v-696h49v206zM229 -32.5c-6.66699 -7.66699 -10.002 -16.834 -10.002 -27.501c0 -8 3.33301 -16.333 10 -25s15.334 -13 26.001 -13c-0.666992 -33.333 -21 -60.666 -61 -81.999l16 -25
c27.333 13.333 48.5 32.5 63.5 57.5s22.5 52.833 22.5 83.5c0 10.667 -3.66699 20.5 -11 29.5s-16.666 13.5 -27.999 13.5c-12 0 -21.333 -3.83301 -28 -11.5z" />
    <glyph glyph-name="Lacute" unicode="&#x139;" horiz-adv-x="491" 
d="M149 680h-49v-680h381l-5 39h-327v641zM183 892l-56 -142l32 -11l85 153h-61z" />
    <glyph glyph-name="lacute" unicode="&#x13a;" horiz-adv-x="209" 
d="M140 892l-56 -142l32 -11l85 153h-61zM80 674v-674h49v684z" />
    <glyph glyph-name="Lcommaaccent" unicode="&#x13b;" horiz-adv-x="491" 
d="M149 680h-49v-680h381l-5 39h-327v641zM279 -32.5c-6.66699 -7.66699 -10.002 -16.834 -10.002 -27.501c0 -8 3.33301 -16.333 10 -25s15.334 -13 26.001 -13c-0.666992 -33.333 -21 -60.666 -61 -81.999l16 -25c27.333 13.333 48.5 32.5 63.5 57.5
s22.5 52.833 22.5 83.5c0 10.667 -3.66699 20.5 -11 29.5s-16.666 13.5 -27.999 13.5c-12 0 -21.333 -3.83301 -28 -11.5z" />
    <glyph glyph-name="lcommaaccent" unicode="&#x13c;" horiz-adv-x="209" 
d="M80 696v-696h49v706zM79 -32.5c-6.66699 -7.66699 -10.002 -16.834 -10.002 -27.501c0 -8 3.33301 -16.333 10 -25s15.334 -13 26.001 -13c-0.666992 -33.333 -21 -60.666 -61 -81.999l16 -25c27.333 13.333 48.5 32.5 63.5 57.5s22.5 52.833 22.5 83.5
c0 10.667 -3.66699 20.5 -11 29.5s-16.666 13.5 -27.999 13.5c-12 0 -21.333 -3.83301 -28 -11.5z" />
    <glyph glyph-name="Lcaron" unicode="&#x13d;" horiz-adv-x="491" 
d="M149 680h-49v-680h381l-5 39h-327v641zM342 690.5c-6.66699 -7.66699 -10.002 -16.834 -10.002 -27.501c0 -8 3.33301 -16.333 10 -25s15.334 -13 26.001 -13c-0.666992 -33.333 -21 -60.666 -61 -81.999l16 -25c27.333 13.333 48.5 32.5 63.5 57.5
s22.5 52.833 22.5 83.5c0 10.667 -3.66699 20.5 -11 29.5s-16.666 13.5 -27.999 13.5c-12 0 -21.333 -3.83301 -28 -11.5z" />
    <glyph glyph-name="lcaron" unicode="&#x13e;" horiz-adv-x="333" 
d="M80 696v-696h49v706zM236 690.5c-6.66699 -7.66699 -10.002 -16.834 -10.002 -27.501c0 -8 3.33301 -16.333 10 -25s15.334 -13 26.001 -13c-0.666992 -33.333 -21 -60.666 -61 -81.999l16 -25c27.333 13.333 48.5 32.5 63.5 57.5s22.5 52.833 22.5 83.5
c0 10.667 -3.66699 20.5 -11 29.5s-16.666 13.5 -27.999 13.5c-12 0 -21.333 -3.83301 -28 -11.5z" />
    <glyph glyph-name="Lslash" unicode="&#x141;" horiz-adv-x="491" 
d="M32 219l-22 36l90 78v347h49v-304l110 96l22 -34l-132 -116v-283h327l5 -39h-381v279z" />
    <glyph glyph-name="lslash" unicode="&#x142;" horiz-adv-x="271" 
d="M160 706l-49 -10v-345l-111 -96l22 -36l89 78v-297h49v340l111 98l-22 34l-89 -78v312z" />
    <glyph glyph-name="Nacute" unicode="&#x143;" horiz-adv-x="658" 
d="M163 545l368 -545h27v680h-49v-569l-34 59l-347 510h-28v-680h49v574zM344 892l-56 -142l32 -11l85 153h-61z" />
    <glyph glyph-name="nacute" unicode="&#x144;" horiz-adv-x="500" 
d="M294 457c34 0 57.666 -10.668 70.999 -32.001s20 -50.666 20 -87.999v-337h49v337c0 49.333 -11.667 88.5 -35 117.5s-59.666 43.5 -108.999 43.5c-29.333 0 -60 -8.66699 -92 -26s-58.667 -38.333 -80 -63l-10 76h-38v-485h49v359c64 65.333 122.333 98 175 98z
M272.999 741.999l-56 -142l32 -11l85 153h-61z" />
    <glyph glyph-name="Ncommaaccent" unicode="&#x145;" horiz-adv-x="658" 
d="M163 545l368 -545h27v680h-49v-569l-34 59l-347 510h-28v-680h49v574zM321 -32.5c-6.66699 -7.66699 -10.002 -16.834 -10.002 -27.501c0 -8 3.33301 -16.333 10 -25s15.334 -13 26.001 -13c-0.666992 -33.333 -21 -60.666 -61 -81.999l16 -25
c27.333 13.333 48.5 32.5 63.5 57.5s22.5 52.833 22.5 83.5c0 10.667 -3.66699 20.5 -11 29.5s-16.666 13.5 -27.999 13.5c-12 0 -21.333 -3.83301 -28 -11.5z" />
    <glyph glyph-name="ncommaaccent" unicode="&#x146;" horiz-adv-x="500" 
d="M294 457c34 0 57.666 -10.668 70.999 -32.001s20 -50.666 20 -87.999v-337h49v337c0 49.333 -11.667 88.5 -35 117.5s-59.666 43.5 -108.999 43.5c-29.333 0 -60 -8.66699 -92 -26s-58.667 -38.333 -80 -63l-10 76h-38v-485h49v359c64 65.333 122.333 98 175 98z
M225.999 -32.501c-6.66699 -7.66699 -10.002 -16.834 -10.002 -27.501c0 -8 3.33301 -16.333 10 -25s15.334 -13 26.001 -13c-0.666992 -33.333 -21 -60.666 -61 -81.999l16 -25c27.333 13.333 48.5 32.5 63.5 57.5s22.5 52.833 22.5 83.5c0 10.667 -3.66699 20.5 -11 29.5
s-16.666 13.5 -27.999 13.5c-12 0 -21.333 -3.83301 -28 -11.5z" />
    <glyph glyph-name="Ncaron" unicode="&#x147;" horiz-adv-x="658" 
d="M163 545l368 -545h27v680h-49v-569l-34 59l-347 510h-28v-680h49v574zM206 882l106 -143h40l105 139l-41 14l-83 -118l-86 118z" />
    <glyph glyph-name="ncaron" unicode="&#x148;" horiz-adv-x="500" 
d="M294 457c34 0 57.666 -10.668 70.999 -32.001s20 -50.666 20 -87.999v-337h49v337c0 49.333 -11.667 88.5 -35 117.5s-59.666 43.5 -108.999 43.5c-29.333 0 -60 -8.66699 -92 -26s-58.667 -38.333 -80 -63l-10 76h-38v-485h49v359c64 65.333 122.333 98 175 98z
M130.999 731.999l106 -143h40l105 139l-41 14l-83 -118l-86 118z" />
    <glyph glyph-name="Omacron" unicode="&#x14c;" horiz-adv-x="707" 
d="M199 649.5c-46.667 -31 -83.165 -73.667 -109.498 -128s-39.5 -115.833 -39.5 -184.5c0 -67.333 12.833 -127.666 38.5 -180.999s61.5 -95 107.5 -125s97.667 -45 155 -45c58 0 110.333 15.5 157 46.5s83.167 73.667 109.5 128s39.5 115.833 39.5 184.5
c0 67.333 -12.833 127.666 -38.5 180.999s-61.334 95 -107.001 125s-97.167 45 -154.5 45c-58.667 0 -111.334 -15.5 -158.001 -46.5zM137.502 500c21.667 48 51.667 85.668 90 113.001s81.833 41 130.5 41c46.667 0 88.5 -13.333 125.5 -40s66 -63.5 87 -110.5
s31.5 -100.167 31.5 -159.5c0 -60.667 -10.833 -115 -32.5 -163s-51.667 -85.667 -90 -113s-81.833 -41 -130.5 -41c-46.667 0 -88.5 13.333 -125.5 40s-66 63.667 -87 111s-31.5 100.666 -31.5 159.999c0 60 10.833 114 32.5 162zM470.002 827.001h-236v-37h241z" />
    <glyph glyph-name="omacron" unicode="&#x14d;" horiz-adv-x="523" 
d="M456.5 110.5c-17.667 -38.333 -43.5 -68.5 -77.5 -90.5s-74 -33 -120 -33c-70 0.666992 -124 24.5 -162 71.5s-57 109.167 -57 186.5c0 48 8.83301 91.167 26.5 129.5s43.5 68.5 77.5 90.5s74.333 33 121 33c70 -0.666992 123.833 -24.5 161.5 -71.5
s56.5 -109.167 56.5 -186.5c0 -48 -8.83301 -91.167 -26.5 -129.5zM350.5 56.5c26.333 19 46.5 44.667 60.5 77s21 67.5 21 105.5c0 40.667 -6.5 77.5 -19.5 110.5s-32.167 59.167 -57.5 78.5s-55.666 29 -90.999 29c-34.667 0 -65.167 -9.5 -91.5 -28.5
s-46.5 -44.667 -60.5 -77s-21 -67.5 -21 -105.5c0 -40.667 6.5 -77.5 19.5 -110.5s32.167 -59.167 57.5 -78.5s55.666 -29 90.999 -29c34.667 0 65.167 9.5 91.5 28.5zM378 677h-235v-37h241z" />
    <glyph glyph-name="Ohungarumlaut" unicode="&#x150;" horiz-adv-x="707" 
d="M199 649.5c-46.667 -31 -83.165 -73.667 -109.498 -128s-39.5 -115.833 -39.5 -184.5c0 -67.333 12.833 -127.666 38.5 -180.999s61.5 -95 107.5 -125s97.667 -45 155 -45c58 0 110.333 15.5 157 46.5s83.167 73.667 109.5 128s39.5 115.833 39.5 184.5
c0 67.333 -12.833 127.666 -38.5 180.999s-61.334 95 -107.001 125s-97.167 45 -154.5 45c-58.667 0 -111.334 -15.5 -158.001 -46.5zM137.502 500c21.667 48 51.667 85.668 90 113.001s81.833 41 130.5 41c46.667 0 88.5 -13.333 125.5 -40s66 -63.5 87 -110.5
s31.5 -100.167 31.5 -159.5c0 -60.667 -10.833 -115 -32.5 -163s-51.667 -85.667 -90 -113s-81.833 -41 -130.5 -41c-46.667 0 -88.5 13.333 -125.5 40s-66 63.667 -87 111s-31.5 100.666 -31.5 159.999c0 60 10.833 114 32.5 162zM321.002 892.001l-56 -142l32 -11l85 153
h-61zM449.002 892.001l-56 -142l32 -11l85 153h-61z" />
    <glyph glyph-name="ohungarumlaut" unicode="&#x151;" horiz-adv-x="523" 
d="M456.5 110.5c-17.667 -38.333 -43.5 -68.5 -77.5 -90.5s-74 -33 -120 -33c-70 0.666992 -124 24.5 -162 71.5s-57 109.167 -57 186.5c0 48 8.83301 91.167 26.5 129.5s43.5 68.5 77.5 90.5s74.333 33 121 33c70 -0.666992 123.833 -24.5 161.5 -71.5
s56.5 -109.167 56.5 -186.5c0 -48 -8.83301 -91.167 -26.5 -129.5zM350.5 56.5c26.333 19 46.5 44.667 60.5 77s21 67.5 21 105.5c0 40.667 -6.5 77.5 -19.5 110.5s-32.167 59.167 -57.5 78.5s-55.666 29 -90.999 29c-34.667 0 -65.167 -9.5 -91.5 -28.5
s-46.5 -44.667 -60.5 -77s-21 -67.5 -21 -105.5c0 -40.667 6.5 -77.5 19.5 -110.5s32.167 -59.167 57.5 -78.5s55.666 -29 90.999 -29c34.667 0 65.167 9.5 91.5 28.5zM231 742l-56 -142l32 -11l85 153h-61zM359 742l-56 -142l32 -11l85 153h-61z" />
    <glyph glyph-name="OE" unicode="&#x152;" horiz-adv-x="892" 
d="M497 12c-20.667 -7.33301 -44 -13.501 -70 -18.501s-50.333 -7.5 -73 -7.5c-66.667 0 -122.834 15.833 -168.501 47.5s-79.667 74 -102 127s-33.5 111.5 -33.5 175.5c0 66.667 12.333 127.167 37 181.5s60.5 97.333 107.5 129s102.167 47.5 165.5 47.5
c18.667 0 41.334 -2.16699 68.001 -6.5s49.667 -10.166 69 -17.499v10h347l5 -39h-303v-273h240l5 -39h-245v-290h320l6 -39h-375v12zM432 36.499c22.667 5 44.334 12.168 65.001 21.501v565c-22.667 9.33301 -43.834 16.333 -63.501 21s-44.834 7 -75.501 7
c-48 -0.666992 -91.167 -13.834 -129.5 -39.501s-68.5 -62.167 -90.5 -109.5s-33 -102.333 -33 -165c0 -55.333 9.66699 -106.5 29 -153.5s47.5 -84.5 84.5 -112.5s80.5 -42 130.5 -42c32.667 0 60.334 2.5 83.001 7.5z" />
    <glyph glyph-name="oe" unicode="&#x153;" horiz-adv-x="758" 
d="M620 37c21.333 6 42.333 14.334 63 25.001l20 -37c-18.667 -11.333 -43.5 -20.5 -74.5 -27.5s-57.833 -10.5 -80.5 -10.5c-55.333 0 -102.333 13.333 -141 40c-19.333 -11.333 -43.5 -20.833 -72.5 -28.5s-54.167 -11.5 -75.5 -11.5c-70 0 -124 23.667 -162 71
s-57 109.666 -57 186.999c0 48.667 9 92.167 27 130.5s44 68.333 78 90s74.333 32.5 121 32.5c19.333 0 42.666 -3.5 69.999 -10.5s50.666 -16.167 69.999 -27.5c34 25.333 75.333 38 124 38c36.667 0 69.334 -11 98.001 -33s50.834 -52.5 66.501 -91.5
s23.5 -82.833 23.5 -131.5h-349c0.666992 -62.667 15.167 -114 43.5 -154s70.833 -60 127.5 -60c32 0 58.667 3 80 9zM110.5 135.501c13 -33 32.168 -59.167 57.501 -78.5s55.666 -29 90.999 -29c26.667 0 48.167 2.33301 64.5 7s33.833 11.667 52.5 21
c-38.667 45.333 -58 108.333 -58 189c0 78.667 19 141 57 187c-16.667 8 -33.667 14.167 -51 18.5s-37.333 6.5 -60 6.5c-34.667 0 -65.167 -9.5 -91.5 -28.5s-46.5 -44.667 -60.5 -77s-21 -67.5 -21 -105.5c0 -40.667 6.5 -77.5 19.5 -110.5zM416.501 406.501
c-25.667 -33.667 -40.832 -76.167 -45.499 -127.5h295c-5.33301 52.667 -19.333 95.5 -42 128.5s-56.334 49.5 -101.001 49.5c-45.333 0 -80.833 -16.833 -106.5 -50.5z" />
    <glyph glyph-name="Racute" unicode="&#x154;" 
d="M149 0l0.000976562 285.999h103c33.333 0 63.666 3.33301 90.999 10l164 -296h55l-177 309c38 14.667 68 36.834 90 66.501s33 66.5 33 110.5c0 68 -21.833 117.333 -65.5 148s-103.5 46 -179.5 46h-163v-680h49zM404.501 602.999
c35.667 -24.667 53.5 -64.332 53.5 -118.999c0 -52.667 -20 -92.334 -60 -119.001s-88 -40 -144 -40h-105v315h116c57.333 0 103.833 -12.333 139.5 -37zM277.001 892.001l-56 -142l32 -11l85 153h-61z" />
    <glyph glyph-name="racute" unicode="&#x155;" horiz-adv-x="302" 
d="M199.5 419c33 18.667 63.833 27.999 92.5 27.999l-17 38c-22.667 0 -49.167 -8.16699 -79.5 -24.5s-56.833 -33.833 -79.5 -52.5l-18 77h-28v-485h49v357c20.667 22.667 47.5 43.334 80.5 62.001zM168 741.999l-56 -142l32 -11l85 153h-61z" />
    <glyph glyph-name="Rcommaaccent" unicode="&#x156;" 
d="M149 0l0.000976562 285.999h103c33.333 0 63.666 3.33301 90.999 10l164 -296h55l-177 309c38 14.667 68 36.834 90 66.501s33 66.5 33 110.5c0 68 -21.833 117.333 -65.5 148s-103.5 46 -179.5 46h-163v-680h49zM404.501 602.999
c35.667 -24.667 53.5 -64.332 53.5 -118.999c0 -52.667 -20 -92.334 -60 -119.001s-88 -40 -144 -40h-105v315h116c57.333 0 103.833 -12.333 139.5 -37zM302.001 -32.499c-6.66699 -7.66699 -10.002 -16.834 -10.002 -27.501c0 -8 3.33301 -16.333 10 -25
s15.334 -13 26.001 -13c-0.666992 -33.333 -21 -60.666 -61 -81.999l16 -25c27.333 13.333 48.5 32.5 63.5 57.5s22.5 52.833 22.5 83.5c0 10.667 -3.66699 20.5 -11 29.5s-16.666 13.5 -27.999 13.5c-12 0 -21.333 -3.83301 -28 -11.5z" />
    <glyph glyph-name="rcommaaccent" unicode="&#x157;" horiz-adv-x="302" 
d="M199.5 419c33 18.667 63.833 27.999 92.5 27.999l-17 38c-22.667 0 -49.167 -8.16699 -79.5 -24.5s-56.833 -33.833 -79.5 -52.5l-18 77h-28v-485h49v357c20.667 22.667 47.5 43.334 80.5 62.001zM68 -32.501c-6.66699 -7.66699 -10.002 -16.834 -10.002 -27.501
c0 -8 3.33301 -16.333 10 -25s15.334 -13 26.001 -13c-0.666992 -33.333 -21 -60.666 -61 -81.999l16 -25c27.333 13.333 48.5 32.5 63.5 57.5s22.5 52.833 22.5 83.5c0 10.667 -3.66699 20.5 -11 29.5s-16.666 13.5 -27.999 13.5c-12 0 -21.333 -3.83301 -28 -11.5z" />
    <glyph glyph-name="Rcaron" unicode="&#x158;" 
d="M149 0l0.000976562 285.999h103c33.333 0 63.666 3.33301 90.999 10l164 -296h55l-177 309c38 14.667 68 36.834 90 66.501s33 66.5 33 110.5c0 68 -21.833 117.333 -65.5 148s-103.5 46 -179.5 46h-163v-680h49zM404.501 602.999
c35.667 -24.667 53.5 -64.332 53.5 -118.999c0 -52.667 -20 -92.334 -60 -119.001s-88 -40 -144 -40h-105v315h116c57.333 0 103.833 -12.333 139.5 -37zM139.001 882.001l106 -143h40l105 139l-41 14l-83 -118l-86 118z" />
    <glyph glyph-name="rcaron" unicode="&#x159;" horiz-adv-x="302" 
d="M199.5 419c33 18.667 63.833 27.999 92.5 27.999l-17 38c-22.667 0 -49.167 -8.16699 -79.5 -24.5s-56.833 -33.833 -79.5 -52.5l-18 77h-28v-485h49v357c20.667 22.667 47.5 43.334 80.5 62.001zM26 731.999l106 -143h40l105 139l-41 14l-83 -118l-86 118z" />
    <glyph glyph-name="Sacute" unicode="&#x15a;" horiz-adv-x="504" 
d="M132.5 0.5c40.333 -9 75.165 -13.501 104.498 -13.501c72 0 127.833 15.5 167.5 46.5s59.5 72.167 59.5 123.5c0 44 -14.5 81.5 -43.5 112.5s-74.833 59.5 -137.5 85.5c-62 26 -107.667 52.5 -137 79.5s-44 58.833 -44 95.5c0 35.333 14.333 65 43 89
s66.334 36 113.001 36c30.667 0 56.334 -3 77.001 -9s43 -14.333 67 -25l22 36c-22.667 11.333 -48.5 20.666 -77.5 27.999s-59.167 11 -90.5 11c-42 0 -78.5 -7 -109.5 -21s-54.833 -33.167 -71.5 -57.5s-25 -51.833 -25 -82.5c0 -46.667 15 -86.167 45 -118.5
s75.667 -61.166 137 -86.499c62.667 -26 108.5 -52 137.5 -78s43.5 -56.667 43.5 -92c0 -23.333 -6.83301 -45 -20.5 -65s-34 -36 -61 -48s-58.833 -18 -95.5 -18c-30.667 0 -60.667 3.83301 -90 11.5s-54.666 16.834 -75.999 27.501l-15 -39
c11.333 -10 37.166 -19.5 77.499 -28.5zM269.999 891.999l-56 -142l32 -11l85 153h-61z" />
    <glyph glyph-name="sacute" unicode="&#x15b;" horiz-adv-x="406" 
d="M111.5 -2.5c29 -7 54.832 -10.5 77.499 -10.5c118 0 177 45.333 177 136c0 31.333 -13.167 58.5 -39.5 81.5s-62.166 43.5 -107.499 61.5c-38.667 15.333 -68.667 31 -90 47s-32 34.333 -32 55c0 24 10.5 44.833 31.5 62.5s48.167 26.5 81.5 26.5
c26 0 47.333 -2.83301 64 -8.5s36.667 -14.167 60 -25.5l20 35c-16 11.333 -37.5 20.833 -64.5 28.5s-51.167 11.5 -72.5 11.5c-52.667 0 -93.667 -12.5 -123 -37.5s-44 -57.167 -44 -96.5c0 -53.333 47 -98.333 141 -135c85.333 -33.333 128 -70 128 -110
c0 -28 -11.333 -50.167 -34 -66.5s-54 -24.5 -94 -24.5c-22.667 0 -44.167 3.33301 -64.5 10s-42.5 16 -66.5 28l-18 -41c17.333 -11.333 40.5 -20.5 69.5 -27.5zM228.999 742l-56 -142l32 -11l85 153h-61z" />
    <glyph glyph-name="Scedilla" unicode="&#x15e;" horiz-adv-x="504" 
d="M409 37c-36.667 -30.667 -88.665 -47.333 -155.998 -50l-15 -38c28.667 -5.33301 51 -16.166 67 -32.499s24 -33.833 24 -52.5c0 -25.333 -10 -45.833 -30 -61.5s-46.333 -23.5 -79 -23.5c-12.667 0 -26.667 1.83301 -42 5.5s-27 8.16699 -35 13.5l15 31
c22.667 -9.33301 42.334 -14 59.001 -14c20 0 36.667 4.66699 50 14s20 20.333 20 33c0 15.333 -9 29.333 -27 42s-42 19 -72 19l25 65c-30 2.66699 -61.333 8.16699 -94 16.5s-54 16.5 -64 24.5l15 39c21.333 -10.667 46.666 -19.834 75.999 -27.501s59.333 -11.5 90 -11.5
c36.667 0 68.5 6 95.5 18s47.333 28 61 48s20.5 41.667 20.5 65c0 35.333 -14.5 66 -43.5 92s-74.833 52 -137.5 78c-61.333 25.333 -107 54.166 -137 86.499s-45 71.833 -45 118.5c0 30.667 8.33301 58.167 25 82.5s40.5 43.5 71.5 57.5s67.5 21 109.5 21
c31.333 0 61.5 -3.66699 90.5 -11s54.833 -16.666 77.5 -27.999l-22 -36c-24 10.667 -46.333 19 -67 25s-46.334 9 -77.001 9c-46.667 0 -84.334 -12 -113.001 -36s-43 -53.667 -43 -89c0 -36.667 14.667 -68.5 44 -95.5s75 -53.5 137 -79.5
c62.667 -26 108.5 -54.5 137.5 -85.5s43.5 -68.5 43.5 -112.5c0 -49.333 -18.333 -89.333 -55 -120z" />
    <glyph glyph-name="scedilla" unicode="&#x15f;" horiz-adv-x="406" 
d="M205 -13l-15 -38.001c28.667 -5.33301 51 -16.166 67 -32.499s24 -33.833 24 -52.5c0 -25.333 -10 -45.833 -30 -61.5s-46.333 -23.5 -79 -23.5c-12.667 0 -26.667 1.83301 -42 5.5s-27 8.16699 -35 13.5l15 31c22.667 -9.33301 42.334 -14 59.001 -14
c20 0 36.667 4.66699 50 14s20 20.333 20 33c0 15.333 -9 29.333 -27 42s-42 19 -72 19l25 65c-22 2 -44.5 6.33301 -67.5 13s-41.5 14.667 -55.5 24l18 41c24 -12 46.167 -21.333 66.5 -28s41.833 -10 64.5 -10c40 0 71.333 8.16699 94 24.5s34 38.5 34 66.5
c0 40 -42.667 76.667 -128 110c-94 36.667 -141 81.667 -141 135c0 39.333 14.667 71.5 44 96.5s70.333 37.5 123 37.5c21.333 0 45.5 -3.83301 72.5 -11.5s48.5 -17.167 64.5 -28.5l-20 -35c-23.333 11.333 -43.333 19.833 -60 25.5s-38 8.5 -64 8.5
c-33.333 0 -60.5 -8.83301 -81.5 -26.5s-31.5 -38.5 -31.5 -62.5c0 -20.667 10.667 -39 32 -55s51.333 -31.667 90 -47c45.333 -18 81.166 -38.5 107.499 -61.5s39.5 -50.167 39.5 -81.5c0 -86 -53.667 -131.333 -161 -136z" />
    <glyph glyph-name="Scaron" unicode="&#x160;" horiz-adv-x="504" 
d="M132.5 0.5c40.333 -9 75.165 -13.501 104.498 -13.501c72 0 127.833 15.5 167.5 46.5s59.5 72.167 59.5 123.5c0 44 -14.5 81.5 -43.5 112.5s-74.833 59.5 -137.5 85.5c-62 26 -107.667 52.5 -137 79.5s-44 58.833 -44 95.5c0 35.333 14.333 65 43 89
s66.334 36 113.001 36c30.667 0 56.334 -3 77.001 -9s43 -14.333 67 -25l22 36c-22.667 11.333 -48.5 20.666 -77.5 27.999s-59.167 11 -90.5 11c-42 0 -78.5 -7 -109.5 -21s-54.833 -33.167 -71.5 -57.5s-25 -51.833 -25 -82.5c0 -46.667 15 -86.167 45 -118.5
s75.667 -61.166 137 -86.499c62.667 -26 108.5 -52 137.5 -78s43.5 -56.667 43.5 -92c0 -23.333 -6.83301 -45 -20.5 -65s-34 -36 -61 -48s-58.833 -18 -95.5 -18c-30.667 0 -60.667 3.83301 -90 11.5s-54.666 16.834 -75.999 27.501l-15 -39
c11.333 -10 37.166 -19.5 77.499 -28.5zM131.999 881.999l106 -143h40l105 139l-41 14l-83 -118l-86 118z" />
    <glyph glyph-name="scaron" unicode="&#x161;" horiz-adv-x="406" 
d="M111.5 -2.5c29 -7 54.832 -10.5 77.499 -10.5c118 0 177 45.333 177 136c0 31.333 -13.167 58.5 -39.5 81.5s-62.166 43.5 -107.499 61.5c-38.667 15.333 -68.667 31 -90 47s-32 34.333 -32 55c0 24 10.5 44.833 31.5 62.5s48.167 26.5 81.5 26.5
c26 0 47.333 -2.83301 64 -8.5s36.667 -14.167 60 -25.5l20 35c-16 11.333 -37.5 20.833 -64.5 28.5s-51.167 11.5 -72.5 11.5c-52.667 0 -93.667 -12.5 -123 -37.5s-44 -57.167 -44 -96.5c0 -53.333 47 -98.333 141 -135c85.333 -33.333 128 -70 128 -110
c0 -28 -11.333 -50.167 -34 -66.5s-54 -24.5 -94 -24.5c-22.667 0 -44.167 3.33301 -64.5 10s-42.5 16 -66.5 28l-18 -41c17.333 -11.333 40.5 -20.5 69.5 -27.5zM86.999 732l106 -143h40l105 139l-41 14l-83 -118l-86 118z" />
    <glyph glyph-name="Tcedilla" unicode="&#x162;" horiz-adv-x="534" 
d="M335 -83.5c16 -16.333 23.999 -33.834 23.999 -52.501c0 -25.333 -10 -45.833 -30 -61.5s-46.333 -23.5 -79 -23.5c-12.667 0 -26.667 1.83301 -42 5.5s-27 8.16699 -35 13.5l15 31c22.667 -9.33301 42.334 -14 59.001 -14c20 0 36.667 4.66699 50 14s20 20.333 20 33
c0 15.333 -9 29.333 -27 42s-42 19 -72 19l29 77h-5v641h-232v39h509l5 -39h-233v-628h2l-2 -5v-8h-3l-20 -51c28.667 -5.33301 51 -16.166 67 -32.499z" />
    <glyph glyph-name="tcedilla" unicode="&#x163;" horiz-adv-x="292" 
d="M255 -83.5c16 -16.333 24.001 -33.834 24.001 -52.501c0 -25.333 -10 -45.833 -30 -61.5s-46.333 -23.5 -79 -23.5c-12.667 0 -26.667 1.83301 -42 5.5s-27 8.16699 -35 13.5l15 31c22.667 -9.33301 42.334 -14 59.001 -14c20 0 36.667 4.66699 50 14s20 20.333 20 33
c0 15.333 -9 29.333 -27 42s-42 19 -72 19l26 68c-22.667 7.33301 -40.334 21.5 -53.001 42.5s-19 48.5 -19 82.5v317h-72v37h72v131l49 22v-153h88l21 -37h-109v-310c0 -26.667 5.66699 -49.167 17 -67.5s28.333 -27.5 51 -27.5c13.333 0 27 3 41 9l12 -38
c-2 0 -11 -2.33301 -27 -7c-6.66699 -2 -17.334 -3.66699 -32.001 -5l-15 -38c28.667 -5.33301 51 -16.166 67 -32.499z" />
    <glyph glyph-name="Tcaron" unicode="&#x164;" horiz-adv-x="534" 
d="M10 641h232v-641h49v641h233l-5 39h-509v-39zM142 882l106 -143h40l105 139l-41 14l-83 -118l-86 118z" />
    <glyph glyph-name="tcaron" unicode="&#x165;" horiz-adv-x="412" 
d="M315 690.5c-6.66699 -7.66699 -10.002 -16.834 -10.002 -27.501c0 -8 3.33301 -16.333 10 -25s15.334 -13 26.001 -13c-0.666992 -33.333 -21 -60.666 -61 -81.999l16 -25c27.333 13.333 48.5 32.5 63.5 57.5s22.5 52.833 22.5 83.5c0 10.667 -3.66699 20.5 -11 29.5
s-16.666 13.5 -27.999 13.5c-12 0 -21.333 -3.83301 -28 -11.5zM140.998 623l-49 -22.001v-131h-72v-37h72v-317c0 -41.333 9.33301 -73.166 28 -95.499s44 -33.5 76 -33.5c12.667 0 25.667 1.66699 39 5c16 4.66699 25 7 27 7l-12 38c-14 -6 -27.667 -9 -41 -9
c-22.667 0 -39.667 9.16699 -51 27.5s-17 40.833 -17 67.5v310h109l-21 37h-88v153z" />
    <glyph glyph-name="Umacron" unicode="&#x16a;" horiz-adv-x="658" 
d="M90 239c0 -48.667 9.33203 -91.998 27.999 -129.998s46 -67.667 82 -89s79 -32 129 -32c50.667 0 93.834 10.667 129.501 32s62.834 51 81.501 89s28 81.333 28 130v441h-49v-444c0 -38.667 -7.66699 -73.834 -23 -105.501s-37.333 -56.5 -66 -74.5
s-62.334 -27 -101.001 -27c-37.333 0 -70.5 9.16699 -99.5 27.5s-51.333 43.166 -67 74.499s-23.5 66.333 -23.5 105v444h-49v-441zM441.999 827.002h-236v-37h241z" />
    <glyph glyph-name="umacron" unicode="&#x16b;" horiz-adv-x="500" 
d="M206 28c-34 0 -57.666 10.668 -70.999 32.001s-20 50.666 -20 87.999v337h-49v-337c0 -49.333 11.667 -88.5 35 -117.5s59.666 -43.5 108.999 -43.5c29.333 0 60 8.66699 92 26s58.667 38.333 80 63l10 -76h38v485h-49v-359c-64 -65.333 -122.333 -98 -175 -98z
M360.001 677.001h-235v-37h241z" />
    <glyph glyph-name="Uring" unicode="&#x16e;" horiz-adv-x="658" 
d="M90 239c0 -48.667 9.33203 -91.998 27.999 -129.998s46 -67.667 82 -89s79 -32 129 -32c50.667 0 93.834 10.667 129.501 32s62.834 51 81.501 89s28 81.333 28 130v441h-49v-444c0 -38.667 -7.66699 -73.834 -23 -105.501s-37.333 -56.5 -66 -74.5
s-62.334 -27 -101.001 -27c-37.333 0 -70.5 9.16699 -99.5 27.5s-51.333 43.166 -67 74.499s-23.5 66.333 -23.5 105v444h-49v-441zM264.499 885.002c-17.667 -16 -26.5 -36 -26.5 -60c0 -23.333 8.66699 -42.666 26 -57.999s38.333 -23 63 -23s45.5 7.66699 62.5 23
s25.5 34.666 25.5 57.999c0 24 -8.66699 44 -26 60s-38 24 -62 24s-44.833 -8 -62.5 -24zM290.999 788.502c-9.33301 9.66699 -14 21.834 -14 36.501c0 15.333 4.66699 28 14 38s21.333 15 36 15s26.5 -5 35.5 -15s13.5 -22.667 13.5 -38
c0 -14.667 -4.5 -26.834 -13.5 -36.501s-20.833 -14.5 -35.5 -14.5s-26.667 4.83301 -36 14.5z" />
    <glyph glyph-name="uring" unicode="&#x16f;" horiz-adv-x="500" 
d="M206 28c-34 0 -57.666 10.668 -70.999 32.001s-20 50.666 -20 87.999v337h-49v-337c0 -49.333 11.667 -88.5 35 -117.5s59.666 -43.5 108.999 -43.5c29.333 0 60 8.66699 92 26s58.667 38.333 80 63l10 -76h38v485h-49v-359c-64 -65.333 -122.333 -98 -175 -98z
M182.501 735.001c-17.667 -16 -26.5 -36 -26.5 -60c0 -23.333 8.66699 -42.666 26 -57.999s38.333 -23 63 -23s45.5 7.66699 62.5 23s25.5 34.666 25.5 57.999c0 24 -8.66699 44 -26 60s-38 24 -62 24s-44.833 -8 -62.5 -24zM209.001 638.501
c-9.33301 9.66699 -14 21.834 -14 36.501c0 15.333 4.66699 28 14 38s21.333 15 36 15s26.5 -5 35.5 -15s13.5 -22.667 13.5 -38c0 -14.667 -4.5 -26.834 -13.5 -36.501s-20.833 -14.5 -35.5 -14.5s-26.667 4.83301 -36 14.5z" />
    <glyph glyph-name="Uhungarumlaut" unicode="&#x170;" horiz-adv-x="658" 
d="M90 239c0 -48.667 9.33203 -91.998 27.999 -129.998s46 -67.667 82 -89s79 -32 129 -32c50.667 0 93.834 10.667 129.501 32s62.834 51 81.501 89s28 81.333 28 130v441h-49v-444c0 -38.667 -7.66699 -73.834 -23 -105.501s-37.333 -56.5 -66 -74.5
s-62.334 -27 -101.001 -27c-37.333 0 -70.5 9.16699 -99.5 27.5s-51.333 43.166 -67 74.499s-23.5 66.333 -23.5 105v444h-49v-441zM292.999 892.002l-56 -142l32 -11l85 153h-61zM420.999 892.002l-56 -142l32 -11l85 153h-61z" />
    <glyph glyph-name="uhungarumlaut" unicode="&#x171;" horiz-adv-x="500" 
d="M206 28c-34 0 -57.666 10.668 -70.999 32.001s-20 50.666 -20 87.999v337h-49v-337c0 -49.333 11.667 -88.5 35 -117.5s59.666 -43.5 108.999 -43.5c29.333 0 60 8.66699 92 26s58.667 38.333 80 63l10 -76h38v485h-49v-359c-64 -65.333 -122.333 -98 -175 -98z
M213.001 742.001l-56 -142l32 -11l85 153h-61zM341.001 742.001l-56 -142l32 -11l85 153h-61z" />
    <glyph glyph-name="Uogonek" unicode="&#x172;" horiz-adv-x="658" 
d="M568 239c0 -48 -9.00098 -90.832 -27.001 -128.499s-44.667 -67.334 -80 -89.001s-77.666 -32.834 -126.999 -33.501c-27.333 -29.333 -41 -62.666 -41 -99.999c0 -18 6.66699 -32.333 20 -43s27.333 -16 42 -16c19.333 0 37.666 7 54.999 21l22 -27
c-8.66699 -8.66699 -20.167 -15.834 -34.5 -21.501s-29.5 -8.5 -45.5 -8.5c-30 0 -55 9 -75 27s-30 41 -30 69c0 16 4.33301 33.167 13 51.5s20 34.833 34 49.5c-64 7.33301 -114 33.666 -150 78.999s-54 102 -54 170v441h49v-444c0 -38.667 7.83301 -73.667 23.5 -105
s38 -56.166 67 -74.499s62.167 -27.5 99.5 -27.5c38.667 0 72.334 9 101.001 27s50.667 42.833 66 74.5s23 66.834 23 105.501v444h49v-441z" />
    <glyph glyph-name="uogonek" unicode="&#x173;" horiz-adv-x="500" 
d="M481.5 -198.5c-14.333 -5.66699 -29.5 -8.5 -45.5 -8.5c-30 0 -55 9 -75 27s-30 41 -30 69c0 19.333 5.66699 39.5 17 60.5s26 38.833 44 53.5l-10 73c-21.333 -24.667 -48 -45.667 -80 -63s-62.667 -26 -92 -26c-49.333 0 -85.666 14.5 -108.999 43.5
s-35 68.167 -35 117.5v337h49v-337c0 -37.333 6.66699 -66.666 20 -87.999s37 -32 71 -32c52.667 0 111 32.667 175 98v359h49v-485c-18 -16.667 -31.333 -34 -40 -52s-13 -38 -13 -60c0 -18 6.66699 -32.333 20 -43s27.333 -16 42 -16c19.333 0 37.666 7 54.999 21l22 -27
c-8.66699 -8.66699 -20.167 -15.834 -34.5 -21.501z" />
    <glyph glyph-name="Ydieresis" unicode="&#x178;" horiz-adv-x="530" 
d="M520 680h-57l-204 -359l-200 368l-49 -21l225 -399v-269h49v274zM203 778.5c7.33301 7 11 15.834 11 26.501c0 10 -3.66699 18.5 -11 25.5s-16 10.5 -26 10.5c-11.333 0 -20.333 -3.33301 -27 -10s-10 -15.334 -10 -26.001s3.33301 -19.5 10 -26.5s15.667 -10.5 27 -10.5
c10 0 18.667 3.5 26 10.5zM362 778.501c7.33301 7 11 15.834 11 26.501c0 10 -3.66699 18.5 -11 25.5s-16 10.5 -26 10.5c-11.333 0 -20.333 -3.33301 -27 -10s-10 -15.334 -10 -26.001s3.33301 -19.5 10 -26.5s15.667 -10.5 27 -10.5c10 0 18.667 3.5 26 10.5z" />
    <glyph glyph-name="Zacute" unicode="&#x179;" horiz-adv-x="539" 
d="M509 631l-5 49h-457l10 -39h406l-433 -591l6 -50h468l-5 39h-420zM282 892l-56 -142l32 -11l85 153h-61z" />
    <glyph glyph-name="zacute" unicode="&#x17a;" horiz-adv-x="432" 
d="M73 448h277l-322 -417l8 -31h362l-10 37h-309l325 416l-3 32h-344zM239 742l-56 -142l32 -11l85 153h-61z" />
    <glyph glyph-name="Zdotaccent" unicode="&#x17b;" horiz-adv-x="539" 
d="M509 631l-5 49h-457l10 -39h406l-433 -591l6 -50h468l-5 39h-420zM293.5 779c7.66699 7.33301 11.5 16.333 11.5 27s-3.83301 19.667 -11.5 27s-16.834 11 -27.501 11c-11.333 0 -20.5 -3.66699 -27.5 -11s-10.5 -16.333 -10.5 -27s3.5 -19.667 10.5 -27
s16.167 -11 27.5 -11c10.667 0 19.834 3.66699 27.501 11z" />
    <glyph glyph-name="zdotaccent" unicode="&#x17c;" horiz-adv-x="432" 
d="M73 448h277l-322 -417l8 -31h362l-10 37h-309l325 416l-3 32h-344zM251.5 629c7.66699 7.33301 11.5 16.333 11.5 27s-3.83301 19.667 -11.5 27s-16.834 11 -27.501 11c-11.333 0 -20.5 -3.66699 -27.5 -11s-10.5 -16.333 -10.5 -27s3.5 -19.667 10.5 -27
s16.167 -11 27.5 -11c10.667 0 19.834 3.66699 27.501 11z" />
    <glyph glyph-name="Zcaron" unicode="&#x17d;" horiz-adv-x="539" 
d="M509 631l-5 49h-457l10 -39h406l-433 -591l6 -50h468l-5 39h-420zM144 882l106 -143h40l105 139l-41 14l-83 -118l-86 118z" />
    <glyph glyph-name="zcaron" unicode="&#x17e;" horiz-adv-x="432" 
d="M73 448h277l-322 -417l8 -31h362l-10 37h-309l325 416l-3 32h-344zM97 732l106 -143h40l105 139l-41 14l-83 -118l-86 118z" />
    <glyph glyph-name="florin" unicode="&#x192;" horiz-adv-x="293" 
d="M122 433v-376c0 -54.667 -23 -82 -69 -82c-6 0 -13.333 1 -22 3s-15 4 -19 6l-12 -37c22.667 -8.66699 44.667 -13 66 -13c34.667 0 60.834 12.333 78.501 37s26.5 58.667 26.5 102v360h109l-21 37h-88v109c0 54.667 23 82 69 82c6 0 13.333 -1 22 -3s15 -4 19 -6l12 37
c-22.667 8.66699 -44.667 13 -66 13c-34.667 0 -60.834 -12.333 -78.501 -37s-26.5 -58.667 -26.5 -102v-93h-73v-37h73z" />
    <glyph glyph-name="Scommaaccent" unicode="&#x218;" horiz-adv-x="504" 
d="M132.5 0.5c40.333 -9 75.165 -13.501 104.498 -13.501c72 0 127.833 15.5 167.5 46.5s59.5 72.167 59.5 123.5c0 44 -14.5 81.5 -43.5 112.5s-74.833 59.5 -137.5 85.5c-62 26 -107.667 52.5 -137 79.5s-44 58.833 -44 95.5c0 35.333 14.333 65 43 89
s66.334 36 113.001 36c30.667 0 56.334 -3 77.001 -9s43 -14.333 67 -25l22 36c-22.667 11.333 -48.5 20.666 -77.5 27.999s-59.167 11 -90.5 11c-42 0 -78.5 -7 -109.5 -21s-54.833 -33.167 -71.5 -57.5s-25 -51.833 -25 -82.5c0 -46.667 15 -86.167 45 -118.5
s75.667 -61.166 137 -86.499c62.667 -26 108.5 -52 137.5 -78s43.5 -56.667 43.5 -92c0 -23.333 -6.83301 -45 -20.5 -65s-34 -36 -61 -48s-58.833 -18 -95.5 -18c-30.667 0 -60.667 3.83301 -90 11.5s-54.666 16.834 -75.999 27.501l-15 -39
c11.333 -10 37.166 -19.5 77.499 -28.5zM209.999 -32.501c-6.66699 -7.66699 -10.002 -16.834 -10.002 -27.501c0 -8 3.33301 -16.333 10 -25s15.334 -13 26.001 -13c-0.666992 -33.333 -21 -60.666 -61 -81.999l16 -25c27.333 13.333 48.5 32.5 63.5 57.5
s22.5 52.833 22.5 83.5c0 10.667 -3.66699 20.5 -11 29.5s-16.666 13.5 -27.999 13.5c-12 0 -21.333 -3.83301 -28 -11.5z" />
    <glyph glyph-name="scommaaccent" unicode="&#x219;" horiz-adv-x="406" 
d="M111.5 -2.5c29 -7 54.832 -10.5 77.499 -10.5c118 0 177 45.333 177 136c0 31.333 -13.167 58.5 -39.5 81.5s-62.166 43.5 -107.499 61.5c-38.667 15.333 -68.667 31 -90 47s-32 34.333 -32 55c0 24 10.5 44.833 31.5 62.5s48.167 26.5 81.5 26.5
c26 0 47.333 -2.83301 64 -8.5s36.667 -14.167 60 -25.5l20 35c-16 11.333 -37.5 20.833 -64.5 28.5s-51.167 11.5 -72.5 11.5c-52.667 0 -93.667 -12.5 -123 -37.5s-44 -57.167 -44 -96.5c0 -53.333 47 -98.333 141 -135c85.333 -33.333 128 -70 128 -110
c0 -28 -11.333 -50.167 -34 -66.5s-54 -24.5 -94 -24.5c-22.667 0 -44.167 3.33301 -64.5 10s-42.5 16 -66.5 28l-18 -41c17.333 -11.333 40.5 -20.5 69.5 -27.5zM161.999 -32.5c-6.66699 -7.66699 -10.002 -16.834 -10.002 -27.501c0 -8 3.33301 -16.333 10 -25
s15.334 -13 26.001 -13c-0.666992 -33.333 -21 -60.666 -61 -81.999l16 -25c27.333 13.333 48.5 32.5 63.5 57.5s22.5 52.833 22.5 83.5c0 10.667 -3.66699 20.5 -11 29.5s-16.666 13.5 -27.999 13.5c-12 0 -21.333 -3.83301 -28 -11.5z" />
    <glyph glyph-name="Tcommaaccent" unicode="&#x21a;" horiz-adv-x="534" 
d="M10 641h232v-641h49v641h233l-5 39h-509v-39zM240 -32.5c-6.66699 -7.66699 -10.002 -16.834 -10.002 -27.501c0 -8 3.33301 -16.333 10 -25s15.334 -13 26.001 -13c-0.666992 -33.333 -21 -60.666 -61 -81.999l16 -25c27.333 13.333 48.5 32.5 63.5 57.5
s22.5 52.833 22.5 83.5c0 10.667 -3.66699 20.5 -11 29.5s-16.666 13.5 -27.999 13.5c-12 0 -21.333 -3.83301 -28 -11.5z" />
    <glyph glyph-name="tcommaaccent" unicode="&#x21b;" horiz-adv-x="292" 
d="M141 623l-49 -22.001v-131h-72v-37h72v-317c0 -41.333 9.33301 -73.166 28 -95.499s44 -33.5 76 -33.5c12.667 0 25.667 1.66699 39 5c16 4.66699 25 7 27 7l-12 38c-14 -6 -27.667 -9 -41 -9c-22.667 0 -39.667 9.16699 -51 27.5s-17 40.833 -17 67.5v310h109l-21 37
h-88v153zM160 -32.501c-6.66699 -7.66699 -10.002 -16.834 -10.002 -27.501c0 -8 3.33301 -16.333 10 -25s15.334 -13 26.001 -13c-0.666992 -33.333 -21 -60.666 -61 -81.999l16 -25c27.333 13.333 48.5 32.5 63.5 57.5s22.5 52.833 22.5 83.5
c0 10.667 -3.66699 20.5 -11 29.5s-16.666 13.5 -27.999 13.5c-12 0 -21.333 -3.83301 -28 -11.5z" />
    <glyph glyph-name="circumflex" unicode="&#x2c6;" horiz-adv-x="271" 
d="M261 603l-105 139h-40l-106 -143l41 -10l86 118l83 -118z" />
    <glyph glyph-name="caron" unicode="&#x2c7;" horiz-adv-x="271" 
d="M10 732l106 -143h40l105 139l-41 14l-83 -118l-86 118z" />
    <glyph glyph-name="uni02C9" unicode="&#x2c9;" horiz-adv-x="261" 
d="M245 689h-235v-39h241z" />
    <glyph glyph-name="breve" unicode="&#x2d8;" horiz-adv-x="280" 
d="M205 666.5c-16 -17.667 -37.667 -26.5 -65 -26.5c-26.667 0 -48.167 9 -64.5 27s-24.5 39.333 -24.5 64h-41c0 -35.333 11.667 -65.833 35 -91.5s55 -38.5 95 -38.5c41.333 0 73.333 12.667 96 38s34 56 34 92h-41c0 -25.333 -8 -46.833 -24 -64.5z" />
    <glyph glyph-name="dotaccent" unicode="&#x2d9;" horiz-adv-x="97" 
d="M75.5 629c7.66699 7.33301 11.5 16.333 11.5 27s-3.83301 19.667 -11.5 27s-16.834 11 -27.501 11c-11.333 0 -20.5 -3.66699 -27.5 -11s-10.5 -16.333 -10.5 -27s3.5 -19.667 10.5 -27s16.167 -11 27.5 -11c10.667 0 19.834 3.66699 27.501 11z" />
    <glyph glyph-name="ring" unicode="&#x2da;" horiz-adv-x="197" 
d="M36.5 735c-17.667 -16 -26.5 -36 -26.5 -60c0 -23.333 8.66699 -42.666 26 -57.999s38.333 -23 63 -23s45.5 7.66699 62.5 23s25.5 34.666 25.5 57.999c0 24 -8.66699 44 -26 60s-38 24 -62 24s-44.833 -8 -62.5 -24zM63 638.5c-9.33301 9.66699 -14 21.834 -14 36.501
c0 15.333 4.66699 28 14 38s21.333 15 36 15s26.5 -5 35.5 -15s13.5 -22.667 13.5 -38c0 -14.667 -4.5 -26.834 -13.5 -36.501s-20.833 -14.5 -35.5 -14.5s-26.667 4.83301 -36 14.5z" />
    <glyph glyph-name="ogonek" unicode="&#x2db;" horiz-adv-x="205" 
d="M27.5 -50.5c-11.667 -21.667 -17.501 -41.833 -17.501 -60.5c0 -28 10 -51 30 -69s45 -27 75 -27c16 0 31.167 2.83301 45.5 8.5s25.833 12.834 34.5 21.501l-22 27c-17.333 -14 -35.666 -21 -54.999 -21c-14.667 0 -28.667 5.33301 -42 16s-20 25 -20 43
c0 22 4.33301 42 13 60s22 35.333 40 52l-37 4c-18 -14.667 -32.833 -32.834 -44.5 -54.501z" />
    <glyph glyph-name="tilde" unicode="&#x2dc;" horiz-adv-x="299" 
d="M237.5 660.5c-7.66699 -9.66699 -18.166 -14.5 -31.499 -14.5c-16.667 0 -32.667 9.66699 -48 29c-14.667 18.667 -36.334 28 -65.001 28c-24 0 -43.833 -7.66699 -59.5 -23s-23.5 -38 -23.5 -68h39c3.33301 35.333 18.333 53 45 53c16.667 0 34 -9.33301 52 -28
c17.333 -19.333 37.333 -29 60 -29c24 0 43.833 7.66699 59.5 23s23.5 38 23.5 68h-38c-1.33301 -16 -5.83301 -28.833 -13.5 -38.5z" />
    <glyph glyph-name="hungarumlaut" unicode="&#x2dd;" horiz-adv-x="265" 
d="M66 742l-56 -142l32 -11l85 153h-61zM194 742l-56 -142l32 -11l85 153h-61z" />
    <glyph glyph-name="pi" unicode="&#x3c0;" horiz-adv-x="541" 
d="M382 446v-446h49v446h100v39h-521v-39h99v-446h49v446h224z" />
    <glyph glyph-name="tm_Anusvara" unicode="&#xb82;" horiz-adv-x="0" 
d="M74 666c20 18.667 30 42.333 30 71c0 29.333 -10 53.333 -30 72s-44.667 28 -74 28c-28 0 -52.333 -9.5 -73 -28.5s-31 -42.833 -31 -71.5c0 -28 10.167 -51.5 30.5 -70.5s44.833 -28.5 73.5 -28.5c29.333 0 54 9.33301 74 28zM-43.5 692.499
c-11.667 11.667 -17.5 26.5 -17.5 44.5s5.83301 32.833 17.5 44.5s26.167 17.5 43.5 17.5c18 0 32.833 -5.83301 44.5 -17.5s17.5 -26.5 17.5 -44.5s-5.83301 -32.833 -17.5 -44.5s-26.5 -17.5 -44.5 -17.5c-17.333 0 -31.833 5.83301 -43.5 17.5z" />
    <glyph glyph-name="tm_Visarga" unicode="&#xb83;" horiz-adv-x="670" 
d="M409 356c20 18.667 30 42.334 30 71.001s-10.167 52.5 -30.5 71.5s-44.833 28.5 -73.5 28.5c-28 0 -52.333 -9.66699 -73 -29s-31 -43 -31 -71c0 -28.667 10.167 -52.334 30.5 -71.001s44.833 -28 73.5 -28c29.333 0 54 9.33301 74 28zM290.5 382.5
c-11.667 11.667 -17.5 26.5 -17.5 44.5s5.83301 32.833 17.5 44.5s26.5 17.5 44.5 17.5s32.833 -5.83301 44.5 -17.5s17.5 -26.5 17.5 -44.5s-5.83301 -32.833 -17.5 -44.5s-26.5 -17.5 -44.5 -17.5s-32.833 5.83301 -44.5 17.5zM238 14.5c20 19 30 42.832 30 71.499
s-10.167 52.334 -30.5 71.001s-44.833 28 -73.5 28c-28 0 -52.333 -9.5 -73 -28.5s-31 -42.5 -31 -70.5c0 -28.667 10.167 -52.5 30.5 -71.5s44.833 -28.5 73.5 -28.5c29.333 0 54 9.5 74 28.5zM580 14.499c20 19 30 42.832 30 71.499s-10.167 52.334 -30.5 71.001
s-44.833 28 -73.5 28c-28 0 -52.333 -9.5 -73 -28.5s-31 -42.5 -31 -70.5c0 -28.667 10.167 -52.5 30.5 -71.5s44.833 -28.5 73.5 -28.5c29.333 0 54 9.5 74 28.5zM119.5 40.998c-11.667 12 -17.5 27 -17.5 45s5.83301 33 17.5 45s26.5 18 44.5 18s32.833 -6 44.5 -18
s17.5 -27 17.5 -45s-5.83301 -33 -17.5 -45s-26.5 -18 -44.5 -18s-32.833 6 -44.5 18zM461.5 40.998c-11.667 12 -17.5 27 -17.5 45s5.83301 32.833 17.5 44.5s26.5 17.5 44.5 17.5s32.833 -5.83301 44.5 -17.5s17.5 -26.5 17.5 -44.5s-5.83301 -33 -17.5 -45
s-26.5 -18 -44.5 -18s-32.833 6 -44.5 18z" />
    <glyph glyph-name="tm_A" unicode="&#xb85;" horiz-adv-x="1055" 
d="M955 -126h-43.998v216h-194c-29.333 -71.333 -78.666 -128.166 -147.999 -170.499s-150 -63.5 -242 -63.5c-54.667 0 -103.834 7.66699 -147.501 23s-77.834 36.333 -102.501 63s-37 56.667 -37 90c0 28 9.16699 50.5 27.5 67.5s44.5 25.5 78.5 25.5h534
c10.667 35.333 16 70.333 16 105c0 50.667 -9 95.5 -27 134.5s-44 69.5 -78 91.5s-74 33 -120 33c-31.333 0 -59.833 -4.83301 -85.5 -14.5s-47.167 -23.5 -64.5 -41.5c12.667 5.33301 26 8 40 8c35.333 0 64.833 -10.5 88.5 -31.5s35.5 -47.167 35.5 -78.5
c0 -33.333 -11.5 -60.833 -34.5 -82.5s-52.5 -32.5 -88.5 -32.5c-34.667 0 -63.5 11 -86.5 33s-34.5 49.667 -34.5 83c0 38 9.83301 72.167 29.5 102.5s47 54 82 71s74.5 25.5 118.5 25.5c54.667 0 102.667 -12.833 144 -38.5s73.166 -61.334 95.499 -107.001
s33.5 -97.5 33.5 -155.5c0 -36.667 -5 -71.667 -15 -105h182v388h44v-639zM303.002 383c-15.333 -14 -23.001 -32.001 -23.001 -54.001c0 -21.333 8 -39.166 24 -53.499s36 -21.5 60 -21.5c22.667 0 41.167 7 55.5 21s21.5 32 21.5 54s-7.5 40 -22.5 54s-34.167 21 -57.5 21
s-42.666 -7 -57.999 -21zM534.501 -50.501c59.667 34.333 103.499 81.166 131.499 140.499h-516c-41.333 0 -62 -19.333 -62 -58c0 -26 10.167 -49.167 30.5 -69.5s48.5 -36.166 84.5 -47.499s77.333 -17 124 -17c78.667 0 147.834 17.167 207.501 51.5z" />
    <glyph glyph-name="tm_Aa" unicode="&#xb86;" horiz-adv-x="1248" 
d="M1196.5 36c27.667 -32 41.501 -72.666 41.501 -121.999c0 -56 -15.5 -106.167 -46.5 -150.5s-73.5 -78.833 -127.5 -103.5s-114.667 -37 -182 -37c-41.333 0 -78.333 5.66699 -111 17s-58.167 27.166 -76.5 47.499s-27.5 43.166 -27.5 68.499c0 30.667 11.333 56 34 76
s51.334 30 86.001 30h21v-35h-21c-22 0 -39.5 -6.66699 -52.5 -20s-19.5 -30.333 -19.5 -51c0 -27.333 15.333 -49.333 46 -66s71 -25 121 -25c59.333 0 112.333 10.5 159 31.5s83.167 50.667 109.5 89s39.5 81.833 39.5 130.5c0 36.667 -9.83301 66.667 -29.5 90
s-46.5 35 -80.5 35c-36 0 -65.833 -12.667 -89.5 -38s-35.5 -57.666 -35.5 -96.999v-32h-44v216h-194c-29.333 -71.333 -78.666 -128.166 -147.999 -170.499s-150 -63.5 -242 -63.5c-54.667 0 -103.834 7.66699 -147.501 23s-77.834 36.333 -102.501 63s-37 56.667 -37 90
c0 28 9.16699 50.5 27.5 67.5s44.5 25.5 78.5 25.5h534c10.667 35.333 16 70.333 16 105c0 50.667 -9 95.5 -27 134.5s-44 69.5 -78 91.5s-74 33 -120 33c-31.333 0 -59.833 -4.83301 -85.5 -14.5s-47.167 -23.5 -64.5 -41.5c12.667 5.33301 26 8 40 8
c35.333 0 64.833 -10.5 88.5 -31.5s35.5 -47.167 35.5 -78.5c0 -33.333 -11.5 -60.833 -34.5 -82.5s-52.5 -32.5 -88.5 -32.5c-34.667 0 -63.5 11 -86.5 33s-34.5 49.667 -34.5 83c0 38 9.83301 72.167 29.5 102.5s47 54 82 71s74.5 25.5 118.5 25.5
c54.667 0 102.667 -12.833 144 -38.5s73.166 -61.334 95.499 -107.001s33.5 -97.5 33.5 -155.5c0 -36.667 -5 -71.667 -15 -105h182v388h44v-490c15.333 19.333 34 34.333 56 45s46 16 72 16c48 0 85.833 -16 113.5 -48zM303.001 383.001
c-15.333 -14 -23.001 -32.001 -23.001 -54.001c0 -21.333 8 -39.166 24 -53.499s36 -21.5 60 -21.5c22.667 0 41.167 7 55.5 21s21.5 32 21.5 54s-7.5 40 -22.5 54s-34.167 21 -57.5 21s-42.666 -7 -57.999 -21zM534.5 -50.5c59.667 34.333 103.499 81.166 131.499 140.499
h-516c-41.333 0 -62 -19.333 -62 -58c0 -26 10.167 -49.167 30.5 -69.5s48.5 -36.166 84.5 -47.499s77.333 -17 124 -17c78.667 0 147.834 17.167 207.501 51.5z" />
    <glyph glyph-name="tm_I" unicode="&#xb87;" horiz-adv-x="1030" 
d="M742 667c58.667 -29.333 104.667 -70.667 138 -124s50 -115 50 -185v-506h-44v504c0 62.667 -14.5 117.667 -43.5 165s-69.5 83.833 -121.5 109.5s-111.667 38.5 -179 38.5c-72.667 0 -136.834 -12.5 -192.501 -37.5s-99 -61.667 -130 -110s-46.5 -105.833 -46.5 -172.5
c0 -81.333 20 -159 60 -233c64.667 24 135 36 211 36c52.667 0 103 -7.66699 151 -23c44 70.667 66 134.334 66 191.001c0 51.333 -14.333 92.333 -43 123s-71.334 46 -128.001 46c-30 0 -56.833 -5 -80.5 -15s-43.167 -24.667 -58.5 -44
c14.667 7.33301 30.334 11 47.001 11c35.333 0 64.833 -10.5 88.5 -31.5s35.5 -47.167 35.5 -78.5c0 -33.333 -11.5 -60.833 -34.5 -82.5s-52.5 -32.5 -88.5 -32.5c-34.667 0 -63.5 11 -86.5 33s-34.5 49.667 -34.5 83c0 38 9 72.167 27 102.5s43.167 54 75.5 71
s68.833 25.5 109.5 25.5c70.667 0 124.834 -19.333 162.501 -58s56.5 -89.667 56.5 -153c0 -62 -23.333 -131 -70 -207c50 -22 89.667 -51.167 119 -87.5s44 -76.5 44 -120.5c0 -30.667 -12.5 -55.5 -37.5 -74.5s-60.167 -28.5 -105.5 -28.5
c-86.667 0 -171.334 25 -254.001 75c-37.333 -24 -74.833 -42.5 -112.5 -55.5s-74.167 -19.5 -109.5 -19.5c-45.333 0 -80.5 9.5 -105.5 28.5s-37.5 43.833 -37.5 74.5c0 40 13.5 76.667 40.5 110s64.167 61.333 111.5 84c-44 81.333 -66 164.666 -66 249.999
c0 74.667 17.667 139.167 53 193.5s84.5 96 147.5 125s134.833 43.5 215.5 43.5c74.667 0 141.334 -14.667 200.001 -44zM340 382.999c-15.333 -14 -23.001 -32.001 -23.001 -54.001c0 -21.333 8 -39.166 24 -53.499s36 -21.5 60 -21.5c22.667 0 41.167 7 55.5 21
s21.5 32 21.5 54s-7.5 40 -22.5 54s-34.167 21 -57.5 21s-42.666 -7 -57.999 -21zM254.999 78.998c39.333 -61.333 88.667 -112 148 -152c64 44.667 119.667 99.667 167 165c-38.667 12 -80.667 18 -126 18c-68 0 -131 -10.333 -189 -31zM716.5 3.99805
c-25.667 30 -59.833 54 -102.5 72c-47.333 -66.667 -104.333 -124.667 -171 -174c70 -38.667 142 -58 216 -58c64 0 96 20.333 96 61c0 36 -12.833 69 -38.5 99zM366.001 -97.002c-60 42.667 -110.333 95.667 -151 159c-39.333 -19.333 -70.333 -42.333 -93 -69
s-34 -56 -34 -88c0 -19.333 7.66699 -34.333 23 -45s39.333 -16 72 -16c57.333 0 118.333 19.667 183 59z" />
    <glyph glyph-name="tm_Ii" unicode="&#xb88;" horiz-adv-x="741" 
d="M432 0v478h-288v-478h-44v513h626l5 -35h-255v-478h-44zM313.5 209c6.33301 6.66699 9.5 14.667 9.5 24s-3.5 17.333 -10.5 24s-15.167 10 -24.5 10c-10 0 -18.167 -3.16699 -24.5 -9.5s-9.5 -14.5 -9.5 -24.5s3.16699 -18.167 9.5 -24.5s14.5 -9.5 24.5 -9.5
c10.667 0 19.167 3.33301 25.5 10zM645.5 209c6.33301 6.66699 9.5 14.667 9.5 24s-3.5 17.333 -10.5 24s-15.167 10 -24.5 10c-10 0 -18.167 -3.33301 -24.5 -10s-9.5 -14.667 -9.5 -24s3.16699 -17.333 9.5 -24s14.5 -10 24.5 -10c10.667 0 19.167 3.33301 25.5 10z" />
    <glyph glyph-name="tm_U" unicode="&#xb89;" horiz-adv-x="964" 
d="M954 0l-878.999 0.00292969v35h241c44 0 83 10.167 117 30.5s60.5 48.666 79.5 84.999s28.5 77.166 28.5 122.499c0 42 -9.33301 79.333 -28 112s-45 58.167 -79 76.5s-73 27.5 -117 27.5c-46.667 0 -87.334 -9.16699 -122.001 -27.5s-61.667 -43.833 -81 -76.5
c26.667 18 56.334 27 89.001 27c44.667 0 81.5 -13.333 110.5 -40s43.5 -60.334 43.5 -101.001c0 -42.667 -15 -77.667 -45 -105s-68 -41 -114 -41c-45.333 0 -83 14.167 -113 42.5s-45 64.166 -45 107.499c0 49.333 11.5 93.333 34.5 132s55.5 69 97.5 91s90.333 33 145 33
c52 0 98.667 -11.167 140 -33.5s73.666 -53 96.999 -92s35 -83.167 35 -132.5c0 -54.667 -11.667 -102.667 -35 -144s-56.333 -72.666 -99 -93.999h499v-35zM119.001 345.503c-22 -19 -33 -43.167 -33 -72.5c0 -31.333 10.5 -56.833 31.5 -76.5s47.833 -29.5 80.5 -29.5
c32 0 58.5 9.83301 79.5 29.5s31.5 44.5 31.5 74.5c0 29.333 -10 53.833 -30 73.5s-45.333 29.5 -76 29.5c-34 0 -62 -9.5 -84 -28.5z" />
    <glyph glyph-name="tm_Uu" unicode="&#xb8a;" horiz-adv-x="1699" 
d="M1689 0l-1614 0.00292969v35h241c44 0 83 10.167 117 30.5s60.5 48.666 79.5 84.999s28.5 77.166 28.5 122.499c0 42 -9.33301 79.333 -28 112s-45 58.167 -79 76.5s-73 27.5 -117 27.5c-46.667 0 -87.334 -9.16699 -122.001 -27.5s-61.667 -43.833 -81 -76.5
c26.667 18 56.334 27 89.001 27c44.667 0 81.5 -13.333 110.5 -40s43.5 -60.334 43.5 -101.001c0 -42.667 -15 -77.667 -45 -105s-68 -41 -114 -41c-45.333 0 -83 14.167 -113 42.5s-45 64.166 -45 107.499c0 49.333 11.5 93.333 34.5 132s55.5 69 97.5 91s90.333 33 145 33
c52 0 98.667 -11.167 140 -33.5s73.666 -53 96.999 -92s35 -83.167 35 -132.5c0 -54.667 -11.5 -102.667 -34.5 -144s-55.833 -72.666 -98.5 -93.999h1233v-35zM792.001 103.003c-36 18.667 -63.001 44 -81.001 76s-27 67 -27 105c0 47.333 11 89.5 33 126.5
s52.833 66 92.5 87s84.834 31.5 135.501 31.5c47.333 0 90 -10.667 128 -32s68 -50.666 90 -87.999v104h476l5 -35h-167v-388h-44v388h-226v-388h-44v178c0 42 -9.33301 79.667 -28 113s-44.667 59.333 -78 78s-70.666 28 -111.999 28s-78.333 -8.66699 -111 -26
s-58 -41.5 -76 -72.5s-27 -65.833 -27 -104.5c0 -32 6.16699 -60.5 18.5 -85.5s31.166 -45.167 56.499 -60.5c-15.333 20.667 -23 44.667 -23 72c0 39.333 13.167 71.666 39.5 96.999s59.833 38 100.5 38s74.334 -13 101.001 -39s40 -58.667 40 -98
c0 -38.667 -13.333 -70.5 -40 -95.5s-60.334 -37.5 -101.001 -37.5c-51.333 0 -95 9.33301 -131 28zM119 345.503c-22 -19 -33 -43.167 -33 -72.5c0 -31.333 10.5 -56.833 31.5 -76.5s47.833 -29.5 80.5 -29.5c32 0 58.5 9.83301 79.5 29.5s31.5 44.5 31.5 74.5
c0 29.333 -10 53.833 -30 73.5s-45.333 29.5 -76 29.5c-34 0 -62 -9.5 -84 -28.5zM853 138.003c18 -18.667 41.333 -28 70 -28s52 9.16699 70 27.5s27 41.833 27 70.5s-9 52.167 -27 70.5s-41.333 27.5 -70 27.5s-52 -9 -70 -27s-27 -41 -27 -69c0 -29.333 9 -53.333 27 -72
z" />
    <glyph glyph-name="tm_E" unicode="&#xb8e;" horiz-adv-x="839" 
d="M628 478v-478.002h-44v478h-190c-92.667 0 -163.5 -21.667 -212.5 -65s-73.5 -102 -73.5 -176c0 -40 8.16699 -76 24.5 -108s39.833 -57.333 70.5 -76c-18.667 24 -28 52.667 -28 86c0 30 7 57 21 81s33.5 42.667 58.5 56s53.167 20 84.5 20
c32 0 60.833 -6.83301 86.5 -20.5s45.667 -32.5 60 -56.5s21.5 -51.333 21.5 -82c0 -29.333 -7.16699 -55.833 -21.5 -79.5s-34.333 -42.167 -60 -55.5s-54.5 -20 -86.5 -20c-56 0 -105 10.833 -147 32.5s-74.5 51.834 -97.5 90.501s-34.5 82.667 -34.5 132
c0 55.333 12.5 103.833 37.5 145.5s61.833 73.834 110.5 96.501s107.667 34 177 34h439l5 -35h-201zM252 51.498c22.667 -23 51.667 -34.502 87 -34.502c34.667 0 63.5 11.333 86.5 34s34.5 51.334 34.5 86.001s-11.333 63.334 -34 86.001s-51.667 34 -87 34
s-64.333 -11 -87 -33s-34 -50.333 -34 -85c0 -35.333 11.333 -64.5 34 -87.5z" />
    <glyph glyph-name="tm_Ee" unicode="&#xb8f;" horiz-adv-x="839" 
d="M628 478v-452.002c0 -29.333 -1.5 -52.166 -4.5 -68.499s-9.33301 -30.333 -19 -42s-24.5 -21.834 -44.5 -30.501l-317 -135l-21 35l298 129c26 10.667 43.167 23 51.5 37s12.5 37 12.5 69v458h-190c-92.667 0 -163.5 -21.667 -212.5 -65s-73.5 -102 -73.5 -176
c0 -40 8.16699 -76 24.5 -108s39.833 -57.333 70.5 -76c-18.667 24 -28 52.667 -28 86c0 30 7 57 21 81s33.5 42.667 58.5 56s53.167 20 84.5 20c32 0 60.833 -6.83301 86.5 -20.5s45.667 -32.5 60 -56.5s21.5 -51.333 21.5 -82c0 -29.333 -7.16699 -55.833 -21.5 -79.5
s-34.333 -42.167 -60 -55.5s-54.5 -20 -86.5 -20c-56 0 -105 10.833 -147 32.5s-74.5 51.834 -97.5 90.501s-34.5 82.667 -34.5 132c0 55.333 12.5 103.833 37.5 145.5s61.833 73.834 110.5 96.501s107.667 34 177 34h439l5 -35h-201zM252 51.498
c22.667 -23 51.667 -34.502 87 -34.502c34.667 0 63.5 11.333 86.5 34s34.5 51.334 34.5 86.001s-11.333 63.334 -34 86.001s-51.667 34 -87 34s-64.333 -11 -87 -33s-34 -50.333 -34 -85c0 -35.333 11.333 -64.5 34 -87.5z" />
    <glyph glyph-name="tm_Ai" unicode="&#xb90;" horiz-adv-x="841" 
d="M758 24c6 -22 9.00391 -46.6689 9.00391 -74.002c0 -46 -15.667 -83.333 -47 -112s-74.333 -43 -129 -43c-41.333 0 -74.5 8 -99.5 24s-46.5 38.667 -64.5 68c-18.667 -29.333 -41.834 -52 -69.501 -68s-63.834 -24 -108.501 -24c-36.667 0 -69.334 7.5 -98.001 22.5
s-51 35.667 -67 62s-24 55.833 -24 88.5c0 58 23.167 103.333 69.5 136s113.166 54.667 200.499 66l181 24c66 8.66699 119.333 26.667 160 54s61.334 64 62.001 110c0 39.333 -11.667 71 -35 95s-54.333 36 -93 36c-41.333 0 -75.333 -13.667 -102 -41
s-40 -62.333 -40 -105v-69h-44v69c0 42.667 -13.833 77.667 -41.5 105s-63.167 41 -106.5 41c-62 0 -106.667 -19.667 -134 -59c10 4.66699 22 7 36 7c30.667 0 55.334 -8.83301 74.001 -26.5s28 -40.5 28 -68.5s-9.66699 -51.167 -29 -69.5s-44 -27.5 -74 -27.5
c-30.667 0 -55.834 9 -75.501 27s-29.5 41.333 -29.5 70c0 36 8.83301 68.333 26.5 97s42 51.167 73 67.5s65.833 24.5 104.5 24.5c71.333 0 127.666 -31.667 168.999 -95c40 63.333 95 95 165 95c33.333 0 63.5 -7.5 90.5 -22.5s48 -35.667 63 -62s22.5 -55.833 22.5 -88.5
c0 -60 -22.833 -105.833 -68.5 -137.5s-112.834 -53.167 -201.501 -64.5l-181 -25c-65.333 -8.66699 -118.5 -26.5 -159.5 -53.5s-61.833 -63.5 -62.5 -109.5c0 -39.333 12.833 -71 38.5 -95s59.834 -36 102.501 -36c46 0 83.5 13.5 112.5 40.5s43.5 62.167 43.5 105.5v69
h44v-69c0 -44 12.833 -79.333 38.5 -106s60.167 -40 103.5 -40c41.333 0 73 10.167 95 30.5s33 47.833 33 82.5c0 20.667 -3.16699 44.334 -9.5 71.001s-14.833 51.334 -25.5 74.001l45 6c13.333 -29.333 23 -55 29 -77zM130.004 384.998
c-11.333 -10.667 -17.6689 -24 -19.002 -40v-6c0 -16.667 5.66699 -30.667 17 -42s25.333 -17 42 -17c17.333 0 31.833 5.5 43.5 16.5s17.834 24.833 18.501 41.5c0 18 -5.66699 33 -17 45s-25.666 18 -42.999 18c-16.667 0 -30.667 -5.33301 -42 -16z" />
    <glyph glyph-name="tm_O" unicode="&#xb92;" horiz-adv-x="819" 
d="M565.5 33.5c19.667 -22.333 51.4932 -33.4971 95.4932 -33.4971h59v-35h-59c-26 0 -48.667 3 -68 9v-24c0 -32 -7.66699 -60.833 -23 -86.5s-36.666 -45.834 -63.999 -60.501s-58 -22 -92 -22s-64.667 7.33301 -92 22s-48.666 34.834 -63.999 60.501s-23 54.5 -23 86.5
v50h44v-50c0 -37.333 12.833 -68.333 38.5 -93s57.834 -37 96.501 -37s70.834 12.333 96.501 37s38.5 55.667 38.5 93v47c-34.667 28 -52 73.333 -52 136v136h44c0.666992 -30 9.33398 -54.333 26.001 -73s37.334 -28 62.001 -28c54.667 0 82 38 82 114
c0 40 -13.167 75.833 -39.5 107.5s-62.333 56.5 -108 74.5s-97.167 27 -154.5 27c-58 0 -110.167 -9.5 -156.5 -28.5s-82.666 -45.333 -108.999 -79s-39.5 -71.834 -39.5 -114.501c0 -12 1 -23.667 3 -35c4.66699 28 17.334 50.667 38.001 68s45.667 26 75 26
c34 0 62 -10.833 84 -32.5s33 -49.167 33 -82.5c0 -32 -11.333 -58.5 -34 -79.5s-51.334 -31.5 -86.001 -31.5c-30 0 -57 7.16699 -81 21.5s-42.667 34.166 -56 59.499s-20 54 -20 86c0 50.667 15 96.167 45 136.5s71.5 71.833 124.5 94.5s112.833 34 179.5 34
s126.667 -10.833 180 -32.5s95 -51.667 125 -90s45 -81.5 45 -129.5c0 -46.667 -11.333 -84.334 -34 -113.001s-54.667 -43 -96 -43c-18.667 0 -36 4 -52 12s-29.667 19.333 -41 34v-39c0 -44 9.83301 -77.167 29.5 -99.5zM162.993 267.003
c-14.667 -14 -21.999 -32.332 -21.999 -54.999c0 -20.667 7.16699 -37.834 21.5 -51.501s32.5 -20.5 54.5 -20.5c21.333 0 39 6.83301 53 20.5s21.333 31.167 22 52.5c0 22 -6.83301 40 -20.5 54s-31.167 21 -52.5 21c-22.667 0 -41.334 -7 -56.001 -21z" />
    <glyph glyph-name="tm_Oo" unicode="&#xb93;" horiz-adv-x="819" 
d="M565.5 33.5c19.667 -22.333 51.4951 -33.4951 95.4951 -33.4951h59v-35h-59c-25.333 0 -48 3 -68 9v-24c0 -32 -8.83301 -60.833 -26.5 -86.5s-42.167 -45.834 -73.5 -60.501s-66.666 -22 -105.999 -22c-36 0 -68.333 5.66699 -97 17s-51.167 27.166 -67.5 47.499
s-24.5 43.166 -24.5 68.499c0 31.333 11.167 57 33.5 77s50.833 30 85.5 30h21v-35h-21c-22 0 -40 -6.66699 -54 -20s-21 -30.666 -21 -51.999c0 -27.333 13.667 -49.833 41 -67.5s62 -26.5 104 -26.5c46.667 0 85.334 12.333 116.001 37s46 55.667 46 93v47
c-34.667 26.667 -52 72 -52 136v136h44c0.666992 -30 9.33398 -54.333 26.001 -73s37.334 -28 62.001 -28c54.667 0 82 38 82 114c0 40 -13.167 75.833 -39.5 107.5s-62.333 56.5 -108 74.5s-97.167 27 -154.5 27c-58 0 -110.167 -9.5 -156.5 -28.5
s-82.666 -45.333 -108.999 -79s-39.5 -71.834 -39.5 -114.501c0 -12 1 -23.667 3 -35c4.66699 28 17.334 50.667 38.001 68s45.667 26 75 26c34 0 62 -10.833 84 -32.5s33 -49.167 33 -82.5c0 -32 -11.333 -58.5 -34 -79.5s-51.334 -31.5 -86.001 -31.5
c-30 0 -57 7.16699 -81 21.5s-42.667 34.166 -56 59.499s-20 54 -20 86c0 50.667 15 96.167 45 136.5s71.5 71.833 124.5 94.5s112.833 34 179.5 34s126.667 -10.833 180 -32.5s95 -51.667 125 -90s45 -81.5 45 -129.5c0 -46.667 -11.333 -84.334 -34 -113.001
s-54.667 -43 -96 -43c-18.667 0 -36 4 -52 12s-29.667 19.333 -41 34v-39c0 -44 9.83301 -77.167 29.5 -99.5zM162.995 267.005c-14.667 -14 -21.999 -32.332 -21.999 -54.999c0 -20.667 7.16699 -37.834 21.5 -51.501s32.5 -20.5 54.5 -20.5c21.333 0 39 6.83301 53 20.5
s21.333 31.167 22 52.5c0 22 -6.83301 40 -20.5 54s-31.167 21 -52.5 21c-22.667 0 -41.334 -7 -56.001 -21z" />
    <glyph glyph-name="tm_Au" unicode="&#xb94;" horiz-adv-x="2018" 
d="M565.5 33.5c19.667 -22.333 51.4932 -33.4971 95.4932 -33.4971h59v-35h-59c-26 0 -48.667 3 -68 9v-24c0 -32 -7.66699 -60.833 -23 -86.5s-36.666 -45.834 -63.999 -60.501s-58 -22 -92 -22s-64.667 7.33301 -92 22s-48.666 34.834 -63.999 60.501s-23 54.5 -23 86.5
v50h44v-50c0 -37.333 12.833 -68.333 38.5 -93s57.834 -37 96.501 -37s70.834 12.333 96.501 37s38.5 55.667 38.5 93v47c-34.667 28 -52 73.333 -52 136v136h44c0.666992 -30 9.33398 -54.333 26.001 -73s37.334 -28 62.001 -28c54.667 0 82 38 82 114
c0 40 -13.167 75.833 -39.5 107.5s-62.333 56.5 -108 74.5s-97.167 27 -154.5 27c-58 0 -110.167 -9.5 -156.5 -28.5s-82.666 -45.333 -108.999 -79s-39.5 -71.834 -39.5 -114.501c0 -12 1 -23.667 3 -35c4.66699 28 17.334 50.667 38.001 68s45.667 26 75 26
c34 0 62 -10.833 84 -32.5s33 -49.167 33 -82.5c0 -32 -11.333 -58.5 -34 -79.5s-51.334 -31.5 -86.001 -31.5c-30 0 -57 7.16699 -81 21.5s-42.667 34.166 -56 59.499s-20 54 -20 86c0 50.667 15 96.167 45 136.5s71.5 71.833 124.5 94.5s112.833 34 179.5 34
s126.667 -10.833 180 -32.5s95 -51.667 125 -90s45 -81.5 45 -129.5c0 -46.667 -11.333 -84.334 -34 -113.001s-54.667 -43 -96 -43c-18.667 0 -36 4 -52 12s-29.667 19.333 -41 34v-39c0 -44 9.83301 -77.167 29.5 -99.5zM162.993 267.003
c-14.667 -14 -21.999 -32.332 -21.999 -54.999c0 -20.667 7.16699 -37.834 21.5 -51.501s32.5 -20.5 54.5 -20.5c21.333 0 39 6.83301 53 20.5s21.333 31.167 22 52.5c0 22 -6.83301 40 -20.5 54s-31.167 21 -52.5 21c-22.667 0 -41.334 -7 -56.001 -21zM1806.99 478.004
l0.00195312 -478.001h-44v478h-270v-478h-44v228c0 50 -11.167 94.833 -33.5 134.5s-53.333 70.667 -93 93s-84.167 33.5 -133.5 33.5c-54.667 0 -101.667 -10.667 -141 -32s-69.333 -51.166 -90 -89.499s-31 -81.833 -31 -130.5c0 -40 8.16699 -76 24.5 -108
s39.833 -57.333 70.5 -76c-18.667 24 -28 52.667 -28 86c0 30 7 57 21 81s33.5 42.667 58.5 56s53.167 20 84.5 20c32 0 60.833 -6.83301 86.5 -20.5s45.667 -32.5 60 -56.5s21.5 -51.333 21.5 -82c0 -29.333 -7.16699 -55.833 -21.5 -79.5s-34.333 -42.167 -60 -55.5
s-54.5 -20 -86.5 -20c-56 0 -105 10.833 -147 32.5s-74.5 51.834 -97.5 90.501s-34.5 82.667 -34.5 132c0 57.333 12.5 108.166 37.5 152.499s60.833 79 107.5 104s101.667 37.5 165 37.5c57.333 0 108.666 -13 153.999 -39s80.666 -62 105.999 -108v129h554l5 -35h-201z
M1071 51.5029c22.667 -23 51.667 -34.502 87 -34.502c34.667 0 63.5 11.333 86.5 34s34.5 51.334 34.5 86.001s-11.333 63.334 -34 86.001s-51.667 34 -87 34s-64.333 -11 -87 -33s-34 -50.333 -34 -85c0 -35.333 11.333 -64.5 34 -87.5z" />
    <glyph glyph-name="tm_Ka" unicode="&#xb95;" horiz-adv-x="723" 
d="M635 246c32 -27.333 47.998 -62.6641 47.998 -105.997c0 -46.667 -17.167 -84.667 -51.5 -114s-80.833 -44 -139.5 -44v35c46 0 81.333 11.167 106 33.5s37 52.166 37 89.499c0 33.333 -11.333 60.333 -34 81s-54.667 31 -96 31h-52v-47c0 -71.333 -20 -126.333 -60 -165
s-92.333 -58 -157 -58c-36.667 0 -69.167 6.66699 -97.5 20s-50.166 31.666 -65.499 54.999s-23 49.666 -23 78.999c0 35.333 10.333 66 31 92s49.334 43.333 86.001 52v233h455l5 -35h-174v-191h51c55.333 0 99 -13.667 131 -41zM224.998 287.002h184v191h-198v-191h14z
M225.998 252.002c-40.667 0 -72.166 -10.832 -94.499 -32.499s-33.5 -49.834 -33.5 -84.501c0 -34 12.167 -61 36.5 -81s58.166 -30 101.499 -30c52 0 93.833 15.5 125.5 46.5s47.5 75.833 47.5 134.5v47h-183z" />
    <glyph glyph-name="tm_Nga" unicode="&#xb99;" horiz-adv-x="948" 
d="M848 0l-506.001 -0.00195312v35h118c30.667 0 58.334 7 83.001 21s43.834 33.333 57.501 58s20.5 52.334 20.5 83.001c0 36.667 -9.83301 66.667 -29.5 90s-46.5 35 -80.5 35c-36.667 0 -66.667 -12.667 -90 -38s-35 -57.666 -35 -96.999v-45h-44v336h-198v-478h-44v513
h482l5 -35h-201v-174c15.333 19.333 34 34.333 56 45s46 16 72 16c48 0 85.833 -16 113.5 -48s41.5 -72.667 41.5 -122c0 -36.667 -7.33301 -68.5 -22 -95.5s-35.334 -48.5 -62.001 -64.5h219v478h44v-513z" />
    <glyph glyph-name="tm_Ca" unicode="&#xb9a;" horiz-adv-x="667" 
d="M453 252l-0.00195312 -46.998c0 -71.333 -20 -126.333 -60 -165s-92.333 -58 -157 -58c-36.667 0 -69.167 6.66699 -97.5 20s-50.166 31.666 -65.499 54.999s-23 49.666 -23 78.999c0 35.333 10.333 66 31 92s49.334 43.333 86.001 52v233h455l5 -35h-174v-191h169l5 -35
h-174zM224.998 287.002h184v191h-198v-191h14zM225.998 252.002c-40.667 0 -72.166 -10.832 -94.499 -32.499s-33.5 -49.834 -33.5 -84.501c0 -34 12.167 -61 36.5 -81s58.166 -30 101.499 -30c52 0 93.833 15.5 125.5 46.5s47.5 75.833 47.5 134.5v47h-183z" />
    <glyph glyph-name="tm_Ja" unicode="&#xb9c;" horiz-adv-x="841" 
d="M740 32.5c27.333 -25 41 -57.166 41 -96.499c0 -40.667 -15.833 -73.834 -47.5 -99.501s-73.167 -38.5 -124.5 -38.5h-121v35h121c38 0 68.167 9.66699 90.5 29s33.5 44 33.5 74c0 27.333 -9 49.5 -27 66.5s-41.667 25.5 -71 25.5c-27.333 0 -53.833 -8.66699 -79.5 -26
s-58.834 -44.333 -99.501 -81c-45.333 -41.333 -84.666 -72.666 -117.999 -93.999s-69 -32 -107 -32c-33.333 0 -63 7.5 -89 22.5s-46.167 35.5 -60.5 61.5s-21.5 55.667 -21.5 89c0 58 23.167 103.333 69.5 136s113.166 54.667 200.499 66l181 24
c66 8.66699 119.333 26.667 160 54s61.334 64 62.001 110c0 39.333 -11.667 71 -35 95s-54.333 36 -93 36c-41.333 0 -75.333 -13.667 -102 -41s-40 -62.333 -40 -105v-69h-44v69c0 42.667 -13.833 77.667 -41.5 105s-63.167 41 -106.5 41c-62 0 -106.667 -19.667 -134 -59
c10 4.66699 22 7 36 7c30.667 0 55.334 -8.83301 74.001 -26.5s28 -40.5 28 -68.5s-9.66699 -51.167 -29 -69.5s-44 -27.5 -74 -27.5c-30.667 0 -55.834 9 -75.501 27s-29.5 41.333 -29.5 70c0 36 8.83301 68.333 26.5 97s42 51.167 73 67.5s65.833 24.5 104.5 24.5
c71.333 0 127.666 -31.667 168.999 -95c40 63.333 95 95 165 95c33.333 0 63.5 -7.5 90.5 -22.5s48 -35.667 63 -62s22.5 -55.833 22.5 -88.5c0 -60 -22.833 -105.833 -68.5 -137.5s-112.834 -53.167 -201.501 -64.5l-181 -25c-65.333 -8.66699 -118.5 -26.5 -159.5 -53.5
s-61.833 -63.5 -62.5 -109.5c0 -39.333 11 -71 33 -95s52 -36 90 -36c28.667 0 56.834 9.16699 84.501 27.5s62.834 46.166 105.501 83.499c44.667 40 83 70.333 115 91s65 31 99 31c42.667 0 77.667 -12.5 105 -37.5zM130 385.001
c-11.333 -10.667 -17.6689 -24 -19.002 -40v-6c0 -16.667 5.66699 -30.667 17 -42s25.333 -17 42 -17c17.333 0 31.833 5.5 43.5 16.5s17.834 24.833 18.501 41.5c0 18 -5.66699 33 -17 45s-25.666 18 -42.999 18c-16.667 0 -30.667 -5.33301 -42 -16z" />
    <glyph glyph-name="tm_Nya" unicode="&#xb9e;" horiz-adv-x="1189" 
d="M1054.5 316c24.333 -18 42.834 -42.1719 55.501 -72.5049s19 -63.833 19 -100.5c0 -78 -19.833 -146.333 -59.5 -205s-96.5 -104 -170.5 -136s-161.333 -48 -262 -48c-112.667 0 -211 18.167 -295 54.5s-148.667 87.333 -194 153s-68 141.834 -68 228.501
c0 56 13.333 116.333 40 181s60 115.334 100 152.001l46 -10c-39.333 -32 -72.166 -79.5 -98.499 -142.5s-39.5 -123.833 -39.5 -182.5c0 -78 20.5 -146.667 61.5 -206s99.833 -105.166 176.5 -137.499s167 -48.5 271 -48.5c91.333 0 170.5 14.333 237.5 43
s118.333 69.334 154 122.001s53.5 114 53.5 184c0 43.333 -10.167 80.166 -30.5 110.499s-48.5 45.5 -84.5 45.5c-36.667 0 -66.834 -12.667 -90.501 -38s-35.5 -57.666 -35.5 -96.999v-166h-44v478h-172c-92.667 0 -163.5 -21.667 -212.5 -65s-73.5 -102 -73.5 -176
c0 -40.667 8.33301 -76.834 25 -108.501s40.667 -57.167 72 -76.5c-19.333 24.667 -29 53.667 -29 87c0 30 7 57 21 81s33.5 42.667 58.5 56s53.167 20 84.5 20c32 0 60.833 -6.83301 86.5 -20.5s45.667 -32.5 60 -56.5s21.5 -51.333 21.5 -82
c0 -29.333 -7.16699 -55.833 -21.5 -79.5s-34.333 -42.167 -60 -55.5s-54.5 -20 -86.5 -20c-56 0 -105 10.833 -147 32.5s-74.5 51.834 -97.5 90.501s-34.5 82.667 -34.5 132c0 55.333 12.5 103.833 37.5 145.5s61.667 73.834 110 96.501s107.166 34 176.499 34h422l4 -35
h-201v-196c15.333 19.333 34 34.333 56 45s46 16 72 16c32.667 0 61.167 -9 85.5 -27zM484.001 51.4951c22.667 -23 51.665 -34.5 86.998 -34.5c34.667 0 63.334 11.333 86.001 34s34 51.334 34 86.001c0 35.333 -11.167 64.166 -33.5 86.499s-51.166 33.5 -86.499 33.5
s-64.333 -11 -87 -33s-34 -50.333 -34 -85c0 -35.333 11.333 -64.5 34 -87.5z" />
    <glyph glyph-name="tm_Tta" unicode="&#xb9f;" horiz-adv-x="714" 
d="M144 518l-44 -5v-513h604l-5 35h-555v483z" />
    <glyph glyph-name="tm_Nna" unicode="&#xba3;" horiz-adv-x="1668" 
d="M1457 478l-0.00292969 -477.998h-44v478h-100c-60.667 0 -116 -14.667 -166 -44c33.333 -33.333 59.333 -72.833 78 -118.5s28 -93.834 28 -144.501c0 -55.333 -14.333 -100.666 -43 -135.999s-66.334 -53 -113.001 -53c-47.333 0 -84.666 17.5 -111.999 52.5
s-41 80.5 -41 136.5c0 53.333 11.833 102.833 35.5 148.5s56.167 84.5 97.5 116.5c-50 35.333 -106.667 53 -170 53c-65.333 0 -122.333 -17.667 -171 -53c42 -33.333 74.833 -72.833 98.5 -118.5s35.5 -94.5 35.5 -146.5c0 -56 -13.833 -101.5 -41.5 -136.5
s-64.834 -52.5 -111.501 -52.5c-47.333 0 -85.333 17.667 -114 53s-43 80.666 -43 135.999c0 50 9.16699 97.667 27.5 143s44.166 85 77.499 119c-65.333 37.333 -138 56 -218 56c-68.667 0 -128.667 -11 -180 -33s-90.666 -52.667 -117.999 -92s-41 -84.666 -41 -135.999
c0 -36.667 8.33301 -70.167 25 -100.5s39.667 -54.833 69 -73.5c-18 25.333 -27 53.666 -27 84.999c0 30 7 57 21 81s33.5 42.667 58.5 56s53.167 20 84.5 20c32 0 60.833 -6.83301 86.5 -20.5s45.667 -32.5 60 -56.5s21.5 -51.333 21.5 -82
c0 -29.333 -7.16699 -55.833 -21.5 -79.5s-34.333 -42.167 -60 -55.5s-54.5 -20 -86.5 -20c-53.333 0 -101.166 10.667 -143.499 32s-75.5 50.666 -99.5 87.999s-36 79.333 -36 126c0 58 15.833 110 47.5 156s76.834 82 135.501 108s126.667 39 204 39
c46.667 0 91.5 -6 134.5 -18s82.167 -29 117.5 -51c60 46 129.333 69 208 69s148.334 -23 209.001 -69c60.667 34 126.334 51 197.001 51h340l5 -35h-201zM1180.5 302.002c-17 41.333 -40.8311 76.999 -71.498 106.999c-36.667 -28.667 -65.334 -63.5 -86.001 -104.5
s-31 -85.5 -31 -133.5c0 -44 9.16699 -79.5 27.5 -106.5s44.166 -40.5 77.499 -40.5c32.667 0 59 13.833 79 41.5s30 62.834 30 105.501c0 46 -8.5 89.667 -25.5 131zM790.499 303.001c-21 40.667 -50.501 75.668 -88.501 105.001c-30 -30 -53.167 -65.333 -69.5 -106
s-24.5 -84.334 -24.5 -131.001c0 -43.333 9.83301 -78.666 29.5 -105.999s46.167 -41 79.5 -41c32.667 0 58.334 13.667 77.001 41s28 62.666 28 105.999c0 47.333 -10.5 91.333 -31.5 132zM251.998 51.502c22.667 -23 51.667 -34.502 87 -34.502
c34.667 0 63.5 11.333 86.5 34s34.5 51.334 34.5 86.001s-11.333 63.334 -34 86.001s-51.667 34 -87 34s-64.333 -11 -87 -33s-34 -50.333 -34 -85c0 -35.333 11.333 -64.5 34 -87.5z" />
    <glyph glyph-name="tm_Ta" unicode="&#xba4;" horiz-adv-x="733" 
d="M583 260c31.333 -18 55.8301 -42.9961 73.4971 -74.9961s26.5 -68 26.5 -108c0 -46.667 -12 -88.167 -36 -124.5s-58 -64.833 -102 -85.5s-95 -31 -153 -31h-142c-38 0 -71.333 -7.16699 -100 -21.5s-50.667 -33.5 -66 -57.5l-34 21c16 27.333 42.333 49.666 79 66.999
s77 26 121 26h142c49.333 0 92.333 8.83301 129 26.5s64.834 42.167 84.501 73.5s29.5 66.666 29.5 105.999c0 33.333 -6.66699 63.333 -20 90s-32 47.5 -56 62.5s-51.333 22.5 -82 22.5h-24v-47c0 -71.333 -20 -126.333 -60 -165s-92.333 -58 -157 -58
c-36.667 0 -69.167 6.66699 -97.5 20s-50.166 31.666 -65.499 54.999s-23 49.666 -23 78.999c0 35.333 10.333 66 31 92s49.334 43.333 86.001 52v233h455l5 -35h-174v-191h23c40 0 75.667 -9 107 -27zM224.997 287.004h184v191h-198v-191h14zM225.997 252.004
c-40.667 0 -72.166 -10.832 -94.499 -32.499s-33.5 -49.834 -33.5 -84.501c0 -34 12.167 -61 36.5 -81s58.166 -30 101.499 -30c52 0 93.833 15.5 125.5 46.5s47.5 75.833 47.5 134.5v47h-183z" />
    <glyph glyph-name="tm_Na" unicode="&#xba8;" horiz-adv-x="734" 
d="M633 283c27.333 -40 41.002 -93.333 41.002 -160c0 -54 -10.333 -102.667 -31 -146s-51.834 -77.666 -93.501 -102.999s-92.5 -38 -152.5 -38h-97c-38 0 -71.333 -7.16699 -100 -21.5s-50.667 -33.5 -66 -57.5l-34 21c16 27.333 42.333 49.666 79 66.999s77 26 121 26h97
c50 0 92.167 11.333 126.5 34s60.166 53.167 77.499 91.5s26 81.166 26 128.499c0 54.667 -9.66699 97.667 -29 129s-48.333 47 -87 47c-36.667 0 -66.667 -12.667 -90 -38s-35 -57.666 -35 -96.999v-166h-44v478h-198v-478h-44v513h482l5 -35h-201v-196
c15.333 19.333 34 34.333 56 45s46 16 72 16c52 0 91.667 -20 119 -60z" />
    <glyph glyph-name="tm_Nnna" unicode="&#xba9;" horiz-adv-x="1284" 
d="M1073 478l-0.00488281 -477.999h-44v478h-100c-66.667 0 -126.667 -17.333 -180 -52c38 -33.333 67.667 -71.833 89 -115.5s32 -90.167 32 -139.5c0 -56 -14.167 -101.5 -42.5 -136.5s-65.833 -52.5 -112.5 -52.5s-84.167 17.5 -112.5 52.5s-42.5 80.5 -42.5 136.5
c0 50 10.5 96.833 31.5 140.5s50.167 81.167 87.5 112.5c-32 20.667 -67.667 36.667 -107 48s-81 17 -125 17c-68.667 0 -128.667 -11 -180 -33s-90.666 -52.667 -117.999 -92s-41 -84.666 -41 -135.999c0 -36.667 8.33301 -70.167 25 -100.5s39.667 -54.833 69 -73.5
c-18 25.333 -27 53.666 -27 84.999c0 30 7 57 21 81s33.5 42.667 58.5 56s53.167 20 84.5 20c32 0 60.833 -6.83301 86.5 -20.5s45.667 -32.5 60 -56.5s21.5 -51.333 21.5 -82c0 -29.333 -7.16699 -55.833 -21.5 -79.5s-34.333 -42.167 -60 -55.5s-54.5 -20 -86.5 -20
c-53.333 0 -101.166 10.667 -143.499 32s-75.5 50.666 -99.5 87.999s-36 79.333 -36 126c0 58 15.833 110 47.5 156s76.834 82 135.501 108s126.667 39 204 39c50.667 0 98.834 -6.83301 144.501 -20.5s86.834 -33.167 123.501 -58.5c62.667 40.667 134 61 214 61h341l4 -35
h-201zM793.495 297.001c-19 39.333 -45.834 73.333 -80.501 102c-33.333 -28.667 -59.166 -62.667 -77.499 -102s-27.5 -81.333 -27.5 -126c0 -43.333 9.66699 -78.666 29 -105.999s45.333 -41 78 -41s58.667 13.667 78 41s29 62.666 29 105.999
c0 44.667 -9.5 86.667 -28.5 126zM251.994 51.501c22.667 -23 51.667 -34.502 87 -34.502c34.667 0 63.5 11.333 86.5 34s34.5 51.334 34.5 86.001s-11.333 63.334 -34 86.001s-51.667 34 -87 34s-64.333 -11 -87 -33s-34 -50.333 -34 -85c0 -35.333 11.333 -64.5 34 -87.5z
" />
    <glyph glyph-name="tm_Pa" unicode="&#xbaa;" horiz-adv-x="706" 
d="M100 0v513l44 5v-483h418v478h44v-513h-506z" />
    <glyph glyph-name="tm_Ma" unicode="&#xbae;" horiz-adv-x="786" 
d="M631.5 492.5c30.333 -25.667 53.667 -61.168 70 -106.501s24.5 -97 24.5 -155c0 -71.333 -15.333 -127.666 -46 -168.999s-78.334 -62 -143.001 -62h-437v513l44 5v-483h228v320c0 58 13.833 101.833 41.5 131.5s64.834 44.5 111.501 44.5
c40.667 0 76.167 -12.833 106.5 -38.5zM646.001 86.499c21.333 34.333 32.002 82.499 32.002 144.499c0 76.667 -13.333 138.834 -40 186.501s-63.334 71.5 -110.001 71.5c-34.667 0 -62 -10.5 -82 -31.5s-30 -54.833 -30 -101.5v-321h121
c51.333 0 87.666 17.167 108.999 51.5z" />
    <glyph glyph-name="tm_Ya" unicode="&#xbaf;" horiz-adv-x="886" 
d="M786 0h-407v52c-14 -22.667 -31.833 -40 -53.5 -52s-46.167 -18 -73.5 -18c-50 0 -89.5 15.833 -118.5 47.5s-43.5 80.5 -43.5 146.5v337l44 5v-343c0 -100.667 39.333 -151 118 -151c40.667 0 72 15.5 94 46.5s33 71.833 33 122.5v320h44v-478h319v478h44v-513z" />
    <glyph glyph-name="tm_Ra" unicode="&#xbb0;" horiz-adv-x="669" 
d="M458 26c0 -40 -4.33301 -69.1689 -13 -87.502s-27 -36.166 -55 -53.499l-227 -135l-21 35l223 135c20.667 12.667 34 26.334 40 41.001s9 38.667 9 72v445h-270v-478h-44v513h554l5 -35h-201v-452z" />
    <glyph glyph-name="tm_Rra" unicode="&#xbb1;" horiz-adv-x="775" 
d="M664.5 449c33.667 -54.667 50.499 -127.332 50.499 -217.999c0 -122 -25.667 -218.333 -77 -289s-132 -106 -242 -106h-106c-38 0 -71.333 -7.16699 -100 -21.5s-50.667 -33.5 -66 -57.5l-34 21c16.667 27.333 43.167 49.666 79.5 66.999s76.5 26 120.5 26h106
c96 0 165.167 32.167 207.5 96.5s63.5 152.166 63.5 263.499c0 78.667 -12.5 141.334 -37.5 188.001s-61.5 70 -109.5 70c-35.333 0 -63.333 -12.833 -84 -38.5s-31 -63.167 -31 -112.5v-338h-44v320c0 50 -10.5 90.667 -31.5 122s-49.833 47 -86.5 47
c-34.667 0 -61.5 -12.667 -80.5 -38s-28.5 -63 -28.5 -113v-338h-44v337c0 62 13.5 109.833 40.5 143.5s63.167 50.5 108.5 50.5c32 0 60 -8.66699 84 -26s42.667 -41.333 56 -72c13.333 31.333 32.333 55.5 57 72.5s51.667 25.5 81 25.5
c64.667 0 113.834 -27.333 147.501 -82z" />
    <glyph glyph-name="tm_La" unicode="&#xbb2;" horiz-adv-x="1007" 
d="M925.5 378.5c14.333 -53 21.501 -100.832 21.501 -143.499c0 -77.333 -15.5 -138.833 -46.5 -184.5s-74.167 -68.5 -129.5 -68.5c-51.333 0 -92.166 18.833 -122.499 56.5s-45.5 94.834 -45.5 171.501v45c0 48 -9.83301 89.667 -29.5 125s-47.334 62.333 -83.001 81
s-76.5 28 -122.5 28c-54.667 0 -101.5 -10.667 -140.5 -32s-68.667 -51 -89 -89s-30.5 -81.667 -30.5 -131c0 -40 8.16699 -76 24.5 -108s39.833 -57.333 70.5 -76c-18.667 24 -28 52.667 -28 86c0 30 7 57 21 81s33.5 42.667 58.5 56s53.167 20 84.5 20
c32 0 60.833 -6.83301 86.5 -20.5s45.667 -32.5 60 -56.5s21.5 -51.333 21.5 -82c0 -29.333 -7.16699 -55.833 -21.5 -79.5s-34.333 -42.167 -60 -55.5s-54.5 -20 -86.5 -20c-56 0 -105 10.833 -147 32.5s-74.5 51.834 -97.5 90.501s-34.5 82.667 -34.5 132
c0 57.333 12.333 108.166 37 152.499s60.167 79 106.5 104s101.166 37.5 164.499 37.5c54 0 102.167 -11.333 144.5 -34s75.333 -54.834 99 -96.501s35.5 -90.167 35.5 -145.5v-45c0 -64 11.167 -111 33.5 -141s52.5 -45 90.5 -45c40 0 71.333 18.667 94 56
s34 88.333 34 153c0 42.667 -7 90.667 -21 144s-34.333 98.666 -61 135.999l45 14c28 -46 49.167 -95.5 63.5 -148.5zM252.001 51.501c22.667 -23 51.667 -34.502 87 -34.502c34.667 0 63.5 11.333 86.5 34s34.5 51.334 34.5 86.001s-11.333 63.334 -34 86.001
s-51.667 34 -87 34s-64.333 -11 -87 -33s-34 -50.333 -34 -85c0 -35.333 11.333 -64.5 34 -87.5z" />
    <glyph glyph-name="tm_Lla" unicode="&#xbb3;" horiz-adv-x="1199" 
d="M988 478l0.00195312 -478.001h-44v478h-270v-478h-44v228c0 50 -11.167 94.833 -33.5 134.5s-53.333 70.667 -93 93s-84.167 33.5 -133.5 33.5c-54.667 0 -101.667 -10.667 -141 -32s-69.333 -51.166 -90 -89.499s-31 -81.833 -31 -130.5c0 -40 8.16699 -76 24.5 -108
s39.833 -57.333 70.5 -76c-18.667 24 -28 52.667 -28 86c0 30 7 57 21 81s33.5 42.667 58.5 56s53.167 20 84.5 20c32 0 60.833 -6.83301 86.5 -20.5s45.667 -32.5 60 -56.5s21.5 -51.333 21.5 -82c0 -29.333 -7.16699 -55.833 -21.5 -79.5s-34.333 -42.167 -60 -55.5
s-54.5 -20 -86.5 -20c-56 0 -105 10.833 -147 32.5s-74.5 51.834 -97.5 90.501s-34.5 82.667 -34.5 132c0 57.333 12.5 108.166 37.5 152.499s60.833 79 107.5 104s101.667 37.5 165 37.5c57.333 0 108.666 -13 153.999 -39s80.666 -62 105.999 -108v129h554l5 -35h-201z
M252.002 51.499c22.667 -23 51.667 -34.502 87 -34.502c34.667 0 63.5 11.333 86.5 34s34.5 51.334 34.5 86.001s-11.333 63.334 -34 86.001s-51.667 34 -87 34s-64.333 -11 -87 -33s-34 -50.333 -34 -85c0 -35.333 11.333 -64.5 34 -87.5z" />
    <glyph glyph-name="tm_Llla" unicode="&#xbb4;" horiz-adv-x="786" 
d="M416 -55c0 -28 4.66699 -48.502 14 -61.502s24 -19.5 44 -19.5h169l4 -35h-179c-12 -39.333 -34.667 -71 -68 -95s-70 -36 -110 -36c-53.333 0 -94.166 13.667 -122.499 41s-42.5 63.333 -42.5 108h44c0 -33.333 10 -59.333 30 -78s50.667 -28 92 -28
c31.333 0 59 7.83301 83 23.5s42.667 39.834 56 72.501c-24 10.667 -39.667 25.5 -47 44.5s-11 44.167 -11 75.5v43h-272v513l44 5v-483h228v320c0 58 13.833 101.833 41.5 131.5s64.834 44.5 111.501 44.5c40.667 0 76.167 -12.833 106.5 -38.5
s53.666 -61.167 69.999 -106.5s24.5 -97 24.5 -155c0 -71.333 -15.333 -127.666 -46 -168.999s-78.334 -62 -143.001 -62h-121v-55zM537 34.998c51.333 0 87.668 17.166 109.001 51.499s32 82.5 32 144.5c0 76.667 -13.333 138.834 -40 186.501s-63.334 71.5 -110.001 71.5
c-34.667 0 -62 -10.5 -82 -31.5s-30 -54.833 -30 -101.5v-321h121z" />
    <glyph glyph-name="tm_Va" unicode="&#xbb5;" horiz-adv-x="1027" 
d="M927 0h-375.997v35c26.667 27.333 48 59.833 64 97.5s24 78.5 24 122.5c0 45.333 -10.167 85.666 -30.5 120.999s-50.166 63 -89.499 83s-86 30 -140 30c-54.667 0 -102.5 -10.833 -143.5 -32.5s-72.5 -51.5 -94.5 -89.5s-33 -81.333 -33 -130
c0 -40 8.16699 -76 24.5 -108s39.833 -57.333 70.5 -76c-18.667 24 -28 52.667 -28 86c0 30 7 57 21 81s33.5 42.667 58.5 56s53.167 20 84.5 20c32 0 60.833 -6.83301 86.5 -20.5s45.667 -32.5 60 -56.5s21.5 -51.333 21.5 -82c0 -29.333 -7.16699 -55.833 -21.5 -79.5
s-34.333 -42.167 -60 -55.5s-54.5 -20 -86.5 -20c-56 0 -105 10.833 -147 32.5s-74.5 51.834 -97.5 90.501s-34.5 82.667 -34.5 132c0 56.667 13.167 107.334 39.5 152.001s63.666 79.5 111.999 104.5s104.166 37.5 167.499 37.5c61.333 0 115.166 -11.833 161.499 -35.5
s82.166 -56.334 107.499 -98.001s38 -89.167 38 -142.5c0 -42 -6.66699 -82.167 -20 -120.5s-31.333 -71.5 -54 -99.5h271v478h44v-513zM252.003 51.5c22.667 -23 51.667 -34.502 87 -34.502c34.667 0 63.5 11.333 86.5 34s34.5 51.334 34.5 86.001
s-11.333 63.334 -34 86.001s-51.667 34 -87 34s-64.333 -11 -87 -33s-34 -50.333 -34 -85c0 -35.333 11.333 -64.5 34 -87.5z" />
    <glyph glyph-name="tm_Sha" unicode="&#xbb6;" horiz-adv-x="998" 
d="M892.5 451c30.333 -41.333 45.5029 -97.667 45.5029 -169c0 -58 -8.16699 -109.667 -24.5 -155s-39.666 -80.833 -69.999 -106.5s-65.833 -38.5 -106.5 -38.5c-46.667 0 -83.834 14.833 -111.501 44.5s-41.5 73.5 -41.5 131.5v320h-170v-302
c0 -62.667 -14.833 -110.667 -44.5 -144s-68.834 -50 -117.501 -50s-87.834 16.667 -117.501 50s-44.5 81.333 -44.5 144v337l44 5v-343c0 -48.667 10.833 -86 32.5 -112s50.167 -39 85.5 -39s63.833 13 85.5 39s32.5 63.333 32.5 112v338h379
c65.333 0 113.166 -20.667 143.499 -62zM850.503 95.499c26.333 47.667 39.5 109.833 39.5 186.5c0 62 -10.5 110.167 -31.5 144.5s-57.5 51.5 -109.5 51.5h-121v-321c0 -46.667 10.167 -80.5 30.5 -101.5s47.833 -31.5 82.5 -31.5c46.667 0 83.167 23.833 109.5 71.5z" />
    <glyph glyph-name="tm_Ssa" unicode="&#xbb7;" horiz-adv-x="1344" 
d="M1038 0l0.00488281 -243h-44v243h-443v35c26.667 27.333 48 59.833 64 97.5s24 78.5 24 122.5c0 45.333 -10.667 85.666 -32 120.999s-51.5 63 -90.5 83s-84.833 30 -137.5 30c-54.667 0 -102.5 -10.833 -143.5 -32.5s-72.5 -51.5 -94.5 -89.5s-33 -81.333 -33 -130
c0 -40 8.16699 -76 24.5 -108s39.833 -57.333 70.5 -76c-18.667 24 -28 52.667 -28 86c0 30 7 57 21 81s33.5 42.667 58.5 56s53.167 20 84.5 20c32 0 60.833 -6.83301 86.5 -20.5s45.667 -32.5 60 -56.5s21.5 -51.333 21.5 -82c0 -29.333 -7.16699 -55.833 -21.5 -79.5
s-34.333 -42.167 -60 -55.5s-54.5 -20 -86.5 -20c-56 0 -105 10.833 -147 32.5s-74.5 51.834 -97.5 90.501s-34.5 82.667 -34.5 132c0 56.667 13.167 107.334 39.5 152.001s63.666 79.5 111.999 104.5s104.166 37.5 167.499 37.5c61.333 0 115.166 -11.833 161.499 -35.5
s82.166 -56.334 107.499 -98.001s38 -89.167 38 -142.5c0 -41.333 -6.66699 -81.333 -20 -120s-31.333 -72 -54 -100h382v182c-21.333 -6 -43 -9 -65 -9c-40.667 0 -76 7.66699 -106 23s-53 36 -69 62s-24.333 54.667 -25 86c0 44.667 14.333 81.167 43 109.5
s67 42.5 115 42.5c47.333 0 84.333 -15 111 -45s40 -69 40 -117v-87c33.333 20 64.166 47 92.499 81s51.5 72.333 69.5 115h44v-478h-206zM994.005 262l0.000976562 102.001c0 38 -9.16699 68.333 -27.5 91s-44.833 34 -79.5 34c-34 0 -61 -10.167 -81 -30.5
s-30 -46.833 -30 -79.5c0 -36.667 13.667 -67.334 41 -92.001s64.666 -37 111.999 -37c21.333 0 43 4 65 12zM1200.01 386.001c-20 -34.667 -44 -65 -72 -91s-58 -46.333 -90 -61v-199h162v351zM252.006 51.501c22.667 -23 51.667 -34.502 87 -34.502
c34.667 0 63.5 11.333 86.5 34s34.5 51.334 34.5 86.001s-11.333 63.334 -34 86.001s-51.667 34 -87 34s-64.333 -11 -87 -33s-34 -50.333 -34 -85c0 -35.333 11.333 -64.5 34 -87.5z" />
    <glyph glyph-name="tm_Sa" unicode="&#xbb8;" horiz-adv-x="1277" 
d="M1196 378.5c14 -53 20.999 -100.833 20.999 -143.5c0 -77.333 -15.333 -138.833 -46 -184.5s-73.667 -68.5 -129 -68.5c-51.333 0 -92.166 18.833 -122.499 56.5s-45.5 94.834 -45.5 171.501v128c0 100.667 -35 151 -105 151c-41.333 0 -72 -21 -92 -63s-30 -99 -30 -171
v-255h-44v255c0 48 -9.83301 89.667 -29.5 125s-47.334 62.333 -83.001 81s-76.5 28 -122.5 28c-54.667 0 -101.5 -10.667 -140.5 -32s-68.667 -51 -89 -89s-30.5 -81.667 -30.5 -131c0 -40 8.16699 -76 24.5 -108s39.833 -57.333 70.5 -76c-18.667 24 -28 52.667 -28 86
c0 30 7 57 21 81s33.5 42.667 58.5 56s53.167 20 84.5 20c32 0 60.833 -6.83301 86.5 -20.5s45.667 -32.5 60 -56.5s21.5 -51.333 21.5 -82c0 -29.333 -7.16699 -55.833 -21.5 -79.5s-34.333 -42.167 -60 -55.5s-54.5 -20 -86.5 -20c-56 0 -105 10.833 -147 32.5
s-74.5 51.834 -97.5 90.501s-34.5 82.667 -34.5 132c0 57.333 12.333 108.166 37 152.499s60.167 79 106.5 104s101.166 37.5 164.499 37.5c56.667 0 106.834 -12.5 150.501 -37.5s76.834 -60.167 99.501 -105.5c24 95.333 74.333 143 151 143
c45.333 0 81.5 -15.833 108.5 -47.5s40.5 -80.5 40.5 -146.5v-127c0 -64 11.167 -111 33.5 -141s52.5 -45 90.5 -45c40 0 71.333 18.667 94 56s34 88.333 34 153c0 42.667 -7 90.667 -21 144s-34.333 98.666 -61 135.999l45 14c28 -46 49 -95.5 63 -148.5zM251.999 51.5
c22.667 -23 51.667 -34.502 87 -34.502c34.667 0 63.5 11.333 86.5 34s34.5 51.334 34.5 86.001s-11.333 63.334 -34 86.001s-51.667 34 -87 34s-64.333 -11 -87 -33s-34 -50.333 -34 -85c0 -35.333 11.333 -64.5 34 -87.5z" />
    <glyph glyph-name="tm_Ha" unicode="&#xbb9;" horiz-adv-x="1531" 
d="M1420.5 449c33.667 -54.667 50.501 -127.332 50.501 -217.999c0 -122 -25.5 -218.333 -76.5 -289s-131.5 -106 -241.5 -106h-894c-38 0 -71.167 -7.16699 -99.5 -21.5s-50.166 -33.5 -65.499 -57.5l-34 21c16 27.333 42.167 49.666 78.5 66.999s76.5 26 120.5 26h894
c95.333 0 164.333 32.167 207 96.5s64 152.166 64 263.499c0 78.667 -12.5 141.334 -37.5 188.001s-61.5 70 -109.5 70c-35.333 0 -63.333 -12.833 -84 -38.5s-31 -63.167 -31 -112.5v-338h-44v320c0 50 -10.667 90.667 -32 122s-50 47 -86 47
c-35.333 0 -62.333 -12.667 -81 -38s-28 -63 -28 -113v-338h-340v35c26.667 27.333 48 59.833 64 97.5s24 78.5 24 122.5c0 45.333 -10.667 85.666 -32 120.999s-51.5 63 -90.5 83s-84.833 30 -137.5 30c-54.667 0 -102.5 -10.833 -143.5 -32.5s-72.5 -51.5 -94.5 -89.5
s-33 -81.333 -33 -130c0 -40 8.16699 -76 24.5 -108s39.833 -57.333 70.5 -76c-18.667 24 -28 52.667 -28 86c0 30 7 57 21 81s33.5 42.667 58.5 56s53.167 20 84.5 20c32 0 60.833 -6.83301 86.5 -20.5s45.667 -32.5 60 -56.5s21.5 -51.333 21.5 -82
c0 -29.333 -7.16699 -55.833 -21.5 -79.5s-34.333 -42.167 -60 -55.5s-54.5 -20 -86.5 -20c-56 0 -105 10.833 -147 32.5s-74.5 51.834 -97.5 90.501s-34.5 82.667 -34.5 132c0 56.667 13.167 107.334 39.5 152.001s63.666 79.5 111.999 104.5s104.166 37.5 167.499 37.5
c61.333 0 115.166 -11.833 161.499 -35.5s82.166 -56.334 107.499 -98.001s38 -89.167 38 -142.5c0 -42 -6.66699 -82.167 -20 -120.5s-31.333 -71.5 -54 -99.5h235v302c0 62 13.5 109.833 40.5 143.5s63.167 50.5 108.5 50.5c31.333 0 59 -8.66699 83 -26
s43 -41.333 57 -72c13.333 31.333 32.333 55.5 57 72.5s51.334 25.5 80.001 25.5c64.667 0 113.834 -27.333 147.501 -82zM252.001 51.502c22.667 -23 51.667 -34.502 87 -34.502c34.667 0 63.5 11.333 86.5 34s34.5 51.334 34.5 86.001s-11.333 63.334 -34 86.001
s-51.667 34 -87 34s-64.333 -11 -87 -33s-34 -50.333 -34 -85c0 -35.333 11.333 -64.5 34 -87.5z" />
    <glyph glyph-name="tm_VowelAa" unicode="&#xbbe;" horiz-adv-x="649" 
d="M394 0v478h-250v-478h-44v513h534l5 -35h-201v-478h-44z" />
    <glyph glyph-name="tm_VowelI" unicode="&#xbbf;" horiz-adv-x="244" 
d="M11 759.5c42.667 -25 75.501 -59.8301 98.501 -104.497s34.5 -95.334 34.5 -152.001v-503h-44v503c0 49.333 -9.5 93.166 -28.5 131.499s-46.5 68 -82.5 89s-78 31.5 -126 31.5c-55.333 0 -98.833 -11.667 -130.5 -35s-47.5 -54.333 -47.5 -93c0 -36 13.333 -64 40 -84
s64 -30 112 -30h24v-36h-24c-61.333 0 -109.833 13.667 -145.5 41s-53.834 63.666 -54.501 108.999c0 32.667 9.16699 62 27.5 88s44.5 46.167 78.5 60.5s74 21.5 120 21.5c56 0 105.333 -12.5 148 -37.5z" />
    <glyph glyph-name="tm_VowelIi" unicode="&#xbc0;" horiz-adv-x="0" 
d="M-56.5 852.5c31 -17 54.6699 -39.6709 71.0029 -68.0039s24.5 -59.166 24.5 -92.499c0 -30 -9 -54.833 -27 -74.5s-40.667 -29.5 -68 -29.5c-28.667 0 -52.667 8.83301 -72 26.5s-29 39.834 -29 66.501s9.16699 48.5 27.5 65.5s41.833 25.5 70.5 25.5
c14 0 26.667 -2.33301 38 -7c-12.667 22 -31 39.167 -55 51.5s-53.333 18.5 -88 18.5c-50 0 -89 -15 -117 -45s-42 -69.333 -42 -118c0 -30 5.83301 -57.167 17.5 -81.5s27.667 -43.333 48 -57s43.166 -20.5 68.499 -20.5v-35c-34.667 0 -65.834 8.33301 -93.501 25
s-49.334 39.834 -65.001 69.501s-23.5 62.834 -23.5 99.501c0 40 8.33301 75.5 25 106.5s40.5 55.333 71.5 73s67.833 26.5 110.5 26.5c40.667 0 76.5 -8.5 107.5 -25.5zM-16.4971 640.496c10.333 10.333 15.5 23.5 15.5 39.5c0 15.333 -5.16699 28.166 -15.5 38.499
s-23.5 15.5 -39.5 15.5c-16.667 0 -30.167 -5.16699 -40.5 -15.5s-15.5 -23.166 -15.5 -38.499c0 -16 5.16699 -29.167 15.5 -39.5s23.833 -15.5 40.5 -15.5c16 0 29.167 5.16699 39.5 15.5z" />
    <glyph glyph-name="tm_VowelU" unicode="&#xbc1;" horiz-adv-x="460" 
d="M338.5 493c25.667 -13.333 45.667 -31.833 60 -55.5s21.5 -50.167 21.5 -79.5c0 -30 -7.16699 -57.167 -21.5 -81.5s-34.333 -43.333 -60 -57s-54.5 -20.5 -86.5 -20.5c-31.333 0 -59.5 6.83301 -84.5 20.5s-44.5 32.5 -58.5 56.5s-21 50.667 -21 80
c0 25.333 5.16699 48.5 15.5 69.5s24.5 38.5 42.5 52.5h-290v35h396c32 0 60.833 -6.66699 86.5 -20zM339 272c22.667 22.667 34 51.332 34 85.999s-11.333 63.334 -34 86.001s-51.667 34 -87 34s-64.333 -11.5 -87 -34.5s-34 -52.167 -34 -87.5
c0 -34.667 11.333 -63 34 -85s51.667 -33 87 -33s64.333 11.333 87 34z" />
    <glyph glyph-name="tm_VowelUu" unicode="&#xbc2;" horiz-adv-x="653" 
d="M490.5 579.5c38.333 -21.667 68.334 -51.8311 90.001 -90.498s32.5 -82.334 32.5 -131.001c0 -50 -12.667 -95 -38 -135s-60.5 -71.333 -105.5 -94s-95.5 -34 -151.5 -34h-58v35h58c48 0 90.667 9.83301 128 29.5s66.5 46.834 87.5 81.501s31.5 73.667 31.5 117
c0 42 -8.5 79 -25.5 111s-41 56.833 -72 74.5s-66.833 26.5 -107.5 26.5c-33.333 0 -64 -5 -92 -15s-52.333 -24 -73 -42h48c52 0 93.833 -14.5 125.5 -43.5s47.5 -66.167 47.5 -111.5c0 -30 -6.83301 -57.167 -20.5 -81.5s-32.667 -43.333 -57 -57s-51.5 -20.5 -81.5 -20.5
c-32 0 -60.833 7.16699 -86.5 21.5s-45.834 34.166 -60.501 59.499s-22 53.666 -22 84.999c0 40.667 9 78.334 27 113.001h-259v35h282c24.667 31.333 56.167 55.666 94.5 72.999s80.833 26 127.5 26c48.667 0 92.167 -10.833 130.5 -32.5zM337.501 444.503
c-23.667 22.333 -55.168 33.501 -94.501 33.501h-79c-22 -32.667 -33 -70.334 -33 -113.001c0 -36.667 11.833 -67 35.5 -91s53.834 -36 90.501 -36c33.333 0 61 11.333 83 34s33 51.334 33 86.001c0 35.333 -11.833 64.166 -35.5 86.499z" />
    <glyph glyph-name="tm_VowelE" unicode="&#xbc6;" horiz-adv-x="783" 
d="M540 636c46 -26 81.334 -63.833 106.001 -113.5s37 -108.834 37 -177.501v-345h-44v345c0 92 -23 163 -69 213s-109.667 75 -191 75c-54.667 0 -102.5 -12.833 -143.5 -38.5s-72.5 -61.667 -94.5 -108s-33 -99.5 -33 -159.5c0 -47.333 6.5 -91 19.5 -131
s31.167 -74.333 54.5 -103c-4.66699 14 -7 29.333 -7 46c0 30 7 57 21 81s33.5 42.667 58.5 56s53.167 20 84.5 20c32 0 60.833 -6.83301 86.5 -20.5s45.667 -32.5 60 -56.5s21.5 -51.333 21.5 -82c0 -29.333 -7.16699 -55.833 -21.5 -79.5s-34.333 -42.167 -60 -55.5
s-54.5 -20 -86.5 -20c-53.333 0 -101.166 14.833 -143.499 44.5s-75.5 70.667 -99.5 123s-36 111.5 -36 177.5c0 66.667 13.167 126.334 39.5 179.001s63.666 94 111.999 124s104.166 45 167.499 45c61.333 0 115 -13 161 -39zM252.001 224
c-22.667 -22 -34 -50.335 -34 -85.002c0 -35.333 11.333 -64.5 34 -87.5s51.667 -34.5 87 -34.5c34.667 0 63.5 11.333 86.5 34s34.5 51.334 34.5 86.001s-11.333 63.334 -34 86.001s-51.667 34 -87 34s-64.333 -11 -87 -33z" />
    <glyph glyph-name="tm_VowelEe" unicode="&#xbc7;" horiz-adv-x="664" 
d="M565 226c26 -24.667 39 -56.3359 39 -95.0029c0 -44.667 -18.833 -80.667 -56.5 -108s-86.167 -41 -145.5 -41c-67.333 0 -127 15.333 -179 46s-92.167 72.5 -120.5 125.5s-42.5 111.5 -42.5 175.5s14.167 122.333 42.5 175s68.5 94.334 120.5 125.001s111.667 46 179 46
c59.333 0 107.833 -13.667 145.5 -41s56.5 -63.333 56.5 -108c0 -38.667 -13 -70.334 -39 -95.001s-59 -37 -99 -37c-38.667 0 -70.5 12.5 -95.5 37.5s-37.5 56.833 -37.5 95.5c0 22.667 4.83301 43.5 14.5 62.5s23.167 34.167 40.5 45.5
c-53.333 -0.666992 -101.333 -14.667 -144 -42s-76 -64.166 -100 -110.499s-36 -97.5 -36 -153.5s12 -107.167 36 -153.5s57.167 -83.166 99.5 -110.499s90.166 -41.333 143.499 -42c-17.333 12 -30.666 27.333 -39.999 46s-14 39.334 -14 62.001c0 38 12.5 69.5 37.5 94.5
s56.833 37.5 95.5 37.5c40 0 73 -12.333 99 -37zM532.5 459.498c17 17.667 25.5 39.834 25.5 66.501c0 27.333 -8.5 50.166 -25.5 68.499s-38.167 27.5 -63.5 27.5c-26.667 0 -48.5 -9 -65.5 -27s-25.5 -40.667 -25.5 -68s8.5 -49.833 25.5 -67.5s38.5 -26.5 64.5 -26.5
s47.5 8.83301 64.5 26.5zM403.5 197.498c-17 -17.667 -25.5 -39.834 -25.5 -66.501c0 -27.333 8.5 -50.166 25.5 -68.499s38.833 -27.5 65.5 -27.5c25.333 0 46.5 9.16699 63.5 27.5s25.5 41.166 25.5 68.499c0 26.667 -8.5 48.834 -25.5 66.501s-38.5 26.5 -64.5 26.5
s-47.5 -8.83301 -64.5 -26.5z" />
    <glyph glyph-name="tm_VowelAi" unicode="&#xbc8;" horiz-adv-x="1196" 
d="M1023.5 497.5c37 -22.333 64.999 -53.166 83.999 -92.499s28.5 -84.666 28.5 -135.999c0 -42 -7 -88 -21 -138s-35 -98.333 -63 -145l-45 14c26.667 38 47 82.167 61 132.5s21 96.5 21 138.5c0 66.667 -17 119.667 -51 159s-83.667 59 -149 59
c-56.667 0 -108.334 -17 -155.001 -51c42.667 -33.333 76 -73 100 -119s36 -95.333 36 -148c0 -56 -13.833 -101.5 -41.5 -136.5s-64.834 -52.5 -111.501 -52.5c-47.333 0 -85.333 17.667 -114 53s-43 80.666 -43 135.999c0 50.667 9.16699 98.667 27.5 144
s43.833 85 76.5 119c-64 36.667 -136.333 55 -217 55c-68.667 0 -128.667 -11 -180 -33s-90.666 -52.667 -117.999 -92s-41 -84.666 -41 -135.999c0 -36.667 8.33301 -70.167 25 -100.5s39.667 -54.833 69 -73.5c-18 25.333 -27 53.666 -27 84.999c0 30 7 57 21 81
s33.5 42.667 58.5 56s53.167 20 84.5 20c32 0 60.833 -6.83301 86.5 -20.5s45.667 -32.5 60 -56.5s21.5 -51.333 21.5 -82c0 -29.333 -7.16699 -55.833 -21.5 -79.5s-34.333 -42.167 -60 -55.5s-54.5 -20 -86.5 -20c-53.333 0 -101.166 10.667 -143.499 32
s-75.5 50.666 -99.5 87.999s-36 79.333 -36 126c0 58 15.833 110 47.5 156s76.834 82 135.501 108s126.667 39 204 39c92 0 175.333 -22.333 250 -67c56.667 44.667 120.667 67 192 67c52.667 0 97.5 -11.167 134.5 -33.5zM789.999 304
c-21.333 40.667 -51.002 75.666 -89.002 104.999c-29.333 -29.333 -52.166 -64.666 -68.499 -105.999s-24.5 -85.333 -24.5 -132c0 -43.333 9.83301 -78.666 29.5 -105.999s46.167 -41 79.5 -41c32.667 0 58.334 13.667 77.001 41s28 62.666 28 105.999
c0 48 -10.667 92.333 -32 133zM251.997 51.499c22.667 -23 51.667 -34.502 87 -34.502c34.667 0 63.5 11.333 86.5 34s34.5 51.334 34.5 86.001s-11.333 63.334 -34 86.001s-51.667 34 -87 34s-64.333 -11 -87 -33s-34 -50.333 -34 -85c0 -35.333 11.333 -64.5 34 -87.5z
" />
    <glyph glyph-name="tm_VowelO" unicode="&#xbca;" horiz-adv-x="1908" 
d="M540 636c46 -26 81.334 -63.833 106.001 -113.5s37 -108.834 37 -177.501v-345h-44v345c0 92 -23 163 -69 213s-109.667 75 -191 75c-54.667 0 -102.5 -12.833 -143.5 -38.5s-72.5 -61.667 -94.5 -108s-33 -99.5 -33 -159.5c0 -47.333 6.5 -91 19.5 -131
s31.167 -74.333 54.5 -103c-4.66699 14 -7 29.333 -7 46c0 30 7 57 21 81s33.5 42.667 58.5 56s53.167 20 84.5 20c32 0 60.833 -6.83301 86.5 -20.5s45.667 -32.5 60 -56.5s21.5 -51.333 21.5 -82c0 -29.333 -7.16699 -55.833 -21.5 -79.5s-34.333 -42.167 -60 -55.5
s-54.5 -20 -86.5 -20c-53.333 0 -101.166 14.833 -143.499 44.5s-75.5 70.667 -99.5 123s-36 111.5 -36 177.5c0 66.667 13.167 126.334 39.5 179.001s63.666 94 111.999 124s104.166 45 167.499 45c61.333 0 115 -13 161 -39zM252.001 224
c-22.667 -22 -34 -50.335 -34 -85.002c0 -35.333 11.333 -64.5 34 -87.5s51.667 -34.5 87 -34.5c34.667 0 63.5 11.333 86.5 34s34.5 51.334 34.5 86.001s-11.333 63.334 -34 86.001s-51.667 34 -87 34s-64.333 -11 -87 -33zM1633 -0.00195312v478h-250v-478h-44v513h534
l5 -35h-201v-478h-44zM1035 466.998c5.33301 5.33301 8 12.333 8 21s-2.66699 15.834 -8 21.501s-12.333 8.5 -21 8.5s-15.667 -2.83301 -21 -8.5s-8 -12.834 -8 -21.501s2.66699 -15.667 8 -21s12.333 -8 21 -8s15.667 2.66699 21 8zM904.001 493.998
c-5.33301 -5.33301 -8 -12.333 -8 -21s2.66699 -15.667 8 -21s12.333 -8 21 -8s15.667 2.66699 21 8s8 12.333 8 21s-2.66699 15.667 -8 21s-12.333 8 -21 8s-15.667 -2.66699 -21 -8zM1125 451.998c5.33301 5.33301 8 12.333 8 21s-2.66699 15.667 -8 21s-12.333 8 -21 8
s-15.667 -2.66699 -21 -8s-8 -12.333 -8 -21s2.66699 -15.667 8 -21s12.333 -8 21 -8s15.667 2.66699 21 8zM827.501 443.498c-5.66699 -5.66699 -8.5 -12.834 -8.5 -21.501s2.83301 -15.667 8.5 -21s12.834 -8 21.501 -8s15.667 2.66699 21 8s8 12.333 8 21
s-2.66699 15.834 -8 21.501s-12.333 8.5 -21 8.5s-15.834 -2.83301 -21.501 -8.5zM1201.5 400.998c5.66699 5.33301 8.5 12.333 8.5 21s-2.83301 15.834 -8.5 21.501s-12.834 8.5 -21.501 8.5s-15.667 -2.83301 -21 -8.5s-8 -12.834 -8 -21.501s2.66699 -15.667 8 -21
s12.333 -8 21 -8s15.834 2.66699 21.501 8zM779.501 364.498c-5.66699 -5.66699 -8.5 -12.834 -8.5 -21.501s2.83301 -15.667 8.5 -21s12.834 -8 21.501 -8s15.667 2.66699 21 8s8 12.333 8 21s-2.66699 15.834 -8 21.501s-12.333 8.5 -21 8.5
s-15.834 -2.83301 -21.501 -8.5zM1249 321.998c5.33301 5.33301 8 12.333 8 21s-2.66699 15.834 -8 21.501s-12.333 8.5 -21 8.5s-15.667 -2.83301 -21 -8.5s-8 -12.834 -8 -21.501s2.66699 -15.667 8 -21s12.333 -8 21 -8s15.667 2.66699 21 8zM765.501 278.498
c-5.66699 -5.66699 -8.5 -12.834 -8.5 -21.501s2.83301 -15.5 8.5 -20.5s12.834 -7.5 21.501 -7.5s15.667 2.5 21 7.5s8 11.833 8 20.5s-2.66699 15.834 -8 21.501s-12.333 8.5 -21 8.5s-15.834 -2.83301 -21.501 -8.5zM1263.5 236.498c5.66699 5 8.5 11.833 8.5 20.5
s-2.83301 15.834 -8.5 21.501s-12.834 8.5 -21.501 8.5s-15.667 -2.83301 -21 -8.5s-8 -12.834 -8 -21.501s2.66699 -15.5 8 -20.5s12.333 -7.5 21 -7.5s15.834 2.5 21.501 7.5zM779.501 194.998c-5.66699 -5.33301 -8.5 -12.333 -8.5 -21s2.83301 -15.667 8.5 -21
s12.834 -8 21.501 -8s15.667 2.66699 21 8s8 12.333 8 21s-2.66699 15.667 -8 21s-12.333 8 -21 8s-15.834 -2.66699 -21.501 -8zM1249 152.998c5.33301 5.33301 8 12.333 8 21s-2.66699 15.667 -8 21s-12.333 8 -21 8s-15.667 -2.66699 -21 -8s-8 -12.333 -8 -21
s2.66699 -15.667 8 -21s12.333 -8 21 -8s15.667 2.66699 21 8zM826.501 114.998c-5.66699 -5.33301 -8.5 -12.333 -8.5 -21s2.83301 -15.667 8.5 -21s12.834 -8 21.501 -8s15.667 2.66699 21 8s8 12.333 8 21s-2.66699 15.667 -8 21s-12.333 8 -21 8
s-15.834 -2.66699 -21.501 -8zM1202.5 72.998c5.66699 5.33301 8.5 12.333 8.5 21s-2.83301 15.667 -8.5 21s-12.834 8 -21.501 8s-15.667 -2.66699 -21 -8s-8 -12.333 -8 -21s2.66699 -15.667 8 -21s12.333 -8 21 -8s15.834 2.66699 21.501 8zM904.001 65.498
c-5.33301 -5.66699 -8 -12.834 -8 -21.501s2.66699 -15.667 8 -21s12.333 -8 21 -8s15.667 2.66699 21 8s8 12.333 8 21s-2.66699 15.834 -8 21.501s-12.333 8.5 -21 8.5s-15.667 -2.83301 -21 -8.5zM1125 22.998c5.33301 5.33301 8 12.333 8 21s-2.66699 15.834 -8 21.501
s-12.333 8.5 -21 8.5s-15.667 -2.83301 -21 -8.5s-8 -12.834 -8 -21.501s2.66699 -15.667 8 -21s12.333 -8 21 -8s15.667 2.66699 21 8zM1035 7.99805c5.33301 5.33301 8 12.333 8 21s-2.66699 15.834 -8 21.501s-12.333 8.5 -21 8.5s-15.667 -2.83301 -21 -8.5
s-8 -12.834 -8 -21.501s2.66699 -15.667 8 -21s12.333 -8 21 -8s15.667 2.66699 21 8z" />
    </font>
</defs>
</svg>
