<?xml version="1.0" standalone="no"?>
<!DOCTYPE svg PUBLIC "-//W3C//DTD SVG 1.1//EN" "http://www.w3.org/Graphics/SVG/1.1/DTD/svg11.dtd" >
<svg>
<metadata>
Created by FontForge 20090914 at Wed Jun 28 20:14:37 2017
 By www-data
Copyright (c) 2015, Impallari Type (www.impallari.com)
</metadata>
<defs>
<font id="LibreFranklin-Black" horiz-adv-x="600" >
  <font-face 
    font-family="Libre Franklin Black"
    font-weight="900"
    font-stretch="normal"
    units-per-em="1000"
    panose-1="0 0 10 0 0 0 0 0 0 0"
    ascent="800"
    descent="-200"
    x-height="529.998"
    cap-height="742"
    bbox="-458 -246.003 1434 965.002"
    underline-thickness="50"
    underline-position="-50"
    unicode-range="U+000D-U+FB02"
  />
<missing-glyph horiz-adv-x="612" 
d="M555 841.5c3.33301 -3.66699 5 -8.83301 5 -15.5v-962c0 -10.667 -2.66699 -18.167 -8 -22.5s-13.666 -6.5 -24.999 -6.5h-448c-10 0 -17 2 -21 6s-6 10.333 -6 19v964c0 7.33301 1.66699 13 5 17s8 6 14 6h471c5.33301 0 9.66602 -1.83301 12.999 -5.5zM504 792.001
c-2.66699 3.33301 -6.33301 5.00098 -11 5.00098h-353l368 -855v837c0 5.33301 -1.33301 9.66602 -4 12.999zM109.001 -109.998c3.33301 -3.33301 9.33301 -5.00098 18 -5.00098h344l-367 849v-828c0 -7.33301 1.66699 -12.666 5 -15.999z" />
    <glyph glyph-name="fi" unicode="fi" horiz-adv-x="700" 
d="M393.5 524c4.33301 -4 6.5 -9.33301 6.5 -16v-94c0 -12.667 -7.33301 -19 -22 -19h-62c-8 0 -12 -4 -12 -12v-361c0 -14.667 -6.33301 -22 -19 -22h-163c-12 0 -18 6.66699 -18 20v365c0 6.66699 -2.66699 10 -8 10h-56c-14.667 0 -22 6.33301 -22 19v94
c0 6.66699 2 12 6 16s10 6 18 6h48c5.33301 0 9 1.33301 11 4s3 7.33398 3 14.001v53c0 43.333 14.167 77.666 42.5 102.999s66.833 38 115.5 38h113c9.33301 0 16.5 -2.33301 21.5 -7s7.5 -11 7.5 -19l1 -84c0 -6 -1.5 -10.833 -4.5 -14.5s-7.5 -5.5 -13.5 -5.5h-43
c-12 0 -22.5 -5 -31.5 -15s-13.5 -22 -13.5 -36v-18c0 -8.66699 4.33301 -13 13 -13h63c8 0 14.167 -2 18.5 -6zM659 603c0 -10 -2.66699 -17.332 -8 -21.999s-13.666 -7 -24.999 -7h-141c-9.33301 0 -16 2.16699 -20 6.5s-6 10.833 -6 19.5v119c0 15.333 6.33301 23 19 23
h163c5.33301 0 9.66602 -1.83301 12.999 -5.5s5 -8.83398 5 -15.501v-118zM659 29.001c0 -10.667 -2.66699 -18.167 -8 -22.5s-13.666 -6.5 -24.999 -6.5h-141c-10 0 -16.833 2 -20.5 6s-5.5 10.333 -5.5 19v482c0 15.333 6.33301 23 19 23h163
c5.33301 0 9.66602 -1.83301 12.999 -5.5s5 -8.5 5 -14.5v-481z" />
    <glyph glyph-name="fl" unicode="fl" horiz-adv-x="702" 
d="M393.5 524c4.33301 -4 6.5 -9.33301 6.5 -16v-94c0 -12.667 -7.33301 -19 -22 -19h-62c-8 0 -12 -4 -12 -12v-361c0 -14.667 -6.33301 -22 -19 -22h-163c-12 0 -18 6.66699 -18 20v365c0 6.66699 -2.66699 10 -8 10h-56c-14.667 0 -22 6.33301 -22 19v94
c0 6.66699 2 12 6 16s10 6 18 6h48c5.33301 0 9 1.33301 11 4s3 7.33398 3 14.001v53c0 43.333 14.167 77.666 42.5 102.999s66.833 38 115.5 38h113c9.33301 0 16.5 -2.33301 21.5 -7s7.5 -11 7.5 -19l1 -84c0 -6 -1.5 -10.833 -4.5 -14.5s-7.5 -5.5 -13.5 -5.5h-43
c-12 0 -22.5 -5 -31.5 -15s-13.5 -22 -13.5 -36v-18c0 -8.66699 4.33301 -13 13 -13h63c8 0 14.167 -2 18.5 -6zM660 29c0 -10.667 -2.66699 -18.166 -8 -22.499s-13.666 -6.5 -24.999 -6.5h-142c-10 0 -17 2 -21 6s-6 10.333 -6 19l5 694c0 15.333 6.33301 23 19 23h160
c5.33301 0 9.66602 -1.83301 12.999 -5.5s5 -8.83398 5 -15.501v-692z" />
    <glyph glyph-name=".notdef" horiz-adv-x="612" 
d="M555 841.5c3.33301 -3.66699 5 -8.83301 5 -15.5v-962c0 -10.667 -2.66699 -18.167 -8 -22.5s-13.666 -6.5 -24.999 -6.5h-448c-10 0 -17 2 -21 6s-6 10.333 -6 19v964c0 7.33301 1.66699 13 5 17s8 6 14 6h471c5.33301 0 9.66602 -1.83301 12.999 -5.5zM504 792.001
c-2.66699 3.33301 -6.33301 5.00098 -11 5.00098h-353l368 -855v837c0 5.33301 -1.33301 9.66602 -4 12.999zM109.001 -109.998c3.33301 -3.33301 9.33301 -5.00098 18 -5.00098h344l-367 849v-828c0 -7.33301 1.66699 -12.666 5 -15.999z" />
    <glyph glyph-name="uni0000" horiz-adv-x="0" 
 />
    <glyph glyph-name="uni0000" horiz-adv-x="0" 
 />
    <glyph glyph-name="nonmarkingreturn" unicode="&#xd;" horiz-adv-x="210" 
 />
    <glyph glyph-name="space" unicode=" " horiz-adv-x="200" 
 />
    <glyph glyph-name="exclam" unicode="!" horiz-adv-x="277" 
d="M202 294c-1.33301 -10 -4.33496 -17.166 -9.00195 -21.499s-12.667 -6.5 -24 -6.5h-69c-9.33301 0 -15.666 1.83301 -18.999 5.5s-5.66602 10.167 -6.99902 19.5l-50 428v4c0 6 1.83301 10.667 5.5 14s8.16699 5 13.5 5h189c5.33301 0 9.83301 -1.83301 13.5 -5.5
s5.16699 -8.83398 4.5 -15.501zM240.998 29.001c0 -10.667 -2.5 -18.167 -7.5 -22.5s-13.5 -6.5 -25.5 -6.5h-150c-10 0 -17 2 -21 6s-6 10.333 -6 19v150c0 7.33301 1.66699 12.833 5 16.5s8 5.5 14 5.5h173c12 0 18 -6.66699 18 -20v-148z" />
    <glyph glyph-name="quotedbl" unicode="&#x22;" horiz-adv-x="509" 
d="M437 440c-1.33301 -10.667 -4.33203 -18.167 -8.99902 -22.5s-12.667 -6.5 -24 -6.5h-42c-9.33301 0 -15.833 1.83301 -19.5 5.5s-6.16699 10.167 -7.5 19.5l-40 284v4c0 6 1.83301 10.5 5.5 13.5s8.16699 4.5 13.5 4.5h145c6 0 10.667 -1.83301 14 -5.5
s4.66602 -8.5 3.99902 -14.5zM181.001 440c-1.33301 -10.667 -4.33203 -18.167 -8.99902 -22.5s-12.667 -6.5 -24 -6.5h-42c-9.33301 0 -15.833 1.83301 -19.5 5.5s-6.16699 10.167 -7.5 19.5l-40 284v4c0 6 1.83301 10.5 5.5 13.5s8.16699 4.5 13.5 4.5h145
c6 0 10.667 -1.83301 14 -5.5s4.66602 -8.5 3.99902 -14.5z" />
    <glyph glyph-name="numbersign" unicode="#" horiz-adv-x="603" 
d="M593 522.5c3.33301 -3.66699 5.00195 -8.50391 5.00195 -14.5039v-48c0 -10 -2.66699 -17.167 -8 -21.5s-13.666 -6.5 -24.999 -6.5h-93l-17 -114h92c5.33301 0 9.66602 -1.83301 12.999 -5.5s5 -8.5 5 -14.5v-48c0 -10 -2.66699 -17.167 -8 -21.5
s-13.666 -6.5 -24.999 -6.5h-90l-28 -191c-1.33301 -13.333 -4 -22.166 -8 -26.499s-12 -5.83301 -24 -4.5l-38 5c-12 2 -20 4.33301 -24 7s-5.66699 8.33398 -5 17.001l28 193h-125l-28 -191c-1.33301 -13.333 -4 -22.166 -8 -26.499s-12 -5.83301 -24 -4.5l-38 5
c-12 2 -20 4.33301 -24 7s-5.66699 8.33398 -5 17.001l28 193h-88c-10 0 -16.833 2 -20.5 6s-5.5 10.333 -5.5 19v48c0 15.333 6.33301 23 19 23h109l17 114h-86c-10 0 -16.833 2 -20.5 6s-5.5 10.333 -5.5 19v48c0 15.333 6.33301 23 19 23h107l28 190
c3.33301 16.667 9.66602 24.667 18.999 24l61 -6c13.333 -1.33301 19 -8 17 -20l-27 -188h126l28 190c3.33301 16.667 9.66602 24.667 18.999 24l61 -6c13.333 -1.33301 19 -8 17 -20l-27 -188h94c5.33301 0 9.66602 -1.83301 12.999 -5.5zM374.002 431.996h-126l-17 -114
h126z" />
    <glyph glyph-name="dollar" unicode="$" horiz-adv-x="687" 
d="M592.5 76c-41.667 -42.667 -97.8398 -68.3311 -168.507 -76.998c-9.33301 -0.666992 -15.166 -2.33398 -17.499 -5.00098s-3.5 -8 -3.5 -16v-22c0 -10 -2.5 -17.333 -7.5 -22s-12.833 -7 -23.5 -7h-67c-10 0 -17 2.16699 -21 6.5s-6 10.833 -6 19.5v27
c0 7.33301 -1.16699 12.333 -3.5 15s-7.16602 4 -14.499 4c-44 3.33301 -83.5 11.5 -118.5 24.5s-69.167 31.167 -102.5 54.5c-13.333 9.33301 -20 18 -20 26c0 4.66699 2 9 6 13l77 87c6.66699 7.33301 13 11 19 11c4 0 9.33301 -2.66699 16 -8
c36.667 -34.667 78.334 -57.667 125.001 -69l7 -1c4 0 6.83301 0.833008 8.5 2.5s2.5 4.83398 2.5 9.50098l1 123c0 6 -0.666992 10 -2 12s-4.66602 3.66699 -9.99902 5c-81.333 12 -140.166 38.167 -176.499 78.5s-54.5 89.5 -54.5 147.5c0 53.333 18.833 99.333 56.5 138
s91.834 65.667 162.501 81c6 1.33301 11.5 3.83301 16.5 7.5s7.5 8.16699 7.5 13.5v31c0 5.33301 1.5 9.33301 4.5 12s6.5 4 10.5 4h85c7.33301 0 12.833 -1.66699 16.5 -5s5.5 -9 5.5 -17v-34c0 -2.66699 1.16699 -4.83398 3.5 -6.50098s6.5 -3.16699 12.5 -4.5
c68 -18.667 123 -41 165 -67c6.66699 -4 10 -9 10 -15c0 -5.33301 -1.66699 -10 -5 -14l-66 -88c-5.33301 -6.66699 -10.666 -10 -15.999 -10c-4.66699 0 -10.667 3 -18 9c-20.667 18.667 -45 33 -73 43c-1.33301 0.666992 -3 1 -5 1c-6 0 -9 -3 -9 -9v-115
c0 -3.33301 1 -6 3 -8s5.33301 -3.33301 10 -4l67 -16c50.667 -12 92.167 -37 124.5 -75s48.5 -82.333 48.5 -133c0 -62.667 -20.833 -115.334 -62.5 -158.001zM280.994 586.003c0 11.333 -4.66699 16 -14 14c-22.667 -6 -39.5 -14.333 -50.5 -25s-16.5 -22.667 -16.5 -36
c0 -34.667 20.333 -55 61 -61h5c10 0 15 7 15 21v87zM416.994 137.003c23.333 4.66699 41.501 12.667 54.501 24s19.5 24.333 19.5 39c0 18 -6.33301 33 -19 45s-32.334 20 -59.001 24h-4c-2.66699 0 -4.5 -0.666992 -5.5 -2s-1.5 -4.33301 -1.5 -9v-114
c0 -6.66699 5 -9 15 -7z" />
    <glyph glyph-name="percent" unicode="%" horiz-adv-x="963" 
d="M327.5 723c30.333 -20 54.333 -46.333 72 -79s26.5 -67 26.5 -103s-8.66699 -69.833 -26 -101.5s-41.166 -57.167 -71.499 -76.5s-63.5 -29 -99.5 -29c-36.667 0 -70.167 9.66699 -100.5 29s-54.333 44.833 -72 76.5s-26.5 65.5 -26.5 101.5s9 70.333 27 103
s42.167 59 72.5 79s63.5 30 99.5 30c35.333 0 68.166 -10 98.499 -30zM292 8c-2.66699 -4.66699 -6.33301 -7.83398 -11 -9.50098s-10.667 -2.5 -18 -2.5l-52 1c-6 0 -10.833 1.66699 -14.5 5s-5.5 7.33301 -5.5 12c0 6.66699 2 12.334 6 17.001l469 706
c4 6 8 9.66699 12 11s9.33301 2 16 2h66c9.33301 0 14 -3 14 -9c0 -4 -1.33301 -7.66699 -4 -11zM269.501 458c7.66699 17.333 11.5 44.666 11.5 81.999c0 39.333 -4 68.5 -12 87.5s-21.667 28.5 -41 28.5s-33 -9.5 -41 -28.5s-12 -48.167 -12 -87.5
c0 -37.333 3.83301 -64.666 11.5 -81.999s21.5 -26 41.5 -26s33.833 8.66699 41.5 26zM834.501 379c30.333 -20 54.333 -46.333 72 -79s26.5 -67 26.5 -103s-8.66699 -69.833 -26 -101.5s-41.166 -57.167 -71.499 -76.5s-63.5 -29 -99.5 -29
c-36.667 0 -70.167 9.66699 -100.5 29s-54.333 44.833 -72 76.5s-26.5 65.5 -26.5 101.5s9 70.333 27 103s42.167 59 72.5 79s63.5 30 99.5 30c35.333 0 68.166 -10 98.499 -30zM776.501 114c7.66699 17.333 11.5 44.666 11.5 81.999c0 39.333 -4 68.5 -12 87.5
s-21.667 28.5 -41 28.5s-33 -9.5 -41 -28.5s-12 -48.167 -12 -87.5c0 -37.333 3.83301 -64.666 11.5 -81.999s21.5 -26 41.5 -26s33.833 8.66699 41.5 26z" />
    <glyph glyph-name="ampersand" unicode="&#x26;" horiz-adv-x="878" 
d="M528.5 732c37.667 -14 67 -33.3301 88 -57.9971s31.5 -53 31.5 -85c0 -30.667 -13.167 -63.5 -39.5 -98.5s-58.5 -61.833 -96.5 -80.5c-5.33301 -2.66699 -8 -5.33398 -8 -8.00098s1.66699 -5.66699 5 -9l73 -73c4 -4 7.66699 -6 11 -6c4 0 8.33301 3 13 9
c22 29.333 39 58.666 51 87.999c4 8.66699 10 13 18 13c1.33301 0 4.66602 -0.666992 9.99902 -2l101 -32c5.33301 -1.33301 9.66602 -4.5 12.999 -9.5s5 -10.167 5 -15.5c0 -3.33301 -0.333008 -6 -1 -8c-11.333 -23.333 -23.166 -44.833 -35.499 -64.5
s-29.833 -44.834 -52.5 -75.501c-4.66699 -5.33301 -7 -9.66602 -7 -12.999c0 -2 3 -5 9 -9c24 -14.667 57 -23.667 99 -27c8 -0.666992 13.833 -2.66699 17.5 -6s5.5 -8.66602 5.5 -15.999v-117c0 -9.33301 -2.16699 -16.5 -6.5 -21.5s-10.166 -7.5 -17.499 -7.5
c-52 0 -97.333 5.16699 -136 15.5s-74.667 26.833 -108 49.5c-6 4 -11 6 -15 6s-9.33301 -2.33301 -16 -7c-34 -24 -70.333 -41.5 -109 -52.5s-83 -16.5 -133 -16.5c-82.667 0 -146.5 17.333 -191.5 52s-67.5 84 -67.5 148c0 39.333 14 75.666 42 108.999
s72.667 66.666 134 99.999c6.66699 4 10 7.66699 10 11s-2.66699 8 -8 14c-19.333 21.333 -34.333 44.5 -45 69.5s-16 48.833 -16 71.5c0 34.667 10.5 66 31.5 94s50 49.833 87 65.5s78.833 23.5 125.5 23.5c48 0 90.833 -7 128.5 -21zM368 623.003
c-10.667 -10 -16.002 -21.334 -16.002 -34.001c0 -5.33301 1.83301 -11.666 5.5 -18.999s8.16699 -14 13.5 -20l37 -45c2.66699 -2.66699 6 -4 10 -4c4.66699 0 8.33398 1 11.001 3c14.667 8 26.334 18.5 35.001 31.5s13 27.167 13 42.5c0 18 -6.16699 32.5 -18.5 43.5
s-28.5 16.5 -48.5 16.5c-17.333 0 -31.333 -5 -42 -15zM316.998 305.002c-3.33301 0 -7.33398 -1.66602 -12.001 -4.99902c-15.333 -10 -27.666 -22 -36.999 -36s-14 -28.333 -14 -43c0 -20.667 8.83301 -39.334 26.5 -56.001s38.5 -25 62.5 -25c13.333 0 28 2.5 44 7.5
s29 11.5 39 19.5c6 4.66699 9 9 9 13c0 3.33301 -2 7.33301 -6 12l-97 104c-6 6 -11 9 -15 9z" />
    <glyph glyph-name="quotesingle" unicode="'" horiz-adv-x="253" 
d="M181 440c-1.33301 -10.667 -4.33203 -18.167 -8.99902 -22.5s-12.667 -6.5 -24 -6.5h-42c-9.33301 0 -15.833 1.83301 -19.5 5.5s-6.16699 10.167 -7.5 19.5l-40 284v4c0 6 1.83301 10.5 5.5 13.5s8.16699 4.5 13.5 4.5h145c6 0 10.667 -1.83301 14 -5.5
s4.66602 -8.5 3.99902 -14.5z" />
    <glyph glyph-name="parenleft" unicode="(" horiz-adv-x="332" 
d="M315.5 737.5c1.66699 -3 1.5 -6.49902 -0.5 -10.499c-34 -68 -60.5 -139.5 -79.5 -214.5s-28.5 -151.167 -28.5 -228.5c0 -72.667 8.83301 -143.334 26.5 -212.001s44.834 -142 81.501 -220c1.33301 -2.66699 2 -5 2 -7c0 -2.66699 -1.16699 -5 -3.5 -7s-5.5 -3 -9.5 -3
h-109c-4.66699 0 -8.5 1 -11.5 3s-6.16699 5.33301 -9.5 10c-46.667 80 -81.5 153 -104.5 219s-34.5 138.667 -34.5 218c0 80 12 157.5 36 232.5s57.667 145.167 101 210.5c7.33301 9.33301 16.666 14 27.999 14h105c5.33301 0 8.83301 -1.5 10.5 -4.5z" />
    <glyph glyph-name="parenright" unicode=")" horiz-adv-x="332" 
d="M132 742c11.333 0 20.666 -4.66797 27.999 -14.001c43.333 -65.333 77 -135.5 101 -210.5s36 -152.5 36 -232.5c0 -79.333 -11.5 -152 -34.5 -218s-57.833 -139 -104.5 -219c-3.33301 -4.66699 -6.5 -8 -9.5 -10s-6.83301 -3 -11.5 -3h-109
c-6 0 -9.83301 1.83301 -11.5 5.5s-1.5 7.5 0.5 11.5c36.667 78 63.834 151.333 81.501 220s26.5 139.334 26.5 212.001c0 77.333 -9.5 153.5 -28.5 228.5s-45.5 146.5 -79.5 214.5c-1.33301 2.66699 -2 4.66699 -2 6c0 6 4 9 12 9h105z" />
    <glyph glyph-name="asterisk" unicode="*" horiz-adv-x="521" 
d="M267 421c-1.33301 2.66699 -3.33301 4 -6 4s-4.66699 -1.33301 -6 -4l-74 -127c-3.33301 -4.66699 -8 -7 -14 -7c-5.33301 0 -10 1.66699 -14 5l-68 48c-6 5.33301 -9 9.66602 -9 12.999c0 2.66699 1.66699 6.33398 5 11.001l94 109c1.33301 2.66699 2 4.66699 2 6
c0 4.66699 -2.66699 7.33398 -8 8.00098l-133 36c-7.33301 2 -11 7 -11 15c0 2 0.666992 5.66699 2 11l27 74c3.33301 8 7.66602 12 12.999 12l8 -2l126 -58l6 -2c6 0 8.33301 3 7 9l-12 144v2c0 3.33301 1.33301 6.5 4 9.5s6.33398 4.5 11.001 4.5h90
c5.33301 0 9.33301 -1.66699 12 -5s3.66699 -7 3 -11l-14 -145v-3c0 -6 3.33301 -7.66699 10 -5l129 58c4 1.33301 7 2 9 2c8 0 13.333 -5 16 -15l23 -73c0.666992 -2 1 -4.66699 1 -8c0 -8.66699 -4.66699 -14 -14 -16l-130 -35c-4 -0.666992 -6 -3 -6 -7
c0 -2 1.33301 -4.33301 4 -7l90 -105c2.66699 -2.66699 4 -6.33398 4 -11.001c0 -6.66699 -4.33301 -13 -13 -19l-59 -41c-6 -4 -12 -6 -18 -6s-10.667 2.33301 -14 7z" />
    <glyph glyph-name="plus" unicode="+" 
d="M557 438.5c3.33301 -3.66699 5 -8.5 5 -14.5v-93c0 -10 -2.66699 -17.167 -8 -21.5s-13.666 -6.5 -24.999 -6.5h-157v-172c0 -5.33301 -1.83301 -9.66602 -5.5 -12.999s-8.5 -5 -14.5 -5h-93c-10 0 -17.167 2.66699 -21.5 8s-6.5 13.666 -6.5 24.999v157h-165
c-10 0 -16.833 2 -20.5 6s-5.5 10.333 -5.5 19v93c0 15.333 6.33301 23 19 23h172v165c0 10 2 16.833 6 20.5s10.333 5.5 19 5.5h93c15.333 0 23 -6.33301 23 -19v-172h172c5.33301 0 9.66602 -1.83301 12.999 -5.5z" />
    <glyph glyph-name="comma" unicode="," horiz-adv-x="279" 
d="M41 -157c-3.33301 5.33301 -3.66699 11 -1 17l50 108c3.33301 8.66699 5 15 5 19c0 8.66699 -4.66699 13 -14 13h-22c-10 0 -17 2 -21 6s-6 10.333 -6 19v151c0 7.33301 1.66699 12.833 5 16.5s8 5.5 14 5.5h173c12 0 18 -6.66699 18 -20v-146
c0 -5.33301 -1.33301 -10.333 -4 -15l-114 -159c-5.33301 -7.33301 -12.333 -13 -21 -17s-17 -6 -25 -6h-22c-6.66699 0 -11.667 2.66699 -15 8z" />
    <glyph glyph-name="hyphen" unicode="-" horiz-adv-x="380" 
d="M339 221c0 -10 -2.66699 -17.167 -8 -21.5s-13.666 -6.5 -24.999 -6.5h-239c-10 0 -16.833 2 -20.5 6s-5.5 10.333 -5.5 19v92c0 15.333 6.33301 23 19 23h261c5.33301 0 9.66602 -1.83301 12.999 -5.5s5 -8.5 5 -14.5v-92z" />
    <glyph glyph-name="period" unicode="." horiz-adv-x="279" 
d="M242 29c0 -10.667 -2.5 -18.167 -7.5 -22.5s-13.5 -6.5 -25.5 -6.5h-150c-10 0 -17 2 -21 6s-6 10.333 -6 19v154c0 7.33301 1.66699 12.833 5 16.5s8 5.5 14 5.5h173c12 0 18 -6.66699 18 -20v-152z" />
    <glyph glyph-name="slash" unicode="/" horiz-adv-x="380" 
d="M1 19l249.001 705.001c2 5.33301 5.33301 9.66602 10 12.999s10 5 16 5h83c14 0 21 -5.33301 21 -16c0 -2 -1.33301 -7.66699 -4 -17l-241 -683c-3.33301 -9.33301 -7.83301 -16 -13.5 -20s-12.834 -6 -21.501 -6h-83c-14.667 -0 -20 6.33301 -16 19z" />
    <glyph glyph-name="zero" unicode="0" horiz-adv-x="722" 
d="M531 703c50 -33.333 89.1689 -79.166 117.502 -137.499s42.5 -123.833 42.5 -196.5s-14 -137.667 -42 -195s-66.833 -102 -116.5 -134s-106.5 -48 -170.5 -48s-121.167 16 -171.5 48s-89.5 76.667 -117.5 134s-42 122.333 -42 195s14.167 138.167 42.5 196.5
s67.666 104.166 117.999 137.499s107.166 50 170.499 50c62.667 0 119 -16.667 169 -50zM420.002 169.5c14.667 14.333 25.166 37.332 31.499 68.999s9.5 74.834 9.5 129.501c0 83.333 -7.66699 142.666 -23 177.999s-41 53 -77 53s-61.667 -17.667 -77 -53
s-23 -94.666 -23 -177.999c0 -54 3.33301 -97 10 -129s17.167 -55.167 31.5 -69.5s33.833 -21.5 58.5 -21.5s44.334 7.16699 59.001 21.5z" />
    <glyph glyph-name="one" unicode="1" horiz-adv-x="537" 
d="M509 145l0.00195312 -123c0 -6.66699 -2.16699 -12 -6.5 -16s-10.5 -6 -18.5 -6h-425c-16 0 -24 7 -24 21v124c0 12.667 7.33301 19 22 19h89c3.33301 0 6.16602 0.833008 8.49902 2.5s3.5 3.83398 3.5 6.50098v334c0 6 -1.16699 10 -3.5 12s-6.83301 2.33301 -13.5 1
l-80 -18c-2 -0.666992 -5 -1 -9 -1c-12 0 -18 8 -18 24v84c0 8 1.16699 14 3.5 18s7.16602 7.66699 14.499 11l180 90c11.333 5.33301 20.333 9 27 11s14.334 3 23.001 3h85c5.33301 0 9.66602 -1.83301 12.999 -5.5s5 -8.83398 5 -15.501v-545c0 -8 3.66699 -12 11 -12h90
c15.333 0 23 -6.33301 23 -19z" />
    <glyph glyph-name="two" unicode="2" horiz-adv-x="673" 
d="M256 328c48 39.333 82.502 69.166 103.502 89.499s35.167 37.333 42.5 51s11 28.834 11 45.501c0 22.667 -7.83301 41.167 -23.5 55.5s-36.834 21.5 -63.501 21.5c-25.333 0 -47.666 -8.16699 -66.999 -24.5s-40 -44.833 -62 -85.5c-3.33301 -6 -8.33301 -9 -15 -9
c-4.66699 0 -10.334 1.66699 -17.001 5l-119 59c-9.33301 4.66699 -14 12 -14 22c0 6 1.66699 11.667 5 17c37.333 60.667 80.166 105.334 128.499 134.001s105.833 43 172.5 43c60 0 112.167 -9.83301 156.5 -29.5s78.5 -47.334 102.5 -83.001s36 -76.834 36 -123.501
c0 -39.333 -10 -74.833 -30 -106.5s-54 -63.5 -102 -95.5l-175 -117c-4.66699 -3.33301 -7 -6 -7 -8c0 -2.66699 4.33301 -4 13 -4h285c15.333 0 23 -6.33301 23 -19v-144c0 -6.66699 -2.16699 -12 -6.5 -16s-10.5 -6 -18.5 -6h-559c-10 0 -17 1.66699 -21 5s-6 10 -6 20v99
c0 5.33301 3.5 12.333 10.5 21s23.167 23.334 48.5 44.001z" />
    <glyph glyph-name="three" unicode="3" horiz-adv-x="685" 
d="M53 630c0 4 1.66797 8.6748 5.00098 14.0078c24 31.333 61.833 57.166 113.5 77.499s106.167 30.5 163.5 30.5c62 0 115.5 -8.16699 160.5 -24.5s79.333 -39.5 103 -69.5s35.5 -64.667 35.5 -104c0 -30.667 -9.83301 -60 -29.5 -88s-47.167 -47.333 -82.5 -58
c-8 -2.66699 -12 -6.33398 -12 -11.001s3.66699 -8 11 -10c42 -14.667 75.167 -36.834 99.5 -66.501s36.5 -62.834 36.5 -99.501c0 -154 -111.333 -231 -334 -231c-61.333 0 -119.333 12.667 -174 38s-95 57.666 -121 96.999c-3.33301 5.33301 -5 10.666 -5 15.999
c0 9.33301 4.33301 16.333 13 21l101 70c7.33301 4 13 6 17 6c3.33301 0 6.66602 -1.66699 9.99902 -5c32 -32.667 59.833 -55.334 83.5 -68.001s52.834 -19 87.501 -19c30.667 0 54.834 6.33301 72.501 19s26.5 30 26.5 52c0 23.333 -9.66699 42.666 -29 57.999
s-45 23.333 -77 24l-84 2c-14 0 -21 5.66699 -21 17v121c0 9.33301 7 15 21 17l67 4c31.333 2 56.166 10.167 74.499 24.5s27.5 32.5 27.5 54.5c0 17.333 -8 31.833 -24 43.5s-35.333 17.5 -58 17.5c-28.667 0 -54.334 -5.33301 -77.001 -16s-47.667 -29 -75 -55
c-5.33301 -5.33301 -9.33301 -8 -12 -8c-2 0 -6 2.33301 -12 7l-97 90c-3.33301 4.66699 -5 8.66699 -5 12z" />
    <glyph glyph-name="four" unicode="4" horiz-adv-x="716" 
d="M370 737.5c6 3 15.665 4.50195 28.998 4.50195h164c6 0 10.667 -1.83301 14 -5.5s5 -8.83398 5 -15.501v-399c0 -8 3.66699 -12 11 -12h74c14.667 0 22 -6.33301 22 -19v-110c0 -14.667 -8 -22 -24 -22h-71c-8 0 -12 -4.33301 -12 -13v-117
c0 -10.667 -2.66699 -18.167 -8 -22.5s-13.666 -6.5 -24.999 -6.5h-171c-10 0 -17 2 -21 6s-6 10.333 -6 19l1 124c0 6.66699 -4.66699 10 -14 10h-285c-8 0 -14.167 2 -18.5 6s-6.5 9.33301 -6.5 16v104c0 7.33301 2.33301 15.166 7 23.499s13.334 20.5 26.001 36.5
l287 372c8.66699 10.667 16 17.5 22 20.5zM345.998 310.002c2.66699 0 4.83301 0.666992 6.5 2s2.5 3 2.5 5v193c0 10 -1 15 -3 15s-5.66699 -3.66699 -11 -11l-137 -191c-2.66699 -4 -4 -6.66699 -4 -8c0 -3.33301 3.66699 -5 11 -5h135z" />
    <glyph glyph-name="five" unicode="5" horiz-adv-x="690" 
d="M573 742c14 0 22.665 -1.66699 25.998 -5s4.66602 -11.333 3.99902 -24l-6 -128c-0.666992 -8.66699 -3.16699 -14.667 -7.5 -18s-11.166 -5 -20.499 -5h-299c-13.333 0 -20.333 -6 -21 -18l-8 -67v-4c0 -4.66699 1.5 -7.83398 4.5 -9.50098
s6.83301 -1.83398 11.5 -0.500977c30 8 53.667 13.5 71 16.5s36.333 4.5 57 4.5c54 0 101.833 -9.66699 143.5 -29s74.334 -47.166 98.001 -83.499s35.5 -79.5 35.5 -129.5c0 -52 -12.833 -97 -38.5 -135s-62.167 -67 -109.5 -87s-102.333 -30 -165 -30
c-71.333 0 -135.333 12.167 -192 36.5s-98 55.833 -124 94.5c-6.66699 10.667 -10 18.667 -10 24c0 7.33301 4 13.333 12 18l108 73c4 3.33301 9 5 15 5c7.33301 0 13.333 -3 18 -9c24.667 -29.333 47.5 -51 68.5 -65s47.833 -21 80.5 -21c36 0 64 8.5 84 25.5
s30 38.167 30 63.5s-9.5 46.833 -28.5 64.5s-46.5 26.5 -82.5 26.5c-15.333 0 -30.166 -2 -44.499 -6s-32.833 -11 -55.5 -21c-5.33301 -2.66699 -10 -4 -14 -4c-2.66699 0 -8 2 -16 6l-119 64c-5.33301 2.66699 -9 5.83398 -11 9.50098s-3 8.5 -3 14.5
s0.333008 10.667 1 14l29 309c1.33301 12 4.83301 20 10.5 24s17.167 6 34.5 6h433z" />
    <glyph glyph-name="six" unicode="6" horiz-adv-x="701" 
d="M502.5 724.5c39 -17 70.3291 -37.9961 93.9961 -62.9961s37.5 -48.833 41.5 -71.5c0.666992 -2 1 -5 1 -9c0 -9.33301 -4.33301 -15.333 -13 -18l-143 -42c-1.33301 -0.666992 -3 -1 -5 -1c-6 0 -10.333 2.16699 -13 6.5s-4 6.83301 -4 7.5c-13.333 21.333 -26 37 -38 47
s-28.667 15 -50 15c-35.333 0 -63.666 -13 -84.999 -39s-32 -60.667 -32 -104c0 -8.66699 0.666992 -14.834 2 -18.501s4 -5.5 8 -5.5s9 1.33301 15 4c24.667 10 45.834 17.167 63.501 21.5s39.167 6.5 64.5 6.5c51.333 0 97 -9.33301 137 -28s71.333 -44.834 94 -78.501
s34 -71.834 34 -114.501c0 -46.667 -13.667 -89 -41 -127s-64.5 -67.667 -111.5 -89s-99.5 -32 -157.5 -32c-67.333 0 -126.166 15 -176.499 45s-89 72.167 -116 126.5s-40.5 117.166 -40.5 188.499c0 81.333 14.333 152 43 212s68.834 106 120.501 138s111.167 48 178.5 48
c47.333 0 90.5 -8.5 129.5 -25.5zM307.496 309.004c-17.667 -5.33301 -30.834 -11.334 -39.501 -18.001c-4 -3.33301 -6.66699 -6.66602 -8 -9.99902s-2 -9.33301 -2 -18c0 -39.333 9 -70.333 27 -93s41.667 -34 71 -34c26.667 0 49 9 67 27s27 40.667 27 68
s-9.16699 48.5 -27.5 63.5s-40.166 22.5 -65.499 22.5c-15.333 0 -31.833 -2.66699 -49.5 -8z" />
    <glyph glyph-name="seven" unicode="7" horiz-adv-x="632" 
d="M569 742c12 0 21.334 -2.66602 28.001 -7.99902s9.66699 -12 9 -20l-4 -67c-0.666992 -6.66699 -4.5 -17.334 -11.5 -32.001s-13.833 -27 -20.5 -37c-36 -55.333 -68.5 -116.666 -97.5 -183.999s-52 -133 -69 -197s-26.5 -118.667 -28.5 -164
c-0.666992 -22 -9 -33 -25 -33h-211c-14.667 0 -22 6.33301 -22 19c0 1.33301 0.666992 4.66602 2 9.99902c24 80 53.167 156.5 87.5 229.5s88.166 168.167 161.499 285.5c2.66699 5.33301 4 9 4 11c0 4.66699 -4.33301 7 -13 7h-305c-19.333 0 -28.333 8.33301 -27 25
l14 138c1.33301 11.333 11.333 17 30 17h498z" />
    <glyph glyph-name="eight" unicode="8" horiz-adv-x="693" 
d="M488.5 724.5c45 -18.333 80.333 -43.3301 106 -74.9971s38.5 -66.834 38.5 -105.501c0 -26 -8 -49.833 -24 -71.5s-39 -39.834 -69 -54.501c-6 -3.33301 -9 -6.33301 -9 -9c0 -3.33301 2.66699 -7 8 -11c48.667 -29.333 82 -57.5 100 -84.5s27 -58.5 27 -94.5
c0 -48 -14 -89.167 -42 -123.5s-67 -60.5 -117 -78.5s-108 -27 -174 -27c-91.333 0 -165 16.833 -221 50.5s-84 80.834 -84 141.501c0 33.333 8.5 62.333 25.5 87s47.167 48 90.5 70c5.33301 2 8 4.33301 8 7s-2 5.33398 -6 8.00098c-22 17.333 -39.333 32.166 -52 44.499
s-23.5 28.166 -32.5 47.499s-13.5 42.333 -13.5 69c0 42.667 11.667 82.167 35 118.5s57 65.166 101 86.499s95.667 32 155 32c54.667 0 104.5 -9.16699 149.5 -27.5zM283 590.003c-16 -11.333 -23.998 -26.667 -23.998 -46c0 -13.333 4.16699 -25 12.5 -35
s20.166 -17.667 35.499 -23l64 -22c5.33301 -1.33301 9.66602 -2 12.999 -2c16 0 30.167 8.16699 42.5 24.5s18.5 32.833 18.5 49.5c0 19.333 -9 36 -27 50s-43 21 -75 21c-24 0 -44 -5.66699 -60 -17zM416.502 152.002c16.333 11.333 24.501 27 24.501 47
c0 14.667 -4.5 27.5 -13.5 38.5s-26.167 20.833 -51.5 29.5l-71 25c-6 2 -11.667 3 -17 3c-18 0 -34.167 -7.5 -48.5 -22.5s-21.5 -33.167 -21.5 -54.5c0 -26.667 10.167 -47.167 30.5 -61.5s53.166 -21.5 98.499 -21.5c30 0 53.167 5.66699 69.5 17z" />
    <glyph glyph-name="nine" unicode="9" horiz-adv-x="701" 
d="M198.5 17.5c-39 17 -70.3291 37.9961 -93.9961 62.9961s-37.5 48.833 -41.5 71.5c-0.666992 2 -1 5 -1 9c0 9.33301 4.33301 15.333 13 18l143 42c1.33301 0.666992 3 1 5 1c6 0 10.333 -2.16699 13 -6.5s4 -6.83301 4 -7.5c13.333 -21.333 26 -37 38 -47
s28.667 -15 50 -15c35.333 0 63.666 13 84.999 39s32 60.667 32 104c0 8.66699 -0.666992 14.834 -2 18.501s-4 5.5 -8 5.5s-9 -1.33301 -15 -4c-24.667 -10 -45.834 -17.167 -63.501 -21.5s-39.167 -6.5 -64.5 -6.5c-51.333 0 -97 9.33301 -137 28
s-71.333 44.834 -94 78.501s-34 71.834 -34 114.501c0 46.667 13.667 89 41 127s64.5 67.667 111.5 89s99.5 32 157.5 32c67.333 0 126.166 -15 176.499 -45s89 -72.167 116 -126.5s40.5 -117.166 40.5 -188.499c0 -81.333 -14.333 -152 -43 -212
s-68.834 -106 -120.501 -138s-111.167 -48 -178.5 -48c-47.333 0 -90.5 8.5 -129.5 25.5zM393.504 432.996c17.667 5.33301 30.834 11.334 39.501 18.001c4 3.33301 6.66699 6.66602 8 9.99902s2 9.33301 2 18c0 39.333 -9 70.333 -27 93s-41.667 34 -71 34
c-26.667 0 -49 -9 -67 -27s-27 -40.667 -27 -68s9.16699 -48.5 27.5 -63.5s40.166 -22.5 65.499 -22.5c15.333 0 31.833 2.66699 49.5 8z" />
    <glyph glyph-name="colon" unicode=":" horiz-adv-x="279" 
d="M242 357c0 -10 -2.5 -17.333 -7.5 -22s-13.5 -7 -25.5 -7h-150c-10 0 -17 2.16699 -21 6.5s-6 10.833 -6 19.5v149c0 7.33301 1.66699 12.833 5 16.5s8 5.5 14 5.5h173c12 0 18 -6.66699 18 -20v-148zM242 32c0 -10 -2.5 -17.333 -7.5 -22s-13.5 -7 -25.5 -7h-150
c-10 0 -17 2.16699 -21 6.5s-6 10.833 -6 19.5v149c0 7.33301 1.66699 12.833 5 16.5s8 5.5 14 5.5h173c12 0 18 -6.66699 18 -20v-148z" />
    <glyph glyph-name="semicolon" unicode=";" horiz-adv-x="279" 
d="M38 327c-4 4 -6 10.333 -6 19v154c0 7.33301 1.66699 12.833 5 16.5s8 5.5 14 5.5h173c12 0 18 -6.66699 18 -20v-152c0 -10.667 -2.5 -18.167 -7.5 -22.5s-13.5 -6.5 -25.5 -6.5h-150c-10 0 -17 2 -21 6zM41 -161c-3.33301 5.33301 -3.66699 10.999 -1 16.999l50 112
c3.33301 8.66699 5 15.334 5 20.001c0 8 -4.66699 12 -14 12h-22c-10 0 -17 2 -21 6s-6 10.333 -6 19v151c0 7.33301 1.66699 12.833 5 16.5s8 5.5 14 5.5h173c12 0 18 -6.66699 18 -20v-146c0 -5.33301 -1.33301 -10.333 -4 -15l-114 -163
c-5.33301 -7.33301 -12.333 -13 -21 -17s-17 -6 -25 -6h-22c-6.66699 0 -11.667 2.66699 -15 8z" />
    <glyph glyph-name="less" unicode="&#x3c;" horiz-adv-x="599" 
d="M544 114c0 -18.667 -7.66895 -28 -23.002 -28c-5.33301 0 -10.333 1 -15 3l-443 170c-18.667 7.33301 -28 18.666 -28 33.999v111c0 17.333 9.33301 29.333 28 36l444 171c2.66699 1.33301 6.33398 2 11.001 2c7.33301 0 13.5 -2.66699 18.5 -8s7.5 -11.666 7.5 -18.999
v-96c0 -10.667 -3.5 -19.667 -10.5 -27s-18.5 -14 -34.5 -20l-253 -95l253 -92c16.667 -6 28.334 -12.333 35.001 -19s10 -15.667 10 -27v-96z" />
    <glyph glyph-name="equal" unicode="=" 
d="M562 427c0 -10 -2.66699 -17.167 -8 -21.5s-13.666 -6.5 -24.999 -6.5h-463c-10 0 -16.833 2 -20.5 6s-5.5 10.333 -5.5 19v93c0 15.333 6.33301 23 19 23h485c5.33301 0 9.66602 -1.83301 12.999 -5.5s5 -8.5 5 -14.5v-93zM562 186c0 -10 -2.66699 -17.167 -8 -21.5
s-13.666 -6.5 -24.999 -6.5h-463c-10 0 -16.833 2 -20.5 6s-5.5 10.333 -5.5 19v93c0 15.333 6.33301 23 19 23h485c5.33301 0 9.66602 -1.83301 12.999 -5.5s5 -8.5 5 -14.5v-93z" />
    <glyph glyph-name="greater" unicode="&#x3e;" horiz-adv-x="599" 
d="M65 237c6.66699 6.66699 18.332 13 34.999 19l253 92l-253 95c-16 6 -27.5 12.667 -34.5 20s-10.5 16.333 -10.5 27v96c0 7.33301 2.5 13.666 7.5 18.999s11.167 8 18.5 8c4.66699 0 8.33398 -0.666992 11.001 -2l444 -171c18.667 -6.66699 28 -18.667 28 -36v-111
c0 -15.333 -9.33301 -26.666 -28 -33.999l-443 -170c-4.66699 -2 -9.66699 -3 -15 -3c-15.333 0 -23 9.33301 -23 28v96c0 11.333 3.33301 20.333 10 27z" />
    <glyph glyph-name="question" unicode="?" horiz-adv-x="546" 
d="M-6 577c0 2 0.666992 5.66699 2 11c21.333 54 54.666 94.833 99.999 122.5s101.333 41.5 168 41.5c50 0 94.667 -7.83301 134 -23.5s69.833 -36.667 91.5 -63s32.5 -54.833 32.5 -85.5c0 -24 -4.66699 -45 -14 -63s-20.5 -33.333 -33.5 -46s-30.5 -27.334 -52.5 -44.001
c-20.667 -16.667 -37 -30.5 -49 -41.5s-22 -24.167 -30 -39.5s-12 -33 -12 -53c0 -6.66699 -2.5 -12.334 -7.5 -17.001s-10.833 -7 -17.5 -7h-105c-8 0 -14.333 2.5 -19 7.5s-7 12.167 -7 21.5c0 30.667 4.83301 57.834 14.5 81.501s21.167 43.334 34.5 59.001
s30.333 33.5 51 53.5c18.667 18 32 32.167 40 42.5s12 21.833 12 34.5c0 15.333 -6.33301 28 -19 38s-28 15 -46 15c-21.333 0 -41.166 -6.66699 -59.499 -20s-32.5 -32.333 -42.5 -57c-2 -4.66699 -4.16699 -8 -6.5 -10s-5.5 -3 -9.5 -3s-7.33301 0.333008 -10 1l-128 28
c-8 2 -12 7.33301 -12 16zM357 29c0 -10.667 -2.66797 -18.167 -8.00098 -22.5s-13.666 -6.5 -24.999 -6.5h-151c-10 0 -16.833 2 -20.5 6s-5.5 10.333 -5.5 19v150c0 14.667 6.33301 22 19 22h173c12 0 18 -6.66699 18 -20v-148z" />
    <glyph glyph-name="at" unicode="@" horiz-adv-x="834" 
d="M570.5 -93.5c-43 -13 -90.501 -19.502 -142.501 -19.502c-80.667 0 -150.834 16.667 -210.501 50s-105.334 78.5 -137.001 135.5s-47.5 120.167 -47.5 189.5c0 72 17 138.5 51 199.5s82.5 109.5 145.5 145.5s136.5 54 220.5 54c65.333 0 125.833 -11.5 181.5 -34.5
s100.5 -58.833 134.5 -107.5s51 -109 51 -181c0 -50 -8.33301 -94.5 -25 -133.5s-40.167 -69.333 -70.5 -91s-65.166 -32.5 -104.499 -32.5c-43.333 0 -77.333 14.333 -102 43c-3.33301 3.33301 -5.33301 5 -6 5c-2 0 -4.33301 -2 -7 -6
c-15.333 -17.333 -34.333 -31 -57 -41s-47 -15 -73 -15c-46 0 -84 16 -114 48s-45 74.333 -45 127c0 40.667 8.5 78.834 25.5 114.501s41.333 64.334 73 86.001s68.5 32.5 110.5 32.5c24.667 0 44.167 -3.5 58.5 -10.5s29.166 -17.5 44.499 -31.5
c1.33301 -1.33301 3 -2 5 -2c2.66699 0 4.33398 2 5.00098 6l1 5c0.666992 4.66699 4.33398 7 11.001 7h87c6 0 8.66699 -2.66699 8 -8l-35 -206c-1.33301 -9.33301 -2 -15.333 -2 -18c0 -21.333 8.66699 -32 26 -32c12.667 0 24.834 5.33301 36.501 16s21.334 27 29.001 49
s11.5 49.333 11.5 82c0 82 -23.833 140.5 -71.5 175.5s-109.834 52.5 -186.501 52.5c-104 0 -180.667 -27.5 -230 -82.5s-74 -125.833 -74 -212.5c0 -93.333 26.833 -164.333 80.5 -213s126.5 -73 218.5 -73c39.333 0 70.833 4 94.5 12s49.167 20.667 76.5 38
c4.66699 2.66699 8.66699 4 12 4c4 0 7 -1.66699 9 -5l40 -54c2 -2 3 -4.33301 3 -7c0 -4 -3.33301 -8.33301 -10 -13c-23.333 -18.667 -56.5 -34.5 -99.5 -47.5zM360.999 201.498c10.667 -15.667 26.334 -23.501 47.001 -23.501c25.333 0 46.5 10.833 63.5 32.5
s25.5 45.834 25.5 72.501c0 22 -5.83301 41 -17.5 57s-27.5 24 -47.5 24c-22.667 0 -42.834 -10.333 -60.501 -31s-26.5 -45.667 -26.5 -75c0 -22 5.33301 -40.833 16 -56.5z" />
    <glyph glyph-name="A" unicode="A" horiz-adv-x="799" 
d="M30 5.5c-3.33301 3.66699 -5 8.83203 -5 15.499c0 4.66699 1 10 3 16l242 682c3.33301 8.66699 7 14.667 11 18s10.333 5 19 5h197c8 0 15.167 -2.5 21.5 -7.5s11.166 -11.5 14.499 -19.5l240 -681c1.33301 -5.33301 2 -9.33301 2 -12c0 -6 -1.33301 -11.167 -4 -15.5
s-6.66699 -6.5 -12 -6.5h-196c-11.333 0 -18.666 5.66699 -21.999 17l-39 115c-2 4.66699 -3.83301 7.83398 -5.5 9.50098s-4.83398 2.5 -9.50098 2.5h-212c-8 0 -13 -3.66699 -15 -11l-41 -118c-4 -10 -12 -15 -24 -15h-152c-5.33301 -0 -9.66602 1.83301 -12.999 5.5z
M437 313.998c7.33301 0 11 3.33398 11 10.001c0 1.33301 -0.666992 4.66602 -2 9.99902l-60 171c-1.33301 3.33301 -3.33301 5 -6 5s-4.66699 -1.66699 -6 -5l-61 -170c-1.33301 -2.66699 -2 -6 -2 -10c0 -7.33301 4 -11 12 -11h114z" />
    <glyph glyph-name="B" unicode="B" horiz-adv-x="739" 
d="M58.5 6.5c-4.33301 4.33301 -6.5 9.5 -6.5 15.5v694c0 7.33301 2.33301 13.5 7 18.5s10.667 7.5 18 7.5h298c104 0 182.833 -16.5 236.5 -49.5s80.5 -81.833 80.5 -146.5c0 -35.333 -9.66699 -65.166 -29 -89.499s-53.333 -47.833 -102 -70.5
c-1.33301 -0.666992 -2 -1.83398 -2 -3.50098s0.666992 -2.83398 2 -3.50098c54 -20 92.333 -43.667 115 -71s34 -62.666 34 -105.999c0 -68.667 -26.167 -119.5 -78.5 -152.5s-132.5 -49.5 -240.5 -49.5h-316c-6.66699 0 -12.167 2.16699 -16.5 6.5zM391 452
c23.333 0 42 6.33398 56 19.001s21 29 21 49c0 21.333 -8 38.666 -24 51.999s-36 20 -60 20h-82c-8.66699 0 -14.667 -1.5 -18 -4.5s-5 -8.16699 -5 -15.5v-98c0 -8 1.33301 -13.667 4 -17s7 -5 13 -5h95zM386 150.001c27.333 0 48.833 7.66602 64.5 22.999
s23.5 33.333 23.5 54s-7.66699 37.667 -23 51s-35.333 20 -60 20h-89c-8.66699 0 -14.667 -1.66699 -18 -5s-5 -8.66602 -5 -15.999v-105c0 -8 1.33301 -13.667 4 -17s7 -5 13 -5h90z" />
    <glyph glyph-name="C" unicode="C" horiz-adv-x="737" 
d="M535 722.5c44.667 -19.667 81.3301 -46.832 109.997 -81.499s47.334 -74.334 56.001 -119.001c2 -8 3 -14.333 3 -19c0 -6 -1.16699 -10 -3.5 -12s-6.5 -3.33301 -12.5 -4l-175 -11c-6.66699 0 -11 1.16699 -13 3.5s-4 7.5 -6 15.5c-6 32 -17 57.167 -33 75.5
s-39.333 27.5 -70 27.5c-39.333 0 -69.666 -17.333 -90.999 -52s-32 -91 -32 -169c0 -80.667 9.83301 -138 29.5 -172s50.5 -51 92.5 -51c35.333 0 65.5 9 90.5 27s45.833 48 62.5 90c2 6 7.66699 9 17 9c4.66699 0 8.33398 -0.333008 11.001 -1l125 -25
c10 -3.33301 15 -11 15 -23c0 -18.667 -11.5 -47.5 -34.5 -86.5s-59 -74.5 -108 -106.5s-110.833 -48 -185.5 -48c-70.667 0 -132.667 16.833 -186 50.5s-94.5 80 -123.5 139s-43.5 126.167 -43.5 201.5c0 74.667 14.5 140 43.5 196s70.333 99.167 124 129.5
s116.167 45.5 187.5 45.5c55.333 0 105.333 -9.83301 150 -29.5z" />
    <glyph glyph-name="D" unicode="D" horiz-adv-x="771" 
d="M197 742c79.333 0 128.666 -0.333008 147.999 -1c130 -4.66699 228.333 -39.834 295 -105.501s100 -153.167 100 -262.5c0 -73.333 -15 -138 -45 -194s-74.667 -99.833 -134 -131.5s-131.666 -47.5 -216.999 -47.5h-263c-10 0 -17.333 2.33301 -22 7s-7 12.334 -7 23.001
v687c0 9.33301 2 15.833 6 19.5s11 5.5 21 5.5h118zM281.5 582c-1.66699 -2 -2.5 -5.66797 -2.5 -11.001v-399c0 -6 1 -10 3 -12s5.66699 -3 11 -3h7c66 0 116.167 17.167 150.5 51.5s51.5 90.166 51.5 167.499c0 66.667 -13 116.334 -39 149.001s-64 51.334 -114 56.001
l-60 4c-3.33301 0 -5.83301 -1 -7.5 -3z" />
    <glyph glyph-name="E" unicode="E" horiz-adv-x="671" 
d="M71 742l540 0.000976562c12 0 18 -7 18 -21l-1 -116c0 -18 -8.66699 -27 -26 -27h-300c-15.333 0 -23 -6.33301 -23 -19v-85c0 -6.66699 1.66699 -11.834 5 -15.501s7.66602 -5.5 12.999 -5.5h180c14 0 21 -6.66699 21 -20v-124c0 -11.333 -6 -17 -18 -17h-185
c-4.66699 0 -8.5 -1.33301 -11.5 -4s-4.5 -6 -4.5 -10v-100c0 -5.33301 0.833008 -9 2.5 -11s4.83398 -3 9.50098 -3h325c14.667 0 22 -6.33301 22 -19v-123c0 -6.66699 -2 -12 -6 -16s-10 -6 -18 -6h-535c-10 0 -17 2 -21 6s-6 10.333 -6 19v694c0 15.333 6.33301 23 19 23
z" />
    <glyph glyph-name="F" unicode="F" horiz-adv-x="650" 
d="M57 736c3.33301 4 7.99902 6.00098 13.999 6.00098h533c12 0 18 -7 18 -21l-1 -116c0 -18 -8.33301 -27 -25 -27h-294c-15.333 0 -23 -6.33301 -23 -19v-94c0 -13.333 6 -20 18 -20h183c13.333 0 20 -6.66699 20 -20v-122c0 -11.333 -6 -17 -18 -17h-187
c-4.66699 0 -8.5 -1.33301 -11.5 -4s-4.5 -6.33398 -4.5 -11.001v-242c0 -10.667 -2.66699 -18.167 -8 -22.5s-13.666 -6.5 -24.999 -6.5h-167c-10 0 -17 2 -21 6s-6 10.333 -6 19v694c0 7.33301 1.66699 13 5 17z" />
    <glyph glyph-name="G" unicode="G" horiz-adv-x="761" 
d="M196.5 38c-53 32 -94.0029 76.4971 -123.003 133.497s-43.5 122.5 -43.5 196.5c0 76 15.333 143 46 201s73.5 103 128.5 135s117.833 48 188.5 48c57.333 0 108.5 -10.5 153.5 -31.5s81.333 -48.167 109 -81.5s45.834 -68.666 54.501 -105.999c2 -8 3 -14.333 3 -19
c0 -6 -1.33301 -10 -4 -12s-7 -3.33301 -13 -4l-171 -26c-7.33301 0 -12 1.33301 -14 4s-4 8 -6 16c-5.33301 30.667 -17.833 55.834 -37.5 75.501s-46.167 29.5 -79.5 29.5c-39.333 0 -69.166 -16.833 -89.499 -50.5s-30.5 -91.167 -30.5 -172.5
c0 -85.333 11 -144.666 33 -177.999s53.667 -50 95 -50c54 0 90 23.333 108 70l3 9l2 8c0 6 -3.66699 9 -11 9h-94c-7.33301 0 -12.5 1.66699 -15.5 5s-4.5 9 -4.5 17v96c0 11.333 7 17 21 17l280 -2c12 0 21.333 -2.83301 28 -8.5s10 -13.167 10 -22.5v-327
c0 -4.66699 -1.66699 -8.66699 -5 -12s-7.33301 -5 -12 -5h-38c-12 -0 -22.667 6.33301 -32 19l-40 58c-0.666992 2 -2 3 -4 3c-1.33301 0 -3.66602 -1.66699 -6.99902 -5c-17.333 -16.667 -33.833 -30.667 -49.5 -42s-36.5 -21.333 -62.5 -30s-57 -13 -93 -13
c-69.333 0 -130.5 16 -183.5 48z" />
    <glyph glyph-name="H" unicode="H" horiz-adv-x="762" 
d="M295 297c-4.66699 0 -8.5 -1.5 -11.5 -4.5s-4.5 -6.5 -4.5 -10.5v-253c0 -10.667 -2.66699 -18.167 -8 -22.5s-13.666 -6.5 -24.999 -6.5h-167c-10 0 -17 2 -21 6s-6 10.333 -6 19v694c0 7.33301 1.66699 13 5 17s8 6 14 6h190c5.33301 0 9.66602 -1.83301 12.999 -5.5
s5 -8.83398 5 -15.501v-232c0 -13.333 6 -20 18 -20h168c12 0 18 6.66699 18 20v232c0 6.66699 1.66699 11.834 5 15.501s7.66602 5.5 12.999 5.5h190c6 0 10.667 -2 14 -6s5 -9.66699 5 -17v-694c0 -8.66699 -2 -15 -6 -19s-11 -6 -21 -6h-167
c-11.333 0 -19.666 2.16699 -24.999 6.5s-8 11.833 -8 22.5v253c0 4 -1.5 7.5 -4.5 10.5s-6.83301 4.5 -11.5 4.5h-172z" />
    <glyph glyph-name="I" unicode="I" horiz-adv-x="331" 
d="M261 742c12 0 17.999 -7 17.999 -21v-692c0 -10.667 -2.66699 -18.167 -8 -22.5s-13.666 -6.5 -24.999 -6.5h-167c-10 0 -17 2 -21 6s-6 10.333 -6 19v694c0 7.33301 1.66699 13 5 17s8 6 14 6h190z" />
    <glyph glyph-name="J" unicode="J" horiz-adv-x="467" 
d="M361.5 41c-39 -34 -98.833 -51.001 -179.5 -51.001c-38 0 -79.333 4 -124 12c-12 2 -20.333 6.16699 -25 12.5s-6.66699 16.5 -6 30.5l9 114c1.33301 15.333 8 23 20 23c8 0 16 -1 24 -3c14.667 -2.66699 26.334 -4 35.001 -4c25.333 0 44.666 7.33301 57.999 22
s20 38.334 20 71.001v451c0 7.33301 1.83301 13 5.5 17s8.5 6 14.5 6h189c12 0 18 -7 18 -21v-509c0 -80 -19.5 -137 -58.5 -171z" />
    <glyph glyph-name="K" unicode="K" horiz-adv-x="772" 
d="M749 15c0 -10 -6 -15.001 -18 -15.001h-195c-18 0 -30 6.66699 -36 20l-122 278c-2.66699 4 -5.33398 6 -8.00098 6c-3.33301 0 -8 -3.66699 -14 -11l-71 -91c-4 -4.66699 -6 -12 -6 -22v-151c0 -10.667 -2.66699 -18.167 -8 -22.5s-13.666 -6.5 -24.999 -6.5h-167
c-10 0 -17 2 -21 6s-6 10.333 -6 19v694c0 7.33301 1.66699 13 5 17s8 6 14 6h190c12 0 18 -7 18 -21v-253c0 -8 1.66699 -12 5 -12c2.66699 0 6 2.33301 10 7l184 258c6 8 11.833 13.5 17.5 16.5s14.167 4.5 25.5 4.5h152c8 0 14.333 -1.5 19 -4.5s7 -7.16699 7 -12.5
c0 -4.66699 -1.66699 -8.66699 -5 -12l-164 -201c-4.66699 -5.33301 -7 -11 -7 -17c0 -4.66699 1.33301 -9.66699 4 -15l218 -449c2.66699 -5.33301 4 -10.666 4 -15.999z" />
    <glyph glyph-name="L" unicode="L" horiz-adv-x="643" 
d="M57 736c3.33301 4 7.99902 6 13.999 6h190c12 0 18 -7 18 -21v-543c0 -5.33301 0.833008 -9 2.5 -11s4.83398 -3 9.50098 -3h301c15.333 0 23 -6.33301 23 -19v-123c0 -6.66699 -2.16699 -12 -6.5 -16s-10.5 -6 -18.5 -6h-511c-10 0 -17 2 -21 6s-6 10.333 -6 19v694
c0 7.33301 1.66699 13 5 17z" />
    <glyph glyph-name="M" unicode="M" horiz-adv-x="977" 
d="M59 7.5c-4.66699 5 -7.00098 11.832 -7.00098 20.499v691c0 8 1.66699 13.833 5 17.5s8.66602 5.5 15.999 5.5h280c8.66699 0 14.834 -1.16699 18.501 -3.5s6.83398 -7.16602 9.50098 -14.499l104 -318c2 -5.33301 4.33301 -8 7 -8c2 0 4 2.66699 6 8l93 307
c5.33301 19.333 14.333 29 27 29h289c12 0 18 -7 18 -21v-692c0 -10.667 -2.5 -18.167 -7.5 -22.5s-13.167 -6.5 -24.5 -6.5h-169c-10 0 -16.833 2 -20.5 6s-5.5 10.333 -5.5 19v449c0 5.33301 -1.33301 8 -4 8c-3.33301 0 -6 -3 -8 -9l-144 -455
c-4.66699 -12 -12.667 -18 -24 -18h-105c-12 0 -20 6 -24 18l-144 447c-2 6.66699 -4.33301 10 -7 10c-3.33301 0 -5 -3.66699 -5 -11v-442c0 -8.66699 -1.33301 -14.5 -4 -17.5s-8.66699 -4.5 -18 -4.5h-133c-8 0 -14.333 2.5 -19 7.5z" />
    <glyph glyph-name="N" unicode="N" horiz-adv-x="761" 
d="M694 742c10 0 15.002 -5.66797 15.002 -17.001v-707c0 -5.33301 -2.16699 -9.66602 -6.5 -12.999s-9.83301 -5 -16.5 -5h-137c-6 0 -10.833 1 -14.5 3s-7.83398 6 -12.501 12l-275 373c-2.66699 3.33301 -5 4.66602 -7 3.99902s-3 -2.66699 -3 -6v-364
c0.666992 -8 -0.833008 -13.667 -4.5 -17s-10.167 -5 -19.5 -5h-136c-16.667 0 -25 6.66699 -25 20v699c0 15.333 7.33301 23 22 23h163c8.66699 0 15.167 -1.16699 19.5 -3.5s9.16602 -7.16602 14.499 -14.499l240 -334c4 -6 7.66699 -9 11 -9s5 4.33301 5 13v327
c0 14 7.33301 21 22 21h145z" />
    <glyph glyph-name="O" unicode="O" horiz-adv-x="780" 
d="M200.5 36.5c-54.333 31 -96.167 75 -125.5 132s-44 123.833 -44 200.5s14.833 143.834 44.5 201.501s71.667 102.334 126 134.001s117.5 47.5 189.5 47.5c71.333 0 134 -15.833 188 -47.5s95.833 -76.334 125.5 -134.001s44.5 -124.834 44.5 -201.501
c0 -76 -14.667 -142.667 -44 -200s-71 -101.5 -125 -132.5s-117 -46.5 -189 -46.5c-72.667 0 -136.167 15.5 -190.5 46.5zM460.999 167.5c17.333 14.333 30.002 37.5 38.002 69.5s12 75 12 129c0 82.667 -9.33301 142 -28 178s-49.334 54 -92.001 54
c-43.333 0 -74.5 -18 -93.5 -54s-28.5 -95.333 -28.5 -178c0 -54 4 -97 12 -129s20.833 -55.167 38.5 -69.5s41.5 -21.5 71.5 -21.5c29.333 0 52.666 7.16699 69.999 21.5z" />
    <glyph glyph-name="P" unicode="P" horiz-adv-x="731" 
d="M668.5 376c-23 -35.333 -55.335 -62.5 -97.002 -81.5s-89.5 -28.5 -143.5 -28.5h-137c-8 0 -12 -3.66699 -12 -11v-226c0 -10.667 -2.66699 -18.167 -8 -22.5s-13.666 -6.5 -24.999 -6.5h-168c-10 0 -16.833 2 -20.5 6s-5.5 10.333 -5.5 19v694
c0 15.333 6.33301 23 19 23h331c56 0 106.833 -9.16699 152.5 -27.5s81.834 -45.5 108.501 -81.5s40 -80 40 -132c0 -48 -11.5 -89.667 -34.5 -125zM446.998 560.5c-16 14.333 -35.667 21.5 -59 21.5h-86c-8.66699 0 -14.667 -1.66699 -18 -5s-5 -8.66602 -5 -15.999v-113
c0 -8 1.33301 -13.667 4 -17s7 -5 13 -5h98c23.333 0 42 7.5 56 22.5s21 33.5 21 55.5c0 23.333 -8 42.166 -24 56.499z" />
    <glyph glyph-name="Q" unicode="Q" horiz-adv-x="782" 
d="M75.5 570.5c29.667 57.667 71.667 102.334 126 134.001s117.5 47.5 189.5 47.5c71.333 0 134.166 -15.833 188.499 -47.5s96.333 -76.334 126 -134.001s44.5 -124.834 44.5 -201.501c0 -59.333 -9 -113 -27 -161s-44 -88.667 -78 -122c-1.33301 -1.33301 -2 -4 -2 -8
c0 -8.66699 9.66699 -18 29 -28s39.666 -16.667 60.999 -20c11.333 -1.33301 17 -7 17 -17v-110c0 -12 -3.16699 -20.167 -9.5 -24.5s-17.833 -6.5 -34.5 -6.5c-48.667 0 -91.667 10 -129 30s-70.666 49.333 -99.999 88c-2.66699 4 -7.66699 5.33301 -15 4
c-21.333 -2.66699 -45 -4 -71 -4c-72.667 0 -136.167 15.5 -190.5 46.5s-96.166 75 -125.499 132s-44 123.833 -44 200.5s14.833 143.834 44.5 201.501zM281 238c8 -32 20.833 -55.333 38.5 -70s41.5 -22 71.5 -22s53.667 7.33301 71 22s30 38 38 70s12 75 12 129
c0 82.667 -9.33301 141.834 -28 177.501s-49.667 53.5 -93 53.5s-74.5 -17.833 -93.5 -53.5s-28.5 -94.834 -28.5 -177.501c0 -54 4 -97 12 -129z" />
    <glyph glyph-name="R" unicode="R" horiz-adv-x="739" 
d="M703 21c0 -6 -1.83398 -10.999 -5.50098 -14.999s-8.5 -6 -14.5 -6h-194c-14 0 -23 7 -27 21l-94 258c-2 5.33301 -5.33301 9.33301 -10 12s-11.667 4 -21 4h-46c-4 0 -7 -1.33301 -9 -4s-3 -5 -3 -7v-255c0 -10.667 -2.66699 -18.167 -8 -22.5
s-13.666 -6.5 -24.999 -6.5h-168c-10 0 -16.833 2 -20.5 6s-5.5 10.333 -5.5 19v694c0 15.333 6.33301 23 19 23h334c96.667 0 171.667 -18.5 225 -55.5s80 -89.167 80 -156.5c0 -46 -12.167 -87 -36.5 -123s-55.833 -61.333 -94.5 -76c-4 -2 -6 -5.33301 -6 -10
c0 -2 0.666992 -5 2 -9l126 -280c1.33301 -2.66699 2 -6.33398 2 -11.001zM454.499 463.501c13.667 13 20.5 30.498 20.5 52.498c0 24.667 -8.16699 43.834 -24.5 57.501s-36.5 20.5 -60.5 20.5h-88c-8.66699 0 -14.667 -1.5 -18 -4.5s-5 -8.16699 -5 -15.5v-109
c0 -7.33301 1.16699 -12.666 3.5 -15.999s6.83301 -5 13.5 -5h100c25.333 0 44.833 6.5 58.5 19.5z" />
    <glyph glyph-name="S" unicode="S" horiz-adv-x="701" 
d="M442.5 583c-18.333 9.33301 -44.834 14.002 -79.501 14.002s-60.334 -5 -77.001 -15s-25 -22 -25 -36c0 -24 21.333 -41 64 -51l166 -43c60.667 -15.333 106.334 -42.166 137.001 -80.499s46 -84.166 46 -137.499c0 -49.333 -13 -92.333 -39 -129s-63.167 -65 -111.5 -85
s-104.833 -30 -169.5 -30c-73.333 0 -140.166 12.167 -200.499 36.5s-102.166 56.166 -125.499 95.499c-3.33301 6.66699 -5 11.667 -5 15c0 6.66699 3.66699 12.667 11 18l103 71c7.33301 4.66699 14 7 20 7c7.33301 0 13.333 -3 18 -9c22.667 -29.333 45.667 -50 69 -62
s54.333 -18 93 -18c37.333 0 66.833 5.16699 88.5 15.5s32.5 24.5 32.5 42.5c0 12.667 -5.33301 23.667 -16 33s-26.334 16.333 -47.001 21l-152 37c-60 14.667 -107.667 42.167 -143 82.5s-53 86.833 -53 139.5c0 43.333 12.667 83.166 38 119.499s61.333 65 108 86
s100.667 31.5 162 31.5c60 0 115.667 -9.83301 167 -29.5s88.333 -45.834 111 -78.501c4.66699 -6 7 -11.667 7 -17c0 -4.66699 -2.33301 -9 -7 -13l-109 -79c-3.33301 -2.66699 -7 -4 -11 -4c-4.66699 0 -11 4 -19 12c-16 17.333 -33.167 30.666 -51.5 39.999z" />
    <glyph glyph-name="T" unicode="T" horiz-adv-x="704" 
d="M28 719c0 6.66699 2.16699 12.167 6.5 16.5s10.5 6.5 18.5 6.5h598c8 0 14.167 -2.16699 18.5 -6.5s6.5 -9.83301 6.5 -16.5v-119c0 -12.667 -7.33301 -19 -22 -19h-177c-8 0 -12 -3.33301 -12 -10v-549c0 -7.33301 -1.66699 -12.833 -5 -16.5s-8 -5.5 -14 -5.5h-190
c-12 0 -18 6.66699 -18 20v547c0 9.33301 -3.66699 14 -11 14h-176c-15.333 0 -23 6.33301 -23 19v119z" />
    <glyph glyph-name="U" unicode="U" horiz-adv-x="728" 
d="M601 59.5c-55.333 -46.333 -134.333 -69.501 -237 -69.501c-115.333 0 -197.5 26.667 -246.5 80s-73.5 134.333 -73.5 243v406c0 7.33301 1.66699 13 5 17s8 6 14 6h190c12 0 18 -7 18 -21v-432c0 -49.333 9.5 -85 28.5 -107s46.167 -33 81.5 -33
c34.667 0 62.667 11 84 33s32 58.667 32 110v427c0 15.333 6.33301 23 19 23h150c12 0 18 -7 18 -21v-428c0 -109.333 -27.667 -187.166 -83 -233.499z" />
    <glyph glyph-name="V" unicode="V" horiz-adv-x="751" 
d="M721.5 736.5c3.66699 -3.66699 5.5 -8.50098 5.5 -14.501c0 -4 -0.333008 -7 -1 -9l-232 -688c-4.66699 -16.667 -17 -25 -37 -25h-162c-20 0 -32.333 8.33301 -37 25l-232 688c-1.33301 4 -2 7 -2 9c0 6 2 10.833 6 14.5s9 5.5 15 5.5h193c12.667 0 21 -7 25 -21
l134 -439c1.33301 -4.66699 3 -7 5 -7c1.33301 0 3 2.66699 5 8l125 438c1.33301 6.66699 4.5 11.834 9.5 15.501s10.5 5.5 16.5 5.5h149c6 0 10.833 -1.83301 14.5 -5.5z" />
    <glyph glyph-name="W" unicode="W" horiz-adv-x="1109" 
d="M1075.5 734.5c5.66699 -5 8.49805 -11.835 8.49805 -20.502c0 -2.66699 -0.666992 -6.66699 -2 -12l-203 -677c-3.33301 -8.66699 -7.66602 -15 -12.999 -19s-13 -6 -23 -6h-138c-19.333 0 -31.333 8.33301 -36 25l-104 352c-2 8.66699 -4.33301 13 -7 13
c-2 0 -5 -5 -9 -15l-103 -350c-2.66699 -8.66699 -6.83398 -15 -12.501 -19s-13.5 -6 -23.5 -6h-143c-10 0 -17.667 2 -23 6s-9.66602 10.333 -12.999 19l-204 677c-1.33301 5.33301 -2 9.33301 -2 12c0 8.66699 2.83301 15.5 8.5 20.5s13.5 7.5 23.5 7.5h165
c10 0 17.333 -1.66699 22 -5s8 -8.66602 10 -15.999l106 -371c2 -8 4.33301 -12 7 -12c2 0 3.66699 2.66699 5 8l105 375c3.33301 14 14 21 32 21h140c10 0 17.333 -1.66699 22 -5s8 -8.66602 10 -15.999l110 -380c1.33301 -4 3.33301 -6.33301 6 -7s4.33398 1 5.00098 5
l102 382c3.33301 14 14 21 32 21h116c10 0 17.833 -2.5 23.5 -7.5z" />
    <glyph glyph-name="X" unicode="X" horiz-adv-x="756" 
d="M733 17c0 -11.333 -9.33496 -16.999 -28.002 -16.999h-180c-20.667 0 -34.667 6.66699 -42 20l-110 188c-6 10 -10.667 15 -14 15c-4 0 -8.66699 -4.66699 -14 -14l-108 -189c-7.33301 -13.333 -21.666 -20 -42.999 -20h-142c-18.667 0 -28 5.33301 -28 16
c0 7.33301 5 19 15 35l197 305c4.66699 6.66699 7 12.667 7 18c0 4.66699 -2.33301 10.667 -7 18l-202 315c-3.33301 4 -5 9.66699 -5 17c0 12 7 18 21 18h189c10.667 0 19 -1.66699 25 -5s11 -8.66602 15 -15.999l91 -161c3.33301 -5.33301 7 -8 11 -8
s7.66699 2.66699 11 8l91 161c4 7.33301 8.83301 12.666 14.5 15.999s13.834 5 24.501 5h155c13.333 0 20 -5 20 -15c0 -4.66699 -2.33301 -10.667 -7 -18l-189 -290c-4 -6 -6 -11.333 -6 -16s2.66699 -11.334 8 -20.001l216 -332c9.33301 -14 14 -25.333 14 -34z" />
    <glyph glyph-name="Y" unicode="Y" horiz-adv-x="774" 
d="M751 730c0 -2 -1.33301 -5.66797 -4 -11.001l-234 -378c-4.66699 -6.66699 -7.5 -14 -8.5 -22s-1.5 -22.667 -1.5 -44v-246c0 -10.667 -2.66699 -18.167 -8 -22.5s-13.666 -6.5 -24.999 -6.5h-168c-10 0 -16.833 2 -20.5 6s-5.5 10.333 -5.5 19v263
c0 9.33301 -1 16.833 -3 22.5s-5.66699 12.834 -11 21.501l-234 382c-2.66699 4.66699 -4 9 -4 13c0 10 7.33301 15 22 15h201c9.33301 0 16.166 -1.33301 20.499 -4s8.83301 -8.33398 13.5 -17.001l123 -222c3.33301 -6.66699 6 -10 8 -10c3.33301 0 6.33301 3 9 9l121 223
c4 8.66699 8.33301 14.334 13 17.001s11.667 4 21 4h157c12 0 18 -4 18 -12z" />
    <glyph glyph-name="Z" unicode="Z" horiz-adv-x="714" 
d="M31.5 5c-3.66699 3.33301 -5.49902 9.99902 -5.49902 19.999v45c0 10 1 17.5 3 22.5s8 14.5 18 28.5l308 440c2.66699 3.33301 4 6.66602 4 9.99902c0 4 -4.33301 6 -13 6h-265c-8.66699 0 -14.5 1.66699 -17.5 5s-4.5 9.66602 -4.5 18.999v120
c0 6.66699 1.66699 11.834 5 15.501s7.66602 5.5 12.999 5.5h587c6 0 10.667 -1.83301 14 -5.5s5 -8.5 5 -14.5v-51c0 -7.33301 -1.16699 -13.666 -3.5 -18.999s-6.83301 -12.666 -13.5 -21.999l-320 -450c-1.33301 -2 -2 -4 -2 -6c0 -5.33301 4.66699 -8 14 -8h297
c14.667 0 22 -6.33301 22 -19v-125c0 -6.66699 -2 -12 -6 -16s-10 -6 -18 -6h-601c-10 0 -16.833 1.66699 -20.5 5z" />
    <glyph glyph-name="bracketleft" unicode="[" horiz-adv-x="336" 
d="M52 736.5c4 3.66699 10.668 5.50195 20.001 5.50195h234c10 0 15 -4.33301 15 -13v-80c0 -9.33301 -5 -14 -15 -14h-76c-16.667 0 -25 -9 -25 -27v-645c0 -8.66699 1.5 -14.334 4.5 -17.001s8.5 -4 16.5 -4h77c12 0 18 -5.33301 18 -16v-73
c0 -6.66699 -1.33301 -11.334 -4 -14.001s-7.33398 -4 -14.001 -4h-228c-8.66699 0 -15.667 2.33301 -21 7s-8 11 -8 19v859c0 7.33301 2 12.833 6 16.5z" />
    <glyph glyph-name="backslash" unicode="\" horiz-adv-x="380" 
d="M257.5 6c-5.66699 4 -10.166 10.666 -13.499 19.999l-241 683c-2.66699 9.33301 -4 15 -4 17c0 10.667 7 16 21 16h83c6 0 11.333 -1.66699 16 -5s8 -7.66602 10 -12.999l249 -705c0.666992 -2 1 -4.33301 1 -7c0 -8 -5.66699 -12 -17 -12h-83
c-8.66699 0 -15.834 2 -21.501 6z" />
    <glyph glyph-name="bracketright" unicode="]" horiz-adv-x="336" 
d="M290 -139c0 -8 -2.66602 -14.335 -7.99902 -19.002s-12.333 -7 -21 -7h-228c-6.66699 0 -11.334 1.33301 -14.001 4s-4 7.33398 -4 14.001v73c0 10.667 6 16 18 16h77c8 0 13.5 1.33301 16.5 4s4.5 8.33398 4.5 17.001v645c0 18 -8.33301 27 -25 27h-76
c-10 0 -15 4.66699 -15 14v80c0 8.66699 5 13 15 13h234c9.33301 0 16 -1.83301 20 -5.5s6 -9.16699 6 -16.5v-859z" />
    <glyph glyph-name="asciicircum" unicode="^" horiz-adv-x="475" 
d="M248 319c-3.33301 7.33301 -7.33398 11.001 -12.001 11.001s-8.66699 -3.66699 -12 -11l-78 -190c-2 -4 -4.83301 -6.5 -8.5 -7.5s-9.5 -1.5 -17.5 -1.5h-83c-9.33301 0 -14 4.33301 -14 13c0 3.33301 1 7 3 11l156 360c4.66699 11.333 12.167 20.166 22.5 26.499
s21.5 9.5 33.5 9.5c10.667 0 21 -3 31 -9s17.333 -14.667 22 -26l156 -364l2 -9c0 -8 -5.66699 -12 -17 -12h-79c-8 0 -14.167 0.5 -18.5 1.5s-7.16602 3.5 -8.49902 7.5z" />
    <glyph glyph-name="underscore" unicode="_" horiz-adv-x="562" 
d="M522 -132c0 -10 -2.66699 -17.167 -8 -21.5s-13.666 -6.5 -24.999 -6.5h-423c-10 0 -16.833 2 -20.5 6s-5.5 10.333 -5.5 19v92c0 15.333 6.33301 23 19 23h445c5.33301 0 9.66602 -1.83301 12.999 -5.5s5 -8.5 5 -14.5v-92z" />
    <glyph glyph-name="grave" unicode="`" horiz-adv-x="320" 
d="M49.5 750.5c3.66699 2.33301 7.83398 2.49902 12.501 0.499023l238 -101c6.66699 -3.33301 10 -8 10 -14c0 -1.33301 -0.666992 -4.66602 -2 -9.99902l-15 -43c-4 -10 -10 -15 -18 -15c-0.666992 0 -4.33398 0.666992 -11.001 2l-233 56c-14 4 -21 11 -21 21
c0 4.66699 0.666992 8.33398 2 11.001l29 81c2 5.33301 4.83301 9.16602 8.5 11.499z" />
    <glyph glyph-name="a" unicode="a" horiz-adv-x="573" 
d="M178 -10c-48.667 0 -87.499 13.6689 -116.499 41.002s-43.5 62.333 -43.5 105c0 38.667 12.5 72.834 37.5 102.501s60.667 52.667 107 69s100.5 24.5 162.5 24.5h7c10 0 15 4.66699 15 14v17c0 38.667 -19.667 58 -59 58c-16 0 -31 -3.66699 -45 -11s-25 -19.333 -33 -36
c-2 -4.66699 -4.16699 -7.83398 -6.5 -9.50098s-5.5 -2.5 -9.5 -2.5c-4.66699 0 -8.33398 0.333008 -11.001 1l-131 26c-7.33301 1.33301 -11 5.66602 -11 12.999c0 4.66699 1.33301 11 4 19c28 79.333 112 119 252 119c87.333 0 149.166 -14.333 185.499 -43
s54.5 -69.334 54.5 -122.001v-348c0 -10 -1.5 -17 -4.5 -21s-9.16699 -6 -18.5 -6h-137c-8 0 -13.833 3 -17.5 9s-6.5 14.667 -8.5 26l-1 7c-0.666992 6.66699 -3.33398 10 -8.00098 10c-5.33301 0 -11.666 -3.33301 -18.999 -10c-41.333 -34.667 -89.666 -52 -144.999 -52z
M344.001 238.002c-2 2.66699 -5.99902 3.99902 -11.999 3.99902h-4c-12.667 0 -28.167 -3 -46.5 -9s-34.5 -14.833 -48.5 -26.5s-21 -26.167 -21 -43.5c0 -14 5 -25.333 15 -34s24 -13 42 -13c21.333 0 39.666 6.33301 54.999 19s23 24.667 23 36v53
c0 6.66699 -1 11.334 -3 14.001z" />
    <glyph glyph-name="b" unicode="b" horiz-adv-x="616" 
d="M68 0c-10 0 -16.999 2 -20.999 6s-6 10.333 -6 19v694c0 7.33301 1.66699 13 5 17s8 6 14 6h163c12 0 18 -7 18 -21v-225c0 -8.66699 2.66699 -13 8 -13c2.66699 0 6.33398 1.66699 11.001 5c19.333 18.667 39.333 32 60 40s43 12 67 12
c64.667 0 115.167 -24.167 151.5 -72.5s54.5 -114.5 54.5 -198.5c0 -86 -19.833 -154 -59.5 -204s-95.5 -75 -167.5 -75c-30.667 0 -59.334 7.33301 -86.001 22s-50 35 -70 61c-2.66699 2.66699 -5 4 -7 4s-4 -2.33301 -6 -7l-16 -47
c-4.66699 -15.333 -13.334 -23 -26.001 -23h-87zM241.001 185c0 -24.667 6.5 -43.833 19.5 -57.5s30.167 -20.5 51.5 -20.5c26.667 0 46.5 12.167 59.5 36.5s19.5 64.833 19.5 121.5c0 56 -6.33301 95.5 -19 118.5s-31.667 34.5 -57 34.5c-28 0 -52.667 -13.333 -74 -40
v-193z" />
    <glyph glyph-name="c" unicode="c" horiz-adv-x="556" 
d="M416 514.5c34 -17 61 -38.498 81 -64.498s33 -52.667 39 -80c1.33301 -5.33301 2 -8.66602 2 -9.99902c0 -9.33301 -6.66699 -14.666 -20 -15.999l-137 -7h-3c-4.66699 0 -7.83398 1 -9.50098 3s-3.16699 5.66699 -4.5 11c-2.66699 18 -8.16699 33 -16.5 45
s-23.166 18 -44.499 18c-53.333 0 -80 -49.667 -80 -149c0 -53.333 7.66699 -91.833 23 -115.5s38 -35.5 68 -35.5c17.333 0 31.833 3.16699 43.5 9.5s21.167 14.666 28.5 24.999s16.333 25.166 27 44.499c2 4 6 6 12 6c3.33301 0 6 -0.333008 8 -1l94 -18
c7.33301 -0.666992 11 -4.66699 11 -12c0 -0.666992 -0.666992 -4.33398 -2 -11.001c-4 -21.333 -15 -45 -33 -71s-44.333 -48.5 -79 -67.5s-76.667 -28.5 -126 -28.5c-52.667 0 -100.167 11.5 -142.5 34.5s-75.333 55.167 -99 96.5s-35.5 88.666 -35.5 141.999
c0 54 12 102 36 144s57 74.667 99 98s89.333 35 142 35c44.667 0 84 -8.5 118 -25.5z" />
    <glyph glyph-name="d" unicode="d" horiz-adv-x="616" 
d="M385 5.5c-4.66699 3.66699 -7 9.5 -7 17.5v19c0 2.66699 -0.666992 4.66699 -2 6s-2.66602 2 -3.99902 2c-2 0 -5 -1.33301 -9 -4c-20.667 -19.333 -41.834 -33.5 -63.501 -42.5s-47.167 -13.5 -76.5 -13.5c-60.667 0 -109.167 23.5 -145.5 70.5s-54.5 114.5 -54.5 202.5
c0 54 9.66699 102.167 29 144.5s45.166 75 77.499 98s66.833 34.5 103.5 34.5c24 0 45.833 -3.83301 65.5 -11.5s39.167 -21.167 58.5 -40.5c4.66699 -3.33301 8.33398 -5 11.001 -5c5.33301 0 8 4.33301 8 13v225c0 14 6 21 18 21h162c6 0 10.667 -2 14 -6
s5 -9.66699 5 -17v-694c0 -8.66699 -2 -15 -6 -19s-11 -6 -21 -6h-145c-7.33301 -0 -13.333 1.83301 -18 5.5zM342.5 407c-10.333 6 -22.834 9.00098 -37.501 9.00098c-25.333 0 -45 -11.667 -59 -35s-21 -62.333 -21 -117c0 -55.333 6.66699 -94.833 20 -118.5
s33.333 -35.5 60 -35.5c20 0 36.667 6.16699 50 18.5s20 28.166 20 47.499v202c-11.333 13.333 -22.166 23 -32.499 29z" />
    <glyph glyph-name="e" unicode="e" horiz-adv-x="590" 
d="M255.5 145c19 -15.333 43.833 -23.001 74.5 -23.001c18 0 35.333 4.16699 52 12.5s35.667 22.833 57 43.5c2.66699 2.66699 5.33398 4 8.00098 4s7 -1 13 -3l91 -37c6 -2 9 -6 9 -12c0 -4 -1.66699 -8 -5 -12c-34.667 -48.667 -70.834 -82.167 -108.501 -100.5
s-85.5 -27.5 -143.5 -27.5c-52.667 0 -100.5 11.333 -143.5 34s-76.833 54.167 -101.5 94.5s-37 86.166 -37 137.499c0 55.333 12.667 104.5 38 147.5s59.333 76.5 102 100.5s88.667 36 138 36c52.667 0 99.5 -11.333 140.5 -34s73.167 -55.5 96.5 -98.5
s35 -94.167 35 -153.5c0 -9.33301 -1 -15.666 -3 -18.999s-7 -5.33301 -15 -6h-311c-10 0 -15 -5.66699 -15 -17c0 -29.333 9.5 -51.666 28.5 -66.999zM360 331.999c6.66699 0 11.166 0.832031 13.499 2.49902s3.5 5.5 3.5 11.5c0 16.667 -6 33.667 -18 51s-29 26 -51 26
s-40.667 -7.66699 -56 -23s-22.666 -37.666 -21.999 -66.999z" />
    <glyph glyph-name="f" unicode="f" horiz-adv-x="418" 
d="M393.5 524c4.33301 -4 6.5 -9.33301 6.5 -16v-94c0 -12.667 -7.33301 -19 -22 -19h-62c-8 0 -12 -4 -12 -12v-361c0 -14.667 -6.33301 -22 -19 -22h-163c-12 0 -18 6.66699 -18 20v365c0 6.66699 -2.66699 10 -8 10h-56c-14.667 0 -22 6.33301 -22 19v94
c0 6.66699 2 12 6 16s10 6 18 6h48c5.33301 0 9 1.33301 11 4s3 7.33398 3 14.001v53c0 43.333 14.167 77.666 42.5 102.999s66.833 38 115.5 38h113c9.33301 0 16.5 -2.33301 21.5 -7s7.5 -11 7.5 -19l1 -84c0 -6 -1.5 -10.833 -4.5 -14.5s-7.5 -5.5 -13.5 -5.5h-43
c-12 0 -22.5 -5 -31.5 -15s-13.5 -22 -13.5 -36v-18c0 -8.66699 4.33301 -13 13 -13h63c8 0 14.167 -2 18.5 -6z" />
    <glyph glyph-name="g" unicode="g" horiz-adv-x="653" 
d="M635 537v-90.0029c0 -18 -6 -27 -18 -27c-3.33301 0 -6 0.333008 -8 1c-15.333 4.66699 -30 7 -44 7s-21 -5 -21 -15c0 -3.33301 0.333008 -6 1 -8c3.33301 -11.333 5 -21.666 5 -30.999c0 -30.667 -10 -58.5 -30 -83.5s-49.333 -44.833 -88 -59.5s-85 -22 -139 -22
c-62 0 -93 -9 -93 -27c0 -7.33301 3.5 -12.333 10.5 -15s18.167 -4.66699 33.5 -6l152 -9c72 -4.66699 125.667 -20 161 -46s53 -60.333 53 -103c0 -34.667 -11.5 -65.334 -34.5 -92.001s-57.167 -47.667 -102.5 -63s-100.666 -23 -165.999 -23
c-105.333 0 -183.5 9.83301 -234.5 29.5s-76.5 50.5 -76.5 92.5c0 20.667 8.5 37.167 25.5 49.5s40.833 22.833 71.5 31.5c4.66699 0.666992 7 2.33398 7 5.00098c0 2 -2.33301 4 -7 6c-44 21.333 -66 49 -66 83c0 38 36.333 72.333 109 103c4 2 6.66699 3.83301 8 5.5
s-0.333984 3.83398 -5.00098 6.50098c-33.333 14 -59 32.667 -77 56s-27 50 -27 80c0 50 23.333 90 70 120s113.334 45 200.001 45c36.667 0 69.334 -4.16699 98.001 -12.5s51.667 -19.166 69 -32.499c3.33301 -3.33301 8.33301 -5 15 -5c7.33301 0 12.666 2.66699 15.999 8
c12.667 18 30.667 33.5 54 46.5s42.666 19.5 57.999 19.5c13.333 0 20 -8.33301 20 -25zM349.5 320.497c13 13.667 19.501 30.166 19.501 49.499c0 22 -6.33301 40 -19 54s-32.334 21 -59.001 21c-24 0 -43 -7.16699 -57 -21.5s-21 -32.166 -21 -53.499
c0 -19.333 7 -35.833 21 -49.5s33 -20.5 57 -20.5c26 0 45.5 6.83301 58.5 20.5zM226.001 7.99609c-20.667 0.666992 -37.332 -2.33105 -49.999 -8.99805s-19 -15.334 -19 -26.001c0 -20 11.833 -34.833 35.5 -44.5s65.167 -14.5 124.5 -14.5c38 0 67.5 4.66699 88.5 14
s31.5 21.666 31.5 36.999c0 10 -5.83301 18.5 -17.5 25.5s-27.834 10.833 -48.501 11.5z" />
    <glyph glyph-name="h" unicode="h" horiz-adv-x="605" 
d="M48 5.5c-4 3.66699 -5.99902 10.167 -5.99902 19.5v694c0 7.33301 1.66699 13 5 17s8 6 14 6h160c12 0 18 -7 18 -21v-249c0 -5.33301 1.66699 -8 5 -8c2.66699 0 5.33398 1.33301 8.00098 4c27.333 26 53.833 44.5 79.5 55.5s52.5 16.5 80.5 16.5
c49.333 0 87.666 -14.333 114.999 -43s41 -69.334 41 -122.001v-345c0 -20 -10 -30 -30 -30h-147c-8.66699 0 -14.667 1.83301 -18 5.5s-5 10.167 -5 19.5v326c0 14.667 -4.66699 26.334 -14 35.001s-22 13 -38 13c-30.667 0 -55.334 -16.667 -74.001 -50v-320
c0 -10.667 -2.5 -18.167 -7.5 -22.5s-13.5 -6.5 -25.5 -6.5h-141c-9.33301 -0 -16 1.83301 -20 5.5z" />
    <glyph glyph-name="i" unicode="i" horiz-adv-x="282" 
d="M241 603c0 -10 -2.66699 -17.332 -8 -21.999s-13.666 -7 -24.999 -7h-141c-9.33301 0 -16 2.16699 -20 6.5s-6 10.833 -6 19.5v119c0 15.333 6.33301 23 19 23h163c5.33301 0 9.66602 -1.83301 12.999 -5.5s5 -8.83398 5 -15.501v-118zM241 29.001
c0 -10.667 -2.66699 -18.167 -8 -22.5s-13.666 -6.5 -24.999 -6.5h-141c-10 0 -16.833 2 -20.5 6s-5.5 10.333 -5.5 19v482c0 15.333 6.33301 23 19 23h163c5.33301 0 9.66602 -1.83301 12.999 -5.5s5 -8.5 5 -14.5v-481z" />
    <glyph glyph-name="j" unicode="j" horiz-adv-x="283" 
d="M242 603c0 -10 -2.5 -17.333 -7.5 -22s-13.167 -7 -24.5 -7h-141c-10 0 -17 2.16699 -21 6.5s-6 10.833 -6 19.5v119c0 7.33301 1.83301 13 5.5 17s8.5 6 14.5 6h162c12 0 18 -7 18 -21v-118zM32 -170c-28 0 -46.333 1.50195 -55 4.50195s-13 9.83301 -13 20.5l-1 102
c0 6 1.83301 11.667 5.5 17s8.5 8.66602 14.5 9.99902l35 6c8 2.66699 14 7.16699 18 13.5s6 17.166 6 32.499v471c0 7.33301 1.83301 13 5.5 17s8.5 6 14.5 6h162c12 0 18 -6.66699 18 -20v-481c0 -132.667 -70 -199 -210 -199z" />
    <glyph glyph-name="k" unicode="k" horiz-adv-x="631" 
d="M617 20c0 -5.33301 -1.83301 -9.99902 -5.5 -13.999s-8.83398 -6 -15.501 -6h-171c-14.667 0 -25.667 8.66699 -33 26l-72 172c-3.33301 7.33301 -7 11 -11 11c-2.66699 0 -6 -2 -10 -6l-48 -45c-6 -4.66699 -9 -14 -9 -28v-101c0 -10.667 -2.5 -18.167 -7.5 -22.5
s-13.167 -6.5 -24.5 -6.5h-141c-10 0 -17 2 -21 6s-6 10.333 -6 19v694c0 7.33301 1.66699 13 5 17s8 6 14 6h163c12 0 18 -7 18 -21v-375c0 -4.66699 1.33301 -7 4 -7s5.33398 1.66699 8.00098 5l150 169c11.333 11.333 21.666 17 30.999 17h137
c6.66699 0 11.834 -1.33301 15.501 -4s5.5 -6 5.5 -10c0 -5.33301 -2.33301 -10.333 -7 -15l-129 -129c-5.33301 -6.66699 -8 -12.334 -8 -17.001c0 -4 2 -10 6 -18l160 -309z" />
    <glyph glyph-name="l" unicode="l" horiz-adv-x="284" 
d="M242 29c0 -10.667 -2.66699 -18.166 -8 -22.499s-13.666 -6.5 -24.999 -6.5h-142c-10 0 -17 2 -21 6s-6 10.333 -6 19l5 694c0 15.333 6.33301 23 19 23h160c5.33301 0 9.66602 -1.83301 12.999 -5.5s5 -8.83398 5 -15.501v-692z" />
    <glyph glyph-name="m" unicode="m" horiz-adv-x="928" 
d="M47 5.5c-4 3.66699 -5.99902 10.165 -5.99902 19.498v482c0 6.66699 1.83301 12.167 5.5 16.5s8.16699 6.5 13.5 6.5h160c12 0 18 -6.66699 18 -20v-45c0 -5.33301 1.66699 -8 5 -8c2.66699 0 5.33398 1.33301 8.00098 4c22.667 24.667 47.667 44.167 75 58.5
s55.666 21.5 84.999 21.5c34 0 63.333 -8.33301 88 -25s42.667 -40.334 54 -71.001c1.33301 -2.66699 3 -4 5 -4c1.33301 0 3.66602 1.66699 6.99902 5c18.667 26 44.834 48.167 78.501 66.5s65.167 27.5 94.5 27.5c46 0 83.167 -14.667 111.5 -44s42.5 -70.333 42.5 -123
v-343c0 -20 -10.333 -30 -31 -30h-146c-8.66699 0 -14.667 1.83301 -18 5.5s-5 10.167 -5 19.5v326c0 14.667 -4.66699 26.334 -14 35.001s-22 13 -38 13c-12 0 -24 -3.66699 -36 -11s-22 -16.666 -30 -27.999c-5.33301 -7.33301 -8 -16.333 -8 -27v-303
c0 -20 -10 -30 -30 -30h-146c-8 0 -13.833 1.83301 -17.5 5.5s-5.5 10.167 -5.5 19.5v326c0 14.667 -4.66699 26.334 -14 35.001s-22 13 -38 13c-30.667 0 -55.334 -16.667 -74.001 -50v-320c0 -10.667 -2.5 -18.167 -7.5 -22.5s-13.5 -6.5 -25.5 -6.5h-141
c-9.33301 -0 -16 1.83301 -20 5.5z" />
    <glyph glyph-name="n" unicode="n" horiz-adv-x="604" 
d="M47 5.5c-4 3.66699 -5.99902 10.165 -5.99902 19.498v482c0 7.33301 1.66699 13 5 17s8 6 14 6h161c12 0 18 -6.66699 18 -20v-45c0 -5.33301 1.66699 -8 5 -8c2.66699 0 5.33398 1.33301 8.00098 4c22 24.667 46.667 44 74 58s55.666 21 84.999 21
c46.667 0 84.5 -14.667 113.5 -44s43.5 -68.666 43.5 -117.999v-348c0 -20 -10 -30 -30 -30h-147c-8.66699 0 -14.667 1.83301 -18 5.5s-5 10.167 -5 19.5v326c0 14.667 -4.83301 26.334 -14.5 35.001s-22.5 13 -38.5 13c-30.667 0 -55.334 -16.667 -74.001 -50v-320
c0 -10.667 -2.5 -18.167 -7.5 -22.5s-13.5 -6.5 -25.5 -6.5h-141c-9.33301 -0 -16 1.83301 -20 5.5z" />
    <glyph glyph-name="o" unicode="o" 
d="M155 25c-42 23.333 -74.8301 55.498 -98.4971 96.498s-35.5 87.833 -35.5 140.5c0 54.667 12.167 103 36.5 145s57.666 74.667 99.999 98s89.833 35 142.5 35c54.667 0 103.167 -11.833 145.5 -35.5s75.166 -56.667 98.499 -99s35 -90.166 35 -143.499
c0 -52 -11.833 -98.667 -35.5 -140s-56.834 -73.666 -99.501 -96.999s-91 -35 -145 -35s-102 11.667 -144 35zM358.503 153.498c12.333 23.667 18.5 61.166 18.5 112.499c0 52.667 -6.16699 90.834 -18.5 114.501s-31.833 35.5 -58.5 35.5s-46.167 -12 -58.5 -36
s-18.5 -62 -18.5 -114s6.16699 -89.667 18.5 -113s31.833 -35 58.5 -35s46.167 11.833 58.5 35.5z" />
    <glyph glyph-name="p" unicode="p" horiz-adv-x="617" 
d="M236 524.5c4 -3.66699 5.99805 -9.83301 5.99805 -18.5v-21c0 -4 2 -6 6 -6c3.33301 0 6.33301 1.33301 9 4c20.667 19.333 41.834 33.666 63.501 42.999s47.167 14 76.5 14c58.667 0 106 -23 142 -69s54 -114 54 -204c0 -95.333 -18.667 -165.333 -56 -210
s-86.333 -67 -147 -67c-24.667 0 -47.167 3.83301 -67.5 11.5s-40.5 20.834 -60.5 39.501c-7.33301 6.66699 -12.666 10 -15.999 10s-5 -5 -5 -15v-181c0 -13.333 -6 -20 -18 -20h-163c-6 0 -10.667 1.83301 -14 5.5s-5 9.16699 -5 16.5v647c0 8.66699 2 15.167 6 19.5
s11 6.5 21 6.5h148c9.33301 0 16 -1.83301 20 -5.5zM310.998 111.001c26.667 0 46.667 11.832 60 35.499s20 65.834 20 126.501c0 55.333 -6.5 93.5 -19.5 114.5s-33.167 31.5 -60.5 31.5c-19.333 0 -35.833 -5.33301 -49.5 -16s-20.5 -24 -20.5 -40v-212
c18.667 -26.667 42 -40 70 -40z" />
    <glyph glyph-name="q" unicode="q" horiz-adv-x="616" 
d="M548 530c10 0 17.002 -2.16699 21.002 -6.5s6 -10.833 6 -19.5v-647c0 -7.33301 -1.66699 -12.833 -5 -16.5s-8 -5.5 -14 -5.5h-163c-12 0 -18 6.66699 -18 20v173c0 10.667 -2.33301 16 -7 16c-4 0 -7.66699 -1.66699 -11 -5c-42 -32.667 -83.333 -49 -124 -49
c-65.333 0 -116.666 23.667 -153.999 71s-56 115 -56 203c0 55.333 9 103.833 27 145.5s43.667 74 77 97s72.666 34.5 117.999 34.5c66.667 0 122 -28 166 -84c3.33301 -3.33301 5.66602 -5 6.99902 -5c2 0 4 2.66699 6 8l16 46c5.33301 16 13.666 24 24.999 24h83z
M375.002 344c0 24.667 -6.33203 44.5 -18.999 59.5s-29.334 22.5 -50.001 22.5c-54 0 -81 -53.667 -81 -161c0 -56 6.5 -95.833 19.5 -119.5s32.167 -35.5 57.5 -35.5c28 0 52.333 11 73 33v201z" />
    <glyph glyph-name="r" unicode="r" horiz-adv-x="454" 
d="M46.5 6c-3.66699 4 -5.49805 10.335 -5.49805 19.002v482c0 15.333 6.33301 23 19 23h156c5.33301 0 9.66602 -1.83301 12.999 -5.5s5 -8.5 5 -14.5v-56c0 -6 2.33301 -9 7 -9c3.33301 0 6.66602 2 9.99902 6c16 24.667 38.333 45.667 67 63s54.667 26 78 26
c24.667 0 37 -6.66699 37 -20v-152c0 -6.66699 -1.83301 -11.334 -5.5 -14.001s-8.5 -3.33398 -14.5 -2.00098c-28.667 7.33301 -57.334 11 -86.001 11c-22 0 -41.833 -7 -59.5 -21s-26.5 -29.667 -26.5 -47v-266c0 -10.667 -2.66699 -18.167 -8 -22.5
s-13.666 -6.5 -24.999 -6.5h-141c-10 0 -16.833 2 -20.5 6z" />
    <glyph glyph-name="s" unicode="s" horiz-adv-x="541" 
d="M273 424c-18 0 -33.1699 -3.16895 -45.5029 -9.50195s-18.5 -14.833 -18.5 -25.5c0 -5.33301 2.66699 -10.166 8 -14.499s16 -8.16602 32 -11.499l106 -22c58.667 -12 101.334 -33.167 128.001 -63.5s40 -66.166 40 -107.499c0 -56.667 -23 -100.834 -69 -132.501
s-107.333 -47.5 -184 -47.5c-61.333 0 -113.833 10.167 -157.5 30.5s-74.167 46.5 -91.5 78.5c-3.33301 6.66699 -5 12.334 -5 17.001c0 5.33301 2.33301 9.33301 7 12l87 44c6 3.33301 11.667 5 17 5c4.66699 0 9.33398 -2.33301 14.001 -7
c10.667 -12 20.334 -21.667 29.001 -29s20.667 -13.833 36 -19.5s34.666 -8.5 57.999 -8.5c24.667 0 44.5 3 59.5 9s22.5 15 22.5 27c0 7.33301 -3.33301 13.5 -10 18.5s-18.667 9.16699 -36 12.5l-102 18c-52.667 9.33301 -93 27.333 -121 54s-42 62.334 -42 107.001
c0 34.667 9.33301 65.667 28 93s46.167 48.833 82.5 64.5s79.5 23.5 129.5 23.5c51.333 0 96.833 -9.33301 136.5 -28s67.167 -41.334 82.5 -68.001c5.33301 -8 8 -14.333 8 -19s-2.66699 -8.33398 -8 -11.001l-92 -44c-4 -2 -7.33301 -3 -10 -3
c-5.33301 0 -11.666 3.66699 -18.999 11c-26.667 30.667 -60 46 -100 46z" />
    <glyph glyph-name="t" unicode="t" horiz-adv-x="462" 
d="M318 395c-8.66699 0 -12.999 -4.33398 -12.999 -13.001v-192c0 -18 5.66699 -31.333 17 -40s29 -13 53 -13h43c5.33301 0 9.66602 -2 12.999 -6s5 -8.66699 5 -14l-1 -80c0 -16 -9.66699 -26 -29 -30c-34 -4.66699 -79 -7 -135 -7c-49.333 0 -89.333 11.667 -120 35
s-46 56 -46 98v244c0 6.66699 -1 11.334 -3 14.001s-6 4 -12 4h-48c-16 0 -24 7.33301 -24 22v94c0 12.667 7.33301 19 22 19h59c7.33301 0 11.333 4 12 12l16 148c1.33301 13.333 7.33301 20 18 20h147c5.33301 0 9.83301 -2 13.5 -6s5.5 -9.33301 5.5 -16v-146
c0 -7.33301 3.66699 -11 11 -11h92c14.667 0 22 -6.33301 22 -19v-95c0 -6.66699 -2.16699 -12 -6.5 -16s-10.5 -6 -18.5 -6h-93z" />
    <glyph glyph-name="u" unicode="u" horiz-adv-x="601" 
d="M326 141.5c13.333 7.66699 24.668 17.501 34.001 29.501v330c0 10 2.66699 17.333 8 22s13.666 7 24.999 7h143c9.33301 0 16 -2 20 -6s6 -10.667 6 -20l-4 -482c0 -14.667 -6.33301 -22 -19 -22h-158c-12 0 -18 6.66699 -18 20v44c0 5.33301 -1.66699 8 -5 8
c-2 0 -4.33301 -1.33301 -7 -4c-22.667 -26.667 -47.5 -46.334 -74.5 -59.001s-57.5 -19 -91.5 -19c-44 0 -79.833 14.833 -107.5 44.5s-41.5 70.5 -41.5 122.5v343c0 20 10.333 30 31 30h146c8.66699 0 14.667 -2 18 -6s5 -10.667 5 -20v-325
c0 -15.333 4.5 -27.333 13.5 -36s20.833 -13 35.5 -13c14 0 27.667 3.83301 41 11.5z" />
    <glyph glyph-name="v" unicode="v" horiz-adv-x="591" 
d="M571 524.5c3.33301 -3.66699 4.99902 -8.16699 4.99902 -13.5c0 -2.66699 -0.666992 -6 -2 -10l-195 -476c-3.33301 -8.66699 -7.83301 -15 -13.5 -19s-13.5 -6 -23.5 -6h-94c-10 0 -17.833 2 -23.5 6s-10.167 10.333 -13.5 19l-194 476c-0.666992 2 -1 4.66699 -1 8
c0 6 1.83301 11 5.5 15s8.5 6 14.5 6h169c6 0 11.333 -1.83301 16 -5.5s8 -8.5 10 -14.5l88 -231c2 -6 4.33301 -9 7 -9s5.33398 3.33301 8.00098 10l85 230c6 13.333 14.667 20 26 20h112c6 0 10.667 -1.83301 14 -5.5z" />
    <glyph glyph-name="w" unicode="w" horiz-adv-x="832" 
d="M812 524.5c3.33301 -3.66699 4.99805 -8.16504 4.99805 -13.498c0 -2.66699 -0.666992 -6 -2 -10l-170 -483c-2 -6.66699 -4.66699 -11.334 -8 -14.001s-8.33301 -4 -15 -4h-104c-8 0 -14.167 1.66699 -18.5 5s-7.83301 9 -10.5 17l-64 210c-2 7.33301 -4.66699 11 -8 11
s-6 -3.66699 -8 -11l-70 -214c-2 -6.66699 -4.66699 -11.334 -8 -14.001s-8.66602 -4 -15.999 -4h-107c-7.33301 0 -13.166 1.66699 -17.499 5s-7.83301 9 -10.5 17l-163 479c-0.666992 2 -1 4.66699 -1 8c0 6 1.83301 11 5.5 15s8.5 6 14.5 6h155c6 0 11.5 -2 16.5 -6
s8.16699 -8.66699 9.5 -14l69 -214c2 -6 4.33301 -9 7 -9c3.33301 0 6 3.33301 8 10l65 213c1.33301 5.33301 4.5 10 9.5 14s10.5 6 16.5 6h109c5.33301 0 10.5 -2 15.5 -6s8.16699 -8.66699 9.5 -14l63 -214c2 -6 4.33301 -9 7 -9c3.33301 0 6 3.33301 8 10l68 213
c6 13.333 14.667 20 26 20h100c6 0 10.667 -1.83301 14 -5.5z" />
    <glyph glyph-name="x" unicode="x" horiz-adv-x="622" 
d="M609 12c0 -8 -8.00195 -11.999 -24.002 -11.999h-166c-19.333 0 -33.333 6.66699 -42 20l-78 114c-0.666992 1.33301 -2.5 4.16602 -5.5 8.49902s-5.83301 6.5 -8.5 6.5c-3.33301 0 -8 -4.66699 -14 -14l-78 -115c-8.66699 -13.333 -22.667 -20 -42 -20h-105
c-20 0 -30 6 -30 18c0 8.66699 5.33301 19.667 16 33l151 197c5.33301 7.33301 8 13 8 17c0 4.66699 -3 11 -9 19l-154 211c-3.33301 5.33301 -5 10.333 -5 15c0 6 2 10.833 6 14.5s10 5.5 18 5.5h159c11.333 0 19.833 -1.5 25.5 -4.5s10.834 -8.16699 15.501 -15.5l65 -98
c3.33301 -5.33301 6.33301 -8 9 -8c3.33301 0 6.33301 2.66699 9 8l60 98c4.66699 7.33301 9.83398 12.5 15.501 15.5s14.167 4.5 25.5 4.5h116c14 0 21 -4 21 -12c0 -4 -2.33301 -9.66699 -7 -17l-136 -186c-4.66699 -6.66699 -7 -12.334 -7 -17.001
c0 -5.33301 2.66699 -11.666 8 -18.999l168 -236c10 -14 15 -24.333 15 -31z" />
    <glyph glyph-name="y" unicode="y" horiz-adv-x="589" 
d="M57.5 -161c-7.66699 2.66699 -11.5 8.66797 -11.5 18.001v102c0 4.66699 2.16699 9 6.5 13s11.5 6 21.5 6h71c19.333 0 35.333 4.33301 48 13s19 18.667 19 30c0 2.66699 -0.666992 6 -2 10l-194 470c-1.33301 4 -2 7 -2 9c0 6 2 10.833 6 14.5s9 5.5 15 5.5h169
c6 0 11.333 -1.83301 16 -5.5s8 -8.5 10 -14.5l85 -240c2 -6.66699 4.66699 -10 8 -10s6.33301 3.33301 9 10l86 240c6 13.333 14.667 20 26 20h112c6 0 10.667 -1.83301 14 -5.5s5 -8.16699 5 -13.5c0 -2.66699 -0.666992 -6 -2 -10l-195 -470
c-23.333 -56 -46.5 -97.833 -69.5 -125.5s-50 -46.334 -81 -56.001s-72.833 -14.5 -125.5 -14.5c-22 0 -36.833 1.33301 -44.5 4z" />
    <glyph glyph-name="z" unicode="z" horiz-adv-x="544" 
d="M24.5 5c-3.66699 3.33301 -5.49805 9.99805 -5.49805 19.998v45c0 10.667 1.16699 18.667 3.5 24s8.16602 14.333 17.499 27l213 271c2.66699 3.33301 4 6.33301 4 9c0 4.66699 -4.66699 7 -14 7h-180c-8.66699 0 -14.5 1.66699 -17.5 5s-4.5 9.33301 -4.5 18v79
c0 6 1.66699 10.833 5 14.5s7.66602 5.5 12.999 5.5h441c6 0 10.667 -1.83301 14 -5.5s5 -8.16699 5 -13.5v-52c0 -7.33301 -1.16699 -13.666 -3.5 -18.999s-6.83301 -12.666 -13.5 -21.999l-218 -275c-3.33301 -5.33301 -5 -9 -5 -11c0 -5.33301 4.33301 -8 13 -8h205
c15.333 0 23 -6.33301 23 -19v-83c0 -6.66699 -2.16699 -12 -6.5 -16s-10.5 -6 -18.5 -6h-450c-10 0 -16.833 1.66699 -20.5 5z" />
    <glyph glyph-name="braceleft" unicode="{" horiz-adv-x="406" 
d="M143.5 680.5c18.333 20.333 41.332 35.6699 68.999 46.0029s55.5 15.5 83.5 15.5h80c10 0 15 -4.33301 15 -13v-80c0 -9.33301 -5 -14 -15 -14h-37c-20 0 -34.667 -2.5 -44 -7.5s-15 -11 -17 -18s-3 -16.167 -3 -27.5v-190
c-1.33301 -30.667 -13.166 -53.167 -35.499 -67.5s-48.5 -23.5 -78.5 -27.5c-4 -0.666992 -6.16699 -1.66699 -6.5 -3s1.83398 -2.33301 6.50098 -3c74 -6.66699 112 -41.334 114 -104.001v-192c0 -19.333 4.5 -33 13.5 -41s25.833 -12 50.5 -12h34c12 0 18 -5.33301 18 -16
v-73c0 -6.66699 -1.33301 -11.334 -4 -14.001s-7.33398 -4 -14.001 -4h-74c-29.333 0 -58 5 -86 15s-51.167 25.167 -69.5 45.5s-27.5 45.5 -27.5 75.5v197c0 25.333 -8.5 45 -25.5 59s-43.167 21 -78.5 21c-8 0 -12 6.66699 -12 20v53c0 13.333 4 20 12 20
c37.333 0 64 6.5 80 19.5s24 34.5 24 64.5v181c0 29.333 9.16699 54.166 27.5 74.499z" />
    <glyph glyph-name="bar" unicode="|" horiz-adv-x="245" 
d="M80 -165c-10 0 -17.167 2.66699 -21.5 8s-6.5 13.666 -6.5 24.999v953c0 10 2 16.833 6 20.5s10.333 5.5 19 5.5h93c15.333 0 23 -6.33301 23 -19v-975c0 -5.33301 -1.83301 -9.66602 -5.5 -12.999s-8.5 -5 -14.5 -5h-93z" />
    <glyph glyph-name="braceright" unicode="}" horiz-adv-x="406" 
d="M290 425c0 -30 7.99902 -51.5039 23.999 -64.5039s42.667 -19.5 80 -19.5c8 0 12 -6.66699 12 -20v-53c0 -13.333 -4 -20 -12 -20c-35.333 0 -61.5 -7 -78.5 -21s-25.5 -33.667 -25.5 -59v-197c0 -30 -9.16699 -55.167 -27.5 -75.5s-41.5 -35.5 -69.5 -45.5
s-56.667 -15 -86 -15h-74c-6.66699 0 -11.334 1.33301 -14.001 4s-4 7.33398 -4 14.001v73c0 10.667 6 16 18 16h34c24.667 0 41.5 4 50.5 12s13.5 21.667 13.5 41v192c2 62.667 40 97.334 114 104.001c4.66699 0.666992 6.83398 1.66699 6.50098 3s-2.5 2.33301 -6.5 3
c-30 4 -56.167 13.167 -78.5 27.5s-34.166 36.833 -35.499 67.5v190c0 11.333 -1 20.5 -3 27.5s-7.66699 13 -17 18s-24 7.5 -44 7.5h-37c-10 0 -15 4.66699 -15 14v80c0 8.66699 5 13 15 13h80c28 0 55.833 -5.16699 83.5 -15.5s50.667 -25.666 69 -45.999
s27.5 -45.166 27.5 -74.499v-181z" />
    <glyph glyph-name="asciitilde" unicode="~" horiz-adv-x="636" 
d="M508.5 300.5c-28.333 -16.333 -56.8359 -24.501 -85.5029 -24.501c-19.333 0 -37.166 3.33301 -53.499 10s-35.166 16.334 -56.499 29.001c-18 11.333 -33.5 19.666 -46.5 24.999s-26.5 8 -40.5 8c-20.667 0 -38.834 -6 -54.501 -18s-34.834 -30.333 -57.501 -55
c-3.33301 -3.33301 -6.66602 -5 -9.99902 -5c-4 0 -7.33301 2 -10 6l-42 68c-1.33301 2 -2 4.66699 -2 8c0 6 3.66699 12.667 11 20c32.667 32.667 61.334 56.834 86.001 72.501s52 23.5 82 23.5c21.333 0 40 -3.33301 56 -10s34.333 -16.667 55 -30
c17.333 -10.667 31.666 -18.5 42.999 -23.5s23.333 -7.5 36 -7.5c19.333 0 37.833 6 55.5 18s32.834 27.667 45.501 47c4 6 8.33301 9 13 9c6 0 11.333 -4 16 -12l33 -54c2.66699 -3.33301 4 -8 4 -14c0 -5.33301 -2 -11.333 -6 -18
c-19.333 -32 -43.166 -56.167 -71.499 -72.5z" />
    <glyph glyph-name="uni00A0" unicode="&#xa0;" horiz-adv-x="210" 
 />
    <glyph glyph-name="exclamdown" unicode="&#xa1;" horiz-adv-x="277" 
d="M226 333h-173c-6 0 -10.667 1.83301 -14 5.5s-5 9.16699 -5 16.5v150c0 8.66699 2 15 6 19s11 6 21 6h150c12 0 20.5 -2.16699 25.5 -6.5s7.5 -11.833 7.5 -22.5v-148c0 -13.333 -6 -20 -18 -20zM253 -148c0 -4.66699 -1.66797 -8.66699 -5.00098 -12
s-7.66602 -5 -12.999 -5h-189c-6 0 -10.833 2 -14.5 6s-5.16699 9.66699 -4.5 17l50 381c2 9.33301 4.5 15.833 7.5 19.5s9.16699 5.5 18.5 5.5h69c11.333 0 19.333 -2.16699 24 -6.5s7.66699 -11.5 9 -21.5l48 -380v-4z" />
    <glyph glyph-name="cent" unicode="&#xa2;" horiz-adv-x="558" 
d="M538 279c0 -0.666992 -0.666016 -4.33301 -1.99902 -11c-3.33301 -17.333 -11.333 -36.666 -24 -57.999s-31.167 -41.5 -55.5 -60.5s-53.5 -32.5 -87.5 -40.5v-80c0 -10 -2.5 -17.333 -7.5 -22s-12.833 -7 -23.5 -7h-67c-10 0 -17 2.16699 -21 6.5s-6 10.833 -6 19.5v79
c-44 7.33301 -82.833 23.333 -116.5 48s-59.834 56 -78.501 94s-28 80.333 -28 127c0 48 9.5 91.167 28.5 129.5s45.333 69.833 79 94.5s72.167 40.667 115.5 48v67c0 10 2.5 17.333 7.5 22s12.833 7 23.5 7h67c10 0 17 -2.16699 21 -6.5s6 -10.833 6 -19.5v-73
c46 -12 83.5 -33.333 112.5 -64s47.167 -63.334 54.5 -98.001c1.33301 -5.33301 2 -8.66602 2 -9.99902c0 -9.33301 -6.66699 -14.666 -20 -15.999l-137 -7h-3c-4.66699 0 -7.83398 1 -9.50098 3s-3.16699 5.66699 -4.5 11c-2.66699 18 -8.16699 33 -16.5 45
s-23.166 18 -44.499 18c-53.333 0 -80 -49.667 -80 -149c0 -53.333 7.66699 -91.833 23 -115.5s38 -35.5 68 -35.5c17.333 0 31.833 3.16699 43.5 9.5s21.167 14.666 28.5 24.999s16.333 25.166 27 44.499c2 4 6 6 12 6c3.33301 0 6 -0.333008 8 -1l94 -18
c7.33301 -0.666992 11 -4.66699 11 -12z" />
    <glyph glyph-name="sterling" unicode="&#xa3;" horiz-adv-x="664" 
d="M12 20l-0.000976562 127.998c0 10 5 15 15 15h17c55.333 0 83 24.667 83 74c0 20 -2.33301 51.667 -7 95c-0.666992 7.33301 -5 11 -13 11h-82c-8.66699 0 -13 4.66699 -13 14v77c0 8 4.33301 12 13 12h59c8.66699 0 12.667 4.66699 12 14l-6 86
c-3.33301 44 6.33398 81.5 29.001 112.5s53.667 54.333 93 70s82.333 23.5 129 23.5c54 0 105.333 -13 154 -39s84.334 -65.333 107.001 -118c0.666992 -1.33301 1 -3.33301 1 -6c0 -6 -4.33301 -10 -13 -12l-137 -40c-2 -0.666992 -4.66699 -1 -8 -1
c-7.33301 0 -12.333 2.66699 -15 8c-6.66699 16.667 -14.334 29.834 -23.001 39.501s-20.334 14.5 -35.001 14.5c-15.333 0 -27.333 -5.5 -36 -16.5s-13 -26.167 -13 -45.5c0 -16.667 3 -42.667 9 -78c1.33301 -8 6 -12 14 -12h112c8 0 12 -3.66699 12 -11v-80
c0 -8 -4 -12 -12 -12h-98c-7.33301 0 -11 -3.66699 -11 -11c0 -35.333 -3.66699 -65 -11 -89c-8 -24 -22.333 -45.333 -43 -64c-4 -4 -6 -7.33301 -6 -10c0 -3.33301 3.66699 -5 11 -5h80c26.667 0 47.334 5 62.001 15s26 26.667 34 50c3.33301 8 8.66602 12 15.999 12
c4 0 7 -0.333008 9 -1l123 -24c16 -3.33301 22.333 -11.666 19 -24.999c-14.667 -60.667 -43.667 -107.667 -87 -141s-96.666 -50 -159.999 -50h-366c-12 0 -18 6.66699 -18 20z" />
    <glyph glyph-name="currency" unicode="&#xa4;" 
d="M179 159c-2 1.33301 -4.66797 1.99805 -8.00098 1.99805c-4 0 -7.33301 -1.33301 -10 -4l-56 -56c-2.66699 -2.66699 -5.66699 -4 -9 -4c-4 0 -8 2 -12 6l-58 58c-2.66699 2.66699 -4 5.66699 -4 9c0 4 1.33301 7.33301 4 10l57 57c2.66699 2.66699 4 5.66699 4 9
s-1 6.33301 -3 9c-10.667 20.667 -18.5 39.834 -23.5 57.501s-7.5 37.5 -7.5 59.5c0 43.333 10.333 83.333 31 120c2 4 3 7 3 9c0 2.66699 -1.66699 5.66699 -5 9l-56 56c-2.66699 4 -4 7 -4 9c0 2.66699 1.33301 6 4 10l59 60c3.33301 4 6.66602 6 9.99902 6
s6.66602 -1.66699 9.99902 -5l57 -57c2.66699 -2.66699 5.33398 -4 8.00098 -4c2 0 5 1 9 3c40.667 21.333 80.334 32 119.001 32c45.333 0 88 -11.333 128 -34c4.66699 -2 8.33398 -1.66699 11.001 1l54 54c3.33301 3.33301 6.66602 3.33301 9.99902 0l66 -69
c4 -4 4 -8 0 -12l-54 -53c-2 -2 -2 -5.33301 0 -10c22.667 -39.333 34 -80.666 34 -123.999c0 -49.333 -12 -91.333 -36 -126c-1.33301 -2 -1.33301 -3.66699 0 -5l56 -56c4 -4 4.33301 -8 1 -12l-66 -67c-4 -4 -8 -4 -12 0l-54 54c-2 2 -5.33301 2 -10 0
c-42 -23.333 -83 -35 -123 -35c-45.333 0 -86.666 11 -123.999 33zM362.499 266.998c19 11.333 33.833 26.5 44.5 45.5s16 39.167 16 60.5s-5.33301 41.5 -16 60.5s-25.5 34.167 -44.5 45.5s-39.833 17 -62.5 17s-43.5 -5.66699 -62.5 -17s-33.833 -26.5 -44.5 -45.5
s-16 -39.167 -16 -60.5s5.33301 -41.5 16 -60.5s25.5 -34.167 44.5 -45.5s39.833 -17 62.5 -17s43.5 5.66699 62.5 17z" />
    <glyph glyph-name="yen" unicode="&#xa5;" horiz-adv-x="690" 
d="M714 730c0 -2 -1.33301 -5.66699 -4 -11l-219 -353h107c5.33301 0 9.66602 -1.83301 12.999 -5.5s5 -8.5 5 -14.5v-53c0 -10 -2.66699 -17.167 -8 -21.5s-13.666 -6.5 -24.999 -6.5h-117v-69h132c5.33301 0 9.66602 -1.83301 12.999 -5.5s5 -8.5 5 -14.5v-53
c0 -10 -2.66699 -17.167 -8 -21.5s-13.666 -6.5 -24.999 -6.5h-117v-66c0 -10.667 -2.66699 -18.167 -8 -22.5s-13.666 -6.5 -24.999 -6.5h-168c-10 0 -16.833 2 -20.5 6s-5.5 10.333 -5.5 19v70h-124c-10 0 -16.833 2 -20.5 6s-5.5 10.333 -5.5 19v53
c0 15.333 6.33301 23 19 23h131v69h-124c-10 0 -16.833 2 -20.5 6s-5.5 10.333 -5.5 19v53c0 15.333 6.33301 23 19 23h96l-213 348c-2.66699 4.66699 -4 9 -4 13c0 10 7.33301 15 22 15h201c9.33301 0 16.166 -1.33301 20.499 -4s8.83301 -8.33398 13.5 -17.001l123 -222
c3.33301 -6.66699 6 -10 8 -10c3.33301 0 6.33301 3 9 9l121 223c4 8.66699 8.33301 14.334 13 17.001s11.667 4 21 4h157c12 0 18 -4 18 -12z" />
    <glyph glyph-name="brokenbar" unicode="&#xa6;" horiz-adv-x="245" 
d="M80 423c-10 0 -17.167 2.66699 -21.5 8s-6.5 13.666 -6.5 24.999v365c0 10 2 16.833 6 20.5s10.333 5.5 19 5.5h93c15.333 0 23 -6.33301 23 -19v-387c0 -5.33301 -1.83301 -9.66602 -5.5 -12.999s-8.5 -5 -14.5 -5h-93zM80 -165c-10 0 -17.167 2.66699 -21.5 8
s-6.5 13.666 -6.5 24.999v365c0 10 2 16.833 6 20.5s10.333 5.5 19 5.5h93c15.333 0 23 -6.33301 23 -19v-387c0 -5.33301 -1.83301 -9.66602 -5.5 -12.999s-8.5 -5 -14.5 -5h-93z" />
    <glyph glyph-name="section" unicode="&#xa7;" horiz-adv-x="517" 
d="M481.5 170.5c13 -20.333 19.5 -44.833 19.5 -73.5c0 -55.333 -20.667 -99.5 -62 -132.5s-101 -49.5 -179 -49.5c-60 0 -110.667 9.33301 -152 28s-69.666 41.334 -84.999 68.001c-4.66699 8.66699 -7 15 -7 19s2.33301 7.66699 7 11l92 44c4 2 7.33301 3 10 3
c4 0 10.333 -3.66699 19 -11c16 -15.333 31.667 -27 47 -35s36.666 -12 63.999 -12c22.667 0 40.334 3.33301 53.001 10s19 16.667 19 30c0 10.667 -4.66699 20 -14 28s-25.666 16.333 -48.999 25l-70 26c-62.667 23.333 -107.334 48 -134.001 74s-40 60 -40 102
c0 31.333 7 58.333 21 81s34 40.667 60 54c-24.667 16.667 -42.667 34.667 -54 54s-17 41.333 -17 66c0 32.667 8.83301 62 26.5 88s43.167 46.5 76.5 61.5s72.333 22.5 117 22.5c51.333 0 96.666 -9.33301 135.999 -28s66.666 -41.334 81.999 -68.001
c4.66699 -8.66699 7 -15 7 -19s-2.33301 -7.66699 -7 -11l-92 -44c-4 -2 -7.33301 -3 -10 -3c-4 0 -10.333 3.66699 -19 11c-15.333 14.667 -29.833 26.167 -43.5 34.5s-29.834 12.5 -48.501 12.5c-15.333 0 -27.666 -3.33301 -36.999 -10s-14 -15.334 -14 -26.001
c0 -8 3.16699 -14.667 9.5 -20s17.5 -11 33.5 -17l70 -26c62.667 -23.333 107.334 -48 134.001 -74s40 -60 40 -102c0 -58.667 -25 -103.667 -75 -135c30.667 -17.333 52.5 -36.166 65.5 -56.499zM334 325c0 11.333 -4.5 22.001 -13.5 32.001s-27.833 20.333 -56.5 31
l-37 14c-33.333 -2.66699 -50 -18.334 -50 -47.001c0 -12 4.5 -21.667 13.5 -29s27.833 -16.333 56.5 -27l42 -16c30 -2 45 12 45 42z" />
    <glyph glyph-name="dieresis" unicode="&#xa8;" horiz-adv-x="431" 
d="M181 623c0 -8.66699 -2.33301 -14.834 -7 -18.501s-12 -5.5 -22 -5.5h-120c-8 0 -13.667 1.66699 -17 5s-5 9 -5 17v101c0 13.333 5.33301 20 16 20h139c4.66699 0 8.5 -1.66699 11.5 -5s4.5 -7.66602 4.5 -12.999v-101zM421 623c0 -8.66699 -2.33301 -14.834 -7 -18.501
s-12 -5.5 -22 -5.5h-120c-8 0 -13.667 1.66699 -17 5s-5 9 -5 17v101c0 13.333 5.33301 20 16 20h139c4.66699 0 8.5 -1.66699 11.5 -5s4.5 -7.66602 4.5 -12.999v-101z" />
    <glyph glyph-name="copyright" unicode="&#xa9;" horiz-adv-x="830" 
d="M223.5 41c-58.333 34 -104.5 80.167 -138.5 138.5s-51 122.166 -51 191.499c0 68.667 17 132.167 51 190.5s80.167 104.666 138.5 138.999s122.166 51.5 191.499 51.5c68.667 0 132.167 -17.167 190.5 -51.5s104.666 -80.666 138.999 -138.999s51.5 -121.833 51.5 -190.5
c0 -69.333 -17.167 -133.166 -51.5 -191.499s-80.666 -104.5 -138.999 -138.5s-121.833 -51 -190.5 -51c-69.333 0 -133.166 17 -191.499 51zM557 125.5c40.667 23 71.999 55.5 93.999 97.5s33 91.333 33 148c0 56 -11.167 105.167 -33.5 147.5
s-53.666 75.166 -93.999 98.499s-87.5 35 -141.5 35c-54.667 0 -102.334 -11.667 -143.001 -35s-71.834 -56.166 -93.501 -98.499s-32.5 -91.5 -32.5 -147.5c0 -56.667 10.833 -106 32.5 -148s52.834 -74.5 93.501 -97.5s88.334 -34.5 143.001 -34.5
c54 0 101.333 11.5 142 34.5zM508.999 564.5c26 -13 46.832 -29.4961 62.499 -49.4961s25.5 -40.667 29.5 -62c0.666992 -2 1 -4.66699 1 -8c0 -6.66699 -5 -10.667 -15 -12l-105 -5h-3c-2.66699 0 -4.66699 0.833008 -6 2.5s-2.66602 4.5 -3.99902 8.5
c-2 13.333 -6.33301 24.666 -13 33.999s-18 14 -34 14c-40.667 0 -61 -38 -61 -114c0 -41.333 5.83301 -71 17.5 -89s29.167 -27 52.5 -27c18.667 0 33 4.66699 43 14s21 24.666 33 45.999c2 4 7 5.33301 15 4l72 -14c6 -0.666992 9 -3.33398 9 -8.00098
c0 -0.666992 -0.666992 -3.66699 -2 -9c-2.66699 -16 -11 -34.167 -25 -54.5s-34.333 -37.833 -61 -52.5s-59 -22 -97 -22c-40 0 -76.167 8.83301 -108.5 26.5s-57.666 42.5 -75.999 74.5s-27.5 68.333 -27.5 109c0 41.333 9.16699 78.166 27.5 110.499
s43.666 57.5 75.999 75.5s68.5 27 108.5 27c34.667 0 65 -6.5 91 -19.5z" />
    <glyph glyph-name="ordfeminine" unicode="&#xaa;" horiz-adv-x="386" 
d="M308 725.5c22.667 -17 33.998 -42.499 33.998 -76.499v-174c0 -12 2.33301 -26.333 7 -43c4 -12 -6.66699 -18 -32 -18h-73c-6 0 -10 1.16699 -12 3.5s-3.66699 6.5 -5 12.5l-1 4c-1.33301 3.33301 -3.33301 5 -6 5c-3.33301 0 -7.33301 -1.66699 -12 -5
c-16.667 -9.33301 -30.667 -16 -42 -20s-24.666 -6 -39.999 -6c-34 0 -60.5 8.66699 -79.5 26s-28.5 40.666 -28.5 69.999c0 34 15.333 61.167 46 81.5s75.667 32.166 135 35.499l13 1c8 0 12 3.66699 12 11v8c0 24 -12.333 36 -37 36
c-23.333 0 -39.666 -9.66699 -48.999 -29c-1.33301 -4 -3.16602 -6.5 -5.49902 -7.5s-6.16602 -0.833008 -11.499 0.5l-82 16c-2.66699 0.666992 -4.33398 3.33398 -5.00098 8.00098s-0.333984 8.66699 0.999023 12c12.667 26 30.167 45 52.5 57s56.5 18 102.5 18
c56 -0.666992 95.333 -9.5 118 -26.5zM148.998 490.001c6.66699 -5.33301 16 -8 28 -8c14.667 0 27 4 37 12c6.66699 5.33301 10 12 10 20v35c0 8.66699 -4 12.667 -12 12l-14 -2c-14 -1.33301 -27.333 -6.33301 -40 -15s-19 -19.334 -19 -32.001
c0 -9.33301 3.33301 -16.666 10 -21.999z" />
    <glyph glyph-name="guillemotleft" unicode="&#xab;" horiz-adv-x="513" 
d="M254 73l0.998047 -4.00098c0 -6 -5.66699 -9 -17 -9h-73c-7.33301 0 -12.666 3.33301 -15.999 10l-92 165c-4 8 -6 15.333 -6 22c0 7.33301 1.66699 14.333 5 21l93 175c2.66699 4 5 6.66699 7 8s5.33301 2 10 2h75c4.66699 0 8.33398 -1.33301 11.001 -4
s3 -6.66699 1 -12l-57 -177c-1.33301 -5.33301 -2 -9.66602 -2 -12.999c0 -2 0.666992 -6.33301 2 -13zM461.998 72.999l0.998047 -4.00098c0 -6 -5.66699 -9 -17 -9h-73c-7.33301 0 -12.666 3.33301 -15.999 10l-92 165c-4 8 -6 15.333 -6 22
c0 7.33301 1.66699 14.333 5 21l93 175c2.66699 4 5 6.66699 7 8s5.33301 2 10 2h75c4.66699 0 8.33398 -1.33301 11.001 -4s3 -6.66699 1 -12l-57 -177c-1.33301 -5.33301 -2 -9.66602 -2 -12.999c0 -2 0.666992 -6.33301 2 -13z" />
    <glyph glyph-name="logicalnot" unicode="&#xac;" 
d="M557 438.5c3.33301 -3.66699 5.00293 -8.5 5.00293 -14.5v-257c0 -9.33301 -2.33301 -16 -7 -20s-12.334 -6 -23.001 -6h-106c-8.66699 0 -14.834 1.83301 -18.501 5.5s-5.5 9.5 -5.5 17.5v139h-336c-10 0 -16.833 2 -20.5 6s-5.5 10.333 -5.5 19v93
c0 15.333 6.33301 23 19 23h485c5.33301 0 9.66602 -1.83301 12.999 -5.5z" />
    <glyph glyph-name="uni00AD" unicode="&#xad;" horiz-adv-x="380" 
d="M339 221c0 -10 -2.66699 -17.167 -8 -21.5s-13.666 -6.5 -24.999 -6.5h-239c-10 0 -16.833 2 -20.5 6s-5.5 10.333 -5.5 19v92c0 15.333 6.33301 23 19 23h261c5.33301 0 9.66602 -1.83301 12.999 -5.5s5 -8.5 5 -14.5v-92z" />
    <glyph glyph-name="registered" unicode="&#xae;" horiz-adv-x="545" 
d="M153 307c-36.667 21.333 -65.6699 50.166 -87.0029 86.499s-32 76.166 -32 119.499s10.667 83.333 32 120s50.333 65.667 87 87s76.667 32 120 32c42.667 0 82.334 -10.667 119.001 -32s65.667 -50.333 87 -87s32 -76.667 32 -120s-10.667 -83.166 -32 -119.499
s-50.166 -65.166 -86.499 -86.499s-76.166 -32 -119.499 -32s-83.333 10.667 -120 32zM389.497 391.5c29 30.333 43.5 70.833 43.5 121.5s-14.5 91.334 -43.5 122.001s-67.833 46 -116.5 46c-49.333 0 -88.5 -15.333 -117.5 -46s-43.5 -71.334 -43.5 -122.001
c0 -51.333 14.5 -92 43.5 -122s68.167 -45 117.5 -45c48.667 0 87.5 15.167 116.5 45.5zM382.997 401c0 -4.66699 -2.33203 -6.99902 -6.99902 -6.99902h-62c-4 0 -7 2.33301 -9 7l-29 86c-2 3.33301 -5.33301 5 -10 5h-18c-2.66699 0 -4 -1.33301 -4 -4v-85
c0 -6 -3.66699 -9 -11 -9h-53c-5.33301 0 -8 2.66699 -8 8v221c0 4.66699 2 7 6 7h109c30.667 0 54.667 -5.83301 72 -17.5s26 -27.834 26 -48.501c0 -14 -3.83301 -26.333 -11.5 -37s-17.834 -18.667 -30.501 -24c-1.33301 -0.666992 -2 -2.66699 -2 -6l41 -93z
M302.998 545.501c4.66699 4.33301 6.99902 9.5 6.99902 15.5c0 6.66699 -2.66699 12 -8 16s-11.666 6 -18.999 6h-32c-4.66699 0 -7 -2 -7 -6v-31c0 -4.66699 1.66699 -7 5 -7h35c8 0 14.333 2.16699 19 6.5z" />
    <glyph glyph-name="macron" unicode="&#xaf;" horiz-adv-x="431" 
d="M421 643c0 -8.66699 -2.33301 -14.834 -7 -18.501s-12 -5.5 -22 -5.5h-360c-8 0 -13.667 1.66699 -17 5s-5 9 -5 17v81c0 13.333 5.33301 20 16 20h379c4.66699 0 8.5 -1.66699 11.5 -5s4.5 -7.66602 4.5 -12.999v-81z" />
    <glyph glyph-name="degree" unicode="&#xb0;" horiz-adv-x="464" 
d="M390.5 580.5c-15.667 -27.667 -37.332 -49.167 -64.999 -64.5s-58.834 -23 -93.501 -23s-65.834 7.66699 -93.501 23s-49.334 36.833 -65.001 64.5s-23.5 59.167 -23.5 94.5c0 34.667 7.83301 65.834 23.5 93.501s37.334 49.334 65.001 65.001s58.834 23.5 93.501 23.5
c34 0 65 -7.83301 93 -23.5s49.833 -37.334 65.5 -65.001s23.5 -58.834 23.5 -93.501c0 -35.333 -7.83301 -66.833 -23.5 -94.5zM282.502 727.5c-13 13.667 -30.5 20.499 -52.5 20.499c-20.667 0 -37.667 -6.66699 -51 -20s-20 -30.666 -20 -51.999
c0 -22.667 6.5 -41.167 19.5 -55.5s30.5 -21.5 52.5 -21.5c21.333 0 38.5 7 51.5 21s19.5 32 19.5 54s-6.5 39.833 -19.5 53.5z" />
    <glyph glyph-name="plusminus" unicode="&#xb1;" 
d="M557 533.5c3.33301 -3.66699 5 -8.5 5 -14.5v-93c0 -10 -2.66699 -17.167 -8 -21.5s-13.666 -6.5 -24.999 -6.5h-157v-172c0 -5.33301 -1.83301 -9.66602 -5.5 -12.999s-8.5 -5 -14.5 -5h-93c-10 0 -17.167 2.66699 -21.5 8s-6.5 13.666 -6.5 24.999v157h-165
c-10 0 -16.833 2 -20.5 6s-5.5 10.333 -5.5 19v93c0 15.333 6.33301 23 19 23h172v165c0 10 2 16.833 6 20.5s10.333 5.5 19 5.5h93c15.333 0 23 -6.33301 23 -19v-172h172c5.33301 0 9.66602 -1.83301 12.999 -5.5zM557 150.5c3.33301 -3.66699 5 -8.5 5 -14.5v-93
c0 -10 -2.66699 -17.167 -8 -21.5s-13.666 -6.5 -24.999 -6.5h-463c-10 0 -16.833 2 -20.5 6s-5.5 10.333 -5.5 19v93c0 15.333 6.33301 23 19 23h485c5.33301 0 9.66602 -1.83301 12.999 -5.5z" />
    <glyph glyph-name="uni00B2" unicode="&#xb2;" horiz-adv-x="452" 
d="M179 590c30 24.667 51.667 43.5 65 56.5s22.333 23.667 27 32s7 17.833 7 28.5c0 14.667 -4.83301 26.5 -14.5 35.5s-23.167 13.5 -40.5 13.5c-16 0 -30 -5.16699 -42 -15.5s-25 -28.166 -39 -53.499c-2 -4 -5.33301 -6 -10 -6c-2.66699 0 -6 1 -10 3l-75 37
c-6 3.33301 -9 8 -9 14c0 4.66699 1 8.33398 3 11.001c23.333 38 50.333 66 81 84s67 27 109 27c56.667 0 101.667 -13.5 135 -40.5s50 -62.833 50 -107.5c0 -25.333 -6.33301 -47.833 -19 -67.5s-34 -39.5 -64 -59.5l-110 -74c-2.66699 -2 -4 -3.66699 -4 -5
c0 -2 2.66699 -3 8 -3h179c10 0 15 -4 15 -12v-90c0 -9.33301 -5.33301 -14 -16 -14h-352c-6 0 -10.333 1.16699 -13 3.5s-4 6.5 -4 12.5v62c0 3.33301 2.16699 7.66602 6.5 12.999s14.5 14.666 30.5 27.999z" />
    <glyph glyph-name="uni00B3" unicode="&#xb3;" horiz-adv-x="467" 
d="M61 780c0 3.33301 1.00098 6.33594 3.00098 9.00293c15.333 20 39.166 36.333 71.499 49s66.833 19 103.5 19c58.667 0 104.667 -11.333 138 -34s50 -53 50 -91c0 -19.333 -6.16699 -37.666 -18.5 -54.999s-29.833 -29.333 -52.5 -36c-4.66699 -2 -7 -4.33301 -7 -7
s2.33301 -5 7 -7c26.667 -8.66699 47.5 -22.334 62.5 -41.001s22.5 -39.667 22.5 -63c0 -96.667 -70 -145 -210 -145c-38 0 -74.333 8 -109 24s-60 36.333 -76 61c-2 3.33301 -3 6.66602 -3 9.99902c0 6 2.66699 10.333 8 13l63 44c7.33301 4.66699 13 5 17 1
c20.667 -20.667 38.334 -35 53.001 -43s33 -12 55 -12c19.333 0 34.5 4 45.5 12s16.5 18.667 16.5 32c0 15.333 -6 27.666 -18 36.999s-28.333 14.333 -49 15l-53 1c-8.66699 0 -13 3.66699 -13 11v76c0 6 4.33301 9.66699 13 11l43 2c19.333 1.33301 34.833 6.5 46.5 15.5
s17.5 20.5 17.5 34.5c0 10.667 -5 19.667 -15 27s-22.333 11 -37 11c-18 0 -34 -3.33301 -48 -10s-29.667 -18 -47 -34c-3.33301 -3.33301 -6 -5 -8 -5c-2.66699 0 -5.33398 1.33301 -8.00098 4l-61 57c-2 3.33301 -3 5.66602 -3 6.99902z" />
    <glyph glyph-name="acute" unicode="&#xb4;" horiz-adv-x="320" 
d="M308 658c1.33301 -2.66699 2.00098 -6.33203 2.00098 -10.999c0 -10 -7 -17 -21 -21l-233 -56c-6.66699 -1.33301 -10.334 -2 -11.001 -2c-8 0 -14 5 -18 15l-15 43c-1.33301 5.33301 -2 8.66602 -2 9.99902c0 6 3.33301 10.667 10 14l238 101
c1.33301 0.666992 3.33301 1 6 1c6.66699 0 11.667 -4.33301 15 -13z" />
    <glyph glyph-name="paragraph" unicode="&#xb6;" horiz-adv-x="631" 
d="M542 633c-8.66699 0 -13.001 -4.66602 -13.001 -13.999v-686c0 -12 -5 -18 -15 -18h-84c-6 0 -10.667 1.66699 -14 5s-5 7.66602 -5 12.999v688c0 8 -4.66699 12 -14 12h-39c-4 0 -7.16699 -1.33301 -9.5 -4s-3.5 -6 -3.5 -10v-687c0 -11.333 -5.33301 -17 -16 -17h-86
c-10.667 0 -16 5.66699 -16 17v367c0 6 -3.66699 9.33301 -11 10c-55.333 6.66699 -101.666 28 -138.999 64s-56 86.667 -56 152c0 41.333 9.5 78.5 28.5 111.5s46.667 58.833 83 77.5s79.833 28 130.5 28h317c10 0 15 -4.33301 15 -13v-83c0 -8.66699 -5 -13 -15 -13h-38z
" />
    <glyph glyph-name="periodcentered" unicode="&#xb7;" horiz-adv-x="279" 
d="M230 310c0 -9.33301 -2.16602 -16 -6.49902 -20s-11.833 -6 -22.5 -6h-133c-8.66699 0 -14.834 1.66699 -18.501 5s-5.5 9 -5.5 17v137c0 13.333 5.66699 20 17 20h153c10.667 0 16 -6 16 -18v-135z" />
    <glyph glyph-name="cedilla" unicode="&#xb8;" horiz-adv-x="287" 
d="M238 -200.5c-26 -16.333 -57.332 -24.501 -93.999 -24.501c-52 0 -94.333 8.33301 -127 25c-6.66699 4.66699 -8.66699 10 -6 16l17 41c2 5.33301 6 7 12 5c29.333 -15.333 55.666 -23 78.999 -23c14 0 25.333 2.33301 34 7s13 11.334 13 20.001
c0 12.667 -7 22.334 -21 29.001s-37.333 10 -70 10c-5.33301 0 -8.83301 0.666992 -10.5 2s-1.5 4.66602 0.5 9.99902l38 88h81l-19 -49c-0.666992 -1.33301 -1 -3 -1 -5c0 -2.66699 2.33301 -4 7 -4c36 0 62.667 -8.5 80 -25.5s26 -36.5 26 -58.5
c0 -26 -13 -47.167 -39 -63.5z" />
    <glyph glyph-name="uni00B9" unicode="&#xb9;" horiz-adv-x="367" 
d="M326 471l-0.000976562 -77c0 -9.33301 -5.33301 -14 -16 -14h-267c-10 0 -15 4.33301 -15 13v78c0 8 4.66699 12 14 12h56c4.66699 0 7 2 7 6v210c0 4 -0.666992 6.5 -2 7.5s-4 1.16699 -8 0.5l-51 -11c-1.33301 -0.666992 -3.33301 -1 -6 -1c-7.33301 0 -11 5 -11 15v53
c0 5.33301 0.833008 9.16602 2.5 11.499s4.83398 4.5 9.50098 6.5l113 57c6 2.66699 11.333 4.83398 16 6.50098s9.66699 2.5 15 2.5h54c7.33301 0 11 -4.33301 11 -13v-343c0 -5.33301 2.33301 -8 7 -8h57c9.33301 0 14 -4 14 -12z" />
    <glyph glyph-name="ordmasculine" unicode="&#xba;" horiz-adv-x="391" 
d="M286.5 729.5c26.333 -15 46.834 -35.668 61.501 -62.001s22 -56.166 22 -89.499c0 -32.667 -7.5 -61.834 -22.5 -87.501s-35.667 -45.834 -62 -60.501s-56.5 -22 -90.5 -22s-64.167 7.33301 -90.5 22s-46.833 34.834 -61.5 60.501s-22 54.834 -22 87.501
c0 34 7.66699 64.167 23 90.5s36.166 46.833 62.499 61.5s55.833 22 88.5 22c34.667 0 65.167 -7.5 91.5 -22.5zM158.501 651.999c-7.66699 -14.667 -11.5 -38.334 -11.5 -71.001s3.83301 -56.334 11.5 -71.001s19.834 -22 36.501 -22c17.333 0 29.833 7.33301 37.5 22
s11.5 38.334 11.5 71.001s-3.83301 56.334 -11.5 71.001s-20.167 22 -37.5 22c-16.667 0 -28.834 -7.33301 -36.501 -22z" />
    <glyph glyph-name="guillemotright" unicode="&#xbb;" horiz-adv-x="513" 
d="M111 257c0 6 -0.668945 10.333 -2.00195 13l-57 177c-0.666992 1.33301 -1 3.33301 -1 6c0 6.66699 4.33301 10 13 10h75c4.66699 0 8 -0.666992 10 -2s4.33301 -4 7 -8l93 -175c4 -6 6 -13 6 -21c0 -7.33301 -2.33301 -14.666 -7 -21.999l-92 -165
c-3.33301 -6.66699 -8.66602 -10 -15.999 -10h-73c-13.333 0 -18.666 4.33301 -15.999 13l58 171c1.33301 3.33301 2 7.66602 2 12.999zM318.998 257c0 6 -0.668945 10.333 -2.00195 13l-57 177c-0.666992 1.33301 -1 3.33301 -1 6c0 6.66699 4.33301 10 13 10h75
c4.66699 0 8 -0.666992 10 -2s4.33301 -4 7 -8l93 -175c4 -6 6 -13 6 -21c0 -7.33301 -2.33301 -14.666 -7 -21.999l-92 -165c-3.33301 -6.66699 -8.66602 -10 -15.999 -10h-73c-13.333 0 -18.666 4.33301 -15.999 13l58 171c1.33301 3.33301 2 7.66602 2 12.999z" />
    <glyph glyph-name="onequarter" unicode="&#xbc;" horiz-adv-x="973" 
d="M292 367l-0.000976562 -77c0 -9.33301 -5.33301 -14 -16 -14h-267c-10 0 -15 4.33301 -15 13v78c0 8 4.66699 12 14 12h56c4.66699 0 7 2 7 6v210c0 4 -0.666992 6.5 -2 7.5s-4 1.16699 -8 0.5l-51 -11c-1.33301 -0.666992 -3.33301 -1 -6 -1c-7.33301 0 -11 5 -11 15v53
c0 5.33301 0.833008 9.16602 2.5 11.499s4.83398 4.5 9.50098 6.5l113 57c6 2.66699 11.333 4.83398 16 6.50098s9.66699 2.5 15 2.5h54c7.33301 0 11 -4.33301 11 -13v-343c0 -5.33301 2.33301 -8 7 -8h57c9.33301 0 14 -4 14 -12zM230.999 8
c-2.66699 -4.66699 -6.33301 -7.83398 -11 -9.50098s-10.667 -2.5 -18 -2.5l-52 1c-6 0 -10.833 1.66699 -14.5 5s-5.5 7.33301 -5.5 12c0 6.66699 2 12.334 6 17.001l469 706c4 6 8 9.66699 12 11s9.33301 2 16 2h66c9.33301 0 14 -3 14 -9c0 -4 -1.33301 -7.66699 -4 -11z
M742.5 464c3.66699 2 9.49902 3.00098 17.499 3.00098h103c8 0 12 -4.33301 12 -13v-251c0 -5.33301 2.33301 -8 7 -8h47c8.66699 0 13 -4 13 -12v-69c0 -9.33301 -5 -14 -15 -14h-44c-5.33301 0 -8 -2.66699 -8 -8v-74c0 -6.66699 -1.66699 -11.334 -5 -14.001
s-8.66602 -4 -15.999 -4h-107c-6 -0 -10.333 1.33301 -13 4s-4 6.66699 -4 12v78c0 4 -2.66699 6 -8 6h-180c-10 0 -15 4.66699 -15 14v65c0 4.66699 1.33301 9.5 4 14.5s8 12.833 16 23.5l181 234c6 6.66699 10.833 11 14.5 13zM726.999 195.001
c3.33301 0 4.99902 1.33301 4.99902 4v122c0 6 -0.666992 9 -2 9c-2 0 -4.33301 -2.33301 -7 -7l-86 -120c-3.33301 -5.33301 -1.66602 -8 5.00098 -8h85z" />
    <glyph glyph-name="onehalf" unicode="&#xbd;" horiz-adv-x="1020" 
d="M292 367l-0.000976562 -77c0 -9.33301 -5.33301 -14 -16 -14h-267c-10 0 -15 4.33301 -15 13v78c0 8 4.66699 12 14 12h56c4.66699 0 7 2 7 6v210c0 4 -0.666992 6.5 -2 7.5s-4 1.16699 -8 0.5l-51 -11c-1.33301 -0.666992 -3.33301 -1 -6 -1c-7.33301 0 -11 5 -11 15v53
c0 5.33301 0.833008 9.16602 2.5 11.499s4.83398 4.5 9.50098 6.5l113 57c6 2.66699 11.333 4.83398 16 6.50098s9.66699 2.5 15 2.5h54c7.33301 0 11 -4.33301 11 -13v-343c0 -5.33301 2.33301 -8 7 -8h57c9.33301 0 14 -4 14 -12zM303.999 8
c-2.66699 -4.66699 -6.33301 -7.83398 -11 -9.50098s-10.667 -2.5 -18 -2.5l-52 1c-6 0 -10.833 1.66699 -14.5 5s-5.5 7.33301 -5.5 12c0 6.66699 2 12.334 6 17.001l469 706c4 6 8 9.66699 12 11s9.33301 2 16 2h66c9.33301 0 14 -3 14 -9c0 -4 -1.33301 -7.66699 -4 -11z
M735 206c30 24.667 51.667 43.5 65 56.5s22.333 23.667 27 32s7 17.833 7 28.5c0 14.667 -4.83301 26.5 -14.5 35.5s-23.167 13.5 -40.5 13.5c-16 0 -30 -5.16699 -42 -15.5s-25 -28.166 -39 -53.499c-2 -4 -5.33301 -6 -10 -6c-2.66699 0 -6 1 -10 3l-75 37
c-6 3.33301 -9 8 -9 14c0 4.66699 1 8.33398 3 11.001c23.333 38 50.333 66 81 84s67 27 109 27c56.667 0 101.667 -13.5 135 -40.5s50 -62.833 50 -107.5c0 -25.333 -6.33301 -47.833 -19 -67.5s-34 -39.5 -64 -59.5l-110 -74c-2.66699 -2 -4 -3.66699 -4 -5
c0 -2 2.66699 -3 8 -3h179c10 0 15 -4 15 -12v-90c0 -9.33301 -5.33301 -14 -16 -14h-352c-6 0 -10.333 1.16699 -13 3.5s-4 6.5 -4 12.5v62c0 3.33301 2.16699 7.66602 6.5 12.999s14.5 14.666 30.5 27.999z" />
    <glyph glyph-name="threequarters" unicode="&#xbe;" horiz-adv-x="1063" 
d="M27 675c0 3.33301 1.00098 6.33594 3.00098 9.00293c15.333 20 39.166 36.333 71.499 49s66.833 19 103.5 19c58.667 0 104.667 -11.333 138 -34s50 -53 50 -91c0 -19.333 -6.16699 -37.666 -18.5 -54.999s-29.833 -29.333 -52.5 -36c-4.66699 -2 -7 -4.33301 -7 -7
s2.33301 -5 7 -7c26.667 -8.66699 47.5 -22.334 62.5 -41.001s22.5 -39.667 22.5 -63c0 -96.667 -70 -145 -210 -145c-38 0 -74.333 8 -109 24s-60 36.333 -76 61c-2 3.33301 -3 6.66602 -3 9.99902c0 6 2.66699 10.333 8 13l63 44c7.33301 4.66699 13 5 17 1
c20.667 -20.667 38.334 -35 53.001 -43s33 -12 55 -12c19.333 0 34.5 4 45.5 12s16.5 18.667 16.5 32c0 15.333 -6 27.666 -18 36.999s-28.333 14.333 -49 15l-53 1c-8.66699 0 -13 3.66699 -13 11v76c0 6 4.33301 9.66699 13 11l43 2c19.333 1.33301 34.833 6.5 46.5 15.5
s17.5 20.5 17.5 34.5c0 10.667 -5 19.667 -15 27s-22.333 11 -37 11c-18 0 -34 -3.33301 -48 -10s-29.667 -18 -47 -34c-3.33301 -3.33301 -6 -5 -8 -5c-2.66699 0 -5.33398 1.33301 -8.00098 4l-61 57c-2 3.33301 -3 5.66602 -3 6.99902zM331.001 8.00293
c-2.66699 -4.66699 -6.33301 -7.83398 -11 -9.50098s-10.667 -2.5 -18 -2.5l-52 1c-6 0 -10.833 1.66699 -14.5 5s-5.5 7.33301 -5.5 12c0 6.66699 2 12.334 6 17.001l469 706c4 6 8 9.66699 12 11s9.33301 2 16 2h66c9.33301 0 14 -3 14 -9c0 -4 -1.33301 -7.66699 -4 -11z
M822.502 464.003c3.66699 2 9.49902 3.00098 17.499 3.00098h103c8 0 12 -4.33301 12 -13v-251c0 -5.33301 2.33301 -8 7 -8h47c8.66699 0 13 -4 13 -12v-69c0 -9.33301 -5 -14 -15 -14h-44c-5.33301 0 -8 -2.66699 -8 -8v-74c0 -6.66699 -1.66699 -11.334 -5 -14.001
s-8.66602 -4 -15.999 -4h-107c-6 0 -10.333 1.33301 -13 4s-4 6.66699 -4 12v78c0 4 -2.66699 6 -8 6h-180c-10 0 -15 4.66699 -15 14v65c0 4.66699 1.33301 9.5 4 14.5s8 12.833 16 23.5l181 234c6 6.66699 10.833 11 14.5 13zM807.001 195.004
c3.33301 0 4.99902 1.33301 4.99902 4v122c0 6 -0.666992 9 -2 9c-2 0 -4.33301 -2.33301 -7 -7l-86 -120c-3.33301 -5.33301 -1.66602 -8 5.00098 -8h85z" />
    <glyph glyph-name="questiondown" unicode="&#xbf;" horiz-adv-x="544" 
d="M187 501c0 10.667 2.66797 18.167 8.00098 22.5s13.666 6.5 24.999 6.5h151c10 0 16.833 -2 20.5 -6s5.5 -10.333 5.5 -19v-150c0 -14.667 -6.33301 -22 -19 -22h-173c-12 0 -18 6.66699 -18 20v148zM550.001 0c0 -2 -0.667969 -5.66797 -2.00098 -11.001
c-21.333 -54 -54.666 -94.833 -99.999 -122.5s-101.333 -41.5 -168 -41.5c-56 0 -103.333 7.83301 -142 23.5s-67.667 36.5 -87 62.5s-29 54.667 -29 86c0 25.333 5 47.166 15 65.499s22.333 33.5 37 45.5s33.667 25.333 57 40c28 18.667 48.667 34.667 62 48
s20 30.333 20 51c0 6.66699 2.5 12.334 7.5 17.001s10.833 7 17.5 7h105c8 0 14.333 -2.5 19 -7.5s7 -12.167 7 -21.5c0 -24.667 -4.5 -46.334 -13.5 -65.001s-19.667 -34.5 -32 -47.5s-28.5 -27.833 -48.5 -44.5c-20 -16 -34.667 -29.5 -44 -40.5s-14 -23.167 -14 -36.5
s6.33301 -24.666 19 -33.999s28 -14 46 -14c21.333 0 41 6.33301 59 19s32.333 30.334 43 53.001c4 8.66699 9 13 15 13c2 0 5.66699 -0.666992 11 -2l128 -27c8 -2 12 -7.33301 12 -16z" />
    <glyph glyph-name="Agrave" unicode="&#xc0;" horiz-adv-x="799" 
d="M30 5.5c-3.33301 3.66699 -5 8.83203 -5 15.499c0 4.66699 1 10 3 16l242 682c3.33301 8.66699 7 14.667 11 18s10.333 5 19 5h197c8 0 15.167 -2.5 21.5 -7.5s11.166 -11.5 14.499 -19.5l240 -681c1.33301 -5.33301 2 -9.33301 2 -12c0 -6 -1.33301 -11.167 -4 -15.5
s-6.66699 -6.5 -12 -6.5h-196c-11.333 0 -18.666 5.66699 -21.999 17l-39 115c-2 4.66699 -3.83301 7.83398 -5.5 9.50098s-4.83398 2.5 -9.50098 2.5h-212c-8 0 -13 -3.66699 -15 -11l-41 -118c-4 -10 -12 -15 -24 -15h-152c-5.33301 -0 -9.66602 1.83301 -12.999 5.5z
M437 313.998c7.33301 0 11 3.33398 11 10.001c0 1.33301 -0.666992 4.66602 -2 9.99902l-60 171c-1.33301 3.33301 -3.33301 5 -6 5s-4.66699 -1.66699 -6 -5l-61 -170c-1.33301 -2.66699 -2 -6 -2 -10c0 -7.33301 4 -11 12 -11h114zM284.5 962.499
c3.66699 2.33301 7.83398 2.49902 12.501 0.499023l238 -101c6.66699 -3.33301 10 -8 10 -14c0 -1.33301 -0.666992 -4.66602 -2 -9.99902l-15 -43c-4 -10 -10 -15 -18 -15c-0.666992 0 -4.33398 0.666992 -11.001 2l-233 56c-14 4 -21 11 -21 21
c0 4.66699 0.666992 8.33398 2 11.001l29 81c2 5.33301 4.83301 9.16602 8.5 11.499z" />
    <glyph glyph-name="Aacute" unicode="&#xc1;" horiz-adv-x="799" 
d="M30 5.5c-3.33301 3.66699 -5 8.83203 -5 15.499c0 4.66699 1 10 3 16l242 682c3.33301 8.66699 7 14.667 11 18s10.333 5 19 5h197c8 0 15.167 -2.5 21.5 -7.5s11.166 -11.5 14.499 -19.5l240 -681c1.33301 -5.33301 2 -9.33301 2 -12c0 -6 -1.33301 -11.167 -4 -15.5
s-6.66699 -6.5 -12 -6.5h-196c-11.333 0 -18.666 5.66699 -21.999 17l-39 115c-2 4.66699 -3.83301 7.83398 -5.5 9.50098s-4.83398 2.5 -9.50098 2.5h-212c-8 0 -13 -3.66699 -15 -11l-41 -118c-4 -10 -12 -15 -24 -15h-152c-5.33301 -0 -9.66602 1.83301 -12.999 5.5z
M437 313.998c7.33301 0 11 3.33398 11 10.001c0 1.33301 -0.666992 4.66602 -2 9.99902l-60 171c-1.33301 3.33301 -3.33301 5 -6 5s-4.66699 -1.66699 -6 -5l-61 -170c-1.33301 -2.66699 -2 -6 -2 -10c0 -7.33301 4 -11 12 -11h114zM543 869.999
c1.33301 -2.66699 2.00098 -6.33203 2.00098 -10.999c0 -10 -7 -17 -21 -21l-233 -56c-6.66699 -1.33301 -10.334 -2 -11.001 -2c-8 0 -14 5 -18 15l-15 43c-1.33301 5.33301 -2 8.66602 -2 9.99902c0 6 3.33301 10.667 10 14l238 101c1.33301 0.666992 3.33301 1 6 1
c6.66699 0 11.667 -4.33301 15 -13z" />
    <glyph glyph-name="Acircumflex" unicode="&#xc2;" horiz-adv-x="799" 
d="M30 5.5c-3.33301 3.66699 -5 8.83203 -5 15.499c0 4.66699 1 10 3 16l242 682c3.33301 8.66699 7 14.667 11 18s10.333 5 19 5h197c8 0 15.167 -2.5 21.5 -7.5s11.166 -11.5 14.499 -19.5l240 -681c1.33301 -5.33301 2 -9.33301 2 -12c0 -6 -1.33301 -11.167 -4 -15.5
s-6.66699 -6.5 -12 -6.5h-196c-11.333 0 -18.666 5.66699 -21.999 17l-39 115c-2 4.66699 -3.83301 7.83398 -5.5 9.50098s-4.83398 2.5 -9.50098 2.5h-212c-8 0 -13 -3.66699 -15 -11l-41 -118c-4 -10 -12 -15 -24 -15h-152c-5.33301 -0 -9.66602 1.83301 -12.999 5.5z
M437 313.998c7.33301 0 11 3.33398 11 10.001c0 1.33301 -0.666992 4.66602 -2 9.99902l-60 171c-1.33301 3.33301 -3.33301 5 -6 5s-4.66699 -1.66699 -6 -5l-61 -170c-1.33301 -2.66699 -2 -6 -2 -10c0 -7.33301 4 -11 12 -11h114zM410 870.999
c-7.33301 9.33301 -12.999 14.002 -16.999 14.002s-9.66699 -4.66699 -17 -14l-46 -55c-3.33301 -4.66699 -6.5 -7.33398 -9.5 -8.00098s-8.5 -1 -16.5 -1h-99c-6 0 -9 2 -9 6c0 3.33301 2 7.33301 6 12l112 125c4.66699 5.33301 9.66699 9.16602 15 11.499
s12.666 3.5 21.999 3.5h95c6 0 11.167 -1.16699 15.5 -3.5s8.5 -5.5 12.5 -9.5l111 -127c5.33301 -6.66699 8 -11 8 -13c0 -3.33301 -3.33301 -5 -10 -5h-105c-7.33301 0 -12.833 0.5 -16.5 1.5s-7.16699 3.5 -10.5 7.5z" />
    <glyph glyph-name="Atilde" unicode="&#xc3;" horiz-adv-x="799" 
d="M30 5.5c-3.33301 3.66699 -5 8.83203 -5 15.499c0 4.66699 1 10 3 16l242 682c3.33301 8.66699 7 14.667 11 18s10.333 5 19 5h197c8 0 15.167 -2.5 21.5 -7.5s11.166 -11.5 14.499 -19.5l240 -681c1.33301 -5.33301 2 -9.33301 2 -12c0 -6 -1.33301 -11.167 -4 -15.5
s-6.66699 -6.5 -12 -6.5h-196c-11.333 0 -18.666 5.66699 -21.999 17l-39 115c-2 4.66699 -3.83301 7.83398 -5.5 9.50098s-4.83398 2.5 -9.50098 2.5h-212c-8 0 -13 -3.66699 -15 -11l-41 -118c-4 -10 -12 -15 -24 -15h-152c-5.33301 -0 -9.66602 1.83301 -12.999 5.5z
M437 313.998c7.33301 0 11 3.33398 11 10.001c0 1.33301 -0.666992 4.66602 -2 9.99902l-60 171c-1.33301 3.33301 -3.33301 5 -6 5s-4.66699 -1.66699 -6 -5l-61 -170c-1.33301 -2.66699 -2 -6 -2 -10c0 -7.33301 4 -11 12 -11h114zM535 829.999
c-18 -6 -36.665 -9.00098 -55.998 -9.00098c-13.333 0 -26 1.33301 -38 4s-26.667 6.66699 -44 12c-2.66699 0.666992 -12.5 3.33398 -29.5 8.00098s-33.833 7 -50.5 7c-14 0 -26 -1.83301 -36 -5.5s-21.667 -10.167 -35 -19.5c-5.33301 -3.33301 -9.33301 -5 -12 -5
c-4.66699 0 -8.33398 4.33301 -11.001 13l-17 54c-0.666992 1.33301 -1.33398 3 -2.00098 5s-1 4.33301 -1 7c0 5.33301 3.66699 11.666 11 18.999c14 13.333 28.5 23.5 43.5 30.5s33.167 10.5 54.5 10.5c15.333 0 30 -1.66699 44 -5s31 -8 51 -14
c12.667 -4 25.167 -7.5 37.5 -10.5s23.5 -4.5 33.5 -4.5c25.333 0 51 9.33301 77 28c3.33301 2.66699 7 4 11 4c6.66699 0 11 -4.33301 13 -13l14 -65c0.666992 -2 1 -4.66699 1 -8c0 -7.33301 -5 -14.666 -15 -21.999c-11.333 -8 -26 -15 -44 -21z" />
    <glyph glyph-name="Adieresis" unicode="&#xc4;" horiz-adv-x="799" 
d="M30 5.5c-3.33301 3.66699 -5 8.83203 -5 15.499c0 4.66699 1 10 3 16l242 682c3.33301 8.66699 7 14.667 11 18s10.333 5 19 5h197c8 0 15.167 -2.5 21.5 -7.5s11.166 -11.5 14.499 -19.5l240 -681c1.33301 -5.33301 2 -9.33301 2 -12c0 -6 -1.33301 -11.167 -4 -15.5
s-6.66699 -6.5 -12 -6.5h-196c-11.333 0 -18.666 5.66699 -21.999 17l-39 115c-2 4.66699 -3.83301 7.83398 -5.5 9.50098s-4.83398 2.5 -9.50098 2.5h-212c-8 0 -13 -3.66699 -15 -11l-41 -118c-4 -10 -12 -15 -24 -15h-152c-5.33301 -0 -9.66602 1.83301 -12.999 5.5z
M437 313.998c7.33301 0 11 3.33398 11 10.001c0 1.33301 -0.666992 4.66602 -2 9.99902l-60 171c-1.33301 3.33301 -3.33301 5 -6 5s-4.66699 -1.66699 -6 -5l-61 -170c-1.33301 -2.66699 -2 -6 -2 -10c0 -7.33301 4 -11 12 -11h114zM360 834.999
c0 -8.66699 -2.33301 -14.834 -7 -18.501s-12 -5.5 -22 -5.5h-120c-8 0 -13.667 1.66699 -17 5s-5 9 -5 17v101c0 13.333 5.33301 20 16 20h139c4.66699 0 8.5 -1.66699 11.5 -5s4.5 -7.66602 4.5 -12.999v-101zM600 834.999c0 -8.66699 -2.33301 -14.834 -7 -18.501
s-12 -5.5 -22 -5.5h-120c-8 0 -13.667 1.66699 -17 5s-5 9 -5 17v101c0 13.333 5.33301 20 16 20h139c4.66699 0 8.5 -1.66699 11.5 -5s4.5 -7.66602 4.5 -12.999v-101z" />
    <glyph glyph-name="Aring" unicode="&#xc5;" horiz-adv-x="799" 
d="M775 22c0 -6 -1.33496 -11.1689 -4.00195 -15.502s-6.66699 -6.5 -12 -6.5h-196c-11.333 0 -18.666 5.66699 -21.999 17l-39 115c-2 4.66699 -3.83301 7.83398 -5.5 9.50098s-4.83398 2.5 -9.50098 2.5h-212c-8 0 -13 -3.66699 -15 -11l-41 -118c-4 -10 -12 -15 -24 -15
h-152c-5.33301 0 -9.66602 1.83301 -12.999 5.5s-5 8.83398 -5 15.501c0 4.66699 1 10 3 16l242 682c3.33301 8.66699 7 14.667 11 18s10.333 5 19 5h35c-18 10 -32.167 24.167 -42.5 42.5s-15.5 38.5 -15.5 60.5c0 31.333 11.5 58 34.5 80s50.5 33 82.5 33
c32.667 0 60.334 -11.167 83.001 -33.5s34 -49.5 34 -81.5c0 -21.333 -5.16699 -41 -15.5 -59s-24.166 -32 -41.499 -42h43c8 0 15.167 -2.5 21.5 -7.5s11.166 -11.5 14.499 -19.5l240 -681c1.33301 -5.33301 2 -9.33301 2 -12zM358.498 875.498
c-9.66699 -9 -14.5 -20.167 -14.5 -33.5c0 -12.667 5 -24 15 -34s21.333 -15 34 -15c13.333 0 24.666 4.83301 33.999 14.5s14 21.167 14 34.5s-4.66699 24.5 -14 33.5s-20.666 13.5 -33.999 13.5s-24.833 -4.5 -34.5 -13.5zM447.998 323.998
c0 1.33301 -0.666992 4.66699 -2 10l-60 171c-1.33301 3.33301 -3.33301 5 -6 5s-4.66699 -1.66699 -6 -5l-61 -170c-1.33301 -2.66699 -2 -6 -2 -10c0 -7.33301 4 -11 12 -11h114c7.33301 0 11 3.33301 11 10z" />
    <glyph glyph-name="AE" unicode="&#xc6;" horiz-adv-x="1127" 
d="M1094 145l0.00195312 -122.999c0 -6.66699 -2 -12 -6 -16s-10 -6 -18 -6h-535c-10 0 -17 2 -21 6s-6 10.333 -6 19v105c0 9.33301 -4.33301 14 -13 14h-201c-8 0 -13.667 -3.66699 -17 -11l-59 -118c-4.66699 -10 -13.334 -15 -26.001 -15h-152
c-4.66699 0 -8.33398 1.5 -11.001 4.5s-4 6.83301 -4 11.5c0 6 2 13 6 21l354 682c4 8 8.5 13.833 13.5 17.5s11.5 5.5 19.5 5.5h649c12 0 18 -7 18 -21l-1 -116c0 -18 -8.66699 -27 -26 -27h-300c-15.333 0 -23 -6.33301 -23 -19v-85c0 -6.66699 1.66699 -11.834 5 -15.501
s7.66602 -5.5 12.999 -5.5h180c14 0 21 -6.66699 21 -20v-124c0 -11.333 -6 -17 -18 -17h-185c-4.66699 0 -8.5 -1.33301 -11.5 -4s-4.5 -6 -4.5 -10v-100c0 -5.33301 0.833008 -9 2.5 -11s4.83398 -3 9.50098 -3h325c14.667 0 22 -6.33301 22 -19zM508.002 334.001
l0.000976562 201c0 7.33301 -1.33301 13.166 -4 17.499s-6.33398 6.5 -11.001 6.5c-8.66699 0 -17 -7.33301 -25 -22l-102 -202c-3.33301 -5.33301 -5 -9.66602 -5 -12.999c0 -5.33301 3.66699 -8 11 -8h117c12.667 0 19 6.66699 19 20z" />
    <glyph glyph-name="Ccedilla" unicode="&#xc7;" horiz-adv-x="737" 
d="M711 231c0 -4 -0.335938 -7.33301 -1.00293 -10c-4 -22.667 -16.667 -50.834 -38 -84.501s-53 -64.667 -95 -93s-93.333 -45.5 -154 -51.5l-14 -36c-0.666992 -1.33301 -1 -3 -1 -5c0 -2.66699 2.33301 -4 7 -4c36 0 62.667 -8.5 80 -25.5s26 -36.5 26 -58.5
c0 -26 -13 -47.167 -39 -63.5s-57.333 -24.5 -94 -24.5c-52 0 -94.333 8.33301 -127 25c-6.66699 4.66699 -8.66699 10 -6 16l17 41c2 5.33301 6 7 12 5c29.333 -15.333 55.666 -23 78.999 -23c14 0 25.333 2.33301 34 7s13 11.334 13 20.001c0 12.667 -7 22.334 -21 29.001
s-37.333 10 -70 10c-5.33301 0 -8.83301 0.666992 -10.5 2s-1.5 4.66602 0.5 9.99902l32 75c-62.667 6.66699 -117.5 27.334 -164.5 62.001s-83.167 80.334 -108.5 137.001s-38 120 -38 190c0 74.667 14.5 140 43.5 196s70.333 99.167 124 129.5s116.167 45.5 187.5 45.5
c55.333 0 105.333 -9.83301 150 -29.5s81.334 -46.834 110.001 -81.501s47.334 -74.334 56.001 -119.001c2 -8 3 -14.333 3 -19c0 -6 -1.16699 -10 -3.5 -12s-6.5 -3.33301 -12.5 -4l-175 -11c-6.66699 0 -11 1.16699 -13 3.5s-4 7.5 -6 15.5c-6 32 -17 57.167 -33 75.5
s-39.333 27.5 -70 27.5c-39.333 0 -69.666 -17.333 -90.999 -52s-32 -91 -32 -169c0 -80.667 9.83301 -138 29.5 -172s50.5 -51 92.5 -51c35.333 0 65.5 9 90.5 27s45.833 48 62.5 90c2 6 7.66699 9 17 9c4.66699 0 8.33398 -0.333008 11.001 -1l125 -25
c10 -3.33301 15 -11 15 -23z" />
    <glyph glyph-name="Egrave" unicode="&#xc8;" horiz-adv-x="671" 
d="M71 742l540 0.000976562c12 0 18 -7 18 -21l-1 -116c0 -18 -8.66699 -27 -26 -27h-300c-15.333 0 -23 -6.33301 -23 -19v-85c0 -6.66699 1.66699 -11.834 5 -15.501s7.66602 -5.5 12.999 -5.5h180c14 0 21 -6.66699 21 -20v-124c0 -11.333 -6 -17 -18 -17h-185
c-4.66699 0 -8.5 -1.33301 -11.5 -4s-4.5 -6 -4.5 -10v-100c0 -5.33301 0.833008 -9 2.5 -11s4.83398 -3 9.50098 -3h325c14.667 0 22 -6.33301 22 -19v-123c0 -6.66699 -2 -12 -6 -16s-10 -6 -18 -6h-535c-10 0 -17 2 -21 6s-6 10.333 -6 19v694c0 15.333 6.33301 23 19 23
zM225.5 962.501c3.66699 2.33301 7.83398 2.49902 12.501 0.499023l238 -101c6.66699 -3.33301 10 -8 10 -14c0 -1.33301 -0.666992 -4.66602 -2 -9.99902l-15 -43c-4 -10 -10 -15 -18 -15c-0.666992 0 -4.33398 0.666992 -11.001 2l-233 56c-14 4 -21 11 -21 21
c0 4.66699 0.666992 8.33398 2 11.001l29 81c2 5.33301 4.83301 9.16602 8.5 11.499z" />
    <glyph glyph-name="Eacute" unicode="&#xc9;" horiz-adv-x="671" 
d="M71 742l540 0.000976562c12 0 18 -7 18 -21l-1 -116c0 -18 -8.66699 -27 -26 -27h-300c-15.333 0 -23 -6.33301 -23 -19v-85c0 -6.66699 1.66699 -11.834 5 -15.501s7.66602 -5.5 12.999 -5.5h180c14 0 21 -6.66699 21 -20v-124c0 -11.333 -6 -17 -18 -17h-185
c-4.66699 0 -8.5 -1.33301 -11.5 -4s-4.5 -6 -4.5 -10v-100c0 -5.33301 0.833008 -9 2.5 -11s4.83398 -3 9.50098 -3h325c14.667 0 22 -6.33301 22 -19v-123c0 -6.66699 -2 -12 -6 -16s-10 -6 -18 -6h-535c-10 0 -17 2 -21 6s-6 10.333 -6 19v694c0 15.333 6.33301 23 19 23
zM484 870.001c1.33301 -2.66699 2.00098 -6.33203 2.00098 -10.999c0 -10 -7 -17 -21 -21l-233 -56c-6.66699 -1.33301 -10.334 -2 -11.001 -2c-8 0 -14 5 -18 15l-15 43c-1.33301 5.33301 -2 8.66602 -2 9.99902c0 6 3.33301 10.667 10 14l238 101
c1.33301 0.666992 3.33301 1 6 1c6.66699 0 11.667 -4.33301 15 -13z" />
    <glyph glyph-name="Ecircumflex" unicode="&#xca;" horiz-adv-x="671" 
d="M71 742l540 0.000976562c12 0 18 -7 18 -21l-1 -116c0 -18 -8.66699 -27 -26 -27h-300c-15.333 0 -23 -6.33301 -23 -19v-85c0 -6.66699 1.66699 -11.834 5 -15.501s7.66602 -5.5 12.999 -5.5h180c14 0 21 -6.66699 21 -20v-124c0 -11.333 -6 -17 -18 -17h-185
c-4.66699 0 -8.5 -1.33301 -11.5 -4s-4.5 -6 -4.5 -10v-100c0 -5.33301 0.833008 -9 2.5 -11s4.83398 -3 9.50098 -3h325c14.667 0 22 -6.33301 22 -19v-123c0 -6.66699 -2 -12 -6 -16s-10 -6 -18 -6h-535c-10 0 -17 2 -21 6s-6 10.333 -6 19v694c0 15.333 6.33301 23 19 23
zM351 871.001c-7.33301 9.33301 -12.999 14.002 -16.999 14.002s-9.66699 -4.66699 -17 -14l-46 -55c-3.33301 -4.66699 -6.5 -7.33398 -9.5 -8.00098s-8.5 -1 -16.5 -1h-99c-6 0 -9 2 -9 6c0 3.33301 2 7.33301 6 12l112 125c4.66699 5.33301 9.66699 9.16602 15 11.499
s12.666 3.5 21.999 3.5h95c6 0 11.167 -1.16699 15.5 -3.5s8.5 -5.5 12.5 -9.5l111 -127c5.33301 -6.66699 8 -11 8 -13c0 -3.33301 -3.33301 -5 -10 -5h-105c-7.33301 0 -12.833 0.5 -16.5 1.5s-7.16699 3.5 -10.5 7.5z" />
    <glyph glyph-name="Edieresis" unicode="&#xcb;" horiz-adv-x="671" 
d="M71 742l540 0.000976562c12 0 18 -7 18 -21l-1 -116c0 -18 -8.66699 -27 -26 -27h-300c-15.333 0 -23 -6.33301 -23 -19v-85c0 -6.66699 1.66699 -11.834 5 -15.501s7.66602 -5.5 12.999 -5.5h180c14 0 21 -6.66699 21 -20v-124c0 -11.333 -6 -17 -18 -17h-185
c-4.66699 0 -8.5 -1.33301 -11.5 -4s-4.5 -6 -4.5 -10v-100c0 -5.33301 0.833008 -9 2.5 -11s4.83398 -3 9.50098 -3h325c14.667 0 22 -6.33301 22 -19v-123c0 -6.66699 -2 -12 -6 -16s-10 -6 -18 -6h-535c-10 0 -17 2 -21 6s-6 10.333 -6 19v694c0 15.333 6.33301 23 19 23
zM301 835.001c0 -8.66699 -2.33301 -14.834 -7 -18.501s-12 -5.5 -22 -5.5h-120c-8 0 -13.667 1.66699 -17 5s-5 9 -5 17v101c0 13.333 5.33301 20 16 20h139c4.66699 0 8.5 -1.66699 11.5 -5s4.5 -7.66602 4.5 -12.999v-101zM541 835.001
c0 -8.66699 -2.33301 -14.834 -7 -18.501s-12 -5.5 -22 -5.5h-120c-8 0 -13.667 1.66699 -17 5s-5 9 -5 17v101c0 13.333 5.33301 20 16 20h139c4.66699 0 8.5 -1.66699 11.5 -5s4.5 -7.66602 4.5 -12.999v-101z" />
    <glyph glyph-name="Igrave" unicode="&#xcc;" horiz-adv-x="331" 
d="M261 742c12 0 17.999 -7 17.999 -21v-692c0 -10.667 -2.66699 -18.167 -8 -22.5s-13.666 -6.5 -24.999 -6.5h-167c-10 0 -17 2 -21 6s-6 10.333 -6 19v694c0 7.33301 1.66699 13 5 17s8 6 14 6h190zM55.499 962.5c3.66699 2.33301 7.83398 2.49902 12.501 0.499023
l238 -101c6.66699 -3.33301 10 -8 10 -14c0 -1.33301 -0.666992 -4.66602 -2 -9.99902l-15 -43c-4 -10 -10 -15 -18 -15c-0.666992 0 -4.33398 0.666992 -11.001 2l-233 56c-14 4 -21 11 -21 21c0 4.66699 0.666992 8.33398 2 11.001l29 81
c2 5.33301 4.83301 9.16602 8.5 11.499z" />
    <glyph glyph-name="Iacute" unicode="&#xcd;" horiz-adv-x="331" 
d="M261 742c12 0 17.999 -7 17.999 -21v-692c0 -10.667 -2.66699 -18.167 -8 -22.5s-13.666 -6.5 -24.999 -6.5h-167c-10 0 -17 2 -21 6s-6 10.333 -6 19v694c0 7.33301 1.66699 13 5 17s8 6 14 6h190zM313.999 870c1.33301 -2.66699 2.00098 -6.33203 2.00098 -10.999
c0 -10 -7 -17 -21 -21l-233 -56c-6.66699 -1.33301 -10.334 -2 -11.001 -2c-8 0 -14 5 -18 15l-15 43c-1.33301 5.33301 -2 8.66602 -2 9.99902c0 6 3.33301 10.667 10 14l238 101c1.33301 0.666992 3.33301 1 6 1c6.66699 0 11.667 -4.33301 15 -13z" />
    <glyph glyph-name="Icircumflex" unicode="&#xce;" horiz-adv-x="331" 
d="M261 742c12 0 17.999 -7 17.999 -21v-692c0 -10.667 -2.66699 -18.167 -8 -22.5s-13.666 -6.5 -24.999 -6.5h-167c-10 0 -17 2 -21 6s-6 10.333 -6 19v694c0 7.33301 1.66699 13 5 17s8 6 14 6h190zM180.999 871c-7.33301 9.33301 -12.999 14.002 -16.999 14.002
s-9.66699 -4.66699 -17 -14l-46 -55c-3.33301 -4.66699 -6.5 -7.33398 -9.5 -8.00098s-8.5 -1 -16.5 -1h-99c-6 0 -9 2 -9 6c0 3.33301 2 7.33301 6 12l112 125c4.66699 5.33301 9.66699 9.16602 15 11.499s12.666 3.5 21.999 3.5h95c6 0 11.167 -1.16699 15.5 -3.5
s8.5 -5.5 12.5 -9.5l111 -127c5.33301 -6.66699 8 -11 8 -13c0 -3.33301 -3.33301 -5 -10 -5h-105c-7.33301 0 -12.833 0.5 -16.5 1.5s-7.16699 3.5 -10.5 7.5z" />
    <glyph glyph-name="Idieresis" unicode="&#xcf;" horiz-adv-x="331" 
d="M261 742c12 0 17.999 -7 17.999 -21v-692c0 -10.667 -2.66699 -18.167 -8 -22.5s-13.666 -6.5 -24.999 -6.5h-167c-10 0 -17 2 -21 6s-6 10.333 -6 19v694c0 7.33301 1.66699 13 5 17s8 6 14 6h190zM130.999 835c0 -8.66699 -2.33301 -14.834 -7 -18.501
s-12 -5.5 -22 -5.5h-120c-8 0 -13.667 1.66699 -17 5s-5 9 -5 17v101c0 13.333 5.33301 20 16 20h139c4.66699 0 8.5 -1.66699 11.5 -5s4.5 -7.66602 4.5 -12.999v-101zM370.999 835c0 -8.66699 -2.33301 -14.834 -7 -18.501s-12 -5.5 -22 -5.5h-120
c-8 0 -13.667 1.66699 -17 5s-5 9 -5 17v101c0 13.333 5.33301 20 16 20h139c4.66699 0 8.5 -1.66699 11.5 -5s4.5 -7.66602 4.5 -12.999v-101z" />
    <glyph glyph-name="Eth" unicode="&#xd0;" horiz-adv-x="791" 
d="M660 635.5c66.667 -65.667 100 -153.167 100 -262.5c0 -73.333 -15 -138 -45 -194s-74.667 -99.833 -134 -131.5s-131.666 -47.5 -216.999 -47.5h-263c-10 -0 -17.333 2.33301 -22 7s-7 12.334 -7 23.001v263h-22c-10 0 -16.833 2 -20.5 6s-5.5 10.333 -5.5 19v93
c0 15.333 6.33301 23 19 23h29v283c0 9.33301 2 15.833 6 19.5s11 5.5 21 5.5h118c79.333 0 128.666 -0.333008 147.999 -1c130 -4.66699 228.333 -39.834 295 -105.501zM470.5 208.5c34.333 34.333 51.5 90.165 51.5 167.498c0 66.667 -13 116.334 -39 149.001
s-64 51.334 -114 56.001l-60 4c-3.33301 0 -5.83301 -1 -7.5 -3s-2.5 -5.66699 -2.5 -11v-137h115c5.33301 0 9.66602 -1.83301 12.999 -5.5s5 -8.5 5 -14.5v-93c0 -10 -2.66699 -17.167 -8 -21.5s-13.666 -6.5 -24.999 -6.5h-100v-121c0 -6 1 -10 3 -12s5.66699 -3 11 -3h7
c66 0 116.167 17.167 150.5 51.5z" />
    <glyph glyph-name="Ntilde" unicode="&#xd1;" horiz-adv-x="761" 
d="M694 742c10 0 15.002 -5.66797 15.002 -17.001v-707c0 -5.33301 -2.16699 -9.66602 -6.5 -12.999s-9.83301 -5 -16.5 -5h-137c-6 0 -10.833 1 -14.5 3s-7.83398 6 -12.501 12l-275 373c-2.66699 3.33301 -5 4.66602 -7 3.99902s-3 -2.66699 -3 -6v-364
c0.666992 -8 -0.833008 -13.667 -4.5 -17s-10.167 -5 -19.5 -5h-136c-16.667 0 -25 6.66699 -25 20v699c0 15.333 7.33301 23 22 23h163c8.66699 0 15.167 -1.16699 19.5 -3.5s9.16602 -7.16602 14.499 -14.499l240 -334c4 -6 7.66699 -9 11 -9s5 4.33301 5 13v327
c0 14 7.33301 21 22 21h145zM521.002 829.999c-18 -6 -36.665 -9.00098 -55.998 -9.00098c-13.333 0 -26 1.33301 -38 4s-26.667 6.66699 -44 12c-2.66699 0.666992 -12.5 3.33398 -29.5 8.00098s-33.833 7 -50.5 7c-14 0 -26 -1.83301 -36 -5.5s-21.667 -10.167 -35 -19.5
c-5.33301 -3.33301 -9.33301 -5 -12 -5c-4.66699 0 -8.33398 4.33301 -11.001 13l-17 54c-0.666992 1.33301 -1.33398 3 -2.00098 5s-1 4.33301 -1 7c0 5.33301 3.66699 11.666 11 18.999c14 13.333 28.5 23.5 43.5 30.5s33.167 10.5 54.5 10.5c15.333 0 30 -1.66699 44 -5
s31 -8 51 -14c12.667 -4 25.167 -7.5 37.5 -10.5s23.5 -4.5 33.5 -4.5c25.333 0 51 9.33301 77 28c3.33301 2.66699 7 4 11 4c6.66699 0 11 -4.33301 13 -13l14 -65c0.666992 -2 1 -4.66699 1 -8c0 -7.33301 -5 -14.666 -15 -21.999c-11.333 -8 -26 -15 -44 -21z" />
    <glyph glyph-name="Ograve" unicode="&#xd2;" horiz-adv-x="780" 
d="M200.5 36.5c-54.333 31 -96.167 75 -125.5 132s-44 123.833 -44 200.5s14.833 143.834 44.5 201.501s71.667 102.334 126 134.001s117.5 47.5 189.5 47.5c71.333 0 134 -15.833 188 -47.5s95.833 -76.334 125.5 -134.001s44.5 -124.834 44.5 -201.501
c0 -76 -14.667 -142.667 -44 -200s-71 -101.5 -125 -132.5s-117 -46.5 -189 -46.5c-72.667 0 -136.167 15.5 -190.5 46.5zM460.999 167.5c17.333 14.333 30.002 37.5 38.002 69.5s12 75 12 129c0 82.667 -9.33301 142 -28 178s-49.334 54 -92.001 54
c-43.333 0 -74.5 -18 -93.5 -54s-28.5 -95.333 -28.5 -178c0 -54 4 -97 12 -129s20.833 -55.167 38.5 -69.5s41.5 -21.5 71.5 -21.5c29.333 0 52.666 7.16699 69.999 21.5zM279.501 962.5c3.66699 2.33301 7.83398 2.49902 12.501 0.499023l238 -101
c6.66699 -3.33301 10 -8 10 -14c0 -1.33301 -0.666992 -4.66602 -2 -9.99902l-15 -43c-4 -10 -10 -15 -18 -15c-0.666992 0 -4.33398 0.666992 -11.001 2l-233 56c-14 4 -21 11 -21 21c0 4.66699 0.666992 8.33398 2 11.001l29 81c2 5.33301 4.83301 9.16602 8.5 11.499z
" />
    <glyph glyph-name="Oacute" unicode="&#xd3;" horiz-adv-x="780" 
d="M200.5 36.5c-54.333 31 -96.167 75 -125.5 132s-44 123.833 -44 200.5s14.833 143.834 44.5 201.501s71.667 102.334 126 134.001s117.5 47.5 189.5 47.5c71.333 0 134 -15.833 188 -47.5s95.833 -76.334 125.5 -134.001s44.5 -124.834 44.5 -201.501
c0 -76 -14.667 -142.667 -44 -200s-71 -101.5 -125 -132.5s-117 -46.5 -189 -46.5c-72.667 0 -136.167 15.5 -190.5 46.5zM460.999 167.5c17.333 14.333 30.002 37.5 38.002 69.5s12 75 12 129c0 82.667 -9.33301 142 -28 178s-49.334 54 -92.001 54
c-43.333 0 -74.5 -18 -93.5 -54s-28.5 -95.333 -28.5 -178c0 -54 4 -97 12 -129s20.833 -55.167 38.5 -69.5s41.5 -21.5 71.5 -21.5c29.333 0 52.666 7.16699 69.999 21.5zM538.001 870c1.33301 -2.66699 2.00098 -6.33203 2.00098 -10.999c0 -10 -7 -17 -21 -21l-233 -56
c-6.66699 -1.33301 -10.334 -2 -11.001 -2c-8 0 -14 5 -18 15l-15 43c-1.33301 5.33301 -2 8.66602 -2 9.99902c0 6 3.33301 10.667 10 14l238 101c1.33301 0.666992 3.33301 1 6 1c6.66699 0 11.667 -4.33301 15 -13z" />
    <glyph glyph-name="Ocircumflex" unicode="&#xd4;" horiz-adv-x="780" 
d="M200.5 36.5c-54.333 31 -96.167 75 -125.5 132s-44 123.833 -44 200.5s14.833 143.834 44.5 201.501s71.667 102.334 126 134.001s117.5 47.5 189.5 47.5c71.333 0 134 -15.833 188 -47.5s95.833 -76.334 125.5 -134.001s44.5 -124.834 44.5 -201.501
c0 -76 -14.667 -142.667 -44 -200s-71 -101.5 -125 -132.5s-117 -46.5 -189 -46.5c-72.667 0 -136.167 15.5 -190.5 46.5zM460.999 167.5c17.333 14.333 30.002 37.5 38.002 69.5s12 75 12 129c0 82.667 -9.33301 142 -28 178s-49.334 54 -92.001 54
c-43.333 0 -74.5 -18 -93.5 -54s-28.5 -95.333 -28.5 -178c0 -54 4 -97 12 -129s20.833 -55.167 38.5 -69.5s41.5 -21.5 71.5 -21.5c29.333 0 52.666 7.16699 69.999 21.5zM405.001 871c-7.33301 9.33301 -12.999 14.002 -16.999 14.002s-9.66699 -4.66699 -17 -14l-46 -55
c-3.33301 -4.66699 -6.5 -7.33398 -9.5 -8.00098s-8.5 -1 -16.5 -1h-99c-6 0 -9 2 -9 6c0 3.33301 2 7.33301 6 12l112 125c4.66699 5.33301 9.66699 9.16602 15 11.499s12.666 3.5 21.999 3.5h95c6 0 11.167 -1.16699 15.5 -3.5s8.5 -5.5 12.5 -9.5l111 -127
c5.33301 -6.66699 8 -11 8 -13c0 -3.33301 -3.33301 -5 -10 -5h-105c-7.33301 0 -12.833 0.5 -16.5 1.5s-7.16699 3.5 -10.5 7.5z" />
    <glyph glyph-name="Otilde" unicode="&#xd5;" horiz-adv-x="780" 
d="M200.5 36.5c-54.333 31 -96.167 75 -125.5 132s-44 123.833 -44 200.5s14.833 143.834 44.5 201.501s71.667 102.334 126 134.001s117.5 47.5 189.5 47.5c71.333 0 134 -15.833 188 -47.5s95.833 -76.334 125.5 -134.001s44.5 -124.834 44.5 -201.501
c0 -76 -14.667 -142.667 -44 -200s-71 -101.5 -125 -132.5s-117 -46.5 -189 -46.5c-72.667 0 -136.167 15.5 -190.5 46.5zM460.999 167.5c17.333 14.333 30.002 37.5 38.002 69.5s12 75 12 129c0 82.667 -9.33301 142 -28 178s-49.334 54 -92.001 54
c-43.333 0 -74.5 -18 -93.5 -54s-28.5 -95.333 -28.5 -178c0 -54 4 -97 12 -129s20.833 -55.167 38.5 -69.5s41.5 -21.5 71.5 -21.5c29.333 0 52.666 7.16699 69.999 21.5zM530.001 830c-18 -6 -36.665 -9.00098 -55.998 -9.00098c-13.333 0 -26 1.33301 -38 4
s-26.667 6.66699 -44 12c-2.66699 0.666992 -12.5 3.33398 -29.5 8.00098s-33.833 7 -50.5 7c-14 0 -26 -1.83301 -36 -5.5s-21.667 -10.167 -35 -19.5c-5.33301 -3.33301 -9.33301 -5 -12 -5c-4.66699 0 -8.33398 4.33301 -11.001 13l-17 54
c-0.666992 1.33301 -1.33398 3 -2.00098 5s-1 4.33301 -1 7c0 5.33301 3.66699 11.666 11 18.999c14 13.333 28.5 23.5 43.5 30.5s33.167 10.5 54.5 10.5c15.333 0 30 -1.66699 44 -5s31 -8 51 -14c12.667 -4 25.167 -7.5 37.5 -10.5s23.5 -4.5 33.5 -4.5
c25.333 0 51 9.33301 77 28c3.33301 2.66699 7 4 11 4c6.66699 0 11 -4.33301 13 -13l14 -65c0.666992 -2 1 -4.66699 1 -8c0 -7.33301 -5 -14.666 -15 -21.999c-11.333 -8 -26 -15 -44 -21z" />
    <glyph glyph-name="Odieresis" unicode="&#xd6;" horiz-adv-x="780" 
d="M200.5 36.5c-54.333 31 -96.167 75 -125.5 132s-44 123.833 -44 200.5s14.833 143.834 44.5 201.501s71.667 102.334 126 134.001s117.5 47.5 189.5 47.5c71.333 0 134 -15.833 188 -47.5s95.833 -76.334 125.5 -134.001s44.5 -124.834 44.5 -201.501
c0 -76 -14.667 -142.667 -44 -200s-71 -101.5 -125 -132.5s-117 -46.5 -189 -46.5c-72.667 0 -136.167 15.5 -190.5 46.5zM460.999 167.5c17.333 14.333 30.002 37.5 38.002 69.5s12 75 12 129c0 82.667 -9.33301 142 -28 178s-49.334 54 -92.001 54
c-43.333 0 -74.5 -18 -93.5 -54s-28.5 -95.333 -28.5 -178c0 -54 4 -97 12 -129s20.833 -55.167 38.5 -69.5s41.5 -21.5 71.5 -21.5c29.333 0 52.666 7.16699 69.999 21.5zM355.001 835c0 -8.66699 -2.33301 -14.834 -7 -18.501s-12 -5.5 -22 -5.5h-120
c-8 0 -13.667 1.66699 -17 5s-5 9 -5 17v101c0 13.333 5.33301 20 16 20h139c4.66699 0 8.5 -1.66699 11.5 -5s4.5 -7.66602 4.5 -12.999v-101zM595.001 835c0 -8.66699 -2.33301 -14.834 -7 -18.501s-12 -5.5 -22 -5.5h-120c-8 0 -13.667 1.66699 -17 5s-5 9 -5 17v101
c0 13.333 5.33301 20 16 20h139c4.66699 0 8.5 -1.66699 11.5 -5s4.5 -7.66602 4.5 -12.999v-101z" />
    <glyph glyph-name="multiply" unicode="&#xd7;" 
d="M544 230c3.33301 -3.33301 5 -7.33398 5 -12.001c0 -5.33301 -2.33301 -10 -7 -14l-66 -66c-6.66699 -6.66699 -13 -10 -19 -10c-7.33301 0 -15.333 4.33301 -24 13l-132 132l-143 -142c-4 -4 -8 -6 -12 -6s-9 2.33301 -15 7l-65 66c-6.66699 6 -10 12.333 -10 19
c0 7.33301 4.33301 15.333 13 24l132 132l-138 138c-6.66699 6.66699 -10 12.667 -10 18s3.33301 11.333 10 18l65 66c6 6 11.667 9 17 9c4.66699 0 9 -2 13 -6l143 -143l138 138c6.66699 6.66699 13 10 19 10c5.33301 0 11 -3 17 -9l66 -66c5.33301 -5.33301 8 -11 8 -17
c0 -5.33301 -1.66699 -9.66602 -5 -12.999l-143 -143z" />
    <glyph glyph-name="Oslash" unicode="&#xd8;" horiz-adv-x="786" 
d="M782 673c0 -4.66699 -2.33398 -9.33398 -7.00098 -14.001l-76 -74c35.333 -61.333 53 -133.333 53 -216c0 -76 -14.667 -142.667 -44 -200s-71 -101.5 -125 -132.5s-117 -46.5 -189 -46.5c-91.333 0 -168 24.333 -230 73l-57 -56c-8 -8 -15 -12 -21 -12
c-6.66699 0 -14 4 -22 12l-39 40c-8 8 -12 15 -12 21c0 5.33301 2.66699 10.666 8 15.999l67 66c-36 60.667 -54 133.667 -54 219c0 76.667 14.833 143.834 44.5 201.501s71.667 102.334 126 134.001s117.5 47.5 189.5 47.5c92 0 169.333 -26 232 -78l65 63
c6.66699 6.66699 13.334 10 20.001 10c4 0 7.66699 -1.66699 11 -5l54 -56c4 -4 6 -8.33301 6 -13zM272.999 329l215 210c-18 39.333 -49.333 59 -94 59c-43.333 0 -74.5 -18 -93.5 -54s-28.5 -95.333 -28.5 -178c0 -16 0.333008 -28.333 1 -37zM512.999 404
l-212.999 -209.001c18 -32.667 49.333 -49 94 -49c29.333 0 52.666 7.16699 69.999 21.5s30 37.5 38 69.5s12 75 12 129c0 16.667 -0.333008 29.334 -1 38.001z" />
    <glyph glyph-name="Ugrave" unicode="&#xd9;" horiz-adv-x="728" 
d="M601 59.5c-55.333 -46.333 -134.333 -69.501 -237 -69.501c-115.333 0 -197.5 26.667 -246.5 80s-73.5 134.333 -73.5 243v406c0 7.33301 1.66699 13 5 17s8 6 14 6h190c12 0 18 -7 18 -21v-432c0 -49.333 9.5 -85 28.5 -107s46.167 -33 81.5 -33
c34.667 0 62.667 11 84 33s32 58.667 32 110v427c0 15.333 6.33301 23 19 23h150c12 0 18 -7 18 -21v-428c0 -109.333 -27.667 -187.166 -83 -233.499zM270.5 962.499c3.66699 2.33301 7.83398 2.49902 12.501 0.499023l238 -101c6.66699 -3.33301 10 -8 10 -14
c0 -1.33301 -0.666992 -4.66602 -2 -9.99902l-15 -43c-4 -10 -10 -15 -18 -15c-0.666992 0 -4.33398 0.666992 -11.001 2l-233 56c-14 4 -21 11 -21 21c0 4.66699 0.666992 8.33398 2 11.001l29 81c2 5.33301 4.83301 9.16602 8.5 11.499z" />
    <glyph glyph-name="Uacute" unicode="&#xda;" horiz-adv-x="728" 
d="M601 59.5c-55.333 -46.333 -134.333 -69.501 -237 -69.501c-115.333 0 -197.5 26.667 -246.5 80s-73.5 134.333 -73.5 243v406c0 7.33301 1.66699 13 5 17s8 6 14 6h190c12 0 18 -7 18 -21v-432c0 -49.333 9.5 -85 28.5 -107s46.167 -33 81.5 -33
c34.667 0 62.667 11 84 33s32 58.667 32 110v427c0 15.333 6.33301 23 19 23h150c12 0 18 -7 18 -21v-428c0 -109.333 -27.667 -187.166 -83 -233.499zM529 869.999c1.33301 -2.66699 2.00098 -6.33203 2.00098 -10.999c0 -10 -7 -17 -21 -21l-233 -56
c-6.66699 -1.33301 -10.334 -2 -11.001 -2c-8 0 -14 5 -18 15l-15 43c-1.33301 5.33301 -2 8.66602 -2 9.99902c0 6 3.33301 10.667 10 14l238 101c1.33301 0.666992 3.33301 1 6 1c6.66699 0 11.667 -4.33301 15 -13z" />
    <glyph glyph-name="Ucircumflex" unicode="&#xdb;" horiz-adv-x="728" 
d="M601 59.5c-55.333 -46.333 -134.333 -69.501 -237 -69.501c-115.333 0 -197.5 26.667 -246.5 80s-73.5 134.333 -73.5 243v406c0 7.33301 1.66699 13 5 17s8 6 14 6h190c12 0 18 -7 18 -21v-432c0 -49.333 9.5 -85 28.5 -107s46.167 -33 81.5 -33
c34.667 0 62.667 11 84 33s32 58.667 32 110v427c0 15.333 6.33301 23 19 23h150c12 0 18 -7 18 -21v-428c0 -109.333 -27.667 -187.166 -83 -233.499zM396 870.999c-7.33301 9.33301 -12.999 14.002 -16.999 14.002s-9.66699 -4.66699 -17 -14l-46 -55
c-3.33301 -4.66699 -6.5 -7.33398 -9.5 -8.00098s-8.5 -1 -16.5 -1h-99c-6 0 -9 2 -9 6c0 3.33301 2 7.33301 6 12l112 125c4.66699 5.33301 9.66699 9.16602 15 11.499s12.666 3.5 21.999 3.5h95c6 0 11.167 -1.16699 15.5 -3.5s8.5 -5.5 12.5 -9.5l111 -127
c5.33301 -6.66699 8 -11 8 -13c0 -3.33301 -3.33301 -5 -10 -5h-105c-7.33301 0 -12.833 0.5 -16.5 1.5s-7.16699 3.5 -10.5 7.5z" />
    <glyph glyph-name="Udieresis" unicode="&#xdc;" horiz-adv-x="728" 
d="M601 59.5c-55.333 -46.333 -134.333 -69.501 -237 -69.501c-115.333 0 -197.5 26.667 -246.5 80s-73.5 134.333 -73.5 243v406c0 7.33301 1.66699 13 5 17s8 6 14 6h190c12 0 18 -7 18 -21v-432c0 -49.333 9.5 -85 28.5 -107s46.167 -33 81.5 -33
c34.667 0 62.667 11 84 33s32 58.667 32 110v427c0 15.333 6.33301 23 19 23h150c12 0 18 -7 18 -21v-428c0 -109.333 -27.667 -187.166 -83 -233.499zM346 834.999c0 -8.66699 -2.33301 -14.834 -7 -18.501s-12 -5.5 -22 -5.5h-120c-8 0 -13.667 1.66699 -17 5s-5 9 -5 17
v101c0 13.333 5.33301 20 16 20h139c4.66699 0 8.5 -1.66699 11.5 -5s4.5 -7.66602 4.5 -12.999v-101zM586 834.999c0 -8.66699 -2.33301 -14.834 -7 -18.501s-12 -5.5 -22 -5.5h-120c-8 0 -13.667 1.66699 -17 5s-5 9 -5 17v101c0 13.333 5.33301 20 16 20h139
c4.66699 0 8.5 -1.66699 11.5 -5s4.5 -7.66602 4.5 -12.999v-101z" />
    <glyph glyph-name="Yacute" unicode="&#xdd;" horiz-adv-x="774" 
d="M751 730c0 -2 -1.33301 -5.66797 -4 -11.001l-234 -378c-4.66699 -6.66699 -7.5 -14 -8.5 -22s-1.5 -22.667 -1.5 -44v-246c0 -10.667 -2.66699 -18.167 -8 -22.5s-13.666 -6.5 -24.999 -6.5h-168c-10 0 -16.833 2 -20.5 6s-5.5 10.333 -5.5 19v263
c0 9.33301 -1 16.833 -3 22.5s-5.66699 12.834 -11 21.501l-234 382c-2.66699 4.66699 -4 9 -4 13c0 10 7.33301 15 22 15h201c9.33301 0 16.166 -1.33301 20.499 -4s8.83301 -8.33398 13.5 -17.001l123 -222c3.33301 -6.66699 6 -10 8 -10c3.33301 0 6.33301 3 9 9l121 223
c4 8.66699 8.33301 14.334 13 17.001s11.667 4 21 4h157c12 0 18 -4 18 -12zM551 869.999c1.33301 -2.66699 2.00098 -6.33203 2.00098 -10.999c0 -10 -7 -17 -21 -21l-233 -56c-6.66699 -1.33301 -10.334 -2 -11.001 -2c-8 0 -14 5 -18 15l-15 43
c-1.33301 5.33301 -2 8.66602 -2 9.99902c0 6 3.33301 10.667 10 14l238 101c1.33301 0.666992 3.33301 1 6 1c6.66699 0 11.667 -4.33301 15 -13z" />
    <glyph glyph-name="Thorn" unicode="&#xde;" horiz-adv-x="744" 
d="M681.5 250c-23 -34.667 -55.335 -61.3301 -97.002 -79.9971s-89.5 -28 -143.5 -28h-150c-8 0 -12 -3.66699 -12 -11v-102c0 -10.667 -2.66699 -18.167 -8 -22.5s-13.666 -6.5 -24.999 -6.5h-168c-10 0 -16.833 2 -20.5 6s-5.5 10.333 -5.5 19v694
c0 7.33301 1.66699 13 5 17s8 6 14 6h190c12 0 18 -7 18 -21v-101c0 -8 3.33301 -12 10 -12h126c56 0 106.833 -8.83301 152.5 -26.5s81.834 -44.334 108.501 -80.001s40 -78.834 40 -129.501c0 -46.667 -11.5 -87.334 -34.5 -122.001zM459.998 428.004
c-16 13.333 -35.667 19.999 -59 19.999h-99c-8.66699 0 -14.667 -1.66699 -18 -5s-5 -8.66602 -5 -15.999v-103c0 -8 1.33301 -13.667 4 -17s7 -5 13 -5h111c23.333 0 42 7 56 21s21 31.333 21 52c0 22 -8 39.667 -24 53z" />
    <glyph glyph-name="germandbls" unicode="&#xdf;" horiz-adv-x="676" 
d="M520 700.5c41.333 -27.667 62.001 -67.501 62.001 -119.501c0 -35.333 -10.833 -65 -32.5 -89s-58.5 -46.333 -110.5 -67c-3.33301 -1.33301 -5 -3.66602 -5 -6.99902s2.33301 -6 7 -8c49.333 -22 88.166 -41.5 116.499 -58.5s52.166 -39.5 71.499 -67.5s29 -63 29 -105
c0 -60.667 -20.5 -107.334 -61.5 -140.001s-97.5 -49 -169.5 -49c-48 0 -88.333 8.66699 -121 26c-6 3.33301 -9 8 -9 14c0 1.33301 0.666992 4 2 8l41 89c3.33301 6 7.66602 9 12.999 9c2 0 4.66699 -1 8 -3c9.33301 -6 18.833 -10.833 28.5 -14.5s20.834 -5.5 33.501 -5.5
c16.667 0 30.5 3.66699 41.5 11s16.5 18.666 16.5 33.999c0 13.333 -5.33301 23.833 -16 31.5s-31 18.167 -61 31.5c-74 32.667 -111 81.667 -111 147c0 24 4.66699 44.833 14 62.5s22 34.834 38 51.501l24 24c11.333 11.333 19.833 22 25.5 32s8.5 20 8.5 30
c0 14 -5.5 25.667 -16.5 35s-26.5 14 -46.5 14c-25.333 0 -44.833 -7.66699 -58.5 -23s-20.5 -35 -20.5 -59v-513c0.666992 -2 1 -4.66699 1 -8c0 -9.33301 -5.33301 -14 -16 -14h-163c-12 0 -18 6.66699 -18 20v331c0 6.66699 -2.66699 10 -8 10h-26
c-14.667 0 -22 6.33301 -22 19v94c0 6.66699 2 12 6 16s10 6 18 6h18c6 0 9.83301 1.5 11.5 4.5s2.5 7.5 2.5 13.5c2.66699 64.667 25.834 118.834 69.501 162.501s114.5 65.5 212.5 65.5c74 0 131.667 -13.833 173 -41.5z" />
    <glyph glyph-name="agrave" unicode="&#xe0;" horiz-adv-x="573" 
d="M178 -10c-48.667 0 -87.499 13.6689 -116.499 41.002s-43.5 62.333 -43.5 105c0 38.667 12.5 72.834 37.5 102.501s60.667 52.667 107 69s100.5 24.5 162.5 24.5h7c10 0 15 4.66699 15 14v17c0 38.667 -19.667 58 -59 58c-16 0 -31 -3.66699 -45 -11s-25 -19.333 -33 -36
c-2 -4.66699 -4.16699 -7.83398 -6.5 -9.50098s-5.5 -2.5 -9.5 -2.5c-4.66699 0 -8.33398 0.333008 -11.001 1l-131 26c-7.33301 1.33301 -11 5.66602 -11 12.999c0 4.66699 1.33301 11 4 19c28 79.333 112 119 252 119c87.333 0 149.166 -14.333 185.499 -43
s54.5 -69.334 54.5 -122.001v-348c0 -10 -1.5 -17 -4.5 -21s-9.16699 -6 -18.5 -6h-137c-8 0 -13.833 3 -17.5 9s-6.5 14.667 -8.5 26l-1 7c-0.666992 6.66699 -3.33398 10 -8.00098 10c-5.33301 0 -11.666 -3.33301 -18.999 -10c-41.333 -34.667 -89.666 -52 -144.999 -52z
M344.001 238.002c-2 2.66699 -5.99902 3.99902 -11.999 3.99902h-4c-12.667 0 -28.167 -3 -46.5 -9s-34.5 -14.833 -48.5 -26.5s-21 -26.167 -21 -43.5c0 -14 5 -25.333 15 -34s24 -13 42 -13c21.333 0 39.666 6.33301 54.999 19s23 24.667 23 36v53
c0 6.66699 -1 11.334 -3 14.001zM186.502 750.501c3.66699 2.33301 7.83398 2.49902 12.501 0.499023l238 -101c6.66699 -3.33301 10 -8 10 -14c0 -1.33301 -0.666992 -4.66602 -2 -9.99902l-15 -43c-4 -10 -10 -15 -18 -15c-0.666992 0 -4.33398 0.666992 -11.001 2
l-233 56c-14 4 -21 11 -21 21c0 4.66699 0.666992 8.33398 2 11.001l29 81c2 5.33301 4.83301 9.16602 8.5 11.499z" />
    <glyph glyph-name="aacute" unicode="&#xe1;" horiz-adv-x="573" 
d="M178 -10c-48.667 0 -87.499 13.6689 -116.499 41.002s-43.5 62.333 -43.5 105c0 38.667 12.5 72.834 37.5 102.501s60.667 52.667 107 69s100.5 24.5 162.5 24.5h7c10 0 15 4.66699 15 14v17c0 38.667 -19.667 58 -59 58c-16 0 -31 -3.66699 -45 -11s-25 -19.333 -33 -36
c-2 -4.66699 -4.16699 -7.83398 -6.5 -9.50098s-5.5 -2.5 -9.5 -2.5c-4.66699 0 -8.33398 0.333008 -11.001 1l-131 26c-7.33301 1.33301 -11 5.66602 -11 12.999c0 4.66699 1.33301 11 4 19c28 79.333 112 119 252 119c87.333 0 149.166 -14.333 185.499 -43
s54.5 -69.334 54.5 -122.001v-348c0 -10 -1.5 -17 -4.5 -21s-9.16699 -6 -18.5 -6h-137c-8 0 -13.833 3 -17.5 9s-6.5 14.667 -8.5 26l-1 7c-0.666992 6.66699 -3.33398 10 -8.00098 10c-5.33301 0 -11.666 -3.33301 -18.999 -10c-41.333 -34.667 -89.666 -52 -144.999 -52z
M344.001 238.002c-2 2.66699 -5.99902 3.99902 -11.999 3.99902h-4c-12.667 0 -28.167 -3 -46.5 -9s-34.5 -14.833 -48.5 -26.5s-21 -26.167 -21 -43.5c0 -14 5 -25.333 15 -34s24 -13 42 -13c21.333 0 39.666 6.33301 54.999 19s23 24.667 23 36v53
c0 6.66699 -1 11.334 -3 14.001zM445.002 658.001c1.33301 -2.66699 2.00098 -6.33203 2.00098 -10.999c0 -10 -7 -17 -21 -21l-233 -56c-6.66699 -1.33301 -10.334 -2 -11.001 -2c-8 0 -14 5 -18 15l-15 43c-1.33301 5.33301 -2 8.66602 -2 9.99902
c0 6 3.33301 10.667 10 14l238 101c1.33301 0.666992 3.33301 1 6 1c6.66699 0 11.667 -4.33301 15 -13z" />
    <glyph glyph-name="acircumflex" unicode="&#xe2;" horiz-adv-x="573" 
d="M178 -10c-48.667 0 -87.499 13.6689 -116.499 41.002s-43.5 62.333 -43.5 105c0 38.667 12.5 72.834 37.5 102.501s60.667 52.667 107 69s100.5 24.5 162.5 24.5h7c10 0 15 4.66699 15 14v17c0 38.667 -19.667 58 -59 58c-16 0 -31 -3.66699 -45 -11s-25 -19.333 -33 -36
c-2 -4.66699 -4.16699 -7.83398 -6.5 -9.50098s-5.5 -2.5 -9.5 -2.5c-4.66699 0 -8.33398 0.333008 -11.001 1l-131 26c-7.33301 1.33301 -11 5.66602 -11 12.999c0 4.66699 1.33301 11 4 19c28 79.333 112 119 252 119c87.333 0 149.166 -14.333 185.499 -43
s54.5 -69.334 54.5 -122.001v-348c0 -10 -1.5 -17 -4.5 -21s-9.16699 -6 -18.5 -6h-137c-8 0 -13.833 3 -17.5 9s-6.5 14.667 -8.5 26l-1 7c-0.666992 6.66699 -3.33398 10 -8.00098 10c-5.33301 0 -11.666 -3.33301 -18.999 -10c-41.333 -34.667 -89.666 -52 -144.999 -52z
M344.001 238.002c-2 2.66699 -5.99902 3.99902 -11.999 3.99902h-4c-12.667 0 -28.167 -3 -46.5 -9s-34.5 -14.833 -48.5 -26.5s-21 -26.167 -21 -43.5c0 -14 5 -25.333 15 -34s24 -13 42 -13c21.333 0 39.666 6.33301 54.999 19s23 24.667 23 36v53
c0 6.66699 -1 11.334 -3 14.001zM312.002 659.001c-7.33301 9.33301 -12.999 14.002 -16.999 14.002s-9.66699 -4.66699 -17 -14l-46 -55c-3.33301 -4.66699 -6.5 -7.33398 -9.5 -8.00098s-8.5 -1 -16.5 -1h-99c-6 0 -9 2 -9 6c0 3.33301 2 7.33301 6 12l112 125
c4.66699 5.33301 9.66699 9.16602 15 11.499s12.666 3.5 21.999 3.5h95c6 0 11.167 -1.16699 15.5 -3.5s8.5 -5.5 12.5 -9.5l111 -127c5.33301 -6.66699 8 -11 8 -13c0 -3.33301 -3.33301 -5 -10 -5h-105c-7.33301 0 -12.833 0.5 -16.5 1.5s-7.16699 3.5 -10.5 7.5z" />
    <glyph glyph-name="atilde" unicode="&#xe3;" horiz-adv-x="573" 
d="M178 -10c-48.667 0 -87.499 13.6689 -116.499 41.002s-43.5 62.333 -43.5 105c0 38.667 12.5 72.834 37.5 102.501s60.667 52.667 107 69s100.5 24.5 162.5 24.5h7c10 0 15 4.66699 15 14v17c0 38.667 -19.667 58 -59 58c-16 0 -31 -3.66699 -45 -11s-25 -19.333 -33 -36
c-2 -4.66699 -4.16699 -7.83398 -6.5 -9.50098s-5.5 -2.5 -9.5 -2.5c-4.66699 0 -8.33398 0.333008 -11.001 1l-131 26c-7.33301 1.33301 -11 5.66602 -11 12.999c0 4.66699 1.33301 11 4 19c28 79.333 112 119 252 119c87.333 0 149.166 -14.333 185.499 -43
s54.5 -69.334 54.5 -122.001v-348c0 -10 -1.5 -17 -4.5 -21s-9.16699 -6 -18.5 -6h-137c-8 0 -13.833 3 -17.5 9s-6.5 14.667 -8.5 26l-1 7c-0.666992 6.66699 -3.33398 10 -8.00098 10c-5.33301 0 -11.666 -3.33301 -18.999 -10c-41.333 -34.667 -89.666 -52 -144.999 -52z
M344.001 238.002c-2 2.66699 -5.99902 3.99902 -11.999 3.99902h-4c-12.667 0 -28.167 -3 -46.5 -9s-34.5 -14.833 -48.5 -26.5s-21 -26.167 -21 -43.5c0 -14 5 -25.333 15 -34s24 -13 42 -13c21.333 0 39.666 6.33301 54.999 19s23 24.667 23 36v53
c0 6.66699 -1 11.334 -3 14.001zM437.002 618.001c-18 -6 -36.665 -9.00098 -55.998 -9.00098c-13.333 0 -26 1.33301 -38 4s-26.667 6.66699 -44 12c-2.66699 0.666992 -12.5 3.33398 -29.5 8.00098s-33.833 7 -50.5 7c-14 0 -26 -1.83301 -36 -5.5
s-21.667 -10.167 -35 -19.5c-5.33301 -3.33301 -9.33301 -5 -12 -5c-4.66699 0 -8.33398 4.33301 -11.001 13l-17 54c-0.666992 1.33301 -1.33398 3 -2.00098 5s-1 4.33301 -1 7c0 5.33301 3.66699 11.666 11 18.999c14 13.333 28.5 23.5 43.5 30.5s33.167 10.5 54.5 10.5
c15.333 0 30 -1.66699 44 -5s31 -8 51 -14c12.667 -4 25.167 -7.5 37.5 -10.5s23.5 -4.5 33.5 -4.5c25.333 0 51 9.33301 77 28c3.33301 2.66699 7 4 11 4c6.66699 0 11 -4.33301 13 -13l14 -65c0.666992 -2 1 -4.66699 1 -8c0 -7.33301 -5 -14.666 -15 -21.999
c-11.333 -8 -26 -15 -44 -21z" />
    <glyph glyph-name="adieresis" unicode="&#xe4;" horiz-adv-x="573" 
d="M178 -10c-48.667 0 -87.499 13.6689 -116.499 41.002s-43.5 62.333 -43.5 105c0 38.667 12.5 72.834 37.5 102.501s60.667 52.667 107 69s100.5 24.5 162.5 24.5h7c10 0 15 4.66699 15 14v17c0 38.667 -19.667 58 -59 58c-16 0 -31 -3.66699 -45 -11s-25 -19.333 -33 -36
c-2 -4.66699 -4.16699 -7.83398 -6.5 -9.50098s-5.5 -2.5 -9.5 -2.5c-4.66699 0 -8.33398 0.333008 -11.001 1l-131 26c-7.33301 1.33301 -11 5.66602 -11 12.999c0 4.66699 1.33301 11 4 19c28 79.333 112 119 252 119c87.333 0 149.166 -14.333 185.499 -43
s54.5 -69.334 54.5 -122.001v-348c0 -10 -1.5 -17 -4.5 -21s-9.16699 -6 -18.5 -6h-137c-8 0 -13.833 3 -17.5 9s-6.5 14.667 -8.5 26l-1 7c-0.666992 6.66699 -3.33398 10 -8.00098 10c-5.33301 0 -11.666 -3.33301 -18.999 -10c-41.333 -34.667 -89.666 -52 -144.999 -52z
M344.001 238.002c-2 2.66699 -5.99902 3.99902 -11.999 3.99902h-4c-12.667 0 -28.167 -3 -46.5 -9s-34.5 -14.833 -48.5 -26.5s-21 -26.167 -21 -43.5c0 -14 5 -25.333 15 -34s24 -13 42 -13c21.333 0 39.666 6.33301 54.999 19s23 24.667 23 36v53
c0 6.66699 -1 11.334 -3 14.001zM262.002 623.001c0 -8.66699 -2.33301 -14.834 -7 -18.501s-12 -5.5 -22 -5.5h-120c-8 0 -13.667 1.66699 -17 5s-5 9 -5 17v101c0 13.333 5.33301 20 16 20h139c4.66699 0 8.5 -1.66699 11.5 -5s4.5 -7.66602 4.5 -12.999v-101z
M502.002 623.001c0 -8.66699 -2.33301 -14.834 -7 -18.501s-12 -5.5 -22 -5.5h-120c-8 0 -13.667 1.66699 -17 5s-5 9 -5 17v101c0 13.333 5.33301 20 16 20h139c4.66699 0 8.5 -1.66699 11.5 -5s4.5 -7.66602 4.5 -12.999v-101z" />
    <glyph glyph-name="aring" unicode="&#xe5;" horiz-adv-x="573" 
d="M178 -10c-48.667 0 -87.499 13.6689 -116.499 41.002s-43.5 62.333 -43.5 105c0 38.667 12.5 72.834 37.5 102.501s60.667 52.667 107 69s100.5 24.5 162.5 24.5h7c10 0 15 4.66699 15 14v17c0 38.667 -19.667 58 -59 58c-16 0 -31 -3.66699 -45 -11s-25 -19.333 -33 -36
c-2 -4.66699 -4.16699 -7.83398 -6.5 -9.50098s-5.5 -2.5 -9.5 -2.5c-4.66699 0 -8.33398 0.333008 -11.001 1l-131 26c-7.33301 1.33301 -11 5.66602 -11 12.999c0 4.66699 1.33301 11 4 19c28 79.333 112 119 252 119c87.333 0 149.166 -14.333 185.499 -43
s54.5 -69.334 54.5 -122.001v-348c0 -10 -1.5 -17 -4.5 -21s-9.16699 -6 -18.5 -6h-137c-8 0 -13.833 3 -17.5 9s-6.5 14.667 -8.5 26l-1 7c-0.666992 6.66699 -3.33398 10 -8.00098 10c-5.33301 0 -11.666 -3.33301 -18.999 -10c-41.333 -34.667 -89.666 -52 -144.999 -52z
M344.001 238.002c-2 2.66699 -5.99902 3.99902 -11.999 3.99902h-4c-12.667 0 -28.167 -3 -46.5 -9s-34.5 -14.833 -48.5 -26.5s-21 -26.167 -21 -43.5c0 -14 5 -25.333 15 -34s24 -13 42 -13c21.333 0 39.666 6.33301 54.999 19s23 24.667 23 36v53
c0 6.66699 -1 11.334 -3 14.001zM380.002 607.001c-22.667 -22.667 -50.333 -33.999 -83 -33.999s-60.334 11.5 -83.001 34.5s-34 51.167 -34 84.5c0 31.333 11.5 58 34.5 80s50.5 33 82.5 33c32.667 0 60.334 -11.167 83.001 -33.5s34 -49.5 34 -81.5
c0 -32.667 -11.333 -60.334 -34 -83.001zM330.003 722.502c-9.33301 9 -20.666 13.5 -33.999 13.5s-24.833 -4.5 -34.5 -13.5s-14.5 -20.167 -14.5 -33.5c0 -12.667 4.83301 -24 14.5 -34s21.167 -15 34.5 -15s24.666 4.83301 33.999 14.5s14 21.167 14 34.5
s-4.66699 24.5 -14 33.5z" />
    <glyph glyph-name="ae" unicode="&#xe6;" horiz-adv-x="915" 
d="M552 212c0 -29.333 9.5 -51.668 28.5 -67.001s43.833 -23 74.5 -23c18 0 35.333 4.16699 52 12.5s35.667 22.833 57 43.5c2.66699 2.66699 5.33398 4 8.00098 4s7 -1 13 -3l91 -37c6 -2 9 -6 9 -12c0 -4 -1.66699 -8 -5 -12
c-34.667 -48.667 -70.834 -82.167 -108.501 -100.5s-85.5 -27.5 -143.5 -27.5c-41.333 0 -80 7 -116 21s-66.667 34 -92 60c-3.33301 4 -7 4 -11 0c-30 -29.333 -62.167 -50.166 -96.5 -62.499s-74.833 -18.5 -121.5 -18.5c-55.333 0 -98 13.833 -128 41.5
s-45 64.834 -45 111.501c0 54.667 24.5 98.5 73.5 131.5s120.5 51.833 214.5 56.5l23 1c12 0 18 4.66699 18 14v17c0 38.667 -19.667 58 -59 58c-16 0 -31 -3.66699 -45 -11s-25 -19.333 -33 -36c-2 -4.66699 -4 -7.83398 -6 -9.50098s-4.66699 -2.5 -8 -2.5
c-5.33301 0 -9.66602 0.333008 -12.999 1l-131 26c-6 1.33301 -9 8 -9 20c0 5.33301 0.666992 9.33301 2 12c13.333 27.333 29.666 49.666 48.999 66.999s44.833 30.333 76.5 39s72.5 13 122.5 13c84.667 -0.666992 146.667 -14 186 -40c44 26.667 92.333 40 145 40
s99.5 -11.333 140.5 -34s73.167 -55.5 96.5 -98.5s35 -94.167 35 -153.5c0 -9.33301 -1 -15.666 -3 -18.999s-7 -5.33301 -15 -6h-311c-10 0 -15 -5.66699 -15 -17zM577 399.998c-15.333 -15.333 -22.667 -37.667 -22 -67l130 -1c6.66699 0 11.167 0.833008 13.5 2.5
s3.5 5.5 3.5 11.5c0 16.667 -6 33.667 -18 51s-29 26 -51 26s-40.667 -7.66699 -56 -23zM328.999 233.997l-13.999 -0.999023c-23.333 -2 -46.333 -9.83301 -69 -23.5s-34 -31.5 -34 -53.5c0 -14.667 5.16699 -26.334 15.5 -35.001s25.166 -13 44.499 -13
c20 0 37.5 4.66699 52.5 14s22.5 22 22.5 38v56c0 12 -6 18 -18 18z" />
    <glyph glyph-name="ccedilla" unicode="&#xe7;" horiz-adv-x="556" 
d="M538 168c0 -0.666992 -0.666992 -4.33691 -2 -11.0039c-3.33301 -19.333 -12.666 -40.666 -27.999 -63.999s-37.333 -44.666 -66 -63.999s-63.667 -31.666 -105 -36.999l-14 -36c-0.666992 -1.33301 -1 -3 -1 -5c0 -2.66699 2.33301 -4 7 -4c36 0 62.667 -8.5 80 -25.5
s26 -36.5 26 -58.5c0 -26 -13 -47.167 -39 -63.5s-57.333 -24.5 -94 -24.5c-52 0 -94.333 8.33301 -127 25c-6.66699 4.66699 -8.66699 10 -6 16l17 41c2 5.33301 6 7 12 5c29.333 -15.333 55.666 -23 78.999 -23c14 0 25.333 2.33301 34 7s13 11.334 13 20.001
c0 12.667 -7 22.334 -21 29.001s-37.333 10 -70 10c-5.33301 0 -8.83301 0.666992 -10.5 2s-1.5 4.66602 0.5 9.99902l33 76c-46 6 -86.667 21 -122 45s-63 55.5 -83 94.5s-30 82.5 -30 130.5c0 54 12 102 36 144s57 74.667 99 98s89.333 35 142 35
c44.667 0 84 -8.5 118 -25.5s61 -38.5 81 -64.5s33 -52.667 39 -80c1.33301 -5.33301 2 -8.66602 2 -9.99902c0 -9.33301 -6.66699 -14.666 -20 -15.999l-137 -7h-3c-4.66699 0 -7.83398 1 -9.50098 3s-3.16699 5.66699 -4.5 11c-2.66699 18 -8.16699 33 -16.5 45
s-23.166 18 -44.499 18c-53.333 0 -80 -49.667 -80 -149c0 -53.333 7.66699 -91.833 23 -115.5s38 -35.5 68 -35.5c17.333 0 31.833 3.16699 43.5 9.5s21.167 14.666 28.5 24.999s16.333 25.166 27 44.499c2 4 6 6 12 6c3.33301 0 6 -0.333008 8 -1l94 -18
c7.33301 -0.666992 11 -4.66699 11 -12z" />
    <glyph glyph-name="egrave" unicode="&#xe8;" horiz-adv-x="590" 
d="M255.5 145c19 -15.333 43.833 -23.001 74.5 -23.001c18 0 35.333 4.16699 52 12.5s35.667 22.833 57 43.5c2.66699 2.66699 5.33398 4 8.00098 4s7 -1 13 -3l91 -37c6 -2 9 -6 9 -12c0 -4 -1.66699 -8 -5 -12c-34.667 -48.667 -70.834 -82.167 -108.501 -100.5
s-85.5 -27.5 -143.5 -27.5c-52.667 0 -100.5 11.333 -143.5 34s-76.833 54.167 -101.5 94.5s-37 86.166 -37 137.499c0 55.333 12.667 104.5 38 147.5s59.333 76.5 102 100.5s88.667 36 138 36c52.667 0 99.5 -11.333 140.5 -34s73.167 -55.5 96.5 -98.5
s35 -94.167 35 -153.5c0 -9.33301 -1 -15.666 -3 -18.999s-7 -5.33301 -15 -6h-311c-10 0 -15 -5.66699 -15 -17c0 -29.333 9.5 -51.666 28.5 -66.999zM360 331.999c6.66699 0 11.166 0.832031 13.499 2.49902s3.5 5.5 3.5 11.5c0 16.667 -6 33.667 -18 51s-29 26 -51 26
s-40.667 -7.66699 -56 -23s-22.666 -37.666 -21.999 -66.999zM190.499 750.498c3.66699 2.33301 7.83398 2.49902 12.501 0.499023l238 -101c6.66699 -3.33301 10 -8 10 -14c0 -1.33301 -0.666992 -4.66602 -2 -9.99902l-15 -43c-4 -10 -10 -15 -18 -15
c-0.666992 0 -4.33398 0.666992 -11.001 2l-233 56c-14 4 -21 11 -21 21c0 4.66699 0.666992 8.33398 2 11.001l29 81c2 5.33301 4.83301 9.16602 8.5 11.499z" />
    <glyph glyph-name="eacute" unicode="&#xe9;" horiz-adv-x="590" 
d="M255.5 145c19 -15.333 43.833 -23.001 74.5 -23.001c18 0 35.333 4.16699 52 12.5s35.667 22.833 57 43.5c2.66699 2.66699 5.33398 4 8.00098 4s7 -1 13 -3l91 -37c6 -2 9 -6 9 -12c0 -4 -1.66699 -8 -5 -12c-34.667 -48.667 -70.834 -82.167 -108.501 -100.5
s-85.5 -27.5 -143.5 -27.5c-52.667 0 -100.5 11.333 -143.5 34s-76.833 54.167 -101.5 94.5s-37 86.166 -37 137.499c0 55.333 12.667 104.5 38 147.5s59.333 76.5 102 100.5s88.667 36 138 36c52.667 0 99.5 -11.333 140.5 -34s73.167 -55.5 96.5 -98.5
s35 -94.167 35 -153.5c0 -9.33301 -1 -15.666 -3 -18.999s-7 -5.33301 -15 -6h-311c-10 0 -15 -5.66699 -15 -17c0 -29.333 9.5 -51.666 28.5 -66.999zM360 331.999c6.66699 0 11.166 0.832031 13.499 2.49902s3.5 5.5 3.5 11.5c0 16.667 -6 33.667 -18 51s-29 26 -51 26
s-40.667 -7.66699 -56 -23s-22.666 -37.666 -21.999 -66.999zM448.999 657.998c1.33301 -2.66699 2.00098 -6.33203 2.00098 -10.999c0 -10 -7 -17 -21 -21l-233 -56c-6.66699 -1.33301 -10.334 -2 -11.001 -2c-8 0 -14 5 -18 15l-15 43
c-1.33301 5.33301 -2 8.66602 -2 9.99902c0 6 3.33301 10.667 10 14l238 101c1.33301 0.666992 3.33301 1 6 1c6.66699 0 11.667 -4.33301 15 -13z" />
    <glyph glyph-name="ecircumflex" unicode="&#xea;" horiz-adv-x="590" 
d="M255.5 145c19 -15.333 43.833 -23.001 74.5 -23.001c18 0 35.333 4.16699 52 12.5s35.667 22.833 57 43.5c2.66699 2.66699 5.33398 4 8.00098 4s7 -1 13 -3l91 -37c6 -2 9 -6 9 -12c0 -4 -1.66699 -8 -5 -12c-34.667 -48.667 -70.834 -82.167 -108.501 -100.5
s-85.5 -27.5 -143.5 -27.5c-52.667 0 -100.5 11.333 -143.5 34s-76.833 54.167 -101.5 94.5s-37 86.166 -37 137.499c0 55.333 12.667 104.5 38 147.5s59.333 76.5 102 100.5s88.667 36 138 36c52.667 0 99.5 -11.333 140.5 -34s73.167 -55.5 96.5 -98.5
s35 -94.167 35 -153.5c0 -9.33301 -1 -15.666 -3 -18.999s-7 -5.33301 -15 -6h-311c-10 0 -15 -5.66699 -15 -17c0 -29.333 9.5 -51.666 28.5 -66.999zM360 331.999c6.66699 0 11.166 0.832031 13.499 2.49902s3.5 5.5 3.5 11.5c0 16.667 -6 33.667 -18 51s-29 26 -51 26
s-40.667 -7.66699 -56 -23s-22.666 -37.666 -21.999 -66.999zM315.999 658.998c-7.33301 9.33301 -12.999 14.002 -16.999 14.002s-9.66699 -4.66699 -17 -14l-46 -55c-3.33301 -4.66699 -6.5 -7.33398 -9.5 -8.00098s-8.5 -1 -16.5 -1h-99c-6 0 -9 2 -9 6
c0 3.33301 2 7.33301 6 12l112 125c4.66699 5.33301 9.66699 9.16602 15 11.499s12.666 3.5 21.999 3.5h95c6 0 11.167 -1.16699 15.5 -3.5s8.5 -5.5 12.5 -9.5l111 -127c5.33301 -6.66699 8 -11 8 -13c0 -3.33301 -3.33301 -5 -10 -5h-105
c-7.33301 0 -12.833 0.5 -16.5 1.5s-7.16699 3.5 -10.5 7.5z" />
    <glyph glyph-name="edieresis" unicode="&#xeb;" horiz-adv-x="590" 
d="M255.5 145c19 -15.333 43.833 -23.001 74.5 -23.001c18 0 35.333 4.16699 52 12.5s35.667 22.833 57 43.5c2.66699 2.66699 5.33398 4 8.00098 4s7 -1 13 -3l91 -37c6 -2 9 -6 9 -12c0 -4 -1.66699 -8 -5 -12c-34.667 -48.667 -70.834 -82.167 -108.501 -100.5
s-85.5 -27.5 -143.5 -27.5c-52.667 0 -100.5 11.333 -143.5 34s-76.833 54.167 -101.5 94.5s-37 86.166 -37 137.499c0 55.333 12.667 104.5 38 147.5s59.333 76.5 102 100.5s88.667 36 138 36c52.667 0 99.5 -11.333 140.5 -34s73.167 -55.5 96.5 -98.5
s35 -94.167 35 -153.5c0 -9.33301 -1 -15.666 -3 -18.999s-7 -5.33301 -15 -6h-311c-10 0 -15 -5.66699 -15 -17c0 -29.333 9.5 -51.666 28.5 -66.999zM360 331.999c6.66699 0 11.166 0.832031 13.499 2.49902s3.5 5.5 3.5 11.5c0 16.667 -6 33.667 -18 51s-29 26 -51 26
s-40.667 -7.66699 -56 -23s-22.666 -37.666 -21.999 -66.999zM265.999 622.998c0 -8.66699 -2.33301 -14.834 -7 -18.501s-12 -5.5 -22 -5.5h-120c-8 0 -13.667 1.66699 -17 5s-5 9 -5 17v101c0 13.333 5.33301 20 16 20h139c4.66699 0 8.5 -1.66699 11.5 -5
s4.5 -7.66602 4.5 -12.999v-101zM505.999 622.998c0 -8.66699 -2.33301 -14.834 -7 -18.501s-12 -5.5 -22 -5.5h-120c-8 0 -13.667 1.66699 -17 5s-5 9 -5 17v101c0 13.333 5.33301 20 16 20h139c4.66699 0 8.5 -1.66699 11.5 -5s4.5 -7.66602 4.5 -12.999v-101z" />
    <glyph glyph-name="igrave" unicode="&#xec;" horiz-adv-x="282" 
d="M241 29c0 -10.667 -2.66699 -18.167 -8 -22.5s-13.666 -6.5 -24.999 -6.5h-141c-10 0 -16.833 2 -20.5 6s-5.5 10.333 -5.5 19v482c0 15.333 6.33301 23 19 23h163c5.33301 0 9.66602 -1.83301 12.999 -5.5s5 -8.5 5 -14.5v-481zM34.5 750.5
c3.66699 2.33301 7.83398 2.49902 12.501 0.499023l238 -101c6.66699 -3.33301 10 -8 10 -14c0 -1.33301 -0.666992 -4.66602 -2 -9.99902l-15 -43c-4 -10 -10 -15 -18 -15c-0.666992 0 -4.33398 0.666992 -11.001 2l-233 56c-14 4 -21 11 -21 21
c0 4.66699 0.666992 8.33398 2 11.001l29 81c2 5.33301 4.83301 9.16602 8.5 11.499z" />
    <glyph glyph-name="iacute" unicode="&#xed;" horiz-adv-x="282" 
d="M241 29c0 -10.667 -2.66699 -18.167 -8 -22.5s-13.666 -6.5 -24.999 -6.5h-141c-10 0 -16.833 2 -20.5 6s-5.5 10.333 -5.5 19v482c0 15.333 6.33301 23 19 23h163c5.33301 0 9.66602 -1.83301 12.999 -5.5s5 -8.5 5 -14.5v-481zM293 658
c1.33301 -2.66699 2.00098 -6.33203 2.00098 -10.999c0 -10 -7 -17 -21 -21l-233 -56c-6.66699 -1.33301 -10.334 -2 -11.001 -2c-8 0 -14 5 -18 15l-15 43c-1.33301 5.33301 -2 8.66602 -2 9.99902c0 6 3.33301 10.667 10 14l238 101c1.33301 0.666992 3.33301 1 6 1
c6.66699 0 11.667 -4.33301 15 -13z" />
    <glyph glyph-name="icircumflex" unicode="&#xee;" horiz-adv-x="282" 
d="M241 29c0 -10.667 -2.66699 -18.167 -8 -22.5s-13.666 -6.5 -24.999 -6.5h-141c-10 0 -16.833 2 -20.5 6s-5.5 10.333 -5.5 19v482c0 15.333 6.33301 23 19 23h163c5.33301 0 9.66602 -1.83301 12.999 -5.5s5 -8.5 5 -14.5v-481zM160 659
c-7.33301 9.33301 -12.999 14.002 -16.999 14.002s-9.66699 -4.66699 -17 -14l-46 -55c-3.33301 -4.66699 -6.5 -7.33398 -9.5 -8.00098s-8.5 -1 -16.5 -1h-99c-6 0 -9 2 -9 6c0 3.33301 2 7.33301 6 12l112 125c4.66699 5.33301 9.66699 9.16602 15 11.499
s12.666 3.5 21.999 3.5h95c6 0 11.167 -1.16699 15.5 -3.5s8.5 -5.5 12.5 -9.5l111 -127c5.33301 -6.66699 8 -11 8 -13c0 -3.33301 -3.33301 -5 -10 -5h-105c-7.33301 0 -12.833 0.5 -16.5 1.5s-7.16699 3.5 -10.5 7.5z" />
    <glyph glyph-name="idieresis" unicode="&#xef;" horiz-adv-x="282" 
d="M241 29c0 -10.667 -2.66699 -18.167 -8 -22.5s-13.666 -6.5 -24.999 -6.5h-141c-10 0 -16.833 2 -20.5 6s-5.5 10.333 -5.5 19v482c0 15.333 6.33301 23 19 23h163c5.33301 0 9.66602 -1.83301 12.999 -5.5s5 -8.5 5 -14.5v-481zM110 623
c0 -8.66699 -2.33301 -14.834 -7 -18.501s-12 -5.5 -22 -5.5h-120c-8 0 -13.667 1.66699 -17 5s-5 9 -5 17v101c0 13.333 5.33301 20 16 20h139c4.66699 0 8.5 -1.66699 11.5 -5s4.5 -7.66602 4.5 -12.999v-101zM350 623c0 -8.66699 -2.33301 -14.834 -7 -18.501
s-12 -5.5 -22 -5.5h-120c-8 0 -13.667 1.66699 -17 5s-5 9 -5 17v101c0 13.333 5.33301 20 16 20h139c4.66699 0 8.5 -1.66699 11.5 -5s4.5 -7.66602 4.5 -12.999v-101z" />
    <glyph glyph-name="eth" unicode="&#xf0;" 
d="M544 127c-23.333 -44 -56.168 -77.832 -98.501 -101.499s-91.166 -35.5 -146.499 -35.5c-54 0 -102 11.333 -144 34s-74.833 54 -98.5 94s-35.5 84.667 -35.5 134c0 51.333 12.167 97.333 36.5 138s57.833 72.5 100.5 95.5s90 34.5 142 34.5c3.33301 0 4 1.66699 2 5
c-16.667 22.667 -38.667 44.334 -66 65.001l-96 -54c-4 -2 -7.33301 -3 -10 -3c-5.33301 0 -10 3.33301 -14 10l-15 24c-3.33301 5.33301 -5 9.33301 -5 12c0 4.66699 2.33301 8 7 10l71 39c-27.333 14 -54.666 25.667 -81.999 35c-4 1.33301 -6 3.66602 -6 6.99902
c0 2.66699 1.33301 5 4 7l84 69c4 4 7.66699 6 11 6c1.33301 0 4.66602 -0.666992 9.99902 -2c45.333 -10.667 85.666 -25 120.999 -43l75 42c2.66699 2 5.33398 3 8.00098 3c4.66699 0 8 -1.66699 10 -5l21 -38l2 -5c0 -2.66699 -2 -5.66699 -6 -9l-46 -26
c62.667 -44 111.5 -99.833 146.5 -167.5s52.5 -140.834 52.5 -219.501c0 -59.333 -11.667 -111 -35 -155zM358.498 152.001c12.333 22.667 18.5 57.332 18.5 103.999c0 48 -6.16699 83.333 -18.5 106s-31.833 34 -58.5 34s-46.167 -11.333 -58.5 -34s-18.5 -58 -18.5 -106
c0 -47.333 6.16699 -82.166 18.5 -104.499s31.833 -33.5 58.5 -33.5s46.167 11.333 58.5 34z" />
    <glyph glyph-name="ntilde" unicode="&#xf1;" horiz-adv-x="604" 
d="M47 5.5c-4 3.66699 -5.99902 10.165 -5.99902 19.498v482c0 7.33301 1.66699 13 5 17s8 6 14 6h161c12 0 18 -6.66699 18 -20v-45c0 -5.33301 1.66699 -8 5 -8c2.66699 0 5.33398 1.33301 8.00098 4c22 24.667 46.667 44 74 58s55.666 21 84.999 21
c46.667 0 84.5 -14.667 113.5 -44s43.5 -68.666 43.5 -117.999v-348c0 -20 -10 -30 -30 -30h-147c-8.66699 0 -14.667 1.83301 -18 5.5s-5 10.167 -5 19.5v326c0 14.667 -4.83301 26.334 -14.5 35.001s-22.5 13 -38.5 13c-30.667 0 -55.334 -16.667 -74.001 -50v-320
c0 -10.667 -2.5 -18.167 -7.5 -22.5s-13.5 -6.5 -25.5 -6.5h-141c-9.33301 -0 -16 1.83301 -20 5.5zM444.001 617.998c-18 -6 -36.665 -9.00098 -55.998 -9.00098c-13.333 0 -26 1.33301 -38 4s-26.667 6.66699 -44 12c-2.66699 0.666992 -12.5 3.33398 -29.5 8.00098
s-33.833 7 -50.5 7c-14 0 -26 -1.83301 -36 -5.5s-21.667 -10.167 -35 -19.5c-5.33301 -3.33301 -9.33301 -5 -12 -5c-4.66699 0 -8.33398 4.33301 -11.001 13l-17 54c-0.666992 1.33301 -1.33398 3 -2.00098 5s-1 4.33301 -1 7c0 5.33301 3.66699 11.666 11 18.999
c14 13.333 28.5 23.5 43.5 30.5s33.167 10.5 54.5 10.5c15.333 0 30 -1.66699 44 -5s31 -8 51 -14c12.667 -4 25.167 -7.5 37.5 -10.5s23.5 -4.5 33.5 -4.5c25.333 0 51 9.33301 77 28c3.33301 2.66699 7 4 11 4c6.66699 0 11 -4.33301 13 -13l14 -65
c0.666992 -2 1 -4.66699 1 -8c0 -7.33301 -5 -14.666 -15 -21.999c-11.333 -8 -26 -15 -44 -21z" />
    <glyph glyph-name="ograve" unicode="&#xf2;" 
d="M155 25c-42 23.333 -74.8301 55.498 -98.4971 96.498s-35.5 87.833 -35.5 140.5c0 54.667 12.167 103 36.5 145s57.666 74.667 99.999 98s89.833 35 142.5 35c54.667 0 103.167 -11.833 145.5 -35.5s75.166 -56.667 98.499 -99s35 -90.166 35 -143.499
c0 -52 -11.833 -98.667 -35.5 -140s-56.834 -73.666 -99.501 -96.999s-91 -35 -145 -35s-102 11.667 -144 35zM358.503 153.498c12.333 23.667 18.5 61.166 18.5 112.499c0 52.667 -6.16699 90.834 -18.5 114.501s-31.833 35.5 -58.5 35.5s-46.167 -12 -58.5 -36
s-18.5 -62 -18.5 -114s6.16699 -89.667 18.5 -113s31.833 -35 58.5 -35s46.167 11.833 58.5 35.5zM189.503 750.497c3.66699 2.33301 7.83398 2.49902 12.501 0.499023l238 -101c6.66699 -3.33301 10 -8 10 -14c0 -1.33301 -0.666992 -4.66602 -2 -9.99902l-15 -43
c-4 -10 -10 -15 -18 -15c-0.666992 0 -4.33398 0.666992 -11.001 2l-233 56c-14 4 -21 11 -21 21c0 4.66699 0.666992 8.33398 2 11.001l29 81c2 5.33301 4.83301 9.16602 8.5 11.499z" />
    <glyph glyph-name="oacute" unicode="&#xf3;" 
d="M155 25c-42 23.333 -74.8301 55.498 -98.4971 96.498s-35.5 87.833 -35.5 140.5c0 54.667 12.167 103 36.5 145s57.666 74.667 99.999 98s89.833 35 142.5 35c54.667 0 103.167 -11.833 145.5 -35.5s75.166 -56.667 98.499 -99s35 -90.166 35 -143.499
c0 -52 -11.833 -98.667 -35.5 -140s-56.834 -73.666 -99.501 -96.999s-91 -35 -145 -35s-102 11.667 -144 35zM358.503 153.498c12.333 23.667 18.5 61.166 18.5 112.499c0 52.667 -6.16699 90.834 -18.5 114.501s-31.833 35.5 -58.5 35.5s-46.167 -12 -58.5 -36
s-18.5 -62 -18.5 -114s6.16699 -89.667 18.5 -113s31.833 -35 58.5 -35s46.167 11.833 58.5 35.5zM448.003 657.997c1.33301 -2.66699 2.00098 -6.33203 2.00098 -10.999c0 -10 -7 -17 -21 -21l-233 -56c-6.66699 -1.33301 -10.334 -2 -11.001 -2c-8 0 -14 5 -18 15l-15 43
c-1.33301 5.33301 -2 8.66602 -2 9.99902c0 6 3.33301 10.667 10 14l238 101c1.33301 0.666992 3.33301 1 6 1c6.66699 0 11.667 -4.33301 15 -13z" />
    <glyph glyph-name="ocircumflex" unicode="&#xf4;" 
d="M155 25c-42 23.333 -74.8301 55.498 -98.4971 96.498s-35.5 87.833 -35.5 140.5c0 54.667 12.167 103 36.5 145s57.666 74.667 99.999 98s89.833 35 142.5 35c54.667 0 103.167 -11.833 145.5 -35.5s75.166 -56.667 98.499 -99s35 -90.166 35 -143.499
c0 -52 -11.833 -98.667 -35.5 -140s-56.834 -73.666 -99.501 -96.999s-91 -35 -145 -35s-102 11.667 -144 35zM358.503 153.498c12.333 23.667 18.5 61.166 18.5 112.499c0 52.667 -6.16699 90.834 -18.5 114.501s-31.833 35.5 -58.5 35.5s-46.167 -12 -58.5 -36
s-18.5 -62 -18.5 -114s6.16699 -89.667 18.5 -113s31.833 -35 58.5 -35s46.167 11.833 58.5 35.5zM315.003 658.997c-7.33301 9.33301 -12.999 14.002 -16.999 14.002s-9.66699 -4.66699 -17 -14l-46 -55c-3.33301 -4.66699 -6.5 -7.33398 -9.5 -8.00098s-8.5 -1 -16.5 -1
h-99c-6 0 -9 2 -9 6c0 3.33301 2 7.33301 6 12l112 125c4.66699 5.33301 9.66699 9.16602 15 11.499s12.666 3.5 21.999 3.5h95c6 0 11.167 -1.16699 15.5 -3.5s8.5 -5.5 12.5 -9.5l111 -127c5.33301 -6.66699 8 -11 8 -13c0 -3.33301 -3.33301 -5 -10 -5h-105
c-7.33301 0 -12.833 0.5 -16.5 1.5s-7.16699 3.5 -10.5 7.5z" />
    <glyph glyph-name="otilde" unicode="&#xf5;" 
d="M155 25c-42 23.333 -74.8301 55.498 -98.4971 96.498s-35.5 87.833 -35.5 140.5c0 54.667 12.167 103 36.5 145s57.666 74.667 99.999 98s89.833 35 142.5 35c54.667 0 103.167 -11.833 145.5 -35.5s75.166 -56.667 98.499 -99s35 -90.166 35 -143.499
c0 -52 -11.833 -98.667 -35.5 -140s-56.834 -73.666 -99.501 -96.999s-91 -35 -145 -35s-102 11.667 -144 35zM358.503 153.498c12.333 23.667 18.5 61.166 18.5 112.499c0 52.667 -6.16699 90.834 -18.5 114.501s-31.833 35.5 -58.5 35.5s-46.167 -12 -58.5 -36
s-18.5 -62 -18.5 -114s6.16699 -89.667 18.5 -113s31.833 -35 58.5 -35s46.167 11.833 58.5 35.5zM440.003 617.997c-18 -6 -36.665 -9.00098 -55.998 -9.00098c-13.333 0 -26 1.33301 -38 4s-26.667 6.66699 -44 12c-2.66699 0.666992 -12.5 3.33398 -29.5 8.00098
s-33.833 7 -50.5 7c-14 0 -26 -1.83301 -36 -5.5s-21.667 -10.167 -35 -19.5c-5.33301 -3.33301 -9.33301 -5 -12 -5c-4.66699 0 -8.33398 4.33301 -11.001 13l-17 54c-0.666992 1.33301 -1.33398 3 -2.00098 5s-1 4.33301 -1 7c0 5.33301 3.66699 11.666 11 18.999
c14 13.333 28.5 23.5 43.5 30.5s33.167 10.5 54.5 10.5c15.333 0 30 -1.66699 44 -5s31 -8 51 -14c12.667 -4 25.167 -7.5 37.5 -10.5s23.5 -4.5 33.5 -4.5c25.333 0 51 9.33301 77 28c3.33301 2.66699 7 4 11 4c6.66699 0 11 -4.33301 13 -13l14 -65
c0.666992 -2 1 -4.66699 1 -8c0 -7.33301 -5 -14.666 -15 -21.999c-11.333 -8 -26 -15 -44 -21z" />
    <glyph glyph-name="odieresis" unicode="&#xf6;" 
d="M155 25c-42 23.333 -74.8301 55.498 -98.4971 96.498s-35.5 87.833 -35.5 140.5c0 54.667 12.167 103 36.5 145s57.666 74.667 99.999 98s89.833 35 142.5 35c54.667 0 103.167 -11.833 145.5 -35.5s75.166 -56.667 98.499 -99s35 -90.166 35 -143.499
c0 -52 -11.833 -98.667 -35.5 -140s-56.834 -73.666 -99.501 -96.999s-91 -35 -145 -35s-102 11.667 -144 35zM358.503 153.498c12.333 23.667 18.5 61.166 18.5 112.499c0 52.667 -6.16699 90.834 -18.5 114.501s-31.833 35.5 -58.5 35.5s-46.167 -12 -58.5 -36
s-18.5 -62 -18.5 -114s6.16699 -89.667 18.5 -113s31.833 -35 58.5 -35s46.167 11.833 58.5 35.5zM265.003 622.997c0 -8.66699 -2.33301 -14.834 -7 -18.501s-12 -5.5 -22 -5.5h-120c-8 0 -13.667 1.66699 -17 5s-5 9 -5 17v101c0 13.333 5.33301 20 16 20h139
c4.66699 0 8.5 -1.66699 11.5 -5s4.5 -7.66602 4.5 -12.999v-101zM505.003 622.997c0 -8.66699 -2.33301 -14.834 -7 -18.501s-12 -5.5 -22 -5.5h-120c-8 0 -13.667 1.66699 -17 5s-5 9 -5 17v101c0 13.333 5.33301 20 16 20h139c4.66699 0 8.5 -1.66699 11.5 -5
s4.5 -7.66602 4.5 -12.999v-101z" />
    <glyph glyph-name="divide" unicode="&#xf7;" horiz-adv-x="602" 
d="M397 530c0 -9.33301 -2.33105 -16 -6.99805 -20s-12.334 -6 -23.001 -6h-136c-8.66699 0 -14.834 1.83301 -18.501 5.5s-5.5 9.5 -5.5 17.5v139c0 13.333 5.66699 20 17 20h157c10.667 0 16 -6 16 -18v-138zM562.002 331c0 -10 -2.66699 -17.167 -8 -21.5
s-13.666 -6.5 -24.999 -6.5h-463c-10 0 -16.833 2 -20.5 6s-5.5 10.333 -5.5 19v93c0 15.333 6.33301 23 19 23h485c5.33301 0 9.66602 -1.83301 12.999 -5.5s5 -8.5 5 -14.5v-93zM397.002 87c0 -9.33301 -2.33105 -16 -6.99805 -20s-12.334 -6 -23.001 -6h-136
c-8.66699 0 -14.834 1.66699 -18.501 5s-5.5 9 -5.5 17v140c0 13.333 5.66699 20 17 20h157c10.667 0 16 -6 16 -18v-138z" />
    <glyph glyph-name="oslash" unicode="&#xf8;" horiz-adv-x="604" 
d="M534 422c30 -45.333 45.001 -98.667 45.001 -160c0 -52 -11.833 -98.667 -35.5 -140s-56.834 -73.666 -99.501 -96.999s-91 -35 -145 -35c-66.667 0 -124 17.333 -172 52l-33 -30c-8 -8 -15.333 -12 -22 -12c-7.33301 0 -14.333 4 -21 12l-19 20c-8 8 -12 15.333 -12 22
c0 4.66699 2.66699 9.66699 8 15l39 36c-30.667 44 -46 96.333 -46 157c0 54.667 12.167 103 36.5 145s57.666 74.667 99.999 98s89.833 35 142.5 35c68.667 0 127 -18.333 175 -55l38 35c6.66699 6.66699 13.334 10 20.001 10c4 0 7.66699 -1.66699 11 -5l34 -36
c4 -4 6 -8.33301 6 -13s-2.33301 -9.33398 -7 -14.001zM223.001 250.999l137 127c-12 25.333 -32 38 -60 38c-26.667 0 -46.167 -12 -58.5 -36s-18.5 -62 -18.5 -114v-15zM377.001 275.999l-134 -125c12.667 -22 31.667 -33 57 -33c26.667 0 46.167 11.833 58.5 35.5
s18.5 61.167 18.5 112.5v10z" />
    <glyph glyph-name="ugrave" unicode="&#xf9;" horiz-adv-x="601" 
d="M326 141.5c13.333 7.66699 24.668 17.501 34.001 29.501v330c0 10 2.66699 17.333 8 22s13.666 7 24.999 7h143c9.33301 0 16 -2 20 -6s6 -10.667 6 -20l-4 -482c0 -14.667 -6.33301 -22 -19 -22h-158c-12 0 -18 6.66699 -18 20v44c0 5.33301 -1.66699 8 -5 8
c-2 0 -4.33301 -1.33301 -7 -4c-22.667 -26.667 -47.5 -46.334 -74.5 -59.001s-57.5 -19 -91.5 -19c-44 0 -79.833 14.833 -107.5 44.5s-41.5 70.5 -41.5 122.5v343c0 20 10.333 30 31 30h146c8.66699 0 14.667 -2 18 -6s5 -10.667 5 -20v-325
c0 -15.333 4.5 -27.333 13.5 -36s20.833 -13 35.5 -13c14 0 27.667 3.83301 41 11.5zM188.502 750.501c3.66699 2.33301 7.83398 2.49902 12.501 0.499023l238 -101c6.66699 -3.33301 10 -8 10 -14c0 -1.33301 -0.666992 -4.66602 -2 -9.99902l-15 -43
c-4 -10 -10 -15 -18 -15c-0.666992 0 -4.33398 0.666992 -11.001 2l-233 56c-14 4 -21 11 -21 21c0 4.66699 0.666992 8.33398 2 11.001l29 81c2 5.33301 4.83301 9.16602 8.5 11.499z" />
    <glyph glyph-name="uacute" unicode="&#xfa;" horiz-adv-x="601" 
d="M326 141.5c13.333 7.66699 24.668 17.501 34.001 29.501v330c0 10 2.66699 17.333 8 22s13.666 7 24.999 7h143c9.33301 0 16 -2 20 -6s6 -10.667 6 -20l-4 -482c0 -14.667 -6.33301 -22 -19 -22h-158c-12 0 -18 6.66699 -18 20v44c0 5.33301 -1.66699 8 -5 8
c-2 0 -4.33301 -1.33301 -7 -4c-22.667 -26.667 -47.5 -46.334 -74.5 -59.001s-57.5 -19 -91.5 -19c-44 0 -79.833 14.833 -107.5 44.5s-41.5 70.5 -41.5 122.5v343c0 20 10.333 30 31 30h146c8.66699 0 14.667 -2 18 -6s5 -10.667 5 -20v-325
c0 -15.333 4.5 -27.333 13.5 -36s20.833 -13 35.5 -13c14 0 27.667 3.83301 41 11.5zM447.002 658.001c1.33301 -2.66699 2.00098 -6.33203 2.00098 -10.999c0 -10 -7 -17 -21 -21l-233 -56c-6.66699 -1.33301 -10.334 -2 -11.001 -2c-8 0 -14 5 -18 15l-15 43
c-1.33301 5.33301 -2 8.66602 -2 9.99902c0 6 3.33301 10.667 10 14l238 101c1.33301 0.666992 3.33301 1 6 1c6.66699 0 11.667 -4.33301 15 -13z" />
    <glyph glyph-name="ucircumflex" unicode="&#xfb;" horiz-adv-x="601" 
d="M326 141.5c13.333 7.66699 24.668 17.501 34.001 29.501v330c0 10 2.66699 17.333 8 22s13.666 7 24.999 7h143c9.33301 0 16 -2 20 -6s6 -10.667 6 -20l-4 -482c0 -14.667 -6.33301 -22 -19 -22h-158c-12 0 -18 6.66699 -18 20v44c0 5.33301 -1.66699 8 -5 8
c-2 0 -4.33301 -1.33301 -7 -4c-22.667 -26.667 -47.5 -46.334 -74.5 -59.001s-57.5 -19 -91.5 -19c-44 0 -79.833 14.833 -107.5 44.5s-41.5 70.5 -41.5 122.5v343c0 20 10.333 30 31 30h146c8.66699 0 14.667 -2 18 -6s5 -10.667 5 -20v-325
c0 -15.333 4.5 -27.333 13.5 -36s20.833 -13 35.5 -13c14 0 27.667 3.83301 41 11.5zM314.002 659.001c-7.33301 9.33301 -12.999 14.002 -16.999 14.002s-9.66699 -4.66699 -17 -14l-46 -55c-3.33301 -4.66699 -6.5 -7.33398 -9.5 -8.00098s-8.5 -1 -16.5 -1h-99
c-6 0 -9 2 -9 6c0 3.33301 2 7.33301 6 12l112 125c4.66699 5.33301 9.66699 9.16602 15 11.499s12.666 3.5 21.999 3.5h95c6 0 11.167 -1.16699 15.5 -3.5s8.5 -5.5 12.5 -9.5l111 -127c5.33301 -6.66699 8 -11 8 -13c0 -3.33301 -3.33301 -5 -10 -5h-105
c-7.33301 0 -12.833 0.5 -16.5 1.5s-7.16699 3.5 -10.5 7.5z" />
    <glyph glyph-name="udieresis" unicode="&#xfc;" horiz-adv-x="601" 
d="M326 141.5c13.333 7.66699 24.668 17.501 34.001 29.501v330c0 10 2.66699 17.333 8 22s13.666 7 24.999 7h143c9.33301 0 16 -2 20 -6s6 -10.667 6 -20l-4 -482c0 -14.667 -6.33301 -22 -19 -22h-158c-12 0 -18 6.66699 -18 20v44c0 5.33301 -1.66699 8 -5 8
c-2 0 -4.33301 -1.33301 -7 -4c-22.667 -26.667 -47.5 -46.334 -74.5 -59.001s-57.5 -19 -91.5 -19c-44 0 -79.833 14.833 -107.5 44.5s-41.5 70.5 -41.5 122.5v343c0 20 10.333 30 31 30h146c8.66699 0 14.667 -2 18 -6s5 -10.667 5 -20v-325
c0 -15.333 4.5 -27.333 13.5 -36s20.833 -13 35.5 -13c14 0 27.667 3.83301 41 11.5zM264.002 623.001c0 -8.66699 -2.33301 -14.834 -7 -18.501s-12 -5.5 -22 -5.5h-120c-8 0 -13.667 1.66699 -17 5s-5 9 -5 17v101c0 13.333 5.33301 20 16 20h139
c4.66699 0 8.5 -1.66699 11.5 -5s4.5 -7.66602 4.5 -12.999v-101zM504.002 623.001c0 -8.66699 -2.33301 -14.834 -7 -18.501s-12 -5.5 -22 -5.5h-120c-8 0 -13.667 1.66699 -17 5s-5 9 -5 17v101c0 13.333 5.33301 20 16 20h139c4.66699 0 8.5 -1.66699 11.5 -5
s4.5 -7.66602 4.5 -12.999v-101z" />
    <glyph glyph-name="yacute" unicode="&#xfd;" horiz-adv-x="589" 
d="M57.5 -161c-7.66699 2.66699 -11.5 8.66797 -11.5 18.001v102c0 4.66699 2.16699 9 6.5 13s11.5 6 21.5 6h71c19.333 0 35.333 4.33301 48 13s19 18.667 19 30c0 2.66699 -0.666992 6 -2 10l-194 470c-1.33301 4 -2 7 -2 9c0 6 2 10.833 6 14.5s9 5.5 15 5.5h169
c6 0 11.333 -1.83301 16 -5.5s8 -8.5 10 -14.5l85 -240c2 -6.66699 4.66699 -10 8 -10s6.33301 3.33301 9 10l86 240c6 13.333 14.667 20 26 20h112c6 0 10.667 -1.83301 14 -5.5s5 -8.16699 5 -13.5c0 -2.66699 -0.666992 -6 -2 -10l-195 -470
c-23.333 -56 -46.5 -97.833 -69.5 -125.5s-50 -46.334 -81 -56.001s-72.833 -14.5 -125.5 -14.5c-22 0 -36.833 1.33301 -44.5 4zM474 658.001c1.33301 -2.66699 2.00098 -6.33203 2.00098 -10.999c0 -10 -7 -17 -21 -21l-233 -56c-6.66699 -1.33301 -10.334 -2 -11.001 -2
c-8 0 -14 5 -18 15l-15 43c-1.33301 5.33301 -2 8.66602 -2 9.99902c0 6 3.33301 10.667 10 14l238 101c1.33301 0.666992 3.33301 1 6 1c6.66699 0 11.667 -4.33301 15 -13z" />
    <glyph glyph-name="thorn" unicode="&#xfe;" horiz-adv-x="614" 
d="M236 736.5c4 -3.66699 5.99805 -9.83301 5.99805 -18.5v-233c0 -4 2 -6 6 -6c3.33301 0 6.33301 1.33301 9 4c20.667 19.333 41.834 33.666 63.501 42.999s47.167 14 76.5 14c58.667 0 106 -23 142 -69s54 -114 54 -204c0 -95.333 -18.667 -165.333 -56 -210
s-86.333 -67 -147 -67c-24.667 0 -47.167 3.83301 -67.5 11.5s-40.5 20.834 -60.5 39.501c-7.33301 6.66699 -12.666 10 -15.999 10s-5 -5 -5 -15v-181c0 -13.333 -6 -20 -18 -20h-163c-6 0 -10.667 1.83301 -14 5.5s-5 9.16699 -5 16.5v859c0 8.66699 2 15.167 6 19.5
s11 6.5 21 6.5h148c9.33301 0 16 -1.83301 20 -5.5zM310.998 111.001c26.667 0 46.667 11.832 60 35.499s20 65.834 20 126.501c0 55.333 -6.5 93.5 -19.5 114.5s-33.167 31.5 -60.5 31.5c-19.333 0 -35.833 -5.33301 -49.5 -16s-20.5 -24 -20.5 -40v-212
c18.667 -26.667 42 -40 70 -40z" />
    <glyph glyph-name="ydieresis" unicode="&#xff;" horiz-adv-x="589" 
d="M57.5 -161c-7.66699 2.66699 -11.5 8.66797 -11.5 18.001v102c0 4.66699 2.16699 9 6.5 13s11.5 6 21.5 6h71c19.333 0 35.333 4.33301 48 13s19 18.667 19 30c0 2.66699 -0.666992 6 -2 10l-194 470c-1.33301 4 -2 7 -2 9c0 6 2 10.833 6 14.5s9 5.5 15 5.5h169
c6 0 11.333 -1.83301 16 -5.5s8 -8.5 10 -14.5l85 -240c2 -6.66699 4.66699 -10 8 -10s6.33301 3.33301 9 10l86 240c6 13.333 14.667 20 26 20h112c6 0 10.667 -1.83301 14 -5.5s5 -8.16699 5 -13.5c0 -2.66699 -0.666992 -6 -2 -10l-195 -470
c-23.333 -56 -46.5 -97.833 -69.5 -125.5s-50 -46.334 -81 -56.001s-72.833 -14.5 -125.5 -14.5c-22 0 -36.833 1.33301 -44.5 4zM291 623.001c0 -8.66699 -2.33301 -14.834 -7 -18.501s-12 -5.5 -22 -5.5h-120c-8 0 -13.667 1.66699 -17 5s-5 9 -5 17v101
c0 13.333 5.33301 20 16 20h139c4.66699 0 8.5 -1.66699 11.5 -5s4.5 -7.66602 4.5 -12.999v-101zM531 623.001c0 -8.66699 -2.33301 -14.834 -7 -18.501s-12 -5.5 -22 -5.5h-120c-8 0 -13.667 1.66699 -17 5s-5 9 -5 17v101c0 13.333 5.33301 20 16 20h139
c4.66699 0 8.5 -1.66699 11.5 -5s4.5 -7.66602 4.5 -12.999v-101z" />
    <glyph glyph-name="Amacron" unicode="&#x100;" horiz-adv-x="799" 
d="M30 5.5c-3.33301 3.66699 -5 8.83203 -5 15.499c0 4.66699 1 10 3 16l242 682c3.33301 8.66699 7 14.667 11 18s10.333 5 19 5h197c8 0 15.167 -2.5 21.5 -7.5s11.166 -11.5 14.499 -19.5l240 -681c1.33301 -5.33301 2 -9.33301 2 -12c0 -6 -1.33301 -11.167 -4 -15.5
s-6.66699 -6.5 -12 -6.5h-196c-11.333 0 -18.666 5.66699 -21.999 17l-39 115c-2 4.66699 -3.83301 7.83398 -5.5 9.50098s-4.83398 2.5 -9.50098 2.5h-212c-8 0 -13 -3.66699 -15 -11l-41 -118c-4 -10 -12 -15 -24 -15h-152c-5.33301 -0 -9.66602 1.83301 -12.999 5.5z
M437 313.998c7.33301 0 11 3.33398 11 10.001c0 1.33301 -0.666992 4.66602 -2 9.99902l-60 171c-1.33301 3.33301 -3.33301 5 -6 5s-4.66699 -1.66699 -6 -5l-61 -170c-1.33301 -2.66699 -2 -6 -2 -10c0 -7.33301 4 -11 12 -11h114zM600 854.999
c0 -8.66699 -2.33301 -14.834 -7 -18.501s-12 -5.5 -22 -5.5h-360c-8 0 -13.667 1.66699 -17 5s-5 9 -5 17v81c0 13.333 5.33301 20 16 20h379c4.66699 0 8.5 -1.66699 11.5 -5s4.5 -7.66602 4.5 -12.999v-81z" />
    <glyph glyph-name="amacron" unicode="&#x101;" horiz-adv-x="573" 
d="M178 -10c-48.667 0 -87.499 13.6689 -116.499 41.002s-43.5 62.333 -43.5 105c0 38.667 12.5 72.834 37.5 102.501s60.667 52.667 107 69s100.5 24.5 162.5 24.5h7c10 0 15 4.66699 15 14v17c0 38.667 -19.667 58 -59 58c-16 0 -31 -3.66699 -45 -11s-25 -19.333 -33 -36
c-2 -4.66699 -4.16699 -7.83398 -6.5 -9.50098s-5.5 -2.5 -9.5 -2.5c-4.66699 0 -8.33398 0.333008 -11.001 1l-131 26c-7.33301 1.33301 -11 5.66602 -11 12.999c0 4.66699 1.33301 11 4 19c28 79.333 112 119 252 119c87.333 0 149.166 -14.333 185.499 -43
s54.5 -69.334 54.5 -122.001v-348c0 -10 -1.5 -17 -4.5 -21s-9.16699 -6 -18.5 -6h-137c-8 0 -13.833 3 -17.5 9s-6.5 14.667 -8.5 26l-1 7c-0.666992 6.66699 -3.33398 10 -8.00098 10c-5.33301 0 -11.666 -3.33301 -18.999 -10c-41.333 -34.667 -89.666 -52 -144.999 -52z
M344.001 238.002c-2 2.66699 -5.99902 3.99902 -11.999 3.99902h-4c-12.667 0 -28.167 -3 -46.5 -9s-34.5 -14.833 -48.5 -26.5s-21 -26.167 -21 -43.5c0 -14 5 -25.333 15 -34s24 -13 42 -13c21.333 0 39.666 6.33301 54.999 19s23 24.667 23 36v53
c0 6.66699 -1 11.334 -3 14.001zM502.002 643.001c0 -8.66699 -2.33301 -14.834 -7 -18.501s-12 -5.5 -22 -5.5h-360c-8 0 -13.667 1.66699 -17 5s-5 9 -5 17v81c0 13.333 5.33301 20 16 20h379c4.66699 0 8.5 -1.66699 11.5 -5s4.5 -7.66602 4.5 -12.999v-81z" />
    <glyph glyph-name="Abreve" unicode="&#x102;" horiz-adv-x="799" 
d="M30 5.5c-3.33301 3.66699 -5 8.83203 -5 15.499c0 4.66699 1 10 3 16l242 682c3.33301 8.66699 7 14.667 11 18s10.333 5 19 5h197c8 0 15.167 -2.5 21.5 -7.5s11.166 -11.5 14.499 -19.5l240 -681c1.33301 -5.33301 2 -9.33301 2 -12c0 -6 -1.33301 -11.167 -4 -15.5
s-6.66699 -6.5 -12 -6.5h-196c-11.333 0 -18.666 5.66699 -21.999 17l-39 115c-2 4.66699 -3.83301 7.83398 -5.5 9.50098s-4.83398 2.5 -9.50098 2.5h-212c-8 0 -13 -3.66699 -15 -11l-41 -118c-4 -10 -12 -15 -24 -15h-152c-5.33301 -0 -9.66602 1.83301 -12.999 5.5z
M437 313.998c7.33301 0 11 3.33398 11 10.001c0 1.33301 -0.666992 4.66602 -2 9.99902l-60 171c-1.33301 3.33301 -3.33301 5 -6 5s-4.66699 -1.66699 -6 -5l-61 -170c-1.33301 -2.66699 -2 -6 -2 -10c0 -7.33301 4 -11 12 -11h114zM592 935.999
c-14 -42.667 -38.668 -75.167 -74.001 -97.5s-76 -33.5 -122 -33.5c-46.667 0 -87.834 11.167 -123.501 33.5s-60.5 55.5 -74.5 99.5l-1 5c0 7.33301 4 11 12 11h77c6 0 10.5 -0.833008 13.5 -2.5s6.5 -5.5 10.5 -11.5c9.33301 -13.333 21.833 -24.333 37.5 -33
s31.834 -13 48.501 -13c15.333 0 31.333 4.5 48 13.5s29 20.167 37 33.5c3.33301 5.33301 6.33301 8.83301 9 10.5s6.33398 2.5 11.001 2.5h78c12 0 16.333 -6 13 -18z" />
    <glyph glyph-name="abreve" unicode="&#x103;" horiz-adv-x="573" 
d="M178 -10c-48.667 0 -87.499 13.6689 -116.499 41.002s-43.5 62.333 -43.5 105c0 38.667 12.5 72.834 37.5 102.501s60.667 52.667 107 69s100.5 24.5 162.5 24.5h7c10 0 15 4.66699 15 14v17c0 38.667 -19.667 58 -59 58c-16 0 -31 -3.66699 -45 -11s-25 -19.333 -33 -36
c-2 -4.66699 -4.16699 -7.83398 -6.5 -9.50098s-5.5 -2.5 -9.5 -2.5c-4.66699 0 -8.33398 0.333008 -11.001 1l-131 26c-7.33301 1.33301 -11 5.66602 -11 12.999c0 4.66699 1.33301 11 4 19c28 79.333 112 119 252 119c87.333 0 149.166 -14.333 185.499 -43
s54.5 -69.334 54.5 -122.001v-348c0 -10 -1.5 -17 -4.5 -21s-9.16699 -6 -18.5 -6h-137c-8 0 -13.833 3 -17.5 9s-6.5 14.667 -8.5 26l-1 7c-0.666992 6.66699 -3.33398 10 -8.00098 10c-5.33301 0 -11.666 -3.33301 -18.999 -10c-41.333 -34.667 -89.666 -52 -144.999 -52z
M344.001 238.002c-2 2.66699 -5.99902 3.99902 -11.999 3.99902h-4c-12.667 0 -28.167 -3 -46.5 -9s-34.5 -14.833 -48.5 -26.5s-21 -26.167 -21 -43.5c0 -14 5 -25.333 15 -34s24 -13 42 -13c21.333 0 39.666 6.33301 54.999 19s23 24.667 23 36v53
c0 6.66699 -1 11.334 -3 14.001zM494.002 724.001c-14 -42.667 -38.668 -75.167 -74.001 -97.5s-76 -33.5 -122 -33.5c-46.667 0 -87.834 11.167 -123.501 33.5s-60.5 55.5 -74.5 99.5l-1 5c0 7.33301 4 11 12 11h77c6 0 10.5 -0.833008 13.5 -2.5s6.5 -5.5 10.5 -11.5
c9.33301 -13.333 21.833 -24.333 37.5 -33s31.834 -13 48.501 -13c15.333 0 31.333 4.5 48 13.5s29 20.167 37 33.5c3.33301 5.33301 6.33301 8.83301 9 10.5s6.33398 2.5 11.001 2.5h78c12 0 16.333 -6 13 -18z" />
    <glyph glyph-name="Aogonek" unicode="&#x104;" horiz-adv-x="799" 
d="M770 -70c5.33301 0 8.00098 -4.66895 8.00098 -14.002v-52c0 -8 -3.33301 -14 -10 -18c-10 -5.33301 -25 -10.166 -45 -14.499s-41.333 -6.5 -64 -6.5c-37.333 0 -66.833 7.16699 -88.5 21.5s-32.5 36.166 -32.5 65.499c0 18 5.66699 34 17 48s32.666 27.333 63.999 40
h-56c-11.333 0 -18.666 5.66699 -21.999 17l-39 115c-2 4.66699 -3.83301 7.83398 -5.5 9.50098s-4.83398 2.5 -9.50098 2.5h-212c-8 0 -13 -3.66699 -15 -11l-41 -118c-4 -10 -12 -15 -24 -15h-152c-5.33301 0 -9.66602 1.83301 -12.999 5.5s-5 8.83398 -5 15.501
c0 4.66699 1 10 3 16l242 682c3.33301 8.66699 7 14.667 11 18s10.333 5 19 5h197c8 0 15.167 -2.5 21.5 -7.5s11.166 -11.5 14.499 -19.5l240 -681c1.33301 -5.33301 2 -9.33301 2 -12c0 -6 -1.33301 -11.167 -4 -15.5s-6.66699 -6.5 -12 -6.5h-6
c-29.333 -10.667 -49.5 -20.667 -60.5 -30s-16.5 -19.333 -16.5 -30c0 -19.333 9.33301 -29 28 -29c10 0 19.167 1.33301 27.5 4s17.833 6.66699 28.5 12c4 2 7.33301 3 10 3zM448.001 323.998c0 1.33301 -0.666992 4.66699 -2 10l-60 171c-1.33301 3.33301 -3.33301 5 -6 5
s-4.66699 -1.66699 -6 -5l-61 -170c-1.33301 -2.66699 -2 -6 -2 -10c0 -7.33301 4 -11 12 -11h114c7.33301 0 11 3.33301 11 10z" />
    <glyph glyph-name="aogonek" unicode="&#x105;" horiz-adv-x="573" 
d="M533 -69c5.33301 0 8.00098 -4.66504 8.00098 -13.998v-52c0 -8 -3.33301 -14 -10 -18c-10 -5.33301 -25 -10.166 -45 -14.499s-41.333 -6.5 -64 -6.5c-37.333 0 -66.833 7.16699 -88.5 21.5s-32.5 36.166 -32.5 65.499c0 18 5.5 34 16.5 48s31.5 27 61.5 39h-2
c-8 0 -13.833 3 -17.5 9s-6.5 14.667 -8.5 26l-1 7c-0.666992 6.66699 -3.33398 10 -8.00098 10c-5.33301 0 -11.666 -3.33301 -18.999 -10c-41.333 -34.667 -89.666 -52 -144.999 -52c-48.667 0 -87.5 13.667 -116.5 41s-43.5 62.333 -43.5 105
c0 38.667 12.5 72.834 37.5 102.501s60.667 52.667 107 69s100.5 24.5 162.5 24.5h7c10 0 15 4.66699 15 14v17c0 38.667 -19.667 58 -59 58c-16 0 -31 -3.66699 -45 -11s-25 -19.333 -33 -36c-2 -4.66699 -4.16699 -7.83398 -6.5 -9.50098s-5.5 -2.5 -9.5 -2.5
c-4.66699 0 -8.33398 0.333008 -11.001 1l-131 26c-7.33301 1.33301 -11 5.66602 -11 12.999c0 4.66699 1.33301 11 4 19c28 79.333 112 119 252 119c87.333 0 149.166 -14.333 185.499 -43s54.5 -69.334 54.5 -122.001v-348c0 -10 -1.5 -17 -4.5 -21s-9.16699 -6 -18.5 -6
h-1c-28 -10 -47.333 -19.667 -58 -29s-16 -19.333 -16 -30c0 -19.333 9.33301 -29 28 -29c10 0 19.167 1.33301 27.5 4s17.833 6.66699 28.5 12c4 2 7.33301 3 10 3zM347.001 224.002c0 6.66699 -0.999023 11.333 -2.99902 14s-6 4 -12 4h-4c-12.667 0 -28.167 -3 -46.5 -9
s-34.5 -14.833 -48.5 -26.5s-21 -26.167 -21 -43.5c0 -14 5 -25.333 15 -34s24 -13 42 -13c21.333 0 39.666 6.33301 54.999 19s23 24.667 23 36v53z" />
    <glyph glyph-name="Cacute" unicode="&#x106;" horiz-adv-x="737" 
d="M535 722.5c44.667 -19.667 81.3301 -46.832 109.997 -81.499s47.334 -74.334 56.001 -119.001c2 -8 3 -14.333 3 -19c0 -6 -1.16699 -10 -3.5 -12s-6.5 -3.33301 -12.5 -4l-175 -11c-6.66699 0 -11 1.16699 -13 3.5s-4 7.5 -6 15.5c-6 32 -17 57.167 -33 75.5
s-39.333 27.5 -70 27.5c-39.333 0 -69.666 -17.333 -90.999 -52s-32 -91 -32 -169c0 -80.667 9.83301 -138 29.5 -172s50.5 -51 92.5 -51c35.333 0 65.5 9 90.5 27s45.833 48 62.5 90c2 6 7.66699 9 17 9c4.66699 0 8.33398 -0.333008 11.001 -1l125 -25
c10 -3.33301 15 -11 15 -23c0 -18.667 -11.5 -47.5 -34.5 -86.5s-59 -74.5 -108 -106.5s-110.833 -48 -185.5 -48c-70.667 0 -132.667 16.833 -186 50.5s-94.5 80 -123.5 139s-43.5 126.167 -43.5 201.5c0 74.667 14.5 140 43.5 196s70.333 99.167 124 129.5
s116.167 45.5 187.5 45.5c55.333 0 105.333 -9.83301 150 -29.5zM532.996 870.002c1.33301 -2.66699 2.00098 -6.33203 2.00098 -10.999c0 -10 -7 -17 -21 -21l-233 -56c-6.66699 -1.33301 -10.334 -2 -11.001 -2c-8 0 -14 5 -18 15l-15 43
c-1.33301 5.33301 -2 8.66602 -2 9.99902c0 6 3.33301 10.667 10 14l238 101c1.33301 0.666992 3.33301 1 6 1c6.66699 0 11.667 -4.33301 15 -13z" />
    <glyph glyph-name="cacute" unicode="&#x107;" horiz-adv-x="556" 
d="M416 514.5c34 -17 61 -38.498 81 -64.498s33 -52.667 39 -80c1.33301 -5.33301 2 -8.66602 2 -9.99902c0 -9.33301 -6.66699 -14.666 -20 -15.999l-137 -7h-3c-4.66699 0 -7.83398 1 -9.50098 3s-3.16699 5.66699 -4.5 11c-2.66699 18 -8.16699 33 -16.5 45
s-23.166 18 -44.499 18c-53.333 0 -80 -49.667 -80 -149c0 -53.333 7.66699 -91.833 23 -115.5s38 -35.5 68 -35.5c17.333 0 31.833 3.16699 43.5 9.5s21.167 14.666 28.5 24.999s16.333 25.166 27 44.499c2 4 6 6 12 6c3.33301 0 6 -0.333008 8 -1l94 -18
c7.33301 -0.666992 11 -4.66699 11 -12c0 -0.666992 -0.666992 -4.33398 -2 -11.001c-4 -21.333 -15 -45 -33 -71s-44.333 -48.5 -79 -67.5s-76.667 -28.5 -126 -28.5c-52.667 0 -100.167 11.5 -142.5 34.5s-75.333 55.167 -99 96.5s-35.5 88.666 -35.5 141.999
c0 54 12 102 36 144s57 74.667 99 98s89.333 35 142 35c44.667 0 84 -8.5 118 -25.5zM446 658.002c1.33301 -2.66699 2.00098 -6.33203 2.00098 -10.999c0 -10 -7 -17 -21 -21l-233 -56c-6.66699 -1.33301 -10.334 -2 -11.001 -2c-8 0 -14 5 -18 15l-15 43
c-1.33301 5.33301 -2 8.66602 -2 9.99902c0 6 3.33301 10.667 10 14l238 101c1.33301 0.666992 3.33301 1 6 1c6.66699 0 11.667 -4.33301 15 -13z" />
    <glyph glyph-name="Ccircumflex" unicode="&#x108;" horiz-adv-x="737" 
d="M535 722.5c44.667 -19.667 81.3301 -46.832 109.997 -81.499s47.334 -74.334 56.001 -119.001c2 -8 3 -14.333 3 -19c0 -6 -1.16699 -10 -3.5 -12s-6.5 -3.33301 -12.5 -4l-175 -11c-6.66699 0 -11 1.16699 -13 3.5s-4 7.5 -6 15.5c-6 32 -17 57.167 -33 75.5
s-39.333 27.5 -70 27.5c-39.333 0 -69.666 -17.333 -90.999 -52s-32 -91 -32 -169c0 -80.667 9.83301 -138 29.5 -172s50.5 -51 92.5 -51c35.333 0 65.5 9 90.5 27s45.833 48 62.5 90c2 6 7.66699 9 17 9c4.66699 0 8.33398 -0.333008 11.001 -1l125 -25
c10 -3.33301 15 -11 15 -23c0 -18.667 -11.5 -47.5 -34.5 -86.5s-59 -74.5 -108 -106.5s-110.833 -48 -185.5 -48c-70.667 0 -132.667 16.833 -186 50.5s-94.5 80 -123.5 139s-43.5 126.167 -43.5 201.5c0 74.667 14.5 140 43.5 196s70.333 99.167 124 129.5
s116.167 45.5 187.5 45.5c55.333 0 105.333 -9.83301 150 -29.5zM399.996 871.002c-7.33301 9.33301 -12.999 14.002 -16.999 14.002s-9.66699 -4.66699 -17 -14l-46 -55c-3.33301 -4.66699 -6.5 -7.33398 -9.5 -8.00098s-8.5 -1 -16.5 -1h-99c-6 0 -9 2 -9 6
c0 3.33301 2 7.33301 6 12l112 125c4.66699 5.33301 9.66699 9.16602 15 11.499s12.666 3.5 21.999 3.5h95c6 0 11.167 -1.16699 15.5 -3.5s8.5 -5.5 12.5 -9.5l111 -127c5.33301 -6.66699 8 -11 8 -13c0 -3.33301 -3.33301 -5 -10 -5h-105
c-7.33301 0 -12.833 0.5 -16.5 1.5s-7.16699 3.5 -10.5 7.5z" />
    <glyph glyph-name="ccircumflex" unicode="&#x109;" horiz-adv-x="556" 
d="M416 514.5c34 -17 61 -38.498 81 -64.498s33 -52.667 39 -80c1.33301 -5.33301 2 -8.66602 2 -9.99902c0 -9.33301 -6.66699 -14.666 -20 -15.999l-137 -7h-3c-4.66699 0 -7.83398 1 -9.50098 3s-3.16699 5.66699 -4.5 11c-2.66699 18 -8.16699 33 -16.5 45
s-23.166 18 -44.499 18c-53.333 0 -80 -49.667 -80 -149c0 -53.333 7.66699 -91.833 23 -115.5s38 -35.5 68 -35.5c17.333 0 31.833 3.16699 43.5 9.5s21.167 14.666 28.5 24.999s16.333 25.166 27 44.499c2 4 6 6 12 6c3.33301 0 6 -0.333008 8 -1l94 -18
c7.33301 -0.666992 11 -4.66699 11 -12c0 -0.666992 -0.666992 -4.33398 -2 -11.001c-4 -21.333 -15 -45 -33 -71s-44.333 -48.5 -79 -67.5s-76.667 -28.5 -126 -28.5c-52.667 0 -100.167 11.5 -142.5 34.5s-75.333 55.167 -99 96.5s-35.5 88.666 -35.5 141.999
c0 54 12 102 36 144s57 74.667 99 98s89.333 35 142 35c44.667 0 84 -8.5 118 -25.5zM313 659.002c-7.33301 9.33301 -12.999 14.002 -16.999 14.002s-9.66699 -4.66699 -17 -14l-46 -55c-3.33301 -4.66699 -6.5 -7.33398 -9.5 -8.00098s-8.5 -1 -16.5 -1h-99
c-6 0 -9 2 -9 6c0 3.33301 2 7.33301 6 12l112 125c4.66699 5.33301 9.66699 9.16602 15 11.499s12.666 3.5 21.999 3.5h95c6 0 11.167 -1.16699 15.5 -3.5s8.5 -5.5 12.5 -9.5l111 -127c5.33301 -6.66699 8 -11 8 -13c0 -3.33301 -3.33301 -5 -10 -5h-105
c-7.33301 0 -12.833 0.5 -16.5 1.5s-7.16699 3.5 -10.5 7.5z" />
    <glyph glyph-name="Cdotaccent" unicode="&#x10a;" horiz-adv-x="737" 
d="M535 722.5c44.667 -19.667 81.3301 -46.832 109.997 -81.499s47.334 -74.334 56.001 -119.001c2 -8 3 -14.333 3 -19c0 -6 -1.16699 -10 -3.5 -12s-6.5 -3.33301 -12.5 -4l-175 -11c-6.66699 0 -11 1.16699 -13 3.5s-4 7.5 -6 15.5c-6 32 -17 57.167 -33 75.5
s-39.333 27.5 -70 27.5c-39.333 0 -69.666 -17.333 -90.999 -52s-32 -91 -32 -169c0 -80.667 9.83301 -138 29.5 -172s50.5 -51 92.5 -51c35.333 0 65.5 9 90.5 27s45.833 48 62.5 90c2 6 7.66699 9 17 9c4.66699 0 8.33398 -0.333008 11.001 -1l125 -25
c10 -3.33301 15 -11 15 -23c0 -18.667 -11.5 -47.5 -34.5 -86.5s-59 -74.5 -108 -106.5s-110.833 -48 -185.5 -48c-70.667 0 -132.667 16.833 -186 50.5s-94.5 80 -123.5 139s-43.5 126.167 -43.5 201.5c0 74.667 14.5 140 43.5 196s70.333 99.167 124 129.5
s116.167 45.5 187.5 45.5c55.333 0 105.333 -9.83301 150 -29.5zM484.996 815.002c0 -10 -2.66699 -17.332 -8 -21.999s-13.666 -7 -24.999 -7h-141c-9.33301 0 -16 2.16699 -20 6.5s-6 10.833 -6 19.5v119c0 15.333 6.33301 23 19 23h163
c5.33301 0 9.66602 -1.83301 12.999 -5.5s5 -8.83398 5 -15.501v-118z" />
    <glyph glyph-name="cdotaccent" unicode="&#x10b;" horiz-adv-x="556" 
d="M416 514.5c34 -17 61 -38.498 81 -64.498s33 -52.667 39 -80c1.33301 -5.33301 2 -8.66602 2 -9.99902c0 -9.33301 -6.66699 -14.666 -20 -15.999l-137 -7h-3c-4.66699 0 -7.83398 1 -9.50098 3s-3.16699 5.66699 -4.5 11c-2.66699 18 -8.16699 33 -16.5 45
s-23.166 18 -44.499 18c-53.333 0 -80 -49.667 -80 -149c0 -53.333 7.66699 -91.833 23 -115.5s38 -35.5 68 -35.5c17.333 0 31.833 3.16699 43.5 9.5s21.167 14.666 28.5 24.999s16.333 25.166 27 44.499c2 4 6 6 12 6c3.33301 0 6 -0.333008 8 -1l94 -18
c7.33301 -0.666992 11 -4.66699 11 -12c0 -0.666992 -0.666992 -4.33398 -2 -11.001c-4 -21.333 -15 -45 -33 -71s-44.333 -48.5 -79 -67.5s-76.667 -28.5 -126 -28.5c-52.667 0 -100.167 11.5 -142.5 34.5s-75.333 55.167 -99 96.5s-35.5 88.666 -35.5 141.999
c0 54 12 102 36 144s57 74.667 99 98s89.333 35 142 35c44.667 0 84 -8.5 118 -25.5zM398 603.002c0 -10 -2.66699 -17.332 -8 -21.999s-13.666 -7 -24.999 -7h-141c-9.33301 0 -16 2.16699 -20 6.5s-6 10.833 -6 19.5v119c0 15.333 6.33301 23 19 23h163
c5.33301 0 9.66602 -1.83301 12.999 -5.5s5 -8.83398 5 -15.501v-118z" />
    <glyph glyph-name="Ccaron" unicode="&#x10c;" horiz-adv-x="737" 
d="M535 722.5c44.667 -19.667 81.3301 -46.832 109.997 -81.499s47.334 -74.334 56.001 -119.001c2 -8 3 -14.333 3 -19c0 -6 -1.16699 -10 -3.5 -12s-6.5 -3.33301 -12.5 -4l-175 -11c-6.66699 0 -11 1.16699 -13 3.5s-4 7.5 -6 15.5c-6 32 -17 57.167 -33 75.5
s-39.333 27.5 -70 27.5c-39.333 0 -69.666 -17.333 -90.999 -52s-32 -91 -32 -169c0 -80.667 9.83301 -138 29.5 -172s50.5 -51 92.5 -51c35.333 0 65.5 9 90.5 27s45.833 48 62.5 90c2 6 7.66699 9 17 9c4.66699 0 8.33398 -0.333008 11.001 -1l125 -25
c10 -3.33301 15 -11 15 -23c0 -18.667 -11.5 -47.5 -34.5 -86.5s-59 -74.5 -108 -106.5s-110.833 -48 -185.5 -48c-70.667 0 -132.667 16.833 -186 50.5s-94.5 80 -123.5 139s-43.5 126.167 -43.5 201.5c0 74.667 14.5 140 43.5 196s70.333 99.167 124 129.5
s116.167 45.5 187.5 45.5c55.333 0 105.333 -9.83301 150 -29.5zM451.496 953.502c3.66699 1 9.16504 1.50098 16.498 1.50098h105c6.66699 0 10 -1.66699 10 -5c0 -2 -2.66699 -6.33301 -8 -13l-111 -127c-4 -4 -8.16699 -7.16699 -12.5 -9.5s-9.5 -3.5 -15.5 -3.5h-95
c-9.33301 0 -16.666 1.16699 -21.999 3.5s-10.333 6.16602 -15 11.499l-112 125c-4 5.33301 -6 9.33301 -6 12c0 4 3 6 9 6h99h6c4.66699 0 8.33398 -0.5 11.001 -1.5s5.66699 -3.5 9 -7.5l46 -55c7.33301 -9.33301 13 -14 17 -14s9.66699 4.66699 17 14l41 55
c3.33301 4 6.83301 6.5 10.5 7.5z" />
    <glyph glyph-name="ccaron" unicode="&#x10d;" horiz-adv-x="556" 
d="M416 514.5c34 -17 61 -38.498 81 -64.498s33 -52.667 39 -80c1.33301 -5.33301 2 -8.66602 2 -9.99902c0 -9.33301 -6.66699 -14.666 -20 -15.999l-137 -7h-3c-4.66699 0 -7.83398 1 -9.50098 3s-3.16699 5.66699 -4.5 11c-2.66699 18 -8.16699 33 -16.5 45
s-23.166 18 -44.499 18c-53.333 0 -80 -49.667 -80 -149c0 -53.333 7.66699 -91.833 23 -115.5s38 -35.5 68 -35.5c17.333 0 31.833 3.16699 43.5 9.5s21.167 14.666 28.5 24.999s16.333 25.166 27 44.499c2 4 6 6 12 6c3.33301 0 6 -0.333008 8 -1l94 -18
c7.33301 -0.666992 11 -4.66699 11 -12c0 -0.666992 -0.666992 -4.33398 -2 -11.001c-4 -21.333 -15 -45 -33 -71s-44.333 -48.5 -79 -67.5s-76.667 -28.5 -126 -28.5c-52.667 0 -100.167 11.5 -142.5 34.5s-75.333 55.167 -99 96.5s-35.5 88.666 -35.5 141.999
c0 54 12 102 36 144s57 74.667 99 98s89.333 35 142 35c44.667 0 84 -8.5 118 -25.5zM364.5 741.502c3.66699 1 9.16504 1.50098 16.498 1.50098h105c6.66699 0 10 -1.66699 10 -5c0 -2 -2.66699 -6.33301 -8 -13l-111 -127c-4 -4 -8.16699 -7.16699 -12.5 -9.5
s-9.5 -3.5 -15.5 -3.5h-95c-9.33301 0 -16.666 1.16699 -21.999 3.5s-10.333 6.16602 -15 11.499l-112 125c-4 5.33301 -6 9.33301 -6 12c0 4 3 6 9 6h99h6c4.66699 0 8.33398 -0.5 11.001 -1.5s5.66699 -3.5 9 -7.5l46 -55c7.33301 -9.33301 13 -14 17 -14
s9.66699 4.66699 17 14l41 55c3.33301 4 6.83301 6.5 10.5 7.5z" />
    <glyph glyph-name="Dcaron" unicode="&#x10e;" horiz-adv-x="771" 
d="M197 742c79.333 0 128.666 -0.333008 147.999 -1c130 -4.66699 228.333 -39.834 295 -105.501s100 -153.167 100 -262.5c0 -73.333 -15 -138 -45 -194s-74.667 -99.833 -134 -131.5s-131.666 -47.5 -216.999 -47.5h-263c-10 0 -17.333 2.33301 -22 7s-7 12.334 -7 23.001
v687c0 9.33301 2 15.833 6 19.5s11 5.5 21 5.5h118zM281.5 582c-1.66699 -2 -2.5 -5.66797 -2.5 -11.001v-399c0 -6 1 -10 3 -12s5.66699 -3 11 -3h7c66 0 116.167 17.167 150.5 51.5s51.5 90.166 51.5 167.499c0 66.667 -13 116.334 -39 149.001s-64 51.334 -114 56.001
l-60 4c-3.33301 0 -5.83301 -1 -7.5 -3zM430.5 953.499c3.66699 1 9.16504 1.50098 16.498 1.50098h105c6.66699 0 10 -1.66699 10 -5c0 -2 -2.66699 -6.33301 -8 -13l-111 -127c-4 -4 -8.16699 -7.16699 -12.5 -9.5s-9.5 -3.5 -15.5 -3.5h-95
c-9.33301 0 -16.666 1.16699 -21.999 3.5s-10.333 6.16602 -15 11.499l-112 125c-4 5.33301 -6 9.33301 -6 12c0 4 3 6 9 6h99h6c4.66699 0 8.33398 -0.5 11.001 -1.5s5.66699 -3.5 9 -7.5l46 -55c7.33301 -9.33301 13 -14 17 -14s9.66699 4.66699 17 14l41 55
c3.33301 4 6.83301 6.5 10.5 7.5z" />
    <glyph glyph-name="dcaron" unicode="&#x10f;" horiz-adv-x="788" 
d="M385 5.5c-4.66699 3.66699 -7 9.5 -7 17.5v19c0 2.66699 -0.666992 4.66699 -2 6s-2.66602 2 -3.99902 2c-2 0 -5 -1.33301 -9 -4c-20.667 -19.333 -41.834 -33.5 -63.501 -42.5s-47.167 -13.5 -76.5 -13.5c-60.667 0 -109.167 23.5 -145.5 70.5s-54.5 114.5 -54.5 202.5
c0 54 9.66699 102.167 29 144.5s45.166 75 77.499 98s66.833 34.5 103.5 34.5c24 0 45.833 -3.83301 65.5 -11.5s39.167 -21.167 58.5 -40.5c4.66699 -3.33301 8.33398 -5 11.001 -5c5.33301 0 8 4.33301 8 13v225c0 14 6 21 18 21h162c6 0 10.667 -2 14 -6
s5 -9.66699 5 -17v-694c0 -8.66699 -2 -15 -6 -19s-11 -6 -21 -6h-145c-7.33301 -0 -13.333 1.83301 -18 5.5zM342.5 407c-10.333 6 -22.834 9.00098 -37.501 9.00098c-25.333 0 -45 -11.667 -59 -35s-21 -62.333 -21 -117c0 -55.333 6.66699 -94.833 20 -118.5
s33.333 -35.5 60 -35.5c20 0 36.667 6.16699 50 18.5s20 28.166 20 47.499v202c-11.333 13.333 -22.166 23 -32.499 29zM635.999 500.001c-2 3.33301 -2.33301 7 -1 11l31 77c2 5.33301 3 9.33301 3 12c0 5.33301 -3.33301 8.33301 -10 9l-12 2
c-6.66699 0.666992 -11.334 2.16699 -14.001 4.5s-4 6.5 -4 12.5v98c0 10.667 4.66699 16 14 16h97c8.66699 0 13 -4.33301 13 -13v-118c0 -2.66699 -1 -6 -3 -10l-38 -90c-2 -6 -5.16699 -10.167 -9.5 -12.5s-11.166 -3.5 -20.499 -3.5h-37c-4 0 -7 1.66699 -9 5z" />
    <glyph glyph-name="Dcroat" unicode="&#x110;" horiz-adv-x="791" 
d="M660 635.5c66.667 -65.667 100 -153.167 100 -262.5c0 -73.333 -15 -138 -45 -194s-74.667 -99.833 -134 -131.5s-131.666 -47.5 -216.999 -47.5h-263c-10 -0 -17.333 2.33301 -22 7s-7 12.334 -7 23.001v263h-22c-10 0 -16.833 2 -20.5 6s-5.5 10.333 -5.5 19v93
c0 15.333 6.33301 23 19 23h29v283c0 9.33301 2 15.833 6 19.5s11 5.5 21 5.5h118c79.333 0 128.666 -0.333008 147.999 -1c130 -4.66699 228.333 -39.834 295 -105.501zM470.5 208.5c34.333 34.333 51.5 90.165 51.5 167.498c0 66.667 -13 116.334 -39 149.001
s-64 51.334 -114 56.001l-60 4c-3.33301 0 -5.83301 -1 -7.5 -3s-2.5 -5.66699 -2.5 -11v-137h115c5.33301 0 9.66602 -1.83301 12.999 -5.5s5 -8.5 5 -14.5v-93c0 -10 -2.66699 -17.167 -8 -21.5s-13.666 -6.5 -24.999 -6.5h-100v-121c0 -6 1 -10 3 -12s5.66699 -3 11 -3h7
c66 0 116.167 17.167 150.5 51.5z" />
    <glyph glyph-name="dcroat" unicode="&#x111;" horiz-adv-x="626" 
d="M608.5 682c3 -3.33301 4.5 -7.66602 4.5 -12.999v-65c0 -8.66699 -2.33301 -14.834 -7 -18.501s-12 -5.5 -22 -5.5h-9v-555c0 -8.66699 -2 -15 -6 -19s-11 -6 -21 -6h-145c-7.33301 -0 -13.333 1.83301 -18 5.5s-7 9.5 -7 17.5v19c0 2.66699 -0.666992 4.66699 -2 6
s-2.66602 2 -3.99902 2c-2 0 -5 -1.33301 -9 -4c-20.667 -19.333 -41.834 -33.5 -63.501 -42.5s-47.167 -13.5 -76.5 -13.5c-60.667 0 -109.167 23.5 -145.5 70.5s-54.5 114.5 -54.5 202.5c0 54 9.66699 102.167 29 144.5s45.166 75 77.499 98s66.833 34.5 103.5 34.5
c24 0 45.833 -3.83301 65.5 -11.5s39.167 -21.167 58.5 -40.5c4.66699 -3.33301 8.33398 -5 11.001 -5c5.33301 0 8 4.33301 8 13v84h-112c-8 0 -13.667 1.66699 -17 5s-5 9 -5 17v65c0 13.333 5.33301 20 16 20h118v34c0 14 6 21 18 21h162c6 0 10.667 -2 14 -6
s5 -9.66699 5 -17v-32h22c4.66699 0 8.5 -1.66699 11.5 -5zM375 378c-11.333 13.333 -22.167 23.001 -32.5 29.001s-22.833 9 -37.5 9c-25.333 0 -45 -11.667 -59 -35s-21 -62.333 -21 -117c0 -55.333 6.66699 -94.833 20 -118.5s33.333 -35.5 60 -35.5
c20 0 36.667 6.16699 50 18.5s20 28.166 20 47.499v202z" />
    <glyph glyph-name="Emacron" unicode="&#x112;" horiz-adv-x="671" 
d="M71 742l540 0.000976562c12 0 18 -7 18 -21l-1 -116c0 -18 -8.66699 -27 -26 -27h-300c-15.333 0 -23 -6.33301 -23 -19v-85c0 -6.66699 1.66699 -11.834 5 -15.501s7.66602 -5.5 12.999 -5.5h180c14 0 21 -6.66699 21 -20v-124c0 -11.333 -6 -17 -18 -17h-185
c-4.66699 0 -8.5 -1.33301 -11.5 -4s-4.5 -6 -4.5 -10v-100c0 -5.33301 0.833008 -9 2.5 -11s4.83398 -3 9.50098 -3h325c14.667 0 22 -6.33301 22 -19v-123c0 -6.66699 -2 -12 -6 -16s-10 -6 -18 -6h-535c-10 0 -17 2 -21 6s-6 10.333 -6 19v694c0 15.333 6.33301 23 19 23
zM541 855.001c0 -8.66699 -2.33301 -14.834 -7 -18.501s-12 -5.5 -22 -5.5h-360c-8 0 -13.667 1.66699 -17 5s-5 9 -5 17v81c0 13.333 5.33301 20 16 20h379c4.66699 0 8.5 -1.66699 11.5 -5s4.5 -7.66602 4.5 -12.999v-81z" />
    <glyph glyph-name="emacron" unicode="&#x113;" horiz-adv-x="590" 
d="M255.5 145c19 -15.333 43.833 -23.001 74.5 -23.001c18 0 35.333 4.16699 52 12.5s35.667 22.833 57 43.5c2.66699 2.66699 5.33398 4 8.00098 4s7 -1 13 -3l91 -37c6 -2 9 -6 9 -12c0 -4 -1.66699 -8 -5 -12c-34.667 -48.667 -70.834 -82.167 -108.501 -100.5
s-85.5 -27.5 -143.5 -27.5c-52.667 0 -100.5 11.333 -143.5 34s-76.833 54.167 -101.5 94.5s-37 86.166 -37 137.499c0 55.333 12.667 104.5 38 147.5s59.333 76.5 102 100.5s88.667 36 138 36c52.667 0 99.5 -11.333 140.5 -34s73.167 -55.5 96.5 -98.5
s35 -94.167 35 -153.5c0 -9.33301 -1 -15.666 -3 -18.999s-7 -5.33301 -15 -6h-311c-10 0 -15 -5.66699 -15 -17c0 -29.333 9.5 -51.666 28.5 -66.999zM360 331.999c6.66699 0 11.166 0.832031 13.499 2.49902s3.5 5.5 3.5 11.5c0 16.667 -6 33.667 -18 51s-29 26 -51 26
s-40.667 -7.66699 -56 -23s-22.666 -37.666 -21.999 -66.999zM505.999 642.998c0 -8.66699 -2.33301 -14.834 -7 -18.501s-12 -5.5 -22 -5.5h-360c-8 0 -13.667 1.66699 -17 5s-5 9 -5 17v81c0 13.333 5.33301 20 16 20h379c4.66699 0 8.5 -1.66699 11.5 -5
s4.5 -7.66602 4.5 -12.999v-81z" />
    <glyph glyph-name="Ebreve" unicode="&#x114;" horiz-adv-x="671" 
d="M71 742l540 0.000976562c12 0 18 -7 18 -21l-1 -116c0 -18 -8.66699 -27 -26 -27h-300c-15.333 0 -23 -6.33301 -23 -19v-85c0 -6.66699 1.66699 -11.834 5 -15.501s7.66602 -5.5 12.999 -5.5h180c14 0 21 -6.66699 21 -20v-124c0 -11.333 -6 -17 -18 -17h-185
c-4.66699 0 -8.5 -1.33301 -11.5 -4s-4.5 -6 -4.5 -10v-100c0 -5.33301 0.833008 -9 2.5 -11s4.83398 -3 9.50098 -3h325c14.667 0 22 -6.33301 22 -19v-123c0 -6.66699 -2 -12 -6 -16s-10 -6 -18 -6h-535c-10 0 -17 2 -21 6s-6 10.333 -6 19v694c0 15.333 6.33301 23 19 23
zM533 936.001c-14 -42.667 -38.668 -75.167 -74.001 -97.5s-76 -33.5 -122 -33.5c-46.667 0 -87.834 11.167 -123.501 33.5s-60.5 55.5 -74.5 99.5l-1 5c0 7.33301 4 11 12 11h77c6 0 10.5 -0.833008 13.5 -2.5s6.5 -5.5 10.5 -11.5
c9.33301 -13.333 21.833 -24.333 37.5 -33s31.834 -13 48.501 -13c15.333 0 31.333 4.5 48 13.5s29 20.167 37 33.5c3.33301 5.33301 6.33301 8.83301 9 10.5s6.33398 2.5 11.001 2.5h78c12 0 16.333 -6 13 -18z" />
    <glyph glyph-name="ebreve" unicode="&#x115;" horiz-adv-x="590" 
d="M255.5 145c19 -15.333 43.833 -23.001 74.5 -23.001c18 0 35.333 4.16699 52 12.5s35.667 22.833 57 43.5c2.66699 2.66699 5.33398 4 8.00098 4s7 -1 13 -3l91 -37c6 -2 9 -6 9 -12c0 -4 -1.66699 -8 -5 -12c-34.667 -48.667 -70.834 -82.167 -108.501 -100.5
s-85.5 -27.5 -143.5 -27.5c-52.667 0 -100.5 11.333 -143.5 34s-76.833 54.167 -101.5 94.5s-37 86.166 -37 137.499c0 55.333 12.667 104.5 38 147.5s59.333 76.5 102 100.5s88.667 36 138 36c52.667 0 99.5 -11.333 140.5 -34s73.167 -55.5 96.5 -98.5
s35 -94.167 35 -153.5c0 -9.33301 -1 -15.666 -3 -18.999s-7 -5.33301 -15 -6h-311c-10 0 -15 -5.66699 -15 -17c0 -29.333 9.5 -51.666 28.5 -66.999zM360 331.999c6.66699 0 11.166 0.832031 13.499 2.49902s3.5 5.5 3.5 11.5c0 16.667 -6 33.667 -18 51s-29 26 -51 26
s-40.667 -7.66699 -56 -23s-22.666 -37.666 -21.999 -66.999zM497.999 723.998c-14 -42.667 -38.668 -75.167 -74.001 -97.5s-76 -33.5 -122 -33.5c-46.667 0 -87.834 11.167 -123.501 33.5s-60.5 55.5 -74.5 99.5l-1 5c0 7.33301 4 11 12 11h77
c6 0 10.5 -0.833008 13.5 -2.5s6.5 -5.5 10.5 -11.5c9.33301 -13.333 21.833 -24.333 37.5 -33s31.834 -13 48.501 -13c15.333 0 31.333 4.5 48 13.5s29 20.167 37 33.5c3.33301 5.33301 6.33301 8.83301 9 10.5s6.33398 2.5 11.001 2.5h78c12 0 16.333 -6 13 -18z" />
    <glyph glyph-name="Edotaccent" unicode="&#x116;" horiz-adv-x="671" 
d="M71 742l540 0.000976562c12 0 18 -7 18 -21l-1 -116c0 -18 -8.66699 -27 -26 -27h-300c-15.333 0 -23 -6.33301 -23 -19v-85c0 -6.66699 1.66699 -11.834 5 -15.501s7.66602 -5.5 12.999 -5.5h180c14 0 21 -6.66699 21 -20v-124c0 -11.333 -6 -17 -18 -17h-185
c-4.66699 0 -8.5 -1.33301 -11.5 -4s-4.5 -6 -4.5 -10v-100c0 -5.33301 0.833008 -9 2.5 -11s4.83398 -3 9.50098 -3h325c14.667 0 22 -6.33301 22 -19v-123c0 -6.66699 -2 -12 -6 -16s-10 -6 -18 -6h-535c-10 0 -17 2 -21 6s-6 10.333 -6 19v694c0 15.333 6.33301 23 19 23
zM436 815.001c0 -10 -2.66699 -17.332 -8 -21.999s-13.666 -7 -24.999 -7h-141c-9.33301 0 -16 2.16699 -20 6.5s-6 10.833 -6 19.5v119c0 15.333 6.33301 23 19 23h163c5.33301 0 9.66602 -1.83301 12.999 -5.5s5 -8.83398 5 -15.501v-118z" />
    <glyph glyph-name="edotaccent" unicode="&#x117;" horiz-adv-x="590" 
d="M255.5 145c19 -15.333 43.833 -23.001 74.5 -23.001c18 0 35.333 4.16699 52 12.5s35.667 22.833 57 43.5c2.66699 2.66699 5.33398 4 8.00098 4s7 -1 13 -3l91 -37c6 -2 9 -6 9 -12c0 -4 -1.66699 -8 -5 -12c-34.667 -48.667 -70.834 -82.167 -108.501 -100.5
s-85.5 -27.5 -143.5 -27.5c-52.667 0 -100.5 11.333 -143.5 34s-76.833 54.167 -101.5 94.5s-37 86.166 -37 137.499c0 55.333 12.667 104.5 38 147.5s59.333 76.5 102 100.5s88.667 36 138 36c52.667 0 99.5 -11.333 140.5 -34s73.167 -55.5 96.5 -98.5
s35 -94.167 35 -153.5c0 -9.33301 -1 -15.666 -3 -18.999s-7 -5.33301 -15 -6h-311c-10 0 -15 -5.66699 -15 -17c0 -29.333 9.5 -51.666 28.5 -66.999zM360 331.999c6.66699 0 11.166 0.832031 13.499 2.49902s3.5 5.5 3.5 11.5c0 16.667 -6 33.667 -18 51s-29 26 -51 26
s-40.667 -7.66699 -56 -23s-22.666 -37.666 -21.999 -66.999zM414.999 602.998c0 -10 -2.66699 -17.332 -8 -21.999s-13.666 -7 -24.999 -7h-141c-9.33301 0 -16 2.16699 -20 6.5s-6 10.833 -6 19.5v119c0 15.333 6.33301 23 19 23h163
c5.33301 0 9.66602 -1.83301 12.999 -5.5s5 -8.83398 5 -15.501v-118z" />
    <glyph glyph-name="Eogonek" unicode="&#x118;" horiz-adv-x="671" 
d="M634 -69c5.33301 0 8 -4.66602 8 -13.999v-52c0 -8 -3.33301 -14 -10 -18c-10 -5.33301 -25 -10.166 -45 -14.499s-41.333 -6.5 -64 -6.5c-37.333 0 -66.833 7.16699 -88.5 21.5s-32.5 36.166 -32.5 65.499c0 18 5.5 34 16.5 48s31.5 27 61.5 39h-401c-10 0 -17 2 -21 6
s-6 10.333 -6 19v694c0 15.333 6.33301 23 19 23h540c12 0 18 -7 18 -21l-1 -116c0 -18 -8.66699 -27 -26 -27h-300c-15.333 0 -23 -6.33301 -23 -19v-85c0 -6.66699 1.66699 -11.834 5 -15.501s7.66602 -5.5 12.999 -5.5h180c14 0 21 -6.66699 21 -20v-124
c0 -11.333 -6 -17 -18 -17h-185c-4.66699 0 -8.5 -1.33301 -11.5 -4s-4.5 -6 -4.5 -10v-100c0 -5.33301 0.833008 -9 2.5 -11s4.83398 -3 9.50098 -3h325c14.667 0 22 -6.33301 22 -19v-123c0 -6.66699 -2 -12 -6 -16s-10 -6 -18 -6c-28 -10 -47.333 -19.667 -58 -29
s-16 -19.333 -16 -30c0 -19.333 9.33301 -29 28 -29c10 0 19.167 1.33301 27.5 4s17.833 6.66699 28.5 12c4 2 7.33301 3 10 3z" />
    <glyph glyph-name="eogonek" unicode="&#x119;" horiz-adv-x="590" 
d="M227 212c0 -29.333 9.49805 -51.6689 28.498 -67.002s43.833 -23 74.5 -23c18 0 35.333 4.16699 52 12.5s35.667 22.833 57 43.5c2.66699 2.66699 5.33398 4 8.00098 4s7 -1 13 -3l91 -37c6 -2 9 -6 9 -12c0 -4 -1.66699 -8 -5 -12c-24 -34 -48.333 -60.333 -73 -79
s-52.334 -31.667 -83.001 -39c-13.333 -7.33301 -22.666 -14.333 -27.999 -21s-8 -14 -8 -22c0 -19.333 9.33301 -29 28 -29c10 0 19.167 1.33301 27.5 4s17.833 6.66699 28.5 12c4 2 7.33301 3 10 3c5.33301 0 8 -4.66699 8 -14v-52c0 -8 -3.33301 -14 -10 -18
c-10 -5.33301 -25 -10.166 -45 -14.499s-41.333 -6.5 -64 -6.5c-37.333 0 -66.833 7.16699 -88.5 21.5s-32.5 36.166 -32.5 65.499c0 12.667 2.5 24.167 7.5 34.5s14.167 20.166 27.5 29.499c-46 6 -87.167 20.833 -123.5 44.5s-64.666 54.334 -84.999 92.001
s-30.5 79.834 -30.5 126.501c0 55.333 12.667 104.5 38 147.5s59.333 76.5 102 100.5s88.667 36 138 36c52.667 0 99.5 -11.333 140.5 -34s73.167 -55.5 96.5 -98.5s35 -94.167 35 -153.5c0 -9.33301 -1 -15.666 -3 -18.999s-7 -5.33301 -15 -6h-311
c-10 0 -15 -5.66699 -15 -17zM251.998 399.997c-15.333 -15.333 -22.667 -37.667 -22 -67l130 -1c6.66699 0 11.167 0.833008 13.5 2.5s3.5 5.5 3.5 11.5c0 16.667 -6 33.667 -18 51s-29 26 -51 26s-40.667 -7.66699 -56 -23z" />
    <glyph glyph-name="Ecaron" unicode="&#x11a;" horiz-adv-x="671" 
d="M71 742l540 0.000976562c12 0 18 -7 18 -21l-1 -116c0 -18 -8.66699 -27 -26 -27h-300c-15.333 0 -23 -6.33301 -23 -19v-85c0 -6.66699 1.66699 -11.834 5 -15.501s7.66602 -5.5 12.999 -5.5h180c14 0 21 -6.66699 21 -20v-124c0 -11.333 -6 -17 -18 -17h-185
c-4.66699 0 -8.5 -1.33301 -11.5 -4s-4.5 -6 -4.5 -10v-100c0 -5.33301 0.833008 -9 2.5 -11s4.83398 -3 9.50098 -3h325c14.667 0 22 -6.33301 22 -19v-123c0 -6.66699 -2 -12 -6 -16s-10 -6 -18 -6h-535c-10 0 -17 2 -21 6s-6 10.333 -6 19v694c0 15.333 6.33301 23 19 23
zM402.5 953.501c3.66699 1 9.16504 1.50098 16.498 1.50098h105c6.66699 0 10 -1.66699 10 -5c0 -2 -2.66699 -6.33301 -8 -13l-111 -127c-4 -4 -8.16699 -7.16699 -12.5 -9.5s-9.5 -3.5 -15.5 -3.5h-95c-9.33301 0 -16.666 1.16699 -21.999 3.5s-10.333 6.16602 -15 11.499
l-112 125c-4 5.33301 -6 9.33301 -6 12c0 4 3 6 9 6h99h6c4.66699 0 8.33398 -0.5 11.001 -1.5s5.66699 -3.5 9 -7.5l46 -55c7.33301 -9.33301 13 -14 17 -14s9.66699 4.66699 17 14l41 55c3.33301 4 6.83301 6.5 10.5 7.5z" />
    <glyph glyph-name="ecaron" unicode="&#x11b;" horiz-adv-x="590" 
d="M255.5 145c19 -15.333 43.833 -23.001 74.5 -23.001c18 0 35.333 4.16699 52 12.5s35.667 22.833 57 43.5c2.66699 2.66699 5.33398 4 8.00098 4s7 -1 13 -3l91 -37c6 -2 9 -6 9 -12c0 -4 -1.66699 -8 -5 -12c-34.667 -48.667 -70.834 -82.167 -108.501 -100.5
s-85.5 -27.5 -143.5 -27.5c-52.667 0 -100.5 11.333 -143.5 34s-76.833 54.167 -101.5 94.5s-37 86.166 -37 137.499c0 55.333 12.667 104.5 38 147.5s59.333 76.5 102 100.5s88.667 36 138 36c52.667 0 99.5 -11.333 140.5 -34s73.167 -55.5 96.5 -98.5
s35 -94.167 35 -153.5c0 -9.33301 -1 -15.666 -3 -18.999s-7 -5.33301 -15 -6h-311c-10 0 -15 -5.66699 -15 -17c0 -29.333 9.5 -51.666 28.5 -66.999zM360 331.999c6.66699 0 11.166 0.832031 13.499 2.49902s3.5 5.5 3.5 11.5c0 16.667 -6 33.667 -18 51s-29 26 -51 26
s-40.667 -7.66699 -56 -23s-22.666 -37.666 -21.999 -66.999zM367.499 741.498c3.66699 1 9.16504 1.50098 16.498 1.50098h105c6.66699 0 10 -1.66699 10 -5c0 -2 -2.66699 -6.33301 -8 -13l-111 -127c-4 -4 -8.16699 -7.16699 -12.5 -9.5s-9.5 -3.5 -15.5 -3.5h-95
c-9.33301 0 -16.666 1.16699 -21.999 3.5s-10.333 6.16602 -15 11.499l-112 125c-4 5.33301 -6 9.33301 -6 12c0 4 3 6 9 6h99h6c4.66699 0 8.33398 -0.5 11.001 -1.5s5.66699 -3.5 9 -7.5l46 -55c7.33301 -9.33301 13 -14 17 -14s9.66699 4.66699 17 14l41 55
c3.33301 4 6.83301 6.5 10.5 7.5z" />
    <glyph glyph-name="Gcircumflex" unicode="&#x11c;" horiz-adv-x="761" 
d="M196.5 38c-53 32 -94.0029 76.4971 -123.003 133.497s-43.5 122.5 -43.5 196.5c0 76 15.333 143 46 201s73.5 103 128.5 135s117.833 48 188.5 48c57.333 0 108.5 -10.5 153.5 -31.5s81.333 -48.167 109 -81.5s45.834 -68.666 54.501 -105.999c2 -8 3 -14.333 3 -19
c0 -6 -1.33301 -10 -4 -12s-7 -3.33301 -13 -4l-171 -26c-7.33301 0 -12 1.33301 -14 4s-4 8 -6 16c-5.33301 30.667 -17.833 55.834 -37.5 75.501s-46.167 29.5 -79.5 29.5c-39.333 0 -69.166 -16.833 -89.499 -50.5s-30.5 -91.167 -30.5 -172.5
c0 -85.333 11 -144.666 33 -177.999s53.667 -50 95 -50c54 0 90 23.333 108 70l3 9l2 8c0 6 -3.66699 9 -11 9h-94c-7.33301 0 -12.5 1.66699 -15.5 5s-4.5 9 -4.5 17v96c0 11.333 7 17 21 17l280 -2c12 0 21.333 -2.83301 28 -8.5s10 -13.167 10 -22.5v-327
c0 -4.66699 -1.66699 -8.66699 -5 -12s-7.33301 -5 -12 -5h-38c-12 -0 -22.667 6.33301 -32 19l-40 58c-0.666992 2 -2 3 -4 3c-1.33301 0 -3.66602 -1.66699 -6.99902 -5c-17.333 -16.667 -33.833 -30.667 -49.5 -42s-36.5 -21.333 -62.5 -30s-57 -13 -93 -13
c-69.333 0 -130.5 16 -183.5 48zM396.997 870.997c-7.33301 9.33301 -12.999 14.002 -16.999 14.002s-9.66699 -4.66699 -17 -14l-46 -55c-3.33301 -4.66699 -6.5 -7.33398 -9.5 -8.00098s-8.5 -1 -16.5 -1h-99c-6 0 -9 2 -9 6c0 3.33301 2 7.33301 6 12l112 125
c4.66699 5.33301 9.66699 9.16602 15 11.499s12.666 3.5 21.999 3.5h95c6 0 11.167 -1.16699 15.5 -3.5s8.5 -5.5 12.5 -9.5l111 -127c5.33301 -6.66699 8 -11 8 -13c0 -3.33301 -3.33301 -5 -10 -5h-105c-7.33301 0 -12.833 0.5 -16.5 1.5s-7.16699 3.5 -10.5 7.5z" />
    </font>
</defs>
</svg>
