<?xml version="1.0" standalone="no"?>
<!DOCTYPE svg PUBLIC "-//W3C//DTD SVG 1.1//EN" "http://www.w3.org/Graphics/SVG/1.1/DTD/svg11.dtd" >
<svg>
<metadata>
Created by FontForge 20090914 at Wed Jun 28 20:15:05 2017
 By www-data
Copyright (c) 2015, Impallari Type (www.impallari.com)
</metadata>
<defs>
<font id="LibreFranklin-Bold" horiz-adv-x="0" >
  <font-face 
    font-family="Libre Franklin"
    font-weight="700"
    font-stretch="normal"
    units-per-em="1000"
    panose-1="0 0 8 0 0 0 0 0 0 0"
    ascent="800"
    descent="-200"
    x-height="529.999"
    cap-height="742"
    bbox="-419 -243.001 1374 964.002"
    underline-thickness="50"
    underline-position="-50"
    unicode-range="U+000D-U+FB02"
  />
<missing-glyph horiz-adv-x="648" 
d="M573 841.5c3.33301 -3.66699 5 -8.83301 5 -15.5v-962c0 -10.667 -2.66699 -18.167 -8 -22.5s-13.666 -6.5 -24.999 -6.5h-448c-10 0 -17 2 -21 6s-6 10.333 -6 19v964c0 7.33301 1.66699 13 5 17s8 6 14 6h471c5.33301 0 9.66602 -1.83301 12.999 -5.5zM522 792.001
c-2.66699 3.33301 -6.33301 5.00098 -11 5.00098h-353l368 -855v837c0 5.33301 -1.33301 9.66602 -4 12.999zM127.001 -109.998c3.33301 -3.33301 9.33301 -5.00098 18 -5.00098h344l-367 849v-828c0 -7.33301 1.66699 -12.666 5 -15.999z" />
    <glyph glyph-name="fi" unicode="fi" horiz-adv-x="667" 
d="M377 525c3.33301 -3.33301 4.99902 -7.33203 4.99902 -11.999v-74c0 -10 -5.66699 -15 -17 -15h-83c-6.66699 0 -10 -3.66699 -10 -11v-394c0 -12.667 -5.33301 -19 -16 -19h-123c-10 0 -15 5.66699 -15 17v398c0 6 -2.66699 9 -8 9h-72c-12 0 -18 5 -18 15v74
c0 4.66699 1.66699 8.66699 5 12s8 5 14 5h67c4.66699 0 7.83398 1.16699 9.50098 3.5s2.5 6.16602 2.5 11.499v61c0 42.667 12.667 76 38 100s61 36 107 36h101c14.667 0 22 -7 22 -21l1 -65c0 -11.333 -5 -17 -15 -17h-54c-14.667 0 -26.667 -5.5 -36 -16.5
s-14 -25.167 -14 -42.5v-39c0 -7.33301 4 -11 12 -11h83c6 0 10.667 -1.66699 14 -5zM612.999 619.001c0 -16.667 -9 -25 -27 -25h-108c-8 0 -13.667 1.83301 -17 5.5s-5 9.5 -5 17.5v105c0 13.333 5.66699 20 17 20h124c4.66699 0 8.5 -1.66699 11.5 -5s4.5 -8 4.5 -14
v-104zM610.999 24.001c0 -8.66699 -2 -14.832 -6 -18.499s-11 -5.5 -21 -5.5h-105c-8 0 -13.667 1.66699 -17 5s-5 8.66602 -5 15.999v490c0 12.667 5.66699 19 17 19h122c10 0 15 -5.66699 15 -17v-489z" />
    <glyph glyph-name="fl" unicode="fl" horiz-adv-x="668" 
d="M377 525c3.33301 -3.33301 4.99902 -7.33203 4.99902 -11.999v-74c0 -10 -5.66699 -15 -17 -15h-83c-6.66699 0 -10 -3.66699 -10 -11v-394c0 -12.667 -5.33301 -19 -16 -19h-123c-10 0 -15 5.66699 -15 17v398c0 6 -2.66699 9 -8 9h-72c-12 0 -18 5 -18 15v74
c0 4.66699 1.66699 8.66699 5 12s8 5 14 5h67c4.66699 0 7.83398 1.16699 9.50098 3.5s2.5 6.16602 2.5 11.499v61c0 42.667 12.667 76 38 100s61 36 107 36h101c14.667 0 22 -7 22 -21l1 -65c0 -11.333 -5 -17 -15 -17h-54c-14.667 0 -26.667 -5.5 -36 -16.5
s-14 -25.167 -14 -42.5v-39c0 -7.33301 4 -11 12 -11h83c6 0 10.667 -1.66699 14 -5zM611.999 24.001c0 -8.66699 -2 -14.832 -6 -18.499s-11 -5.5 -21 -5.5h-106c-8 0 -13.667 1.66699 -17 5s-5 8.66602 -5 15.999l3 702c0 12.667 5.33301 19 16 19h121c10 0 15 -6 15 -18
v-700z" />
    <glyph glyph-name=".notdef" horiz-adv-x="648" 
d="M573 841.5c3.33301 -3.66699 5 -8.83301 5 -15.5v-962c0 -10.667 -2.66699 -18.167 -8 -22.5s-13.666 -6.5 -24.999 -6.5h-448c-10 0 -17 2 -21 6s-6 10.333 -6 19v964c0 7.33301 1.66699 13 5 17s8 6 14 6h471c5.33301 0 9.66602 -1.83301 12.999 -5.5zM522 792.001
c-2.66699 3.33301 -6.33301 5.00098 -11 5.00098h-353l368 -855v837c0 5.33301 -1.33301 9.66602 -4 12.999zM127.001 -109.998c3.33301 -3.33301 9.33301 -5.00098 18 -5.00098h344l-367 849v-828c0 -7.33301 1.66699 -12.666 5 -15.999z" />
    <glyph glyph-name="uni0000" 
 />
    <glyph glyph-name="uni0000" 
 />
    <glyph glyph-name="nonmarkingreturn" unicode="&#xd;" horiz-adv-x="211" 
 />
    <glyph glyph-name="space" unicode=" " horiz-adv-x="206" 
 />
    <glyph glyph-name="exclam" unicode="!" horiz-adv-x="264" 
d="M182 254c-1.33301 -8 -3.83398 -13.667 -7.50098 -17s-10.167 -5 -19.5 -5h-53c-7.33301 0 -12.333 1.5 -15 4.5s-4.66699 8.16699 -6 15.5l-38 472v2c0 5.33301 1.5 9.33301 4.5 12s6.5 4 10.5 4h147c4.66699 0 8.33398 -1.66699 11.001 -5s3.66699 -7.33301 3 -12z
M213.999 24c0 -8.66699 -2 -14.832 -6 -18.499s-11 -5.5 -21 -5.5h-118c-8 0 -13.667 1.66699 -17 5s-5 8.66602 -5 15.999v124c0 12 5 18 15 18h137c10 0 15 -5.33301 15 -16v-123z" />
    <glyph glyph-name="quotedbl" unicode="&#x22;" horiz-adv-x="469" 
d="M390 474c-1.33301 -8.66699 -3.83203 -14.667 -7.49902 -18s-10.167 -5 -19.5 -5h-35c-8 0 -13.333 1.5 -16 4.5s-4.33398 8.16699 -5.00098 15.5l-34 254v3c0 4 1.5 7.33301 4.5 10s6.5 4 10.5 4h121c5.33301 0 9.33301 -1.5 12 -4.5s3.66699 -6.83301 3 -11.5z
M168.001 474c-1.33301 -8.66699 -3.83203 -14.667 -7.49902 -18s-10.167 -5 -19.5 -5h-35c-8 0 -13.333 1.5 -16 4.5s-4.33398 8.16699 -5.00098 15.5l-34 254v3c0 4 1.5 7.33301 4.5 10s6.5 4 10.5 4h121c5.33301 0 9.33301 -1.5 12 -4.5s3.66699 -6.83301 3 -11.5z" />
    <glyph glyph-name="numbersign" unicode="#" horiz-adv-x="603" 
d="M583 514.5c2.66699 -3 3.99414 -6.83105 3.99414 -11.498v-41c0 -8 -2.16699 -13.667 -6.5 -17s-11.166 -5 -20.499 -5h-96l-20 -131h95c4.66699 0 8.33398 -1.5 11.001 -4.5s4 -6.83301 4 -11.5v-41c0 -8 -2.16699 -13.667 -6.5 -17s-11.166 -5 -20.499 -5h-94l-31 -206
c-1.33301 -10 -3.5 -16.667 -6.5 -20s-9.16699 -4.66602 -18.5 -3.99902l-34 5c-9.33301 1.33301 -15.666 3.16602 -18.999 5.49902s-4.66602 6.83301 -3.99902 13.5l31 206h-136l-31 -206c-1.33301 -10 -3.5 -16.667 -6.5 -20s-9.16699 -4.66602 -18.5 -3.99902l-34 5
c-9.33301 1.33301 -15.5 3.16602 -18.5 5.49902s-4.16699 6.83301 -3.5 13.5l31 206h-97c-8 0 -13.333 1.5 -16 4.5s-4 8.16699 -4 15.5v41c0 12 4.66699 18 14 18h114l20 131h-95c-8 0 -13.333 1.5 -16 4.5s-4 8.16699 -4 15.5v41c0 12 4.66699 18 14 18h113l30 204
c2 13.333 7 19.666 15 18.999l51 -5c10 -1.33301 14.667 -7.33301 14 -18l-30 -200h137l31 204c2 13.333 7 19.666 15 18.999l51 -5c10 -1.33301 14.667 -7.33301 14 -18l-30 -200h97c4.66699 0 8.33398 -1.5 11.001 -4.5zM381.994 440.002h-136l-20 -131h137z" />
    <glyph glyph-name="dollar" unicode="$" horiz-adv-x="655" 
d="M559.5 65.5c-40.333 -39.667 -94.5 -62.8359 -162.5 -69.5029c-7.33301 -0.666992 -12 -2 -14 -4s-3 -6 -3 -12v-36c0 -8 -1.83301 -13.833 -5.5 -17.5s-9.83398 -5.5 -18.501 -5.5h-55c-14 0 -21 6.66699 -21 20v40c0 6 -1 10 -3 12s-5.66699 3 -11 3
c-48 2.66699 -89.833 11.5 -125.5 26.5s-69.167 36.833 -100.5 65.5c-10 8 -15 15 -15 21c0 4 1.66699 7.66699 5 11l60 65c6 6 11.333 9 16 9c4 0 8.33301 -2.33301 13 -7c42 -45.333 91.333 -71.666 148 -78.999l6 -1c5.33301 0 8 3.66699 8 11l1 171
c0 5.33301 -1 9.5 -3 12.5s-6 5.5 -12 7.5c-78.667 17.333 -135.167 44.666 -169.5 81.999s-51.5 83 -51.5 137c0 53.333 19 98.833 57 136.5s91.333 62.5 160 74.5c12.667 3.33301 19 9 19 17v38c0 4 1.16699 7.33301 3.5 10s5.16602 4 8.49902 4h68
c12 0 18 -6.33301 18 -19v-40c0 -4 4.33301 -7 13 -9c67.333 -14 125 -39 173 -75c5.33301 -3.33301 8 -7.66602 8 -12.999c0 -3.33301 -1.66699 -7.33301 -5 -12l-53 -68c-4 -4.66699 -8 -7 -12 -7c-5.33301 0 -10.666 2.66699 -15.999 8
c-11.333 11.333 -25.5 21.833 -42.5 31.5s-34.833 16.834 -53.5 21.501l-4 1c-6 0 -9 -3 -9 -9v-169c0 -4 0.833008 -6.83301 2.5 -8.5s4.83398 -3.16699 9.50098 -4.5l56 -15c52.667 -16 94.667 -42.167 126 -78.5s47 -79.166 47 -128.499
c0 -59.333 -20.167 -108.833 -60.5 -148.5zM282 618.998c0 10 -4.33301 14.001 -13 12.001c-30 -5.33301 -53 -15.833 -69 -31.5s-24 -34.167 -24 -55.5c0 -20.667 6.66699 -37.834 20 -51.501s35.333 -25.167 66 -34.5c1.33301 -0.666992 3.33301 -1 6 -1
c9.33301 0 14 6.33301 14 19v143zM392 106.999c30 3.33301 53.667 12.6689 71 28.002s26 34 26 56c0 23.333 -7.66699 42.666 -23 57.999s-40 27.666 -74 36.999c-1.33301 0.666992 -3.33301 1 -6 1c-4.66699 0 -7 -3.66699 -7 -11v-162c0 -6 4.33301 -8.33301 13 -7z" />
    <glyph glyph-name="percent" unicode="%" horiz-adv-x="944" 
d="M324 724.5c28.667 -19 51.1631 -44.667 67.4961 -77s24.5 -67.833 24.5 -106.5s-8.16699 -74 -24.5 -106s-38.666 -57.167 -66.999 -75.5s-60.166 -27.5 -95.499 -27.5s-67.5 9.16699 -96.5 27.5s-51.667 43.5 -68 75.5s-24.5 67.333 -24.5 106s8.33301 74.167 25 106.5
s39.334 58 68.001 77s60.667 28.5 96 28.5c34.667 0 66.334 -9.5 95.001 -28.5zM273.996 7c-4.66699 -7.33301 -12.998 -11 -24.998 -11l-42 1c-10.667 0 -16 4.66699 -16 14c0 4 1.66699 8.66699 5 14l475 714c3.33301 4.66699 6.66602 7.66699 9.99902 9
s7.66602 2 12.999 2h53c8 0 12 -2.66699 12 -8c0 -0.666992 -1.33301 -3.66699 -4 -9zM284.498 444c12.333 22.667 18.502 54.6689 18.502 96.002c0 43.333 -6.16699 76.666 -18.5 99.999s-31.166 35 -56.499 35c-24.667 0 -43.334 -11.833 -56.001 -35.5
s-19 -56.834 -19 -99.501c0 -41.333 6.16699 -73.333 18.5 -96s31.166 -34 56.499 -34s44.166 11.333 56.499 34zM812 382.502c28.667 -19 51.1641 -44.667 67.4971 -77s24.5 -67.833 24.5 -106.5s-8.16699 -74 -24.5 -106s-38.666 -57.167 -66.999 -75.5
s-60.166 -27.5 -95.499 -27.5s-67.5 9.16699 -96.5 27.5s-51.667 43.5 -68 75.5s-24.5 67.333 -24.5 106s8.33301 74.167 25 106.5s39.5 58 68.5 77s60.833 28.5 95.5 28.5s66.334 -9.5 95.001 -28.5zM772.497 102.002c12.333 22.667 18.502 54.667 18.502 96
c0 42.667 -6.33301 75.834 -19 99.501s-31.334 35.5 -56.001 35.5s-43.167 -11.833 -55.5 -35.5s-18.5 -56.834 -18.5 -99.501c0 -40.667 6.16699 -72.5 18.5 -95.5s30.833 -34.5 55.5 -34.5c25.333 0 44.166 11.333 56.499 34z" />
    <glyph glyph-name="ampersand" unicode="&#x26;" horiz-adv-x="838" 
d="M491 733c34 -13.333 60.667 -31.998 80 -55.998s29 -51.667 29 -83c0 -33.333 -13.833 -67.333 -41.5 -102s-64.5 -63 -110.5 -85c-5.33301 -2.66699 -8 -5.33398 -8 -8.00098s1.66699 -5.66699 5 -9l106 -116c4 -4 7.33301 -6 10 -6c2 0 5.66699 2.66699 11 8
c16.667 18.667 32.5 39.667 47.5 63s26.167 44.666 33.5 63.999c4 6.66699 9.33301 10 16 10c3.33301 0 6 -0.333008 8 -1l77 -25c5.33301 -1.33301 9.33301 -4.66602 12 -9.99902s3 -10.666 1 -15.999c-20 -48 -56.667 -104.333 -110 -169
c-4 -4.66699 -6 -8.33398 -6 -11.001s2.66699 -5.66699 8 -9c15.333 -11.333 34.166 -20.833 56.499 -28.5s45.5 -11.834 69.5 -12.501c7.33301 -0.666992 12.5 -2.33398 15.5 -5.00098s4.5 -7.33398 4.5 -14.001v-87c0 -16.667 -7.33301 -25 -22 -25
c-46 0 -89.333 6.16699 -130 18.5s-76.667 29.833 -108 52.5c-5.33301 3.33301 -9.66602 5 -12.999 5s-8 -2 -14 -6c-33.333 -25.333 -69 -44.166 -107 -56.499s-80.333 -18.5 -127 -18.5c-77.333 0 -137.5 17.333 -180.5 52s-64.5 83.334 -64.5 146.001
c0 40 13.167 76.5 39.5 109.5s68.833 65.833 127.5 98.5c6.66699 4 10 7.66699 10 11s-2.66699 8 -8 14c-20 22 -35.5 45.333 -46.5 70s-16.5 49 -16.5 73c0 34.667 10 66 30 94s47.5 50 82.5 66s74.167 24 117.5 24s82 -6.66699 116 -20zM321 637.002
c-15.333 -15.333 -23.001 -33.333 -23.001 -54c0 -20 9.33301 -40.333 28 -61l33 -39c2.66699 -2 5.66699 -3 9 -3s7 0.666992 11 2c57.333 28 86 63 86 105c0 22.667 -7.66699 40.5 -23 53.5s-35.333 19.5 -60 19.5c-25.333 0 -45.666 -7.66699 -60.999 -23z
M291.999 323.002c-3.33301 0 -7.33398 -1.33398 -12.001 -4.00098c-23.333 -12.667 -41.666 -28.667 -54.999 -48s-20 -39.666 -20 -60.999c0 -28 10.833 -51.833 32.5 -71.5s48.167 -29.5 79.5 -29.5c18.667 0 38.5 3.83301 59.5 11.5s38.5 17.5 52.5 29.5
c5.33301 5.33301 8 10 8 14s-1.66699 7.66699 -5 11l-125 140c-4.66699 5.33301 -9.66699 8 -15 8z" />
    <glyph glyph-name="quotesingle" unicode="'" horiz-adv-x="248" 
d="M168 474c-1.33301 -8.66699 -3.83203 -14.667 -7.49902 -18s-10.167 -5 -19.5 -5h-35c-8 0 -13.333 1.5 -16 4.5s-4.33398 8.16699 -5.00098 15.5l-34 254v3c0 4 1.5 7.33301 4.5 10s6.5 4 10.5 4h121c5.33301 0 9.33301 -1.5 12 -4.5s3.66699 -6.83301 3 -11.5z" />
    <glyph glyph-name="parenleft" unicode="(" horiz-adv-x="314" 
d="M296 738c1.33301 -2.66699 1 -5.66309 -1 -8.99609c-34.667 -68.667 -61.667 -140.834 -81 -216.501s-29 -151.834 -29 -228.501c0 -73.333 8.83301 -144.833 26.5 -214.5s44.5 -143.167 80.5 -220.5l2 -5c0 -2.66699 -1 -4.83398 -3 -6.50098s-4.66699 -2.5 -8 -2.5h-81
c-4 0 -7.16699 0.833008 -9.5 2.5s-4.83301 4.5 -7.5 8.5c-46 78.667 -80.333 151.667 -103 219s-34 140.666 -34 219.999c0 80 12.333 157.833 37 233.5s58.667 146.167 102 211.5c6 8 13.667 12 23 12h77c4.66699 0 7.66699 -1.33301 9 -4z" />
    <glyph glyph-name="parenright" unicode=")" horiz-adv-x="314" 
d="M104 742c9.33301 0 17.001 -4.00293 23.001 -12.0029c43.333 -65.333 77.333 -135.833 102 -211.5s37 -153.5 37 -233.5c0 -79.333 -11.333 -152.666 -34 -219.999s-57 -140.333 -103 -219c-2.66699 -4 -5.16699 -6.83301 -7.5 -8.5s-5.5 -2.5 -9.5 -2.5h-81
c-4.66699 0 -7.83398 1.5 -9.50098 4.5s-1.5 6.16699 0.5 9.5c36 77.333 62.833 150.833 80.5 220.5s26.5 141.167 26.5 214.5c0 76.667 -9.66699 152.834 -29 228.501s-46.333 147.834 -81 216.501c-1.33301 2.66699 -2 4.66699 -2 6c0 4.66699 3.33301 7 10 7h77z" />
    <glyph glyph-name="asterisk" unicode="*" horiz-adv-x="465" 
d="M239 464c-0.666992 2 -2.00098 2.99805 -4.00098 2.99805s-3.66699 -1 -5 -3l-74 -124c-2 -3.33301 -5.66699 -5 -11 -5c-4.66699 0 -8.66699 1.33301 -12 4l-54 38c-5.33301 4 -8 7.66699 -8 11c0 2.66699 1.66699 5.66699 5 9l90 108
c1.33301 2.66699 2 4.33398 2 5.00098c0 3.33301 -2.33301 5.33301 -7 6l-126 35c-6 2 -9 6 -9 12c0 2 0.666992 5 2 9l21 59c2 4.66699 4.33301 7.66699 7 9s6 0.666016 10 -2.00098l120 -52c1.33301 -0.666992 3 -1 5 -1c4 0 6 2.33301 6 7l-11 137v2
c0 2.66699 1.16699 5.16699 3.5 7.5s5.5 3.5 9.5 3.5h73c8 0 12 -4.33301 12 -13l-12 -137c0 -7.33301 3 -9.66602 9 -6.99902l122 54c4 1.33301 6.66699 2 8 2c6 0 10 -4 12 -12l18 -58c0.666992 -1.33301 1 -3.66602 1 -6.99902c0 -6 -3.66699 -10 -11 -12l-123 -36
c-6 -2 -6.66699 -6 -2 -12l86 -103c2.66699 -4 4 -7 4 -9c0 -4.66699 -3.66699 -9.66699 -11 -15l-48 -34c-5.33301 -3.33301 -9.66602 -5 -12.999 -5c-5.33301 0 -9.33301 2 -12 6z" />
    <glyph glyph-name="plus" unicode="+" horiz-adv-x="583" 
d="M532 424.5c2.66699 -3 3.99805 -6.83203 3.99805 -11.499v-73c0 -8 -2.16699 -13.667 -6.5 -17s-11.166 -5 -20.499 -5h-161v-173c0 -4.66699 -1.5 -8.33398 -4.5 -11.001s-6.83301 -4 -11.5 -4h-73c-8 0 -13.667 2 -17 6s-5 10.667 -5 20v161h-168
c-7.33301 0 -12.5 1.66699 -15.5 5s-4.5 8.33301 -4.5 15v73c0 12.667 5 19 15 19h173v167c0 8 1.5 13.5 4.5 16.5s8.16699 4.5 15.5 4.5h73c12 0 18 -5 18 -15v-173h173c4.66699 0 8.33398 -1.5 11.001 -4.5z" />
    <glyph glyph-name="comma" unicode="," horiz-adv-x="253" 
d="M42.5 -149.5c-2.33301 4.33301 -2.5 9.16699 -0.5 14.5l48 109c2.66699 5.33301 4 10.333 4 15c0 7.33301 -4.33301 11 -13 11h-18c-14.667 0 -22 6.66699 -22 20v126c0 6 1.5 10.5 4.5 13.5s6.83301 4.5 11.5 4.5h137c10 0 15 -5.33301 15 -16v-121
c0 -4 -1 -8.66699 -3 -14l-98 -151c-4 -6 -9.33301 -10.5 -16 -13.5s-13.334 -4.5 -20.001 -4.5h-18c-5.33301 0 -9.16602 2.16699 -11.499 6.5z" />
    <glyph glyph-name="hyphen" unicode="-" horiz-adv-x="380" 
d="M331 230c0 -14.667 -8.66797 -21.999 -26.001 -21.999h-235c-8 0 -13.5 1.5 -16.5 4.5s-4.5 8.16699 -4.5 15.5v73c0 12 5 18 15 18h252c4.66699 0 8.33398 -1.33301 11.001 -4s4 -6.33398 4 -11.001v-74z" />
    <glyph glyph-name="period" unicode="." horiz-adv-x="251" 
d="M208 24c0 -8.66699 -2.16699 -14.833 -6.5 -18.5s-11.5 -5.5 -21.5 -5.5h-118c-14.667 0 -22 7 -22 21v127c0 6 1.5 10.5 4.5 13.5s6.83301 4.5 11.5 4.5h137c10 0 15 -5.66699 15 -17v-125z" />
    <glyph glyph-name="slash" unicode="/" horiz-adv-x="365" 
d="M6 -2l248.999 728.998c1.33301 4.66699 4 8.33398 8 11.001s8.33301 4 13 4h67c11.333 0 17 -4.33301 17 -13c0 -3.33301 -1 -7.66602 -3 -12.999l-243 -712c-5.33301 -14 -14.666 -21 -27.999 -21h-68c-12 0 -16 5 -12 15z" />
    <glyph glyph-name="zero" unicode="0" horiz-adv-x="708" 
d="M514 705c46.667 -32 83.333 -77 110 -135s40 -125 40 -201s-13.167 -142.5 -39.5 -199.5s-62.833 -101 -109.5 -132s-100 -46.5 -160 -46.5s-113.5 15.5 -160.5 46.5s-83.667 75 -110 132s-39.5 123.167 -39.5 198.5c0 76 13.333 143.167 40 201.5
s63.5 103.5 110.5 135.5s100.167 48 159.5 48s112.333 -16 159 -48zM453.999 174c21.333 39.333 32.001 104 32.001 194c0 92 -10.833 158.833 -32.5 200.5s-54.834 62.5 -99.501 62.5c-44 0 -77 -21 -99 -63s-33 -108.667 -33 -200c0 -89.333 11 -153.833 33 -193.5
s55.333 -59.5 100 -59.5s77.667 19.667 99 59z" />
    <glyph glyph-name="one" unicode="1" horiz-adv-x="509" 
d="M475 114l-0.000976562 -97.0029c0 -4.66699 -1.66699 -8.66699 -5 -12s-8.33301 -5 -15 -5h-395c-12.667 0 -19 5.66699 -19 17v97c0 10 5.66699 15 17 15h104c7.33301 0 11 2.33301 11 7v420c0 5.33301 -1 8.83301 -3 10.5s-5.66699 1.83398 -11 0.500977l-97 -29l-7 -1
c-10 0 -15 6.66699 -15 20v66c0 6.66699 1 11.5 3 14.5s6 6.16699 12 9.5l167 83c9.33301 4.66699 16.833 7.83398 22.5 9.50098s12.167 2.5 19.5 2.5h69c4.66699 0 8.33398 -1.66699 11.001 -5s4 -7.66602 4 -12.999v-585c0 -6.66699 3 -10 9 -10h100c12 0 18 -5 18 -15z
" />
    <glyph glyph-name="two" unicode="2" horiz-adv-x="644" 
d="M269 321c44 38 76.6699 68.332 98.0029 90.999s36.166 42.5 44.499 59.5s12.5 35.5 12.5 55.5c0 30 -10.5 53.833 -31.5 71.5s-47.5 26.5 -79.5 26.5c-28 0 -53.833 -8.16699 -77.5 -24.5s-46.5 -43.166 -68.5 -80.499c-2 -5.33301 -6.33301 -8 -13 -8
c-4.66699 0 -9.33398 1.33301 -14.001 4l-89 46c-8 5.33301 -12 11.333 -12 18c0 4.66699 1.66699 9.66699 5 15c66 104.667 159 157 279 157c53.333 0 100.5 -9 141.5 -27s72.833 -44 95.5 -78s34 -74 34 -120c0 -40.667 -10.833 -78 -32.5 -112s-58.834 -72 -111.501 -114
l-185 -145c-4 -2.66699 -6 -5 -6 -7c0 -3.33301 4 -5 12 -5h311c12.667 0 19 -5.33301 19 -16v-110c0 -12 -6.66699 -18 -20 -18h-521c-8.66699 0 -14.667 1.5 -18 4.5s-5 8.5 -5 16.5v77c0 6 2.66699 12.5 8 19.5s18 18.833 38 35.5z" />
    <glyph glyph-name="three" unicode="3" horiz-adv-x="667" 
d="M61 636c0 3.33301 1.33496 7.33203 4.00195 11.999c26.667 32 63.334 57.333 110.001 76s96.334 28 149.001 28c57.333 0 107.166 -8.16699 149.499 -24.5s74.666 -39.166 96.999 -68.499s33.5 -63 33.5 -101c0 -33.333 -10.333 -64.166 -31 -92.499
s-49.667 -48.166 -87 -59.499c-8 -2.66699 -12 -6 -12 -10c0 -3.33301 3.66699 -6 11 -8c42.667 -14 77 -36.333 103 -67s39 -66 39 -106c0 -72.667 -26.5 -128.334 -79.5 -167.001s-131.5 -58 -235.5 -58c-57.333 0 -110.833 11.167 -160.5 33.5s-88.5 52.5 -116.5 90.5
c-3.33301 4.66699 -5 9 -5 13c0 5.33301 3.66699 10.666 11 15.999l78 55c6 4 10.333 6 13 6c4 0 7 -1.66699 9 -5c31.333 -32 60.166 -54.333 86.499 -67s57.833 -19 94.5 -19c41.333 0 73.833 9 97.5 27s35.5 41.667 35.5 71c0 32.667 -13.167 58.667 -39.5 78
s-59.5 29.333 -99.5 30l-86 2c-11.333 0 -17 4.66699 -17 14v94c0 7.33301 5.66699 12 17 14l69 3c39.333 0.666992 71.5 10.5 96.5 29.5s37.5 42.833 37.5 71.5c0 24 -10.5 44.167 -31.5 60.5s-47.5 24.5 -79.5 24.5c-30.667 0 -58.667 -5.83301 -84 -17.5
s-51.333 -30.5 -78 -56.5c-4.66699 -4.66699 -8.33398 -7 -11.001 -7c-1.33301 0 -5 2.33301 -11 7l-73 68c-2.66699 2.66699 -4 6 -4 10z" />
    <glyph glyph-name="four" unicode="4" horiz-adv-x="689" 
d="M380.5 738.5c5 2.33301 12.833 3.5 23.5 3.5h125c10.667 0 16 -6 16 -18v-419c0 -3.33301 1 -6 3 -8s4.33301 -3 7 -3h82c12.667 0 19 -5 19 -15v-86c0 -12 -6.66699 -18 -20 -18h-80c-7.33301 0 -11 -4 -11 -12v-140c0 -8 -2 -13.833 -6 -17.5s-10.667 -5.5 -20 -5.5
h-130c-14 0 -21 6.66699 -21 20v146c0 6 -4 9 -12 9h-300c-14 0 -21 6 -21 18v83c0 6 1.83301 12.333 5.5 19s10.5 16.667 20.5 30l302 398c6.66699 8 12.5 13.167 17.5 15.5zM360 294c2.66699 0 4.83398 0.666992 6.50098 2s2.5 3 2.5 5v249c0 9.33301 -1 14 -3 14
c-2.66699 0 -6.33398 -3.33301 -11.001 -10l-179 -247c-2.66699 -4 -4 -6.66699 -4 -8c0 -3.33301 3.66699 -5 11 -5h177z" />
    <glyph glyph-name="five" unicode="5" horiz-adv-x="676" 
d="M562 742c10.667 0 17.3271 -1.33203 19.9941 -3.99902s3.66699 -9 3 -19l-5 -99c-0.666992 -6.66699 -2.5 -11.334 -5.5 -14.001s-8.5 -4 -16.5 -4h-315c-11.333 0 -17.333 -5 -18 -15l-12 -127v-2c0 -4.66699 1.5 -8 4.5 -10s6.5 -2.33301 10.5 -1
c32 11.333 57.5 19.333 76.5 24s41.167 7 66.5 7c50.667 0 96 -9 136 -27s71.667 -44.833 95 -80.5s35 -78.5 35 -128.5c0 -52 -12.667 -97 -38 -135s-60.666 -67 -105.999 -87s-98 -30 -158 -30c-63.333 0 -121 10.833 -173 32.5s-92 50.834 -120 87.501
c-5.33301 6.66699 -8 12.667 -8 18c0 6.66699 3.33301 12 10 16l82 58c3.33301 2.66699 7 4 11 4c6 0 11 -2.66699 15 -8c28 -29.333 53.5 -50.833 76.5 -64.5s52.167 -20.5 87.5 -20.5c46.667 0 83.167 11.5 109.5 34.5s39.5 52.833 39.5 89.5
c0 35.333 -12.167 63.666 -36.5 84.999s-57.166 32 -98.499 32c-21.333 0 -41.166 -3.16699 -59.499 -9.5s-41.166 -16.166 -68.499 -29.499c-5.33301 -2.66699 -9.66602 -4 -12.999 -4c-2.66699 0 -7 1.66699 -13 5l-91 50c-7.33301 4 -11 9.66699 -11 17
c0 6 0.333008 11 1 15l28 320c0.666992 9.33301 3.33398 15.666 8.00098 18.999s14 5 28 5h423z" />
    <glyph glyph-name="six" unicode="6" horiz-adv-x="685" 
d="M483.5 730c33.667 -14 61.167 -31.5029 82.5 -52.5029s35.666 -41.833 42.999 -62.5c0.666992 -2 1 -4.66699 1 -8c0 -6.66699 -3.33301 -11.334 -10 -14.001l-109 -35c-1.33301 -0.666992 -3 -1 -5 -1c-6 0 -10.667 4 -14 12c-14.667 20 -29.167 35 -43.5 45
s-33.166 15 -56.499 15c-48.667 0 -86.5 -17.667 -113.5 -53s-40.5 -81.666 -40.5 -138.999c0 -9.33301 0.5 -15.666 1.5 -18.999s3.5 -5 7.5 -5c0.666992 0 5 1.33301 13 4c30 12.667 55.5 22 76.5 28s45.833 9 74.5 9c50.667 0 95.5 -9.33301 134.5 -28
s69.167 -44.667 90.5 -78s32 -71.333 32 -114c0 -46.667 -12.833 -88.5 -38.5 -125.5s-60.5 -65.833 -104.5 -86.5s-93 -31 -147 -31c-64 0 -119.5 14.833 -166.5 44.5s-83.167 71.834 -108.5 126.501s-38 119 -38 193c0 81.333 13.5 151.833 40.5 211.5
s65.167 105.334 114.5 137.001s106.666 47.5 171.999 47.5c40.667 0 77.834 -7 111.501 -21zM289.5 328.997c-23.667 -6.66699 -42.166 -14.667 -55.499 -24c-6 -4 -9.83301 -8.16699 -11.5 -12.5s-2.5 -11.5 -2.5 -21.5c0 -45.333 12 -84.166 36 -116.499
s56.333 -48.5 97 -48.5c34.667 0 63.667 11.667 87 35s35 52.333 35 87c0 33.333 -11.333 60.166 -34 80.499s-51.334 30.5 -86.001 30.5c-20 0 -41.833 -3.33301 -65.5 -10z" />
    <glyph glyph-name="seven" unicode="7" horiz-adv-x="619" 
d="M558 742c9.33301 0 16.499 -2.16699 21.499 -6.5s7.16699 -9.5 6.5 -15.5l-3 -54c-0.666992 -6 -3.66699 -14.833 -9 -26.5s-10.666 -21.5 -15.999 -29.5c-38.667 -58 -74.334 -123.667 -107.001 -197s-59.5 -144.5 -80.5 -213.5s-33.5 -126.167 -37.5 -171.5
c-0.666992 -18.667 -7.66699 -28 -21 -28h-158c-12 -0 -18 5.33301 -18 16c0 3.33301 0.333008 6 1 8c22.667 82.667 53.834 168 93.501 256s95.834 189.667 168.501 305c2.66699 5.33301 4 9 4 11c0 4 -4 6 -12 6h-338c-14.667 0 -21.334 6.66699 -20.001 20l11 106
c1.33301 9.33301 9.33301 14 24 14h490z" />
    <glyph glyph-name="eight" unicode="8" horiz-adv-x="683" 
d="M477.5 725c41.667 -18 74.332 -42.6729 97.999 -74.0059s35.5 -66.666 35.5 -105.999c0 -54.667 -32 -100.667 -96 -138c-5.33301 -3.33301 -8 -6.33301 -8 -9c0 -3.33301 2.33301 -6.33301 7 -9c47.333 -25.333 80.833 -52.166 100.5 -80.499s29.5 -61.166 29.5 -98.499
c0 -45.333 -13 -84.666 -39 -117.999s-62.5 -58.666 -109.5 -75.999s-101.5 -26 -163.5 -26c-88 0 -158.5 17 -211.5 51s-79.5 81.333 -79.5 142c0 34 8.66699 64 26 90s47 50.667 89 74c0.666992 0.666992 2.5 1.83398 5.5 3.50098s4.5 3.5 4.5 5.5
c0 2.66699 -2.66699 5.66699 -8 9c-30.667 20.667 -54.5 43.167 -71.5 67.5s-25.5 54.833 -25.5 91.5c0 41.333 11.333 79.5 34 114.5s54.834 62.667 96.501 83s90.167 30.5 145.5 30.5c52 0 98.833 -9 140.5 -27zM257.998 611.494c-22 -17 -33.001 -39.165 -33.001 -66.498
c0 -20 5.83301 -36.833 17.5 -50.5s28.834 -23.834 51.501 -30.501l80 -23c2 -0.666992 5 -1 9 -1c12 0 24.333 5.16699 37 15.5s23.167 23.333 31.5 39s12.5 31.167 12.5 46.5c0 27.333 -11.167 50.166 -33.5 68.499s-52.5 27.5 -90.5 27.5c-32.667 0 -60 -8.5 -82 -25.5z
M436.497 129.996c23 16.667 34.4971 38.999 34.4971 66.999c0 21.333 -6.16699 39 -18.5 53s-33.166 25.333 -62.499 34l-95 28c-5.33301 1.33301 -9.66602 2 -12.999 2c-13.333 0 -27.166 -4.66699 -41.499 -14s-26.333 -22.166 -36 -38.499s-14.5 -33.833 -14.5 -52.5
c0 -33.333 12.5 -59 37.5 -77s63.167 -27 114.5 -27c40 0 71.5 8.33301 94.5 25z" />
    <glyph glyph-name="nine" unicode="9" horiz-adv-x="684" 
d="M201 12c-34 14 -61.8301 31.5039 -83.4971 52.5039s-36.167 41.833 -43.5 62.5c-0.666992 2 -1 5 -1 9c0 6 3 10.333 9 13l109 35c1.33301 0.666992 3 1 5 1c4.66699 0 8.16699 -1.66699 10.5 -5s3.83301 -5.33301 4.5 -6c13.333 -20 27.666 -35.167 42.999 -45.5
s35.333 -15.5 60 -15.5c48 0 85.167 17.667 111.5 53s39.5 81.666 39.5 138.999c0 9.33301 -0.5 15.666 -1.5 18.999s-3.5 5 -7.5 5c-0.666992 0 -5 -1.33301 -13 -4c-29.333 -12.667 -54.333 -22 -75 -28s-45.334 -9 -74.001 -9c-50.667 0 -95.334 9.33301 -134.001 28
s-68.667 44.667 -90 78s-32 71.333 -32 114c0 46.667 12.833 88.5 38.5 125.5s60.5 65.833 104.5 86.5s93 31 147 31c63.333 0 118.5 -14.833 165.5 -44.5s83 -71.834 108 -126.501s37.5 -119 37.5 -193c0 -81.333 -13.5 -151.833 -40.5 -211.5s-65 -105.334 -114 -137.001
s-105.833 -47.5 -170.5 -47.5c-41.333 0 -79 7 -113 21zM395.003 413.504c23.333 7 41.668 15.5 55.001 25.5c6 4 9.83301 8.16699 11.5 12.5s2.5 11.5 2.5 21.5c0 44.667 -11.833 83 -35.5 115s-55.834 48 -96.501 48c-34 0 -62.667 -11.5 -86 -34.5s-35 -51.833 -35 -86.5
c0 -34 11.167 -61.167 33.5 -81.5s50.5 -30.5 84.5 -30.5c20.667 0 42.667 3.5 66 10.5z" />
    <glyph glyph-name="colon" unicode=":" horiz-adv-x="251" 
d="M208 379c0 -8.66699 -2.16699 -14.833 -6.5 -18.5s-11.5 -5.5 -21.5 -5.5h-118c-14.667 0 -22 7 -22 21v124c0 6 1.5 10.5 4.5 13.5s6.83301 4.5 11.5 4.5h137c10 0 15 -5.66699 15 -17v-122zM208 27.001c0 -8.66699 -2.16699 -14.833 -6.5 -18.5s-11.5 -5.5 -21.5 -5.5
h-118c-14.667 0 -22 7 -22 21v124c0 12 5.33301 18 16 18h137c10 0 15 -5.33301 15 -16v-123z" />
    <glyph glyph-name="semicolon" unicode=";" horiz-adv-x="259" 
d="M45 354.5c-3.33301 3 -5 8.16797 -5 15.501v127c0 6 1.5 10.667 4.5 14s6.83301 5 11.5 5h137c10 0 15 -5.66699 15 -17v-125c0 -8.66699 -2.16699 -14.834 -6.5 -18.501s-11.5 -5.5 -21.5 -5.5h-118c-8 0 -13.667 1.5 -17 4.5zM42.5 -152.499
c-2.33301 4.33301 -2.5 9.16699 -0.5 14.5l48 112c2.66699 5.33301 4 10.333 4 15c0 7.33301 -4.33301 11 -13 11h-18c-14.667 0 -22 6.66699 -22 20v126c0 6 1.5 10.5 4.5 13.5s6.83301 4.5 11.5 4.5h137c10 0 15 -5.33301 15 -16v-121c0 -4 -1 -8.66699 -3 -14l-98 -154
c-4 -6 -9.33301 -10.5 -16 -13.5s-13.334 -4.5 -20.001 -4.5h-18c-5.33301 0 -9.16602 2.16699 -11.499 6.5z" />
    <glyph glyph-name="less" unicode="&#x3c;" horiz-adv-x="577" 
d="M518 137c0 -8 -1.83008 -13.999 -5.49707 -17.999s-8.5 -6 -14.5 -6c-4 0 -8 1 -12 3l-422 163c-14.667 6 -22 15.333 -22 28v89c0 7.33301 1.83301 13.166 5.5 17.499s9.16699 7.83301 16.5 10.5l423 165c5.33301 1.33301 8.66602 2 9.99902 2c6 0 11 -2.16699 15 -6.5
s6 -9.83301 6 -16.5v-76c0 -8 -2.83301 -14.833 -8.5 -20.5s-14.834 -11.167 -27.501 -16.5l-272 -104l272 -102c13.333 -5.33301 22.666 -10.5 27.999 -15.5s8 -12.167 8 -21.5v-75z" />
    <glyph glyph-name="equal" unicode="=" horiz-adv-x="583" 
d="M536 437c0 -8 -2.16895 -13.667 -6.50195 -17s-11.166 -5 -20.499 -5h-440c-8 0 -13.333 1.5 -16 4.5s-4 7.83301 -4 14.5v74c0 12 5 18 15 18h457c4.66699 0 8.33398 -1.5 11.001 -4.5s4 -6.83301 4 -11.5v-73zM535.998 202c0 -8 -2.16895 -13.667 -6.50195 -17
s-11.166 -5 -20.499 -5h-440c-8 0 -13.333 1.5 -16 4.5s-4 7.83301 -4 14.5v74c0 12 5 18 15 18h457c4.66699 0 8.33398 -1.5 11.001 -4.5s4 -6.83301 4 -11.5v-73z" />
    <glyph glyph-name="greater" unicode="&#x3e;" horiz-adv-x="577" 
d="M67.5 233.5c5 5 14.168 10.165 27.501 15.498l272 102l-272 104c-12.667 5.33301 -21.834 10.833 -27.501 16.5s-8.5 12.5 -8.5 20.5v76c0 6.66699 2 12.167 6 16.5s9 6.5 15 6.5c2 0 5.66699 -0.666992 11 -2l422 -165c7.33301 -2.66699 12.833 -6.16699 16.5 -10.5
s5.5 -10.166 5.5 -17.499v-89c0 -13.333 -7.33301 -22.666 -22 -27.999l-422 -163c-4 -2 -8 -3 -12 -3c-6 0 -10.667 2 -14 6s-5 10 -5 18v75c0 9.33301 2.5 16.5 7.5 21.5z" />
    <glyph glyph-name="question" unicode="?" horiz-adv-x="537" 
d="M8 591c0 4 0.333984 7.00195 1.00098 9.00195c21.333 49.333 54 87 98 113s96.333 39 157 39c48 0 90.667 -7.83301 128 -23.5s66.166 -36.834 86.499 -63.501s30.5 -56 30.5 -88c0 -24.667 -4.66699 -46.834 -14 -66.501s-20.666 -36.5 -33.999 -50.5
s-31 -30.667 -53 -50c-32 -28 -56 -53 -72 -75s-24 -49 -24 -81c0 -5.33301 -2 -9.83301 -6 -13.5s-8.66699 -5.5 -14 -5.5h-82c-14 0 -21 7.66699 -21 23c0 30.667 4.83301 58.334 14.5 83.001s21.334 45.5 35.001 62.5s31.167 36.167 52.5 57.5
c23.333 24 40.166 43.5 50.499 58.5s15.5 31.5 15.5 49.5c0 23.333 -8.83301 42.166 -26.5 56.499s-40.167 21.5 -67.5 21.5c-26.667 0 -51.667 -7.5 -75 -22.5s-40 -35.167 -50 -60.5c-2.66699 -5.33301 -5.33398 -8.5 -8.00098 -9.5s-7 -1.16699 -13 -0.5l-100 24
c-6 2 -9 6.33301 -9 13zM333.001 24.002c0 -8.66699 -2.16797 -14.832 -6.50098 -18.499s-11.166 -5.5 -20.499 -5.5h-119c-8 0 -13.5 1.66699 -16.5 5s-4.5 8.66602 -4.5 15.999v124c0 12 5.33301 18 16 18h137c9.33301 0 14 -5.33301 14 -16v-123z" />
    <glyph glyph-name="at" unicode="@" horiz-adv-x="834" 
d="M564.5 -94c-41 -12.667 -85.502 -19.0029 -133.502 -19.0029c-80 0 -149.5 16.667 -208.5 50s-104.333 78.5 -136 135.5s-47.5 120.167 -47.5 189.5c0 72 17 138.5 51 199.5s82.167 109.5 144.5 145.5s134.166 54 215.499 54c63.333 0 122.5 -11.5 177.5 -34.5
s99.333 -58.667 133 -107s50.5 -108.5 50.5 -180.5c0 -50 -8.33301 -94.5 -25 -133.5s-40 -69.5 -70 -91.5s-64 -33 -102 -33c-27.333 0 -48.666 4.5 -63.999 13.5s-26.333 20.167 -33 33.5c-2 4 -4 6 -6 6c-1.33301 0 -3.66602 -2 -6.99902 -6
c-16 -18.667 -35.167 -33.5 -57.5 -44.5s-47.5 -16.5 -75.5 -16.5c-28.667 0 -54.5 7.16699 -77.5 21.5s-41.167 34.833 -54.5 61.5s-20 57.334 -20 92.001c0 41.333 8.33301 79.833 25 115.5s40.5 64.167 71.5 85.5s66.5 32 106.5 32c25.333 0 46.333 -4.5 63 -13.5
s31.667 -21.5 45 -37.5c1.33301 -1.33301 2.83301 -1.66602 4.5 -0.999023s2.83398 2.33398 3.50098 5.00098l4 15c1.33301 4 4.66602 6 9.99902 6h70c6 0 8.66699 -2.33301 8 -7l-36 -213c-1.33301 -6 -2 -14 -2 -24c0 -25.333 10.667 -38 32 -38
c16 0 31.333 6.33301 46 19s26.5 31.5 35.5 56.5s13.5 55.167 13.5 90.5c0 84.667 -25.667 146.5 -77 185.5s-115.666 58.5 -192.999 58.5c-70 0 -128.667 -14 -176 -42s-82.5 -65.667 -105.5 -113s-34.5 -100.333 -34.5 -159c0 -61.333 12.5 -114.5 37.5 -159.5
s61.167 -79.333 108.5 -103s103 -35.5 167 -35.5c38.667 0 69.667 4.16699 93 12.5s50 21.833 80 40.5c3.33301 2.66699 7 4 11 4s7 -1.66699 9 -5l32 -43c2 -3.33301 3 -6 3 -8c0 -4.66699 -3.33301 -8.66699 -10 -12c-25.333 -19.333 -58.5 -35.333 -99.5 -48z
M344.998 185.497c12 -17.667 29.667 -26.499 53 -26.499c19.333 0 37.333 6.33301 54 19s29.667 29 39 49s14 41 14 63c0 27.333 -7.16699 49.666 -21.5 66.999s-32.5 26 -54.5 26c-28 0 -52 -12.5 -72 -37.5s-30 -55.5 -30 -91.5c0 -28 6 -50.833 18 -68.5z" />
    <glyph glyph-name="A" unicode="A" horiz-adv-x="771" 
d="M33 17c0 5.33301 0.666992 9.33203 2 11.999l249 693c2.66699 7.33301 5.83398 12.5 9.50098 15.5s9.16699 4.5 16.5 4.5h150c7.33301 0 13.666 -2 18.999 -6s9 -9.33301 11 -16l247 -693c1.33301 -4 2 -7 2 -9c0 -5.33301 -1.16699 -9.66602 -3.5 -12.999
s-5.83301 -5 -10.5 -5h-147c-10 0 -16.333 4.66699 -19 14l-52 146c-1.33301 4 -2.83301 6.83301 -4.5 8.5s-4.5 2.5 -8.5 2.5h-244c-6.66699 0 -11 -3.33301 -13 -10l-53 -148c-4 -8.66699 -11 -13 -21 -13h-115c-10 0 -15 5.66699 -15 17zM453 303.999
c6.66699 0 10 2.66699 10 8c0 4 -0.333008 7 -1 9l-84 234c-2 4 -4.33301 6 -7 6c-2 0 -4 -2.33301 -6 -7l-85 -233c-1.33301 -4 -2 -7 -2 -9c0 -5.33301 3.66699 -8 11 -8h164z" />
    <glyph glyph-name="B" unicode="B" horiz-adv-x="723" 
d="M75 5c-3.33301 3.33301 -5 7.66699 -5 13v703c0 6.66699 1.83301 11.834 5.5 15.501s8.5 5.5 14.5 5.5h271c98 0 172.833 -16.5 224.5 -49.5s77.5 -81.5 77.5 -145.5c0 -37.333 -10 -68.833 -30 -94.5s-53.667 -48.167 -101 -67.5c-2 -0.666992 -3 -2 -3 -4
s1 -3.33301 3 -4c52 -17.333 89.833 -39.833 113.5 -67.5s35.5 -63.834 35.5 -108.501c0 -68 -25.5 -118.5 -76.5 -151.5s-127.833 -49.5 -230.5 -49.5h-285c-6 0 -10.667 1.66699 -14 5zM376 436.001c32.667 0 59.834 7.83398 81.501 23.501s32.5 38.167 32.5 67.5
c0 30.667 -11.333 54.5 -34 71.5s-52.334 25.5 -89.001 25.5h-103c-6.66699 0 -11.5 -1.33301 -14.5 -4s-4.5 -7 -4.5 -13v-153c0 -6.66699 1 -11.334 3 -14.001s5.66699 -4 11 -4h117zM369 118.002c42.667 0 75.001 8.83203 97.001 26.499s33 41.834 33 72.501
s-11.333 54.5 -34 71.5s-52.334 25.5 -89.001 25.5h-112c-7.33301 0 -12.333 -1.16699 -15 -3.5s-4 -6.83301 -4 -13.5v-160c0 -6.66699 1 -11.5 3 -14.5s5.66699 -4.5 11 -4.5h110z" />
    <glyph glyph-name="C" unicode="C" horiz-adv-x="725" 
d="M522 723c42.667 -19.333 77.8311 -45.667 105.498 -79s45.167 -70.666 52.5 -111.999c1.33301 -4.66699 2 -10 2 -16c0 -4 -1 -6.66699 -3 -8s-5 -2.33301 -9 -3l-135 -9c-6 0 -9.83301 1 -11.5 3s-3.16699 6 -4.5 12c-7.33301 36.667 -22 65.667 -44 87
s-51.333 32 -88 32c-106.667 0 -160 -85.333 -160 -256c0 -88.667 13.333 -153.334 40 -194.001s67.334 -61 122.001 -61c40 0 73.833 10 101.5 30s50.167 52.667 67.5 98c2 4.66699 6.33301 7 13 7c4 0 7 -0.333008 9 -1l98 -21c9.33301 -3.33301 13 -11.666 11 -24.999
c-6.66699 -28.667 -22.167 -59.667 -46.5 -93s-58.5 -62.333 -102.5 -87s-96.667 -37 -158 -37c-68.667 0 -128.5 16.167 -179.5 48.5s-90.167 77.666 -117.5 135.999s-41 125.833 -41 202.5c0 76 13.667 142.333 41 199s66.5 100.167 117.5 130.5s110.833 45.5 179.5 45.5
c50.667 0 97.334 -9.66699 140.001 -29z" />
    <glyph glyph-name="D" unicode="D" horiz-adv-x="751" 
d="M315 741c132 -4 230.333 -37.668 295 -101.001s97 -152 97 -266c0 -117.333 -33.667 -209 -101 -275s-166 -99 -296 -99h-217c-8 0 -13.833 1.83301 -17.5 5.5s-5.5 9.83398 -5.5 18.501v698c0 7.33301 1.66699 12.5 5 15.5s9 4.5 17 4.5c110 0 184.333 -0.333008 223 -1
zM245 603.999v-467c0 -5.33301 0.833008 -9 2.5 -11s5.16699 -3 10.5 -3h19c84 0 146.167 19.5 186.5 58.5s60.5 103.5 60.5 193.5c0 83.333 -17 143.333 -51 180s-86.667 57 -158 61l-61 2c-6 0 -9 -4.66699 -9 -14z" />
    <glyph glyph-name="E" unicode="E" horiz-adv-x="654" 
d="M86 742l504 0.000976562c10 0 15 -5.66699 15 -17l-1 -90c0 -14 -7 -21 -21 -21h-319c-12.667 0 -19 -5.33301 -19 -16v-145c0 -11.333 5 -17 15 -17h212c11.333 0 17 -5.33301 17 -16v-96c0 -9.33301 -5.33301 -14 -16 -14h-214c-9.33301 0 -14 -4 -14 -12v-157
c0 -4.66699 0.833008 -8 2.5 -10s4.5 -3 8.5 -3h342c12 0 18 -5 18 -15v-95c0 -12 -6.66699 -18 -20 -18h-504c-8 0 -13.667 1.66699 -17 5s-5 8.66602 -5 15.999v702c0 12.667 5.33301 19 16 19z" />
    <glyph glyph-name="F" unicode="F" horiz-adv-x="631" 
d="M86 742l496 0.000976562c10 0 15 -5.66699 15 -17l-1 -90c0 -14 -6.66699 -21 -20 -21h-312c-6.66699 0 -11.5 -1.33301 -14.5 -4s-4.5 -6.66699 -4.5 -12v-155c0 -10.667 5 -16 15 -16h217c10.667 0 16 -5.33301 16 -16v-95c0 -9.33301 -5 -14 -15 -14h-219
c-9.33301 0 -14 -4.33301 -14 -13v-266c0 -8.66699 -2 -14.667 -6 -18s-10.667 -5 -20 -5h-127c-8 0 -13.667 1.66699 -17 5s-5 8.66602 -5 15.999v702c0 12.667 5.33301 19 16 19z" />
    <glyph glyph-name="G" unicode="G" horiz-adv-x="752" 
d="M201.5 37c-50.333 31.333 -89.167 75.499 -116.5 132.499s-41 123.167 -41 198.5c0 77.333 14.333 145 43 203s69 102.667 121 134s112 47 180 47c52 0 99.5 -10 142.5 -30s78 -46.167 105 -78.5s43.833 -66.833 50.5 -103.5c1.33301 -4 2 -9 2 -15
c0 -7.33301 -4.33301 -11.333 -13 -12l-132 -20c-5.33301 0 -9 1.16699 -11 3.5s-3.66699 6.5 -5 12.5c-6.66699 34.667 -22.334 63.334 -47.001 86.001s-56.667 34 -96 34c-51.333 0 -90.333 -20.333 -117 -61s-40 -105.334 -40 -194.001
c0 -92.667 14 -159.334 42 -200.001s68.333 -61 121 -61c40 0 72 10.833 96 32.5s39.667 48.834 47 81.501l2 29c0.666992 1.33301 1 3.33301 1 6c0 6 -3.66699 9 -11 9h-121c-5.33301 0 -9.33301 1.33301 -12 4s-4 7 -4 13v75c0 9.33301 5.33301 14 16 14l267 -1
c9.33301 0 16.5 -2.16699 21.5 -6.5s7.5 -10.166 7.5 -17.499v-337c0 -4.66699 -1.33301 -8.33398 -4 -11.001s-6.33398 -4 -11.001 -4h-32c-11.333 0 -20 5.33301 -26 16l-29 72c-2 4.66699 -5.33301 4.33398 -10 -0.999023c-23.333 -28.667 -51.166 -52 -83.499 -70
s-74.5 -27 -126.5 -27c-67.333 0 -126.166 15.667 -176.499 47z" />
    <glyph glyph-name="H" unicode="H" horiz-adv-x="751" 
d="M258 317c-4 0 -7.16797 -1.33203 -9.50098 -3.99902s-3.5 -5.66699 -3.5 -9v-281c0 -8 -2.16699 -13.833 -6.5 -17.5s-11.166 -5.5 -20.499 -5.5h-126c-8 0 -13.667 1.66699 -17 5s-5 8.66602 -5 15.999v702c0 12.667 5.33301 19 16 19h143c10.667 0 16 -6 16 -18v-256
c0 -11.333 5 -17 15 -17h231c10.667 0 16 5.33301 16 16v257c0 12 5 18 15 18h143c11.333 0 17 -6.33301 17 -19v-702c0 -14 -7.33301 -21 -22 -21h-127c-9.33301 0 -16 1.66699 -20 5s-6 9.33301 -6 18v281c0 4 -1.16699 7.16699 -3.5 9.5s-5.83301 3.5 -10.5 3.5h-235z
" />
    <glyph glyph-name="I" unicode="I" horiz-adv-x="315" 
d="M229 742c10.667 0 16 -5.99805 16 -17.998v-700c0 -8.66699 -2 -14.834 -6 -18.501s-11 -5.5 -21 -5.5h-126c-8 0 -13.667 1.66699 -17 5s-5 8.66602 -5 15.999v702c0 12.667 5.33301 19 16 19h143z" />
    <glyph glyph-name="J" unicode="J" horiz-adv-x="447" 
d="M331.5 38c-33.667 -32 -85.8311 -47.999 -156.498 -47.999c-19.333 0 -37.5 1.33301 -54.5 4s-38.5 6.66699 -64.5 12c-8.66699 1.33301 -14.834 4.66602 -18.501 9.99902s-5.16699 13 -4.5 23l9 90c1.33301 14 7.66602 20 18.999 18c4 -1.33301 12 -3.83301 24 -7.5
s26 -5.5 42 -5.5c27.333 0 47.5 7.66699 60.5 23s19.5 41.333 19.5 78v488c0 6 1.5 10.667 4.5 14s7.16699 5 12.5 5h143c10 0 15 -6 15 -18v-532c0 -70.667 -16.833 -122 -50.5 -154z" />
    <glyph glyph-name="K" unicode="K" horiz-adv-x="744" 
d="M713 12c0 -8 -4.66797 -12 -14.001 -12h-150c-14 -0 -23.667 5.33301 -29 16l-161 314c-2 4 -4.33301 6 -7 6s-6.66699 -3.33301 -12 -10l-89 -106c-4 -4.66699 -6 -11.667 -6 -21v-176c0 -8 -2.16699 -13.833 -6.5 -17.5s-11.166 -5.5 -20.499 -5.5h-126
c-8 0 -13.667 1.5 -17 4.5s-5 8.16699 -5 15.5v703c0 12.667 5.33301 19 16 19h144c10 0 15 -5.66699 15 -17v-299c0 -6.66699 1.33301 -10 4 -10c2 0 4.66699 2 8 6l242 304c4 6 8.33301 10.167 13 12.5s11.667 3.5 21 3.5h119c6 0 10.833 -1.33301 14.5 -4
s5.5 -5.66699 5.5 -9c0 -4 -1.33301 -7.33301 -4 -10l-192 -225c-3.33301 -5.33301 -5 -9.33301 -5 -12s1 -6.66699 3 -12l236 -446c2 -4 3 -8 3 -12z" />
    <glyph glyph-name="L" unicode="L" horiz-adv-x="627" 
d="M86 742h143c10.667 0 16 -6 16 -18v-583c0 -4.66699 0.833008 -8 2.5 -10s4.5 -3 8.5 -3h319c12 0 18 -5 18 -15v-95c0 -5.33301 -1.66699 -9.66602 -5 -12.999s-8 -5 -14 -5h-482c-8 0 -13.667 1.66699 -17 5s-5 8.66602 -5 15.999v702c0 12.667 5.33301 19 16 19z" />
    <glyph glyph-name="M" unicode="M" horiz-adv-x="949" 
d="M75.5 6c-3.66699 4 -5.49902 9.66699 -5.49902 17v700c0 12.667 5.66699 19 17 19h207c7.33301 0 12.666 -1 15.999 -3s6 -6 8 -12l151 -419c2 -5.33301 4.33301 -8 7 -8s5 2.66699 7 8l144 411c4 15.333 11.333 23 22 23h215c10 0 15 -6 15 -18v-700
c0 -8.66699 -2 -14.834 -6 -18.501s-10.333 -5.5 -19 -5.5h-129c-8 0 -13.5 1.5 -16.5 4.5s-4.5 8.16699 -4.5 15.5v498c0 4.66699 -1 7 -3 7s-4 -2.66699 -6 -8l-175 -501c-3.33301 -10.667 -10.333 -16 -21 -16h-83c-12 0 -19.333 5.33301 -22 16l-173 494
c-2 5.33301 -4 8 -6 8c-2.66699 0 -4 -3 -4 -9v-491c0 -7.33301 -1.16699 -12.166 -3.5 -14.499s-7.16602 -3.5 -14.499 -3.5h-102c-6.66699 0 -11.834 2 -15.501 6z" />
    <glyph glyph-name="N" unicode="N" horiz-adv-x="759" 
d="M676 742c8.66699 0 13 -4.99805 13 -14.998v-711c0 -4.66699 -1.83301 -8.5 -5.5 -11.5s-8.16699 -4.5 -13.5 -4.5h-101c-6 0 -10.667 0.666992 -14 2s-7 4.66602 -11 9.99902l-319 448c-2.66699 3.33301 -5.16699 4.66602 -7.5 3.99902s-3.5 -2.66699 -3.5 -6v-440v-3
c0 -5.33301 -1.5 -9.16602 -4.5 -11.499s-8.16699 -3.5 -15.5 -3.5h-104c-13.333 0 -20 5.66699 -20 17v706c0 12.667 6 19 18 19h121c8 0 13.667 -0.833008 17 -2.5s7.33301 -5.83398 12 -12.501l294 -419c4 -5.33301 7.33301 -8 10 -8c3.33301 0 5 3.66699 5 11v413
c0 12 6 18 18 18h111z" />
    <glyph glyph-name="O" unicode="O" horiz-adv-x="774" 
d="M205.5 35.5c-51.667 30.333 -91.334 73.832 -119.001 130.499s-41.5 124 -41.5 202c0 78.667 14 146.834 42 204.501s67.833 102 119.5 133s112.167 46.5 181.5 46.5c68.667 0 128.667 -15.5 180 -46.5s91 -75.333 119 -133s42 -125.5 42 -203.5
c0 -77.333 -13.833 -144.5 -41.5 -201.5s-67.167 -100.833 -118.5 -131.5s-111.666 -46 -180.999 -46c-70 0 -130.833 15.167 -182.5 45.5zM508.5 172.999c25 40 37.5 104.667 37.5 194c0 91.333 -12.833 158 -38.5 200s-65.5 63 -119.5 63
c-55.333 0 -95.833 -21 -121.5 -63s-38.5 -108.667 -38.5 -200c0 -89.333 12.667 -154 38 -194s66 -60 122 -60c55.333 0 95.5 20 120.5 60z" />
    <glyph glyph-name="P" unicode="P" horiz-adv-x="715" 
d="M602.5 343.5c-49.667 -39.667 -115.168 -59.499 -196.501 -59.499h-150c-7.33301 0 -11 -3.66699 -11 -11v-250c0 -15.333 -8.66699 -23 -26 -23h-128c-8 0 -13.5 1.66699 -16.5 5s-4.5 8.33301 -4.5 15v703c0 12.667 5.33301 19 16 19h300
c55.333 0 104.833 -8.5 148.5 -25.5s78.334 -42.833 104.001 -77.5s38.5 -77.334 38.5 -128.001c0 -72 -24.833 -127.833 -74.5 -167.5zM463.999 591.001c-22 17.333 -51.667 26 -89 26h-111c-6.66699 0 -11.5 -1.33301 -14.5 -4s-4.5 -7.33398 -4.5 -14.001v-171
c0 -6.66699 1 -11.5 3 -14.5s5.66699 -4.5 11 -4.5h123c35.333 0 63.333 9.33301 84 28s31 44.334 31 77.001c0 34 -11 59.667 -33 77z" />
    <glyph glyph-name="Q" unicode="Q" horiz-adv-x="775" 
d="M87 572.5c28 57.667 67.834 102.001 119.501 133.001s112.167 46.5 181.5 46.5c68.667 0 128.834 -15.5 180.501 -46.5s91.5 -75.333 119.5 -133s42 -125.5 42 -203.5c0 -134 -39.667 -234.333 -119 -301c-2 -1.33301 -3 -4 -3 -8c0 -10 11.167 -21.833 33.5 -35.5
s46.166 -22.5 71.499 -26.5c9.33301 -0.666992 14 -5.33398 14 -14.001v-84c0 -10 -2.66699 -16.833 -8 -20.5s-15 -5.5 -29 -5.5c-82.667 0 -154 39 -214 117c-3.33301 4.66699 -8.33301 6 -15 4c-26.667 -3.33301 -51 -5 -73 -5c-70 0 -130.833 15.167 -182.5 45.5
s-91.334 74 -119.001 131s-41.5 124.5 -41.5 202.5s14 145.833 42 203.5zM266.001 173.001c25.333 -40 66 -60 122 -60c54.667 0 94.834 20 120.501 60s38.5 105 38.5 195s-12.833 156.167 -38.5 198.5s-65.834 63.5 -120.501 63.5c-55.333 0 -95.833 -21.167 -121.5 -63.5
s-38.5 -108.833 -38.5 -199.5c0 -89.333 12.667 -154 38 -194z" />
    <glyph glyph-name="R" unicode="R" horiz-adv-x="722" 
d="M674 18c0 -5.33301 -1.66992 -9.66699 -5.00293 -13s-7.33301 -5 -12 -5h-147c-11.333 0 -18.666 6 -21.999 18l-108 280c-2 5.33301 -5 9 -9 11s-10.333 3 -19 3h-95c-4 0 -7 -1.16699 -9 -3.5s-3 -4.83301 -3 -7.5v-277c0 -8.66699 -2.16699 -14.834 -6.5 -18.501
s-11.166 -5.5 -20.499 -5.5h-127c-8 0 -13.5 1.66699 -16.5 5s-4.5 8.33301 -4.5 15v703c0 12.667 5.33301 19 16 19h312c90 0 159.667 -17.667 209 -53s74 -85.666 74 -150.999c0 -48.667 -13 -90.167 -39 -124.5s-58.667 -58.5 -98 -72.5
c-5.33301 -2 -6.66602 -7 -3.99902 -15l132 -299c1.33301 -4 2 -7 2 -9zM469.997 454.499c20 16.333 30 40.167 30 71.5c0 32 -10.167 56.5 -30.5 73.5s-47.833 25.5 -82.5 25.5h-123c-7.33301 0 -12.333 -1.16699 -15 -3.5s-4 -6.5 -4 -12.5v-162c0 -6 1 -10.333 3 -13
s5.66699 -4 11 -4h123c38.667 0 68 8.16699 88 24.5z" />
    <glyph glyph-name="S" unicode="S" horiz-adv-x="677" 
d="M436.5 612.5c-22.333 11 -51.5039 16.5 -87.5039 16.5c-40.667 0 -71.667 -7.33301 -93 -22s-32 -34 -32 -58c0 -34.667 27 -60 81 -76l158 -45c59.333 -16.667 103.5 -43 132.5 -79s43.5 -79.333 43.5 -130c0 -46.667 -12 -87.167 -36 -121.5
s-58.5 -60.833 -103.5 -79.5s-97.833 -28 -158.5 -28c-68 0 -129.333 11.5 -184 34.5s-94.667 54.5 -120 94.5c-2.66699 4.66699 -4 9 -4 13c0 5.33301 3.33301 11 10 17l77 53c6.66699 4 12.667 6 18 6c6 0 11 -2.66699 15 -8c24.667 -32 49.667 -54.667 75 -68
s59 -20 101 -20c44.667 0 79.667 7 105 21s38 35 38 63c0 18 -6.33301 33.333 -19 46s-34 23.667 -64 33l-151 43c-57.333 16 -101.666 42.833 -132.999 80.5s-47 80.5 -47 128.5c0 42.667 11.833 81 35.5 115s57.167 60.833 100.5 80.5s93.333 29.5 150 29.5
c56 0 107.333 -9.5 154 -28.5s82.334 -44.5 107.001 -76.5c4 -5.33301 6 -10 6 -14s-2 -7.66699 -6 -11l-84 -62c-4 -2.66699 -7 -4 -9 -4c-3.33301 0 -8.66602 3.66699 -15.999 11c-17.333 19.333 -37.166 34.5 -59.499 45.5z" />
    <glyph glyph-name="T" unicode="T" horiz-adv-x="681" 
d="M33 724c0 5.33301 1.83301 9.66699 5.5 13s8.5 5 14.5 5h574c13.333 0 20 -6 20 -18v-93c0 -10 -6 -15 -18 -15h-187c-7.33301 0 -11 -3.33301 -11 -10v-587c0 -12.667 -5.66699 -19 -17 -19h-143c-10 0 -15 5.66699 -15 17v586c0 4.66699 -0.833008 8 -2.5 10
s-4.5 3 -8.5 3h-193c-12.667 0 -19 5 -19 15v93z" />
    <glyph glyph-name="U" unicode="U" horiz-adv-x="721" 
d="M582 56.5c-51.333 -44.333 -125.333 -66.501 -222 -66.501c-106 0 -182.333 25 -229 75s-70 126 -70 228v429c0 6 1.5 10.833 4.5 14.5s6.83301 5.5 11.5 5.5h144c10 0 15 -6 15 -18v-453c0 -54 11.5 -93.5 34.5 -118.5s57.167 -37.5 102.5 -37.5
c94.667 0 142 53 142 159v449c0 12.667 5 19 15 19h114c10 0 15 -6 15 -18v-449c0 -101.333 -25.667 -174.166 -77 -218.499z" />
    <glyph glyph-name="V" unicode="V" horiz-adv-x="733" 
d="M699.5 735c3 -4.66699 3.16797 -10 0.500977 -16l-240 -698c-4.66699 -14 -15 -21 -31 -21h-125c-16 0 -26.667 7 -32 21l-238 697l-2 8c0 4.66699 1.66699 8.5 5 11.5s7.66602 4.5 12.999 4.5h144c10.667 0 17.667 -5.66699 21 -17l164 -506
c0.666992 -4.66699 2.33398 -7 5.00098 -7s5 2.66699 7 8l159 505c3.33301 11.333 10.666 17 21.999 17h113c6.66699 0 11.5 -2.33301 14.5 -7z" />
    <glyph glyph-name="W" unicode="W" horiz-adv-x="1084" 
d="M1050 721c0 -4.66699 -0.332031 -8.00195 -0.999023 -10.002l-204 -690c-2.66699 -7.33301 -6.33398 -12.666 -11.001 -15.999s-11 -5 -19 -5h-108c-16.667 0 -27 7 -31 21l-126 437c-1.33301 6.66699 -3 10 -5 10c-1.33301 0 -3.66602 -4 -6.99902 -12l-127 -435
c-2 -7.33301 -5.33301 -12.666 -10 -15.999s-11.334 -5 -20.001 -5h-111c-8.66699 0 -15.334 1.66699 -20.001 5s-8.33398 8.66602 -11.001 15.999l-204 690c-0.666992 2 -1 5.33301 -1 10c0 14 8.33301 21 25 21h125c8 0 14 -1.33301 18 -4s6.66699 -7 8 -13l129 -455
c2 -8 4 -12 6 -12s4 3 6 9l129 458c2 11.333 10.667 17 26 17h107c8.66699 0 14.834 -1.33301 18.501 -4s6.5 -7 8.5 -13l131 -462c1.33301 -4.66699 3.33301 -7.16699 6 -7.5s4.33398 1.83398 5.00098 6.50098l127 463c3.33301 11.333 12.333 17 27 17h90
c16 0 24 -7 24 -21z" />
    <glyph glyph-name="X" unicode="X" horiz-adv-x="729" 
d="M697 13c0 -8.66699 -6.99805 -12.999 -20.998 -12.999h-139c-15.333 0 -26 5 -32 15l-141 227c-4.66699 8.66699 -9 13 -13 13s-8.33301 -4.33301 -13 -13l-140 -227c-5.33301 -10 -16.333 -15 -33 -15h-111c-14 0 -21 4 -21 12c0 7.33301 3.66699 16.333 11 27l210 321
c4 6 6 11 6 15c0 3.33301 -2.33301 9 -7 17l-210 323c-2.66699 3.33301 -4 7.66602 -4 12.999c0 9.33301 5.33301 14 16 14h146c8 0 14.333 -1.33301 19 -4s8.66699 -6.66699 12 -12l124 -203c3.33301 -5.33301 6.66602 -8 9.99902 -8c4 0 7.66699 2.66699 11 8l124 203
c3.33301 6 7.16602 10.167 11.499 12.5s10.5 3.5 18.5 3.5h122c10 0 15 -3.66699 15 -11c0 -4 -1.66699 -8.66699 -5 -14l-202 -306c-3.33301 -6.66699 -5 -11.667 -5 -15s2 -8.66602 6 -15.999l225 -341c6.66699 -10.667 10 -19.334 10 -26.001z" />
    <glyph glyph-name="Y" unicode="Y" horiz-adv-x="735" 
d="M704 732c0 -2.66699 -0.999023 -5.99805 -2.99902 -9.99805l-235 -385c-4 -6 -6.33301 -11.833 -7 -17.5s-1 -17.5 -1 -35.5v-260c0 -16 -9.33301 -24 -28 -24h-125c-8 0 -13.667 1.66699 -17 5s-5 8.66602 -5 15.999v269c0 8 -0.833008 14.167 -2.5 18.5
s-4.83398 10.5 -9.50098 18.5l-237 392c-2.66699 5.33301 -4 9 -4 11c0 3.33301 1.66699 6.16602 5 8.49902s8 3.5 14 3.5h150c8 0 14 -1.16699 18 -3.5s7.66699 -7.16602 11 -14.499l148 -260c4 -7.33301 7.33301 -11 10 -11c3.33301 0 6.33301 3 9 9l146 262
c4 7.33301 7.83301 12.166 11.5 14.499s9.5 3.5 17.5 3.5h120c9.33301 0 14 -3.33301 14 -10z" />
    <glyph glyph-name="Z" unicode="Z" horiz-adv-x="681" 
d="M38.5 4c-3 2.66699 -4.50098 7.99902 -4.50098 15.999v36c0 8 0.833008 14.167 2.5 18.5s6.5 11.833 14.5 22.5l341 503c2 3.33301 3 5.66602 3 6.99902c0 4 -3.66699 6 -11 6h-306c-6.66699 0 -11.167 1.33301 -13.5 4s-3.5 7.66699 -3.5 15v93
c0 11.333 4.66699 17 14 17h553c4.66699 0 8.33398 -1.5 11.001 -4.5s4 -6.83301 4 -11.5v-41c0 -6 -1 -11.167 -3 -15.5s-5.66699 -10.166 -11 -17.499l-349 -510c-1.33301 -1.33301 -2 -3.33301 -2 -6c0 -4 3.66699 -6 11 -6h332c12 0 18 -5 18 -15v-97
c0 -5.33301 -1.66699 -9.66602 -5 -12.999s-8 -5 -14 -5h-565c-8 -0 -13.5 1.33301 -16.5 4z" />
    <glyph glyph-name="bracketleft" unicode="[" horiz-adv-x="316" 
d="M84 742l204.998 -0.00195312c4.66699 0 7.83398 -0.833008 9.50098 -2.5s2.5 -4.5 2.5 -8.5v-64c0 -8 -4 -12 -12 -12h-80c-7.33301 0 -12.5 -1.66699 -15.5 -5s-4.5 -8.66602 -4.5 -15.999v-695c0 -7.33301 1.16699 -12 3.5 -14s6.83301 -3 13.5 -3h80
c10 0 15 -4.66699 15 -14v-58c0 -5.33301 -1.16699 -9.16602 -3.5 -11.499s-6.16602 -3.5 -11.499 -3.5h-199c-15.333 0 -23 7 -23 21l-1 869c0 11.333 7 17 21 17z" />
    <glyph glyph-name="backslash" unicode="\" horiz-adv-x="365" 
d="M250 4l-243.001 712.002c-2 5.33301 -3 9.66602 -3 12.999c0 8.66699 5.66699 13 17 13h67c4.66699 0 9 -1.33301 13 -4s6.66699 -6.33398 8 -11.001l249 -729c1.33301 -4 2 -6.33301 2 -7c0 -5.33301 -4.66699 -8 -14 -8h-68c-13.333 0 -22.666 7 -27.999 21z" />
    <glyph glyph-name="bracketright" unicode="]" horiz-adv-x="316" 
d="M252 -144c0 -14 -7.66895 -20.998 -23.002 -20.998h-199c-5.33301 0 -9.16602 1.16699 -11.499 3.5s-3.5 6.16602 -3.5 11.499v58c0 9.33301 5 14 15 14h80c6.66699 0 11.167 1 13.5 3s3.5 6.66699 3.5 14v695c0 7.33301 -1.5 12.666 -4.5 15.999s-8.16699 5 -15.5 5h-80
c-8 0 -12 4 -12 12v64c0 4 0.833008 6.83301 2.5 8.5s4.83398 2.5 9.50098 2.5h205c14 0 21 -5.66699 21 -17z" />
    <glyph glyph-name="asciicircum" unicode="^" horiz-adv-x="475" 
d="M246 360c-2 6 -5.33594 9.00098 -10.0029 9.00098c-3.33301 0 -6.66602 -3 -9.99902 -9l-91 -226c-2 -4 -4.66699 -6.5 -8 -7.5s-8 -1.5 -14 -1.5h-68c-7.33301 0 -11 3.66699 -11 11l2 9l152 359c4.66699 11.333 11.5 20.166 20.5 26.499s18.5 9.5 28.5 9.5
s19.333 -3 28 -9s15.334 -14.667 20.001 -26l153 -363c1.33301 -4 2 -6.33301 2 -7c0 -6.66699 -5 -10 -15 -10h-65c-13.333 0 -20.666 3 -21.999 9z" />
    <glyph glyph-name="underscore" unicode="_" horiz-adv-x="544" 
d="M496 -121c0 -8 -2.16895 -13.667 -6.50195 -17s-11.166 -5 -20.499 -5h-400c-8 0 -13.333 1.5 -16 4.5s-4 7.83301 -4 14.5v74c0 12 5 18 15 18h417c4.66699 0 8.33398 -1.5 11.001 -4.5s4 -6.83301 4 -11.5v-73z" />
    <glyph glyph-name="grave" unicode="`" horiz-adv-x="306" 
d="M42 750.5c3.33301 1.66699 7.00195 1.83301 11.002 0.5l235 -99c5.33301 -2 8 -6 8 -12c0 -3.33301 -0.666992 -6 -2 -8l-12 -35c-2.66699 -8 -7.33398 -12 -14.001 -12c-4 0 -7 0.333008 -9 1l-232 62c-11.333 4 -17 9.66699 -17 17c0 2.66699 0.666992 6 2 10l23 67
c1.33301 4 3.66602 6.83301 6.99902 8.5z" />
    <glyph glyph-name="a" unicode="a" horiz-adv-x="563" 
d="M190 -10c-50 0 -89.6641 13.5 -118.997 40.5s-44 62.167 -44 105.5c0 56 25.667 101 77 135s122 52 212 54l36 3c4 0 7.5 1.16699 10.5 3.5s4.5 5.83301 4.5 10.5v21c0 26 -7.33301 46 -22 60s-35.667 21 -63 21c-46.667 0 -81.334 -20 -104.001 -60
c-2.66699 -6.66699 -7 -10 -13 -10c-3.33301 0 -6.33301 0.333008 -9 1l-100 23c-6 1.33301 -9 5 -9 11c0 4 1.33301 9 4 15c16 38.667 44.5 67.667 85.5 87s91.833 29 152.5 29c79.333 0 136.666 -14.5 171.999 -43.5s53 -70.167 53 -123.5v-351
c0 -8 -1.33301 -13.667 -4 -17s-7.66699 -5 -15 -5h-103c-6.66699 -0 -11.5 2.33301 -14.5 7s-5.16699 11.667 -6.5 21l-1 22c-0.666992 6 -3.33398 9 -8.00098 9c-2.66699 0 -7.66699 -2.66699 -15 -8c-44 -40.667 -96.333 -61 -157 -61zM364.003 249
c-2 2.66699 -5.99902 4 -11.999 4l-28 -2c-38.667 -2 -72.834 -11.167 -102.501 -27.5s-44.5 -38.833 -44.5 -67.5c0 -20 7 -35.833 21 -47.5s33.333 -17.5 58 -17.5c30.667 0 56.667 9 78 27c22 17.333 33 35 33 53v65c0 6 -1 10.333 -3 13z" />
    <glyph glyph-name="b" unicode="b" horiz-adv-x="609" 
d="M78 0c-8 0 -13.835 1.83398 -17.502 5.50098s-5.5 9.16699 -5.5 16.5v701c0 6 1.5 10.667 4.5 14s7.16699 5 12.5 5h122c10 0 15 -6 15 -18v-233c0 -8 2.33301 -12 7 -12c2.66699 0 6.33398 1.66699 11.001 5c40 37.333 86.667 56 140 56
c66.667 0 118.167 -24.667 154.5 -74s54.5 -115.333 54.5 -198c0 -86 -20 -153.833 -60 -203.5s-96 -74.5 -168 -74.5c-34 0 -64.5 7.66699 -91.5 23s-49.167 34.666 -66.5 57.999c-3.33301 3.33301 -5.66602 5 -6.99902 5c-2 0 -3.66699 -2.66699 -5 -8l-12 -48
c-2 -7.33301 -4.66699 -12.5 -8 -15.5s-8.33301 -4.5 -15 -4.5h-65zM208.998 183.001c0 -28.667 9.83301 -52.333 29.5 -71s43.167 -28 70.5 -28c73.333 0 110 60.667 110 182c0 60.667 -8.83301 105.167 -26.5 133.5s-44.167 42.5 -79.5 42.5
c-40 0 -74.667 -17.667 -104 -53v-206z" />
    <glyph glyph-name="c" unicode="c" horiz-adv-x="551" 
d="M444.5 495.5c39 -29.667 65.165 -65.498 78.498 -107.498c1.33301 -5.33301 2 -8.66602 2 -9.99902c0 -6 -4.66699 -9.66699 -14 -11l-105 -10h-3c-6 0 -10 3.66699 -12 11c-12 24 -24.167 41.833 -36.5 53.5s-29.833 17.5 -52.5 17.5c-36 0 -64.167 -14.667 -84.5 -44
s-30.5 -72.666 -30.5 -129.999c0 -58.667 10.833 -102.667 32.5 -132s51.834 -44 90.501 -44c27.333 0 49.666 7 66.999 21s34.333 35.333 51 64c2 3.33301 4.16699 5.16602 6.5 5.49902s5.83301 0.166016 10.5 -0.500977l74 -17c6 -0.666992 9 -4 9 -10l-2 -9
c-13.333 -38.667 -39.166 -73.834 -77.499 -105.501s-88.833 -47.5 -151.5 -47.5c-51.333 0 -97.166 11.5 -137.499 34.5s-71.833 55.167 -94.5 96.5s-34 88.666 -34 141.999c0 54 11.5 102 34.5 144s54.667 74.667 95 98s85.833 35 136.5 35
c59.333 0 108.5 -14.833 147.5 -44.5z" />
    <glyph glyph-name="d" unicode="d" horiz-adv-x="609" 
d="M402 20v28c0 5.33301 -1.66699 8 -5 8c-2 0 -5 -1.33301 -9 -4c-19.333 -18.667 -40.5 -33.667 -63.5 -45s-50.5 -17 -82.5 -17c-62.667 0 -113.167 23.333 -151.5 70s-57.5 113.667 -57.5 201c0 54.667 9.83301 103.167 29.5 145.5s46.167 75.166 79.5 98.499
s70 35 110 35c26 0 49.5 -4.33301 70.5 -13s41.167 -22 60.5 -40c4.66699 -3.33301 8 -5 10 -5c4.66699 0 7 4.33301 7 13v229c0 12 5.33301 18 16 18h122c4.66699 0 8.5 -1.66699 11.5 -5s4.5 -8 4.5 -14v-702c0 -7.33301 -1.66699 -12.666 -5 -15.999s-9.33301 -5 -18 -5
h-108c-14 0 -21 6.66699 -21 20zM354.5 429c-15 8 -31.833 11.999 -50.5 11.999c-35.333 0 -63.333 -14.5 -84 -43.5s-31 -73.833 -31 -134.5c0 -61.333 10 -106.166 30 -134.499s47.667 -42.5 83 -42.5c26.667 0 49.667 8.83301 69 26.5s29 38.167 29 61.5v218
c-15.333 16.667 -30.5 29 -45.5 37z" />
    <glyph glyph-name="e" unicode="e" horiz-adv-x="586" 
d="M227.5 129.5c25 -23 56.165 -34.502 93.498 -34.502c24 0 46.167 5.16699 66.5 15.5s40.833 27.5 61.5 51.5c2.66699 2.66699 5.33398 4 8.00098 4c2 0 5.33301 -1 10 -3l72 -30c4.66699 -2 7 -5.33301 7 -10c0 -3.33301 -1.33301 -6.66602 -4 -9.99902
c-32 -45.333 -66.333 -77.166 -103 -95.499s-82.334 -27.5 -137.001 -27.5c-51.333 0 -97.666 11.333 -138.999 34s-73.666 54.167 -96.999 94.5s-35 86.5 -35 138.5c0 56 12 105.5 36 148.5s56.5 76.167 97.5 99.5s85.833 35 134.5 35c50.667 0 95.667 -11.167 135 -33.5
s70 -54.5 92 -96.5s33 -92 33 -150c0 -8.66699 -0.833008 -14.667 -2.5 -18s-6.5 -5.33301 -14.5 -6h-340c-8 0 -12 -5.33301 -12 -16c0 -37.333 12.5 -67.5 37.5 -90.5zM390.998 319.998c7.33301 0 11.998 0.834961 13.998 2.50195s3 5.5 3 11.5
c0 17.333 -4 34.666 -12 51.999s-19.667 31.666 -35 42.999s-34 17 -56 17c-33.333 0 -60.666 -11.667 -81.999 -35s-31.666 -53.333 -30.999 -90z" />
    <glyph glyph-name="f" unicode="f" horiz-adv-x="402" 
d="M377 525c3.33301 -3.33301 4.99902 -7.33203 4.99902 -11.999v-74c0 -10 -5.66699 -15 -17 -15h-83c-6.66699 0 -10 -3.66699 -10 -11v-394c0 -12.667 -5.33301 -19 -16 -19h-123c-10 0 -15 5.66699 -15 17v398c0 6 -2.66699 9 -8 9h-72c-12 0 -18 5 -18 15v74
c0 4.66699 1.66699 8.66699 5 12s8 5 14 5h67c4.66699 0 7.83398 1.16699 9.50098 3.5s2.5 6.16602 2.5 11.499v61c0 42.667 12.667 76 38 100s61 36 107 36h101c14.667 0 22 -7 22 -21l1 -65c0 -11.333 -5 -17 -15 -17h-54c-14.667 0 -26.667 -5.5 -36 -16.5
s-14 -25.167 -14 -42.5v-39c0 -7.33301 4 -11 12 -11h83c6 0 10.667 -1.66699 14 -5z" />
    <glyph glyph-name="g" unicode="g" horiz-adv-x="633" 
d="M611 531l-0.00488281 -67.9961c0 -18.667 -7.66699 -26.334 -23 -23.001c-10 2 -19.667 3 -29 3c-5.33301 0 -11.333 -0.666992 -18 -2c-17.333 -2.66699 -24 -10.334 -20 -23.001c6 -18 9 -33 9 -45c0 -30.667 -9.16699 -58.334 -27.5 -83.001
s-45.666 -44.334 -81.999 -59.001s-80.166 -22 -131.499 -22c-37.333 0 -64.833 -3 -82.5 -9s-26.5 -14 -26.5 -24c0 -8.66699 4.83301 -14.834 14.5 -18.501s25.834 -6.16699 48.501 -7.5l143 -8c66 -4 115.167 -18.667 147.5 -44s48.5 -59 48.5 -101
c0 -52 -24.667 -93.667 -74 -125s-119.333 -47 -210 -47c-194 0 -291 43 -291 129c0 21.333 8.33301 39.5 25 54.5s40.334 28.167 71.001 39.5c4 1.33301 6 3 6 5s-2 4 -6 6c-38.667 18.667 -58 43.334 -58 74.001c0 18 8.83301 34.833 26.5 50.5s41.167 29.167 70.5 40.5
c8 4 8.66699 8 2 12c-64.667 30 -97 75.333 -97 136c0 50.667 21.833 91 65.5 121s106.167 45 187.5 45c68.667 0 122 -15 160 -45c4.66699 -3.33301 9 -5 13 -5c5.33301 0 10 2.33301 14 7c12.667 15.333 29.334 28.833 50.001 40.5s38.667 17.5 54 17.5
c13.333 0 20 -7.33301 20 -22zM364.495 308.504c17 15.667 25.5 36.167 25.5 61.5c0 28 -8.5 50.167 -25.5 66.5s-42.5 24.5 -76.5 24.5c-32 0 -57.167 -8.33301 -75.5 -25s-27.5 -38.667 -27.5 -66c0 -25.333 9.16699 -45.833 27.5 -61.5s43.5 -23.5 75.5 -23.5
c34 0 59.5 7.83301 76.5 23.5zM213.995 30.0039c-20.667 1.33301 -39.166 -3.49707 -55.499 -14.4971s-24.5 -24.833 -24.5 -41.5c0 -24.667 13.667 -43.334 41 -56.001s71.666 -19 132.999 -19c44.667 0 79 6.16699 103 18.5s36 29.833 36 52.5
c0 15.333 -6.66699 27.666 -20 36.999s-33 14.666 -59 15.999z" />
    <glyph glyph-name="h" unicode="h" horiz-adv-x="597" 
d="M61 4.5c-3.33301 3 -5 8.16797 -5 15.501v703c0 12.667 5.33301 19 16 19h120c10 0 15 -5.66699 15 -17v-256c0 -5.33301 1.66699 -8 5 -8c2 0 4.33301 1.33301 7 4c30.667 27.333 59.167 46.666 85.5 57.999s54.166 17 83.499 17c50.667 0 89.667 -14 117 -42
s41 -67.333 41 -118v-356c0 -16 -8 -24 -24 -24h-111c-7.33301 0 -12.333 1.5 -15 4.5s-4 8.16699 -4 15.5v338c0 22.667 -6.16699 40.167 -18.5 52.5s-30.166 18.5 -53.499 18.5c-20.667 0 -39.334 -5 -56.001 -15s-34.667 -25.667 -54 -47v-344c0 -8 -2 -13.833 -6 -17.5
s-10.667 -5.5 -20 -5.5h-107c-7.33301 0 -12.666 1.5 -15.999 4.5z" />
    <glyph glyph-name="i" unicode="i" horiz-adv-x="265" 
d="M211 619c0 -16.667 -9 -25 -27 -25h-108c-8 0 -13.667 1.83301 -17 5.5s-5 9.5 -5 17.5v105c0 13.333 5.66699 20 17 20h124c4.66699 0 8.5 -1.66699 11.5 -5s4.5 -8 4.5 -14v-104zM209 24c0 -8.66699 -2 -14.832 -6 -18.499s-11 -5.5 -21 -5.5h-105
c-8 0 -13.667 1.66699 -17 5s-5 8.66602 -5 15.999v490c0 12.667 5.66699 19 17 19h122c10 0 15 -5.66699 15 -17v-489z" />
    <glyph glyph-name="j" unicode="j" horiz-adv-x="265" 
d="M212 619c0 -8.66699 -2 -15 -6 -19s-11 -6 -21 -6h-108c-8 0 -13.667 1.83301 -17 5.5s-5 9.5 -5 17.5v105c0 6.66699 1.5 11.667 4.5 15s7.16699 5 12.5 5h123c11.333 0 17 -6.33301 17 -19v-104zM166 -126.5c-29.333 -29 -75.333 -43.499 -138 -43.499
c-28.667 0 -47 1.16699 -55 3.5s-12 7.83301 -12 16.5l-1 79c0 4.66699 1.5 9.16699 4.5 13.5s6.83301 6.83301 11.5 7.5l42 5c12.667 1.33301 22.167 6.16602 28.5 14.499s9.5 22.5 9.5 42.5v499c0 6 1.5 10.667 4.5 14s7.16699 5 12.5 5h122c10 0 15 -5.66699 15 -17v-507
c0 -59.333 -14.667 -103.5 -44 -132.5z" />
    <glyph glyph-name="k" unicode="k" horiz-adv-x="604" 
d="M585 14c0 -4 -1.50098 -7.33008 -4.50098 -9.99707s-7.16699 -4 -12.5 -4h-131c-11.333 0 -20.333 7 -27 21l-103 206c-2.66699 6 -5.66699 9 -9 9c-2 0 -4.66699 -1.66699 -8 -5l-71 -70c-6 -4.66699 -9 -13 -9 -25v-112c0 -8.66699 -2 -14.834 -6 -18.501
s-10.667 -5.5 -20 -5.5h-106c-8 0 -13.667 1.66699 -17 5s-5 8.66602 -5 15.999v702c0 12.667 5.33301 19 16 19h123c10 0 15 -6 15 -18v-410c0 -5.33301 1.33301 -8 4 -8s5.33398 1.66699 8.00098 5l188 204c10 10 19 15 27 15h107c11.333 0 17 -3.66699 17 -11
c0 -4.66699 -2.33301 -9.33398 -7 -14.001l-140 -142c-4 -4.66699 -6 -9 -6 -13c0 -4.66699 1.33301 -9.66699 4 -15l171 -312c1.33301 -2 2 -5 2 -9z" />
    <glyph glyph-name="l" unicode="l" horiz-adv-x="266" 
d="M210 24c0 -8.66699 -2 -14.832 -6 -18.499s-11 -5.5 -21 -5.5h-106c-8 0 -13.667 1.66699 -17 5s-5 8.66602 -5 15.999l3 702c0 12.667 5.33301 19 16 19h121c10 0 15 -6 15 -18v-700z" />
    <glyph glyph-name="m" unicode="m" horiz-adv-x="919" 
d="M60 4.5c-3.33301 3 -5.00098 8.16797 -5.00098 15.501v491c0 6 1.5 10.667 4.5 14s6.83301 5 11.5 5h120c10 0 15 -5.66699 15 -17v-49c0 -5.33301 1.66699 -8 5 -8c2 0 4.33301 1.33301 7 4c28 26 55.333 46 82 60s55 21 85 21c35.333 0 65.333 -8.33301 90 -25
s42 -39.334 52 -68.001c0.666992 -2.66699 2 -4 4 -4c2.66699 0 5.66699 1.66699 9 5c24.667 27.333 52.5 49.333 83.5 66s61.833 25 92.5 25c46.667 0 83.834 -14.333 111.501 -43s41.5 -68 41.5 -118v-355c0 -16 -8 -24 -24 -24h-111c-7.33301 0 -12.333 1.5 -15 4.5
s-4 8.16699 -4 15.5v338c0 22 -6 39.333 -18 52s-29 19 -51 19c-18 0 -35.5 -5 -52.5 -15s-31.5 -22 -43.5 -36c-4 -4.66699 -6.83301 -9 -8.5 -13s-2.5 -9 -2.5 -15v-326c0 -16 -8 -24 -24 -24h-110c-6.66699 0 -11.5 1.5 -14.5 4.5s-4.5 8.16699 -4.5 15.5v338
c0 22 -6 39.333 -18 52s-29.333 19 -52 19c-19.333 0 -37.333 -5 -54 -15s-34.334 -25.667 -53.001 -47v-344c0 -8 -2 -13.833 -6 -17.5s-10.667 -5.5 -20 -5.5h-107c-7.33301 0 -12.666 1.5 -15.999 4.5z" />
    <glyph glyph-name="n" unicode="n" horiz-adv-x="596" 
d="M60 4.5c-3.33301 3 -5 8.16699 -5 15.5v491c0 12.667 5.33301 19 16 19h121c10 0 15 -5.66699 15 -17v-49c0 -5.33301 1.66699 -8 5 -8c2 0 4.33301 1.33301 7 4c27.333 26 54.666 45.833 81.999 59.5s56.333 20.5 87 20.5c48.667 0 87.167 -14.333 115.5 -43
s42.5 -67 42.5 -115v-358c0 -16 -8 -24 -24 -24h-111c-7.33301 0 -12.333 1.5 -15 4.5s-4 8.16699 -4 15.5v338c0 22.667 -6.16699 40.167 -18.5 52.5s-30.5 18.5 -54.5 18.5c-20 0 -38.5 -5 -55.5 -15s-35.167 -25.667 -54.5 -47v-344c0 -8 -2 -13.833 -6 -17.5
s-10.667 -5.5 -20 -5.5h-107c-7.33301 0 -12.666 1.5 -15.999 4.5z" />
    <glyph glyph-name="o" unicode="o" horiz-adv-x="599" 
d="M159.5 24.5c-40.333 23 -71.832 55.166 -94.499 96.499s-34 88.333 -34 141c0 54.667 11.5 103 34.5 145s55 74.667 96 98s87.167 35 138.5 35c52.667 0 99.334 -11.833 140.001 -35.5s72.167 -56.5 94.5 -98.5s33.5 -89.667 33.5 -143
c0 -52.667 -11.333 -99.667 -34 -141s-54.334 -73.666 -95.001 -96.999s-87.334 -35 -140.001 -35s-99.167 11.5 -139.5 34.5zM383.501 135.499c19 29 28.5 72.167 28.5 129.5c0 58 -9.5 101.833 -28.5 131.5s-46.833 44.5 -83.5 44.5s-64.667 -14.833 -84 -44.5
s-29 -73.5 -29 -131.5c0 -56.667 9.66699 -99.667 29 -129s47.333 -44 84 -44s64.5 14.5 83.5 43.5z" />
    <glyph glyph-name="p" unicode="p" horiz-adv-x="609" 
d="M205 525.5c3.33301 -3 5.00098 -8.16699 5.00098 -15.5v-30c0 -4.66699 1.33301 -7 4 -7c2 0 5.33301 1.66699 10 5c20.667 19.333 41.834 34.5 63.501 45.5s49.167 16.5 82.5 16.5c60.667 0 110 -23 148 -69s57 -113.333 57 -202c0 -92 -19.5 -161.5 -58.5 -208.5
s-90.5 -70.5 -154.5 -70.5c-52.667 0 -97.334 17 -134.001 51c-6.66699 5.33301 -11.334 8 -14.001 8c-3.33301 0 -5 -4.66699 -5 -14v-183c0 -11.333 -5 -17 -15 -17h-123c-4.66699 0 -8.5 1.5 -11.5 4.5s-4.5 7.5 -4.5 13.5v655c0 8 1.83301 13.667 5.5 17s9.5 5 17.5 5
h110c8 0 13.667 -1.5 17 -4.5zM254.001 100c15.333 -8.66699 32.3311 -12.999 50.998 -12.999c76 0 114 61.667 114 185c0 61.333 -9.66699 105.166 -29 131.499s-46.666 39.5 -81.999 39.5c-27.333 0 -50.666 -8.16699 -69.999 -24.5s-29 -34.833 -29 -55.5v-226
c14.667 -16 29.667 -28.333 45 -37z" />
    <glyph glyph-name="q" unicode="q" horiz-adv-x="609" 
d="M532 530c8 0 13.668 -1.66797 17.001 -5.00098s5 -9 5 -17v-654c0 -6 -1.5 -10.667 -4.5 -14s-6.83301 -5 -11.5 -5h-123c-10 0 -15 5.66699 -15 17v178c0 10 -2 15 -6 15c-2 0 -5.66699 -1.66699 -11 -5c-42.667 -33.333 -87 -50 -133 -50
c-67.333 0 -120.333 24.167 -159 72.5s-58 115.833 -58 202.5c0 55.333 9 103.833 27 145.5s44 73.834 78 96.501s74 34 120 34c66.667 0 121.667 -26.333 165 -79c3.33301 -3.33301 5.66602 -5 6.99902 -5c2 0 4 2.66699 6 8l12 44c4 14 11.333 21 22 21h62z
M400.001 346.999c0 28.667 -9.16699 52.666 -27.5 71.999s-41.833 29 -70.5 29c-34.667 0 -62.167 -15 -82.5 -45s-30.5 -75.667 -30.5 -137s9.83301 -106.666 29.5 -135.999s46.834 -44 81.501 -44c39.333 0 72.666 15.333 99.999 46v215z" />
    <glyph glyph-name="r" unicode="r" horiz-adv-x="426" 
d="M55 20l0.000976562 491.002c0 12.667 5.33301 19 16 19h117c10.667 0 16 -5.66699 16 -17v-59c0 -2.66699 0.666992 -4.66699 2 -6s2.66602 -2 3.99902 -2c2 0 4.66699 1.66699 8 5c20 26.667 43.667 48.167 71 64.5s53.333 24.5 78 24.5c24 0 36 -5.66699 36 -17v-116
c0 -4.66699 -1.33301 -8.33398 -4 -11.001s-6.33398 -3.33398 -11.001 -2.00098c-21.333 5.33301 -44.666 8 -69.999 8c-16.667 0 -33.5 -4.16699 -50.5 -12.5s-31 -19.333 -42 -33s-16.5 -27.5 -16.5 -41.5v-292c0 -15.333 -8.66699 -23 -26 -23h-107
c-14 0 -21 6.66699 -21 20z" />
    <glyph glyph-name="s" unicode="s" horiz-adv-x="530" 
d="M265 446c-25.333 0 -46.3359 -4.83008 -63.0029 -14.4971s-25 -22.834 -25 -39.501c0 -9.33301 3.83301 -17.833 11.5 -25.5s22.5 -14.167 44.5 -19.5l115 -28c52.667 -12.667 91.334 -32.834 116.001 -60.501s37 -60.167 37 -97.5c0 -52.667 -22 -94.334 -66 -125.001
s-101.667 -46 -173 -46c-57.333 0 -107 10.167 -149 30.5s-71.667 46.833 -89 79.5c-3.33301 4.66699 -5 9 -5 13c0 4.66699 2.33301 8 7 10l68 35c5.33301 2.66699 10 4 14 4s7.66699 -1.66699 11 -5c14.667 -20.667 32.5 -37.167 53.5 -49.5s48.833 -18.5 83.5 -18.5
c31.333 0 56.833 4.66699 76.5 14s29.5 23 29.5 41c0 12 -5 22 -15 30s-27 15 -51 21l-103 22c-101.333 22 -152 72.333 -152 151c0 33.333 9.16699 63 27.5 89s44.5 46.333 78.5 61s74 22 120 22c48.667 0 91.834 -9 129.501 -27s64.834 -40.667 81.501 -68
c4 -5.33301 6 -10 6 -14s-2.33301 -7.33301 -7 -10l-72 -35c-2 -1.33301 -4.66699 -2 -8 -2c-6 0 -11 2.66699 -15 8c-27.333 36 -66.333 54 -117 54z" />
    <glyph glyph-name="t" unicode="t" horiz-adv-x="432" 
d="M278 424c-7.33301 0 -11 -3.99902 -11 -11.999v-241c0 -22.667 5.33301 -38.834 16 -48.501s27.667 -14.5 51 -14.5h54c4.66699 0 8.33398 -1.5 11.001 -4.5s4 -7.16699 4 -12.5l-1 -61c0 -13.333 -7.33301 -21.333 -22 -24c-28 -4 -67.667 -6 -119 -6
c-46.667 0 -83 11 -109 33s-39 54 -39 96v280c0 10 -4.33301 15 -13 15h-61c-12.667 0 -19 5.66699 -19 17v74c0 10 6 15 18 15h69c5.33301 0 8.66602 3.66699 9.99902 11l14 152c1.33301 11.333 6.33301 17 15 17h109c4.66699 0 8.5 -1.66699 11.5 -5s4.5 -8 4.5 -14v-150
c0 -6.66699 3.33301 -10 10 -10h105c12 0 18 -5.33301 18 -16v-74c0 -11.333 -6.66699 -17 -20 -17h-106z" />
    <glyph glyph-name="u" unicode="u" horiz-adv-x="592" 
d="M383 160l0.000976562 346.998c0 15.333 8.66699 23 26 23h108c8 0 13.5 -1.66699 16.5 -5s4.5 -8.66602 4.5 -15.999l-2 -491c0 -5.33301 -1.5 -9.66602 -4.5 -12.999s-6.83301 -5 -11.5 -5h-119c-10 0 -15 5.66699 -15 17v49c0 4 -1 6.33301 -3 7
s-4.66699 -0.333008 -8 -3c-28 -28.667 -55.667 -49.167 -83 -61.5s-57 -18.5 -89 -18.5c-44.667 0 -81.334 14.5 -110.001 43.5s-43 68.167 -43 117.5v355c0 16 8 24 24 24h111c12.667 0 19 -7 19 -21v-336c0 -22 6.33301 -39.5 19 -52.5s29.667 -19.5 51 -19.5
c36.667 0 73 19.667 109 59z" />
    <glyph glyph-name="v" unicode="v" horiz-adv-x="573" 
d="M551 523c2.66699 -4.66699 3 -10 1 -16l-198 -486c-6 -14 -16.667 -21 -32 -21h-71c-15.333 0 -26 7 -32 21l-197 485c-1.33301 4 -2 6.66699 -2 8c0 4.66699 1.66699 8.5 5 11.5s7.33301 4.5 12 4.5h127c11.333 0 18.666 -5.66699 21.999 -17l115 -295
c3.33301 -6 6 -9 8 -9c2.66699 0 5.33398 3.33301 8.00098 10l113 295c4.66699 10.667 12 16 22 16h86c6 0 10.333 -2.33301 13 -7z" />
    <glyph glyph-name="w" unicode="w" horiz-adv-x="818" 
d="M792.5 525.5c3 -3 4.50098 -6.49902 4.50098 -10.499c0 -1.33301 -0.666992 -4 -2 -8l-163 -491c-2 -6 -4.5 -10.167 -7.5 -12.5s-7.5 -3.5 -13.5 -3.5h-82c-7.33301 0 -13 1.5 -17 4.5s-7 7.83301 -9 14.5l-86 275c-2 6 -4.66699 9 -8 9c-2 0 -4 -3 -6 -9l-88 -278
c-1.33301 -6 -3.5 -10.167 -6.5 -12.5s-7.83301 -3.5 -14.5 -3.5h-85c-7.33301 0 -12.833 1.5 -16.5 4.5s-6.5 7.83301 -8.5 14.5l-161 487c-0.666992 1.33301 -1 3.66602 -1 6.99902c0 4.66699 1.5 8.66699 4.5 12s7.16699 5 12.5 5h117c4.66699 0 9.16699 -1.5 13.5 -4.5
s7.16602 -7.16699 8.49902 -12.5l89 -283c2 -6 4.33301 -9 7 -9s5 3.33301 7 10l86 283c1.33301 4.66699 4.16602 8.5 8.49902 11.5s8.83301 4.5 13.5 4.5h84c5.33301 0 10 -1.66699 14 -5s6.33301 -7.33301 7 -12l87 -283c2 -6 4.33301 -9 7 -9c3.33301 0 6 3.33301 8 10
l86 283c4.66699 10.667 12.334 16 23.001 16h76c4.66699 0 8.5 -1.5 11.5 -4.5z" />
    <glyph glyph-name="x" unicode="x" horiz-adv-x="591" 
d="M573 10c0 -6.66699 -6.33203 -10.002 -18.999 -10.002h-128c-16 0 -27.333 5.33301 -34 16l-103 145c-5.33301 8.66699 -9.33301 13 -12 13s-6.66699 -4 -12 -12l-105 -146c-6.66699 -10.667 -17.667 -16 -33 -16h-82c-16 0 -24 4.66699 -24 14c0 7.33301 4 16 12 26
l164 211c4 6 6 10.667 6 14c0 4.66699 -2.33301 10.334 -7 17.001l-162 220c-2.66699 3.33301 -4 7.33301 -4 12c0 4 1.66699 7.66699 5 11s8 5 14 5h122c8.66699 0 15.167 -1.16699 19.5 -3.5s8.5 -6.5 12.5 -12.5l93 -131c3.33301 -5.33301 6.33301 -8 9 -8
c2 0 4.66699 2.66699 8 8l88 131c4 6 8.16699 10.167 12.5 12.5s11.166 3.5 20.499 3.5h90c11.333 0 17 -3.33301 17 -10c0 -3.33301 -2 -7.66602 -6 -12.999l-149 -202c-4 -4.66699 -6 -9.33398 -6 -14.001c0 -3.33301 2.33301 -8.66602 7 -15.999l174 -241
c8 -10.667 12 -18.667 12 -24z" />
    <glyph glyph-name="y" unicode="y" horiz-adv-x="566" 
d="M58 -161.5c-8.66699 2.33301 -12.9971 7.5 -12.9971 15.5v77c0 10.667 9.66699 16 29 16h68c20 0 37.333 7.5 52 22.5s22 30.833 22 47.5c0 6 -1 11.333 -3 16l-192 473c-1.33301 4 -2 6.66699 -2 8c0 4.66699 1.66699 8.5 5 11.5s7.66602 4.5 12.999 4.5h126
c4.66699 0 9.16699 -1.5 13.5 -4.5s7.16602 -7.16699 8.49902 -12.5l111 -298c2 -6.66699 4.66699 -10 8 -10c2.66699 0 5.66699 3.66699 9 11l110 298c4.66699 10.667 12 16 22 16h86c4.66699 0 8.5 -1.5 11.5 -4.5s4.5 -6.5 4.5 -10.5c0 -1.33301 -0.666992 -4 -2 -8
l-205 -507c-18.667 -46 -38.334 -80.667 -59.001 -104s-44.5 -39.333 -71.5 -48s-62.167 -13 -105.5 -13c-22 0 -37.333 1.16699 -46 3.5z" />
    <glyph glyph-name="z" unicode="z" horiz-adv-x="519" 
d="M28 4c-2.66699 2.66699 -4.00098 8 -4.00098 16v39c0 8 1 14.333 3 19s6.66699 12.334 14 23.001l244 318c0.666992 1.33301 1.5 2.66602 2.5 3.99902s1.5 2.66602 1.5 3.99902c0 4 -4 6 -12 6h-213c-6.66699 0 -11.334 1.33301 -14.001 4s-4 7.33398 -4 14.001v63
c0 10.667 4.66699 16 14 16h414c4.66699 0 8.33398 -1.33301 11.001 -4s4 -6.33398 4 -11.001v-44c0 -6 -1.16699 -11.667 -3.5 -17s-6.16602 -11.666 -11.499 -18.999l-247 -321c-3.33301 -4.66699 -5 -8 -5 -10c0 -4 3.66699 -6 11 -6h240c12 0 18 -5 18 -15v-65
c0 -12 -6.66699 -18 -20 -18h-427c-8 -0 -13.333 1.33301 -16 4z" />
    <glyph glyph-name="braceleft" unicode="{" horiz-adv-x="366" 
d="M139 685.5c15.333 18.333 35.165 32.333 59.498 42s49.833 14.5 76.5 14.5h63c4.66699 0 8 -0.833008 10 -2.5s3 -4.5 3 -8.5v-64c0 -8 -4.33301 -12 -13 -12h-32c-26.667 0 -44 -4.5 -52 -13.5s-12 -22.167 -12 -39.5v-202c-0.666992 -32.667 -11.667 -57.5 -33 -74.5
s-46.333 -26.833 -75 -29.5c-4 -0.666992 -6.16699 -1.83398 -6.5 -3.50098s1.83398 -2.83398 6.50098 -3.50098c29.333 -2.66699 54.5 -12 75.5 -28s31.833 -43 32.5 -81v-205c0 -19.333 4.5 -33 13.5 -41s25.833 -12 50.5 -12h30c10 0 15 -4.66699 15 -14v-58
c0 -5.33301 -1.16699 -9.16602 -3.5 -11.499s-6.16602 -3.5 -11.499 -3.5h-58c-44 0 -82 10.833 -114 32.5s-48 51.834 -48 90.501v208c0 26 -8.83301 47.167 -26.5 63.5s-44.167 24.5 -79.5 24.5c-6.66699 0 -10 5.33301 -10 16v46c-0 10.667 3.33301 16 10 16
c36.667 0 63.5 7.5 80.5 22.5s25.5 37.833 25.5 68.5v196c0 26 7.66699 48.167 23 66.5z" />
    <glyph glyph-name="bar" unicode="|" horiz-adv-x="251" 
d="M92 -165c-8 0 -13.667 2.00098 -17 6.00098s-5 10.333 -5 19v966c0 8 1.5 13.5 4.5 16.5s7.83301 4.5 14.5 4.5h74c12.667 0 19 -5.33301 19 -16v-981c0 -4.66699 -1.5 -8.33398 -4.5 -11.001s-7.16699 -4 -12.5 -4h-73z" />
    <glyph glyph-name="braceright" unicode="}" horiz-adv-x="366" 
d="M250 423c0 -30.667 8.49902 -53.5 25.499 -68.5s43.833 -22.5 80.5 -22.5c6.66699 0 10 -5.33301 10 -16v-46c0 -10.667 -3.33301 -16 -10 -16c-35.333 0 -61.833 -8.16699 -79.5 -24.5s-26.5 -37.5 -26.5 -63.5v-208c0 -38.667 -16 -68.834 -48 -90.501
s-70 -32.5 -114 -32.5h-58c-5.33301 0 -9.16602 1.16699 -11.499 3.5s-3.5 6.16602 -3.5 11.499v58c0 9.33301 5 14 15 14h30c24.667 0 41.5 4 50.5 12s13.5 21.667 13.5 41v205c0.666992 38 11.5 65 32.5 81s46.167 25.333 75.5 28
c4.66699 0.666992 6.83398 1.83398 6.50098 3.50098s-2.5 2.83398 -6.5 3.50098c-28.667 2.66699 -53.667 12.5 -75 29.5s-32.333 41.833 -33 74.5v202c0 17.333 -4 30.5 -12 39.5s-25.333 13.5 -52 13.5h-32c-8.66699 0 -13 4 -13 12v64c0 4 1 6.83301 3 8.5
s5.33301 2.5 10 2.5h63c26.667 0 52.167 -4.83301 76.5 -14.5s44.166 -23.667 59.499 -42s23 -40.5 23 -66.5v-196z" />
    <glyph glyph-name="asciitilde" unicode="~" horiz-adv-x="609" 
d="M487 314c-25.333 -14 -51.998 -20.9971 -79.998 -20.9971c-19.333 0 -36.333 2.83301 -51 8.5s-33.334 14.167 -56.001 25.5c-17.333 10 -32.5 17.5 -45.5 22.5s-26.833 7.5 -41.5 7.5c-21.333 0 -39.833 -5.33301 -55.5 -16s-33.167 -26.334 -52.5 -47.001
c-2.66699 -2.66699 -5.66699 -4 -9 -4s-6 1.66699 -8 5l-32 54c-1.33301 4 -2 6.33301 -2 7c0 4.66699 3 10 9 16c28 27.333 53.167 47.666 75.5 60.999s47.5 20 75.5 20c20 0 37.667 -2.83301 53 -8.5s33.666 -14.5 54.999 -26.5c17.333 -9.33301 32 -16.333 44 -21
s24.667 -7 38 -7c38 0 70.667 18.667 98 56c4 4.66699 7.66699 7 11 7c4.66699 0 9 -3.33301 13 -10l26 -44c1.33301 -2.66699 2 -6.33398 2 -11.001c0 -6 -1.66699 -11 -5 -15c-16 -25.333 -36.667 -45 -62 -59z" />
    <glyph glyph-name="uni00A0" unicode="&#xa0;" horiz-adv-x="211" 
 />
    <glyph glyph-name="exclamdown" unicode="&#xa1;" horiz-adv-x="264" 
d="M201 367l-137 0.00195312c-10 0 -15 6 -15 18v124c0 7.33301 1.66699 12.666 5 15.999s9 5 17 5h118c10 0 17 -1.83301 21 -5.5s6 -9.83398 6 -18.501v-123c0 -10.667 -5 -16 -15 -16zM221 -150.998c0 -4.66699 -1.33105 -8.16699 -3.99805 -10.5s-6 -3.5 -10 -3.5h-147
c-4.66699 0 -8.5 1.5 -11.5 4.5s-4.16699 7.5 -3.5 13.5l39 425c1.33301 8 3.16602 13.333 5.49902 16s7.16602 4 14.499 4h54c8.66699 0 15 -1.66699 19 -5s6.33301 -9 7 -17l37 -424v-3z" />
    <glyph glyph-name="cent" unicode="&#xa2;" horiz-adv-x="558" 
d="M528 263l-2.00293 -8.99902c-11.333 -32 -31.666 -62.333 -60.999 -91s-67.333 -47.667 -114 -57v-82c0 -16 -8.66699 -24 -26 -24h-53c-14.667 0 -22 7.33301 -22 22v83c-43.333 6.66699 -81.5 22.167 -114.5 46.5s-58.667 55.666 -77 93.999
s-27.5 81.166 -27.5 128.499c0 48 9.16699 91.5 27.5 130.5s44.166 70.833 77.499 95.5s71.333 40.334 114 47.001v72c0 8 1.83301 13.833 5.5 17.5s9.83398 5.5 18.501 5.5h55c14.667 0 22 -7 22 -21v-75c44.667 -8.66699 81.834 -26.667 111.501 -54
s49.834 -58.333 60.501 -93c1.33301 -5.33301 2 -8.66602 2 -9.99902c0 -6 -4.66699 -9.66699 -14 -11l-105 -10h-3c-6 0 -10 3.66699 -12 11c-12 24 -24.167 41.833 -36.5 53.5s-29.833 17.5 -52.5 17.5c-36 0 -64.167 -14.667 -84.5 -44s-30.5 -72.666 -30.5 -129.999
c0 -58.667 10.833 -102.667 32.5 -132s51.834 -44 90.501 -44c27.333 0 49.666 7 66.999 21s34.333 35.333 51 64c2 3.33301 4.16699 5.16602 6.5 5.49902s5.83301 0.166016 10.5 -0.500977l74 -17c6 -0.666992 9 -4 9 -10z" />
    <glyph glyph-name="sterling" unicode="&#xa3;" horiz-adv-x="645" 
d="M12 17v97.999c0 8 4.33301 12 13 12h22c26.667 0 47.834 8.33301 63.501 25s23.5 42.667 23.5 78c0 24 -3 60 -9 108c-0.666992 6 -4 9 -10 9h-85c-7.33301 0 -11 4 -11 12v62c0 7.33301 3.66699 11 11 11h66c7.33301 0 10.666 3.66699 9.99902 11l-9 82
c-1.33301 14.667 -2 25.334 -2 32.001c0 40.667 10.667 75.667 32 105s50 51.666 86 66.999s75 23 117 23c50 0 97.167 -12 141.5 -36s76.166 -58.333 95.499 -103l1 -4c0 -5.33301 -4 -9 -12 -11l-104 -31c-1.33301 -0.666992 -3.66602 -1 -6.99902 -1c-6 0 -10 2 -12 6
c-8.66699 18 -19.167 32.167 -31.5 42.5s-28.833 15.5 -49.5 15.5c-23.333 0 -42.5 -7.5 -57.5 -22.5s-22.5 -35.833 -22.5 -62.5c0 -22 4.66699 -56.333 14 -103c1.33301 -6.66699 5.33301 -10 12 -10h129c6.66699 0 10 -3 10 -9v-65c0 -6.66699 -3.33301 -10 -10 -10h-116
c-6.66699 0 -10 -3.33301 -10 -10c0.666992 -8 1 -19.333 1 -34c0 -20.667 -1.66699 -42 -5 -64c-5.33301 -40.667 -20.666 -73.667 -45.999 -99c-3.33301 -3.33301 -5 -6 -5 -8c0 -3.33301 3 -5 9 -5h118c29.333 0 52.666 5.33301 69.999 16s30.666 28.334 39.999 53.001
c2.66699 8.66699 9.33398 11.667 20.001 9l94 -20c13.333 -2 18.333 -8.66699 15 -20c-14.667 -53.333 -42 -94.333 -82 -123s-88.667 -43 -146 -43h-357c-10 0 -15 5.66699 -15 17z" />
    <glyph glyph-name="currency" unicode="&#xa4;" horiz-adv-x="575" 
d="M173 181c-2 1.33301 -4.66602 2.00098 -7.99902 2.00098s-6.33301 -1.33301 -9 -4l-51 -52c-4 -2.66699 -7 -4 -9 -4c-3.33301 0 -7 2 -11 6l-45 45c-2.66699 2.66699 -4 5.66699 -4 9s1.33301 6.33301 4 9l52 52c2.66699 2.66699 4 5.66699 4 9s-1 6.33301 -3 9
c-20 34 -30 70.667 -30 110c0 42.667 10.333 80.667 31 114l2 8c0 2.66699 -1.33301 5.33398 -4 8.00098l-51 52c-2.66699 2.66699 -4 5.66699 -4 9c0 4 1.33301 7.33301 4 10l45 46c2.66699 3.33301 6 5 10 5c3.33301 0 6.33301 -1.66699 9 -5l52 -52
c2.66699 -2.66699 5.33398 -4 8.00098 -4c2 0 4.66699 1 8 3c36 20.667 73.667 31 113 31c44 0 83.333 -11 118 -33c5.33301 -2 9.33301 -1.66699 12 1l52 52c3.33301 3.33301 7 3.33301 11 0l51 -54c4 -4 4 -8 0 -12l-51 -51c-2.66699 -2.66699 -3 -6.33398 -1 -11.001
c22 -36.667 33 -75.334 33 -116.001c0 -45.333 -11.333 -84.333 -34 -117c-1.33301 -4 -1.33301 -6.66699 0 -8l53 -53c4 -4 4.33301 -8 1 -12l-52 -52c-4 -4 -7.66699 -4 -11 0l-52 51c-2.66699 2.66699 -6.33398 3 -11.001 1c-38.667 -23.333 -77.334 -35 -116.001 -35
c-43.333 0 -82 11 -116 33zM350.001 266.501c18.667 11.667 33.5 27 44.5 46s16.5 39.167 16.5 60.5s-5.5 41.5 -16.5 60.5s-25.833 34.333 -44.5 46s-39.334 17.5 -62.001 17.5c-23.333 0 -44.333 -5.83301 -63 -17.5s-33.5 -27 -44.5 -46s-16.5 -39.167 -16.5 -60.5
s5.5 -41.5 16.5 -60.5s25.833 -34.333 44.5 -46s39.667 -17.5 63 -17.5c22.667 0 43.334 5.83301 62.001 17.5z" />
    <glyph glyph-name="yen" unicode="&#xa5;" horiz-adv-x="658" 
d="M669 731c0 -2.66699 -1 -5.66504 -3 -8.99805l-224 -364h119c4.66699 0 8.16699 -1.5 10.5 -4.5s3.5 -6.83301 3.5 -11.5v-45c0 -8 -2 -13.667 -6 -17s-10.667 -5 -20 -5h-126v-79h138c9.33301 0 14 -5.33301 14 -16v-44c0 -15.333 -8.66699 -23 -26 -23h-126v-89
c0 -16 -9.33301 -24 -28 -24h-125c-8 0 -13.667 1.66699 -17 5s-5 8.66602 -5 15.999v92h-132c-8 0 -13.5 1.5 -16.5 4.5s-4.5 8.16699 -4.5 15.5v45c0 12 5 18 15 18h138v78h-132c-8 0 -13.5 1.66699 -16.5 5s-4.5 8.33301 -4.5 15v45c0 12 5 18 15 18h108l-218 362
c-2.66699 5.33301 -4 9 -4 11c0 3.33301 1.66699 6.16602 5 8.49902s8 3.5 14 3.5h151c8 0 13.833 -1.16699 17.5 -3.5s7.5 -7.16602 11.5 -14.499l148 -261c3.33301 -6.66699 6 -10 8 -10c3.33301 0 6.33301 3 9 9l147 262c3.33301 7.33301 7 12.166 11 14.499
s10 3.5 18 3.5h118c10 0 15 -3.66699 15 -11z" />
    <glyph glyph-name="brokenbar" unicode="&#xa6;" horiz-adv-x="251" 
d="M92 429c-8 0 -13.667 1.83301 -17 5.5s-5 10.167 -5 19.5v372c0 8 1.5 13.5 4.5 16.5s7.83301 4.5 14.5 4.5h74c12.667 0 19 -5.33301 19 -16v-387c0 -10 -5.66699 -15 -17 -15h-73zM92 -165c-8 0 -13.667 2.00098 -17 6.00098s-5 10.333 -5 19v373
c0 7.33301 1.5 12.5 4.5 15.5s7.83301 4.5 14.5 4.5h74c12.667 0 19 -5.33301 19 -16v-387c0 -4.66699 -1.5 -8.33398 -4.5 -11.001s-7.16699 -4 -12.5 -4h-73z" />
    <glyph glyph-name="section" unicode="&#xa7;" horiz-adv-x="506" 
d="M460 161c14 -20.667 21 -45.0029 21 -73.0029c0 -50 -19.667 -90.5 -59 -121.5s-94.333 -46.5 -165 -46.5c-54.667 0 -102 9.5 -142 28.5s-68.333 42.833 -85 71.5c-3.33301 6 -5 11.333 -5 16c0 4 1.66699 6.66699 5 8l72 36c2 1.33301 4.66699 2 8 2
c4 0 9.33301 -2.66699 16 -8c15.333 -18.667 33 -33.5 53 -44.5s45 -16.5 75 -16.5c27.333 0 49.333 4.66699 66 14s25 23 25 41c0 14 -5.83301 26.667 -17.5 38s-32.167 22.333 -61.5 33l-78 29c-56 21.333 -96.167 44.5 -120.5 69.5s-36.5 56.833 -36.5 95.5
c0 30.667 8 57.5 24 80.5s38 40.833 66 53.5c-30.667 18 -52.167 37 -64.5 57s-18.5 42.667 -18.5 68c0 30 8.5 57.167 25.5 81.5s41.167 43.5 72.5 57.5s68 21 110 21c47.333 0 89.5 -9.16699 126.5 -27.5s63.5 -40.833 79.5 -67.5c3.33301 -6 5 -11 5 -15
s-1.66699 -7 -5 -9l-71 -35c-2 -1.33301 -5 -2 -9 -2s-9.33301 2.66699 -16 8c-32.667 36.667 -67.667 55 -105 55c-23.333 0 -41.833 -4.66699 -55.5 -14s-20.5 -21.666 -20.5 -36.999c0 -11.333 4.33301 -21.333 13 -30s24 -17.667 46 -27l76 -29
c58 -22 99.833 -46.167 125.5 -72.5s38.5 -59.166 38.5 -98.499c0 -57.333 -27.333 -101.666 -82 -132.999c31.333 -17.333 54 -36.333 68 -57zM331.5 280.497c11.667 11 17.499 25.1689 17.499 42.502c0 16 -5.16699 30.167 -15.5 42.5s-31.166 24.5 -62.499 36.5l-45 18
c-21.333 -2 -38.5 -9.33301 -51.5 -22s-19.5 -27 -19.5 -43c0 -14.667 5.16699 -26.834 15.5 -36.501s31.5 -20.834 63.5 -33.501l50 -20c20 -0.666992 35.833 4.5 47.5 15.5z" />
    <glyph glyph-name="dieresis" unicode="&#xa8;" horiz-adv-x="359" 
d="M146 632c0 -7.33301 -1.83203 -12.5 -5.49902 -15.5s-9.83398 -4.5 -18.501 -4.5h-93c-7.33301 0 -12.333 1.5 -15 4.5s-4 7.5 -4 13.5v95c0 11.333 4.66699 17 14 17h108c9.33301 0 14 -5.33301 14 -16v-94zM349.001 632c0 -7.33301 -1.83203 -12.5 -5.49902 -15.5
s-9.83398 -4.5 -18.501 -4.5h-93c-7.33301 0 -12.333 1.5 -15 4.5s-4 7.5 -4 13.5v95c0 11.333 4.66699 17 14 17h108c9.33301 0 14 -5.33301 14 -16v-94z" />
    <glyph glyph-name="copyright" unicode="&#xa9;" horiz-adv-x="830" 
d="M223.5 41c-58.333 34 -104.5 80.167 -138.5 138.5s-51 122.166 -51 191.499c0 68.667 17 132.167 51 190.5s80.167 104.666 138.5 138.999s122.166 51.5 191.499 51.5c68.667 0 132.167 -17.167 190.5 -51.5s104.666 -80.666 138.999 -138.999s51.5 -121.833 51.5 -190.5
c0 -69.333 -17.167 -133.166 -51.5 -191.499s-80.666 -104.5 -138.999 -138.5s-121.833 -51 -190.5 -51c-69.333 0 -133.166 17 -191.499 51zM563.5 111.5c43.667 24.333 77.835 58.833 102.502 103.5s37 96.667 37 156c0 58.667 -12.333 110.5 -37 155.5
s-58.834 79.833 -102.501 104.5s-93.167 37 -148.5 37c-56 0 -105.833 -12.333 -149.5 -37s-77.667 -59.5 -102 -104.5s-36.5 -96.833 -36.5 -155.5c0 -59.333 12.167 -111.333 36.5 -156s58.166 -79.167 101.499 -103.5s93.333 -36.5 150 -36.5
c55.333 0 104.833 12.167 148.5 36.5zM531.001 550.5c30 -23.667 50.665 -51.834 61.998 -84.501c0.666992 -1.33301 1 -3.33301 1 -6c0 -5.33301 -3.66699 -8.66602 -11 -9.99902l-83 -8h-3c-3.33301 0 -6 3 -8 9c-7.33301 16.667 -16 29.834 -26 39.501
s-23.667 14.5 -41 14.5c-26.667 0 -47.667 -11.167 -63 -33.5s-23 -54.833 -23 -97.5c0 -44.667 8.16699 -78.167 24.5 -100.5s38.833 -33.5 67.5 -33.5c20.667 0 37.834 5.66699 51.501 17s26.5 27.666 38.5 48.999c2 4 6.66699 5 14 3l57 -14
c3.33301 -0.666992 5.33301 -2 6 -4s0.333984 -5.33301 -0.999023 -10c-10.667 -30 -30.667 -57.667 -60 -83s-68 -38 -116 -38c-39.333 0 -74.5 9 -105.5 27s-55.333 43 -73 75s-26.5 68.667 -26.5 110s8.83301 78.333 26.5 111s42 58 73 76s66.167 27 105.5 27
c45.333 0 83 -11.833 113 -35.5z" />
    <glyph glyph-name="ordfeminine" unicode="&#xaa;" horiz-adv-x="392" 
d="M300.5 723.5c22.333 -17.667 33.5029 -43.835 33.5029 -78.502v-171c0 -15.333 2.66699 -30.666 8 -45.999l1 -4c0 -7.33301 -8.33301 -11 -25 -11h-60c-5.33301 0 -8.83301 1 -10.5 3s-2.83398 5.33301 -3.50098 10l-3 14c-1.33301 3.33301 -2.66602 5 -3.99902 5
c-2 0 -5.66699 -1.66699 -11 -5c-16.667 -12 -31.667 -20.5 -45 -25.5s-28.666 -7.5 -45.999 -7.5c-34 0 -60.5 8.66699 -79.5 26s-28.5 40.333 -28.5 69c0 33.333 14.667 59.833 44 79.5s72.666 31.167 129.999 34.5l27 3c8 0 12 3.33301 12 10v11c0 32 -17.667 48 -53 48
c-28 0 -49 -11.667 -63 -35c-0.666992 -3.33301 -2 -5.5 -4 -6.5s-5.33301 -0.833008 -10 0.5l-65 15c-2 0.666992 -3.33301 2.83398 -4 6.50098s-0.333984 6.83398 0.999023 9.50098c12.667 24.667 30.167 43 52.5 55s54.166 18 95.499 18
c51.333 -0.666992 88.166 -9.83398 110.499 -27.501zM137.503 479.999c9 -7.33301 21.167 -11.002 36.5 -11.002c19.333 0 36 6 50 18c10.667 8.66699 16 18.334 16 29.001v39c0 8 -4 11.667 -12 11l-24 -2c-22.667 -2 -41.667 -8 -57 -18s-23 -22.667 -23 -38
c0 -11.333 4.5 -20.666 13.5 -27.999z" />
    <glyph glyph-name="guillemotleft" unicode="&#xab;" horiz-adv-x="487" 
d="M239 76l1 -4.00098c0 -4.66699 -4.66699 -7 -14 -7h-56c-6 0 -10.333 2.66699 -13 8l-105 166c-4 6 -6 12 -6 18s1.66699 11.667 5 17l106 176c3.33301 5.33301 8 8 14 8h58c4 0 7 -1.33301 9 -4s2.33301 -6 1 -10l-74 -176c-1.33301 -5.33301 -2 -9.33301 -2 -12
c0 -1.33301 0.666992 -4.66602 2 -9.99902zM436 75.999l1 -4.00098c0 -4.66699 -5 -7 -15 -7h-55c-2.66699 0 -5.33398 0.833008 -8.00098 2.5s-4.66699 3.5 -6 5.5l-105 166c-4 6 -6 12 -6 18s1.66699 11.667 5 17l106 176c2.66699 3.33301 4.83398 5.5 6.50098 6.5
s4.16699 1.5 7.5 1.5h58c4 0 7.16699 -1.33301 9.5 -4s2.5 -6 0.5 -10l-74 -176c-1.33301 -5.33301 -2 -9.33301 -2 -12c0 -1.33301 0.666992 -4.66602 2 -9.99902z" />
    <glyph glyph-name="logicalnot" unicode="&#xac;" horiz-adv-x="583" 
d="M532 424.5c2.66699 -3 4 -6.83398 4 -11.501v-230c0 -7.33301 -1.83301 -12.666 -5.5 -15.999s-9.83398 -5 -18.501 -5h-82c-12.667 0 -19 6 -19 18v138l-342 -1c-7.33301 0 -12.5 1.66699 -15.5 5s-4.5 8.33301 -4.5 15v73c0 12.667 5 19 15 19h457
c4.66699 0 8.33398 -1.5 11.001 -4.5z" />
    <glyph glyph-name="uni00AD" unicode="&#xad;" horiz-adv-x="380" 
d="M331 230c0 -14.667 -8.66797 -21.999 -26.001 -21.999h-235c-8 0 -13.5 1.5 -16.5 4.5s-4.5 8.16699 -4.5 15.5v73c0 12 5 18 15 18h252c4.66699 0 8.33398 -1.33301 11.001 -4s4 -6.33398 4 -11.001v-74z" />
    <glyph glyph-name="registered" unicode="&#xae;" horiz-adv-x="545" 
d="M153 307c-36.667 21.333 -65.6699 50.166 -87.0029 86.499s-32 76.166 -32 119.499s10.667 83.333 32 120s50.333 65.667 87 87s76.667 32 120 32c42.667 0 82.334 -10.667 119.001 -32s65.667 -50.333 87 -87s32 -76.667 32 -120s-10.667 -83.166 -32 -119.499
s-50.166 -65.166 -86.499 -86.499s-76.166 -32 -119.499 -32s-83.333 10.667 -120 32zM397.997 384c31.333 32 47 75 47 129c0 53.333 -15.833 96.333 -47.5 129s-73.167 49 -124.5 49c-52.667 0 -94.667 -16.333 -126 -49s-47 -75.667 -47 -129c0 -54 15.667 -97 47 -129
s73.333 -48 126 -48c52 0 93.667 16 125 48zM373.497 396.5c-1 -1.66699 -2.50098 -2.50098 -4.50098 -2.50098h-51c-4 0 -6.66699 2 -8 6l-32 92c-2 2.66699 -5 4 -9 4h-29c-2.66699 0 -4 -1.33301 -4 -4v-91c0 -4.66699 -3 -7 -9 -7h-44c-4.66699 0 -7 2 -7 6v224
c0 4 1.66699 6 5 6h106c28.667 0 51 -5.5 67 -16.5s24 -26.833 24 -47.5c0 -15.333 -4.16699 -28.166 -12.5 -38.499s-18.833 -17.833 -31.5 -22.5c-1.33301 -1.33301 -1.66602 -3 -0.999023 -5l41 -98c0.666992 -2 0.5 -3.83301 -0.5 -5.5zM306.996 544.499
c6 4.33301 8.99902 10.5 8.99902 18.5c0 7.33301 -3 13.333 -9 18s-14.333 7 -25 7h-40h-3c-1.33301 0 -2.16602 -0.5 -2.49902 -1.5s-0.5 -2.16699 -0.5 -3.5v-39c0 -4 1.33301 -6 4 -6h43c10 0 18 2.16699 24 6.5z" />
    <glyph glyph-name="macron" unicode="&#xaf;" horiz-adv-x="385" 
d="M375 657c0 -12.667 -7.66602 -19 -22.999 -19h-324c-6.66699 0 -11.334 1.5 -14.001 4.5s-4 7.5 -4 13.5v64c0 10.667 4.33301 16 13 16h339c4 0 7.16699 -1.33301 9.5 -4s3.5 -6 3.5 -10v-65z" />
    <glyph glyph-name="degree" unicode="&#xb0;" horiz-adv-x="464" 
d="M382.5 595c-15 -26 -35.667 -46.333 -62 -61s-55.833 -22 -88.5 -22s-62.167 7.33301 -88.5 22s-47 35 -62 61s-22.5 55.667 -22.5 89s7.5 63.166 22.5 89.499s35.667 46.833 62 61.5s55.833 22 88.5 22s62.167 -7.33301 88.5 -22s47 -35.167 62 -61.5
s22.5 -56.166 22.5 -89.499s-7.5 -63 -22.5 -89zM290.5 744.5c-15 15.667 -35.167 23.5 -60.5 23.5c-24.667 0 -44.5 -7.66699 -59.5 -23s-22.5 -35.333 -22.5 -60c0 -26 7.5 -47 22.5 -63s35.167 -24 60.5 -24c24.667 0 44.5 7.83301 59.5 23.5s22.5 36.167 22.5 61.5
s-7.5 45.833 -22.5 61.5z" />
    <glyph glyph-name="plusminus" unicode="&#xb1;" horiz-adv-x="583" 
d="M532 512.5c2.66699 -3 3.99805 -6.83203 3.99805 -11.499v-73c0 -8 -2.16699 -13.833 -6.5 -17.5s-11.166 -5.5 -20.499 -5.5h-161v-172c0 -4.66699 -1.5 -8.33398 -4.5 -11.001s-6.83301 -4 -11.5 -4h-73c-8 0 -13.667 2 -17 6s-5 10.667 -5 20v161h-168
c-8 0 -13.333 1.5 -16 4.5s-4 8.16699 -4 15.5v73c0 12.667 5 19 15 19h173v167c0 8 1.5 13.5 4.5 16.5s8.16699 4.5 15.5 4.5h73c12 0 18 -5 18 -15v-173h173c4.66699 0 8.33398 -1.5 11.001 -4.5zM531.998 141.501c2.66699 -3 3.99805 -6.83301 3.99805 -11.5v-73
c0 -8 -2.16699 -13.667 -6.5 -17s-11.166 -5 -20.499 -5h-440c-8 0 -13.333 1.5 -16 4.5s-4 7.83301 -4 14.5v74c0 12 5 18 15 18h457c4.66699 0 8.33398 -1.5 11.001 -4.5z" />
    <glyph glyph-name="uni00B2" unicode="&#xb2;" horiz-adv-x="452" 
d="M187 586c40 34.667 66.333 60.332 79 76.999s19 34 19 52c0 18.667 -6.66699 33.667 -20 45s-30 17 -50 17c-18 0 -34.5 -5.16699 -49.5 -15.5s-29.167 -27.166 -42.5 -50.499c-1.33301 -3.33301 -4 -5 -8 -5c-2.66699 0 -5.66699 1 -9 3l-56 28
c-4.66699 2.66699 -7 6.66699 -7 12c0 3.33301 1 6.33301 3 9c40.667 66 99 99 175 99c51.333 0 92.666 -12.667 123.999 -38s47 -60 47 -104c0 -25.333 -6.83301 -48.833 -20.5 -70.5s-37.167 -45.5 -70.5 -71.5l-116 -91c-7.33301 -4.66699 -6.33301 -7 3 -7h196
c8 0 12 -3.33301 12 -10v-70c0 -7.33301 -4.33301 -11 -13 -11h-327c-5.33301 0 -9.16602 1 -11.499 3s-3.5 5.33301 -3.5 10v49c0 3.33301 1.83301 7.33301 5.5 12s11.5 12 23.5 22z" />
    <glyph glyph-name="uni00B3" unicode="&#xb3;" horiz-adv-x="467" 
d="M66 784c0 2.66699 1 5.33105 3 7.99805c16.667 20 39.667 35.833 69 47.5s60.666 17.5 93.999 17.5c54 0 96.833 -11.167 128.5 -33.5s47.5 -51.833 47.5 -88.5c0 -20.667 -6.5 -40 -19.5 -58s-31.167 -30.667 -54.5 -38c-5.33301 -2 -8 -4 -8 -6s2.33301 -3.66699 7 -5
c26.667 -8.66699 48.167 -22.667 64.5 -42s24.5 -41.666 24.5 -66.999c0 -45.333 -16.5 -80.166 -49.5 -104.499s-82.5 -36.5 -148.5 -36.5c-36 0 -69.667 7 -101 21s-55.666 33 -72.999 57c-2 3.33301 -3 6 -3 8c0 4 2.33301 7.33301 7 10l49 35
c6 4.66699 10.667 4.66699 14 0c19.333 -20 37.333 -34 54 -42s36.667 -12 60 -12c26 0 46.333 5.66699 61 17s22 26.333 22 45c0 20.667 -8.33301 37 -25 49s-37.334 18.333 -62.001 19l-54 1c-7.33301 0 -11 3 -11 9v59c0 4 3.66699 7 11 9l43 2
c24.667 0.666992 44.834 6.83398 60.501 18.501s23.5 26.5 23.5 44.5c0 15.333 -6.5 28.166 -19.5 38.499s-29.5 15.5 -49.5 15.5c-19.333 0 -37 -3.83301 -53 -11.5s-32.333 -19.5 -49 -35.5c-2.66699 -2.66699 -5 -4 -7 -4s-4.33301 1.33301 -7 4l-46 43c-2 2 -3 4 -3 6z
" />
    <glyph glyph-name="acute" unicode="&#xb4;" horiz-adv-x="306" 
d="M294 675c1.33301 -4 2 -7.33398 2 -10.001c0 -7.33301 -5.66699 -13 -17 -17l-231 -62c-2.66699 -0.666992 -5.66699 -1 -9 -1c-4 0 -7 0.833008 -9 2.5s-4 4.83398 -6 9.50098l-12 35l-2 8c0 6 2.66699 10 8 12l236 99c1.33301 0.666992 3 1 5 1c6 0 10 -3.33301 12 -10
z" />
    <glyph glyph-name="paragraph" unicode="&#xb6;" horiz-adv-x="603" 
d="M499 655c-6.66699 0 -9.99805 -3.66895 -9.99805 -11.002v-715c0 -9.33301 -4 -14 -12 -14h-67c-4.66699 0 -8.33398 1.33301 -11.001 4s-4 6 -4 10v716c0 6.66699 -3.66699 10 -11 10h-38c-6.66699 0 -10 -3.66699 -10 -11v-715c0 -4 -1.16699 -7.33301 -3.5 -10
s-5.5 -4 -9.5 -4h-69c-8.66699 0 -13 4.66699 -13 14v371c0 4.66699 -2.66699 7.33398 -8 8.00098c-38 2.66699 -72.333 12.834 -103 30.501s-54.834 42.167 -72.501 73.5s-26.5 68 -26.5 110c0 40.667 9.33301 77.667 28 111s46 59.833 82 79.5s79 29.5 129 29.5h271
c4 0 7 -0.666992 9 -2s3 -4 3 -8v-67c0 -4 -1 -6.66699 -3 -8s-5 -2 -9 -2h-42z" />
    <glyph glyph-name="periodcentered" unicode="&#xb7;" horiz-adv-x="248" 
d="M200 320c0 -8 -1.83203 -13.667 -5.49902 -17s-9.83398 -5 -18.501 -5h-112c-7.33301 0 -12.5 1.5 -15.5 4.5s-4.5 7.83301 -4.5 14.5v115c0 11.333 4.66699 17 14 17h129c8.66699 0 13 -5 13 -15v-114z" />
    <glyph glyph-name="cedilla" unicode="&#xb8;" horiz-adv-x="261" 
d="M215 -196c-24 -15.333 -53.3311 -23 -87.998 -23c-45.333 0 -82.333 8 -111 24c-6 3.33301 -7.66699 7.66602 -5 12.999l14 35c2 4.66699 5.66699 6 11 4c24.667 -14.667 48.667 -22 72 -22c16 0 28.5 2.83301 37.5 8.5s13.5 13.5 13.5 23.5
c0 13.333 -6.83301 23.5 -20.5 30.5s-35.834 10.5 -66.501 10.5c-8.66699 0 -11.334 3.33301 -8.00098 10l37 87h68l-21 -52c-2 -4.66699 -0.333008 -7 5 -7c33.333 -0.666992 58 -9 74 -25s24 -34.667 24 -56c0 -25.333 -12 -45.666 -36 -60.999z" />
    <glyph glyph-name="uni00B9" unicode="&#xb9;" horiz-adv-x="367" 
d="M305 452v-61.002c0 -7.33301 -4.33301 -11 -13 -11h-248c-8 0 -12 3.66699 -12 11v61c0 6 3.33301 9 10 9h66c4.66699 0 7 1.66699 7 5v264c0 6.66699 -3 9 -9 7l-61 -19h-3c-7.33301 0 -11 4 -11 12v42c0 4.66699 0.666992 7.83398 2 9.50098s4 3.5 8 5.5l105 52
c10 5.33301 18.667 8 26 8h43c2.66699 0 5 -1.16699 7 -3.5s3 -5.16602 3 -8.49902v-368c0 -4 2 -6 6 -6h62c8 0 12 -3 12 -9z" />
    <glyph glyph-name="ordmasculine" unicode="&#xba;" horiz-adv-x="399" 
d="M321.5 703.5c31 -32.333 46.501 -74.167 46.501 -125.5c0 -50 -15.5 -90.833 -46.5 -122.5s-71.833 -47.5 -122.5 -47.5s-91.334 15.833 -122.001 47.5s-46 72.5 -46 122.5c0 34 7.16699 64.167 21.5 90.5s34.333 46.833 60 61.5s54.5 22 86.5 22
c50.667 0 91.5 -16.167 122.5 -48.5zM133.001 580.999c0 -71.333 22 -107 66 -107c44.667 0 67 35.667 67 107c0 70 -22.333 105 -67 105c-44 0 -66 -35 -66 -105z" />
    <glyph glyph-name="guillemotright" unicode="&#xbb;" horiz-adv-x="486" 
d="M127 257c0 4.66699 -0.667969 8.33301 -2.00098 11l-74 176l-1 4c0 6.66699 3.66699 10 11 10h58c6 0 10.667 -2.66699 14 -8l107 -176c2.66699 -4.66699 4 -10.334 4 -17.001s-1.66699 -12.667 -5 -18l-106 -166c-2.66699 -5.33301 -7 -8 -13 -8h-56
c-11.333 0 -15.666 3.66699 -12.999 11l74 170c1.33301 2.66699 2 6.33398 2 11.001zM322.999 256.999c0 4.66699 -0.667969 8.33203 -2.00098 10.999l-73 176c-0.666992 1.33301 -1 3 -1 5c0 6 3.66699 9 11 9h57c4 0 6.83301 -0.5 8.5 -1.5s3.5 -3.16699 5.5 -6.5
l107 -176c3.33301 -5.33301 5 -11 5 -17s-2 -12 -6 -18l-105 -166c-4 -5.33301 -8.66699 -8 -14 -8h-56c-11.333 0 -15.666 3.66699 -12.999 11l74 170c1.33301 2.66699 2 6.33398 2 11.001z" />
    <glyph glyph-name="onequarter" unicode="&#xbc;" horiz-adv-x="941" 
d="M271 348v-61.002c0 -7.33301 -4.33301 -11 -13 -11h-248c-8 0 -12 3.66699 -12 11v61c0 6 3.33301 9 10 9h66c4.66699 0 7 1.66699 7 5v264c0 6.66699 -3 9 -9 7l-61 -19h-3c-7.33301 0 -11 4 -11 12v42c0 4.66699 0.666992 7.83398 2 9.50098s4 3.5 8 5.5l105 52
c10 5.33301 18.667 8 26 8h43c2.66699 0 5 -1.16699 7 -3.5s3 -5.16602 3 -8.49902v-368c0 -4 2 -6 6 -6h62c8 0 12 -3 12 -9zM221 6.99805c-4.66699 -7.33301 -13 -11 -25 -11l-42 1c-10.667 0 -16 4.66699 -16 14c0 4 1.66699 8.66699 5 14l475 714
c3.33301 4.66699 6.5 7.66699 9.5 9s7.5 2 13.5 2h53c8 0 12 -2.66699 12 -8c0 -0.666992 -1.33301 -3.66699 -4 -9zM739.5 464.998c3 1.33301 7.83301 2 14.5 2h79c6.66699 0 10 -4 10 -12v-263c0 -4.66699 2 -7 6 -7h52c8 0 12 -3.33301 12 -10v-54
c0 -7.33301 -4.33301 -11 -13 -11h-50c-4.66699 0 -7 -2.33301 -7 -7v-89c0 -9.33301 -5.66699 -14 -17 -14h-81c-9.33301 0 -14 4.33301 -14 13v91c0 4 -2.33301 6 -7 6h-189c-8.66699 0 -13 3.66699 -13 11v53c0 4 1.5 8.33301 4.5 13s6.83301 10.334 11.5 17.001l190 251
c4.66699 5.33301 8.5 8.66602 11.5 9.99902zM726 184.998c4 0 5.99902 1.33301 5.99902 4v157c0 6 -0.666992 9 -2 9s-3.66602 -2.33301 -6.99902 -7l-112 -155c-4 -5.33301 -2.66699 -8 4 -8h111z" />
    <glyph glyph-name="onehalf" unicode="&#xbd;" horiz-adv-x="992" 
d="M271 348v-61.002c0 -7.33301 -4.33301 -11 -13 -11h-248c-8 0 -12 3.66699 -12 11v61c0 6 3.33301 9 10 9h66c4.66699 0 7 1.66699 7 5v264c0 6.66699 -3 9 -9 7l-61 -19h-3c-7.33301 0 -11 4 -11 12v42c0 4.66699 0.666992 7.83398 2 9.50098s4 3.5 8 5.5l105 52
c10 5.33301 18.667 8 26 8h43c2.66699 0 5 -1.16699 7 -3.5s3 -5.16602 3 -8.49902v-368c0 -4 2 -6 6 -6h62c8 0 12 -3 12 -9zM287 6.99805c-4.66699 -7.33301 -13 -11 -25 -11l-42 1c-10.667 0 -16 4.66699 -16 14c0 4 1.66699 8.66699 5 14l475 714
c3.33301 4.66699 6.5 7.66699 9.5 9s7.5 2 13.5 2h53c8 0 12 -2.66699 12 -8c0 -0.666992 -1.33301 -3.66699 -4 -9zM737 201.998c40 34.667 66.333 60.332 79 76.999s19 34 19 52c0 18.667 -6.66699 33.667 -20 45s-30 17 -50 17c-18 0 -34.5 -5.16699 -49.5 -15.5
s-29.167 -27.166 -42.5 -50.499c-1.33301 -3.33301 -4 -5 -8 -5c-2.66699 0 -5.66699 1 -9 3l-56 28c-4.66699 2.66699 -7 6.66699 -7 12c0 3.33301 1 6.33301 3 9c40.667 66 99 99 175 99c51.333 0 92.666 -12.667 123.999 -38s47 -60 47 -104
c0 -25.333 -6.83301 -48.833 -20.5 -70.5s-37.167 -45.5 -70.5 -71.5l-116 -91c-6.66699 -4.66699 -5.66699 -7 3 -7h196c8 0 12 -3.33301 12 -10v-70c0 -7.33301 -4.33301 -11 -13 -11h-327c-5.33301 0 -9.16602 1 -11.499 3s-3.5 5.33301 -3.5 10v49
c0 3.33301 1.83301 7.33301 5.5 12s11.5 12 23.5 22z" />
    <glyph glyph-name="threequarters" unicode="&#xbe;" horiz-adv-x="1011" 
d="M32 679c0 2.66699 1 5.33105 3 7.99805c16.667 20 39.667 35.833 69 47.5s60.666 17.5 93.999 17.5c54 0 96.833 -11.167 128.5 -33.5s47.5 -51.833 47.5 -88.5c0 -20.667 -6.5 -40 -19.5 -58s-31.167 -30.667 -54.5 -38c-5.33301 -2 -8 -4 -8 -6s2.33301 -3.66699 7 -5
c26.667 -8.66699 48.167 -22.667 64.5 -42s24.5 -41.666 24.5 -66.999c0 -45.333 -16.5 -80.166 -49.5 -104.499s-82.5 -36.5 -148.5 -36.5c-36 0 -69.667 7 -101 21s-55.666 33 -72.999 57c-2 3.33301 -3 6 -3 8c0 4 2.33301 7.33301 7 10l49 35
c6 4.66699 10.667 4.66699 14 0c19.333 -20 37.333 -34 54 -42s36.667 -12 60 -12c26 0 46.333 5.66699 61 17s22 26.333 22 45c0 20.667 -8.33301 37 -25 49s-37.334 18.333 -62.001 19l-54 1c-7.33301 0 -11 3 -11 9v59c0 4 3.66699 7 11 9l43 2
c24.667 0.666992 44.834 6.83398 60.501 18.501s23.5 26.5 23.5 44.5c0 15.333 -6.5 28.166 -19.5 38.499s-29.5 15.5 -49.5 15.5c-19.333 0 -37 -3.83301 -53 -11.5s-32.333 -19.5 -49 -35.5c-2.66699 -2.66699 -5 -4 -7 -4s-4.33301 1.33301 -7 4l-46 43c-2 2 -3 4 -3 6z
M321 6.99707c-4.66699 -7.33301 -13 -11 -25 -11l-42 1c-10.667 0 -16 4.66699 -16 14c0 4 1.66699 8.66699 5 14l475 714c3.33301 4.66699 6.5 7.66699 9.5 9s7.5 2 13.5 2h53c8 0 12 -2.66699 12 -8c0 -0.666992 -1.33301 -3.66699 -4 -9zM802.5 464.997
c3 1.33301 7.83301 2 14.5 2h79c6.66699 0 10 -4 10 -12v-263c0 -4.66699 2 -7 6 -7h52c8 0 12 -3.33301 12 -10v-54c0 -7.33301 -4.33301 -11 -13 -11h-50c-4.66699 0 -7 -2.33301 -7 -7v-89c0 -9.33301 -5.66699 -14 -17 -14h-81c-9.33301 0 -14 4.33301 -14 13v91
c0 4 -2.33301 6 -7 6h-189c-8.66699 0 -13 3.66699 -13 11v53c0 4 1.5 8.33301 4.5 13s6.83301 10.334 11.5 17.001l190 251c4.66699 5.33301 8.5 8.66602 11.5 9.99902zM789 184.997c4 0 5.99902 1.33301 5.99902 4v157c0 6 -0.666992 9 -2 9
s-3.66602 -2.33301 -6.99902 -7l-112 -155c-4 -5.33301 -2.66699 -8 4 -8h111z" />
    <glyph glyph-name="questiondown" unicode="&#xbf;" horiz-adv-x="533" 
d="M200 506c0 8.66699 2.16797 14.832 6.50098 18.499s11.166 5.5 20.499 5.5h119c8 0 13.5 -1.66699 16.5 -5s4.5 -8.66602 4.5 -15.999v-124c0 -12 -5 -18 -15 -18h-138c-9.33301 0 -14 5.33301 -14 16v123zM526.001 -14.002c0 -2 -0.670898 -5.00098 -2.00391 -9.00098
c-21.333 -49.333 -53.833 -87 -97.5 -113s-96.167 -39 -157.5 -39c-52 0 -96.5 7.66699 -133.5 23s-64.833 36.333 -83.5 63s-28 56.334 -28 89.001c0 25.333 4.83301 47.166 14.5 65.499s21.334 33.833 35.001 46.5s32.167 27.334 55.5 44.001
c31.333 22.667 54.5 42.667 69.5 60s22.5 39.666 22.5 66.999c0 5.33301 2 9.83301 6 13.5s8.66699 5.5 14 5.5h82c14 0 21 -7.66699 21 -23c0 -27.333 -4.66699 -51.333 -14 -72s-20.666 -38.167 -33.999 -52.5s-30.666 -30.166 -51.999 -47.499
c-23.333 -20 -40.5 -37 -51.5 -51s-16.5 -30 -16.5 -48c0 -22 9 -40 27 -54s40.333 -21 67 -21c26 0 50.833 7.5 74.5 22.5s40.834 34.167 51.501 57.5c2.66699 6.66699 6.66699 10 12 10c3.33301 0 6 -0.333008 8 -1l100 -23c6.66699 -2 10 -6.33301 10 -13z" />
    <glyph glyph-name="Agrave" unicode="&#xc0;" horiz-adv-x="771" 
d="M33 17c0 5.33301 0.666992 9.33203 2 11.999l249 693c2.66699 7.33301 5.83398 12.5 9.50098 15.5s9.16699 4.5 16.5 4.5h150c7.33301 0 13.666 -2 18.999 -6s9 -9.33301 11 -16l247 -693c1.33301 -4 2 -7 2 -9c0 -5.33301 -1.16699 -9.66602 -3.5 -12.999
s-5.83301 -5 -10.5 -5h-147c-10 0 -16.333 4.66699 -19 14l-52 146c-1.33301 4 -2.83301 6.83301 -4.5 8.5s-4.5 2.5 -8.5 2.5h-244c-6.66699 0 -11 -3.33301 -13 -10l-53 -148c-4 -8.66699 -11 -13 -21 -13h-115c-10 0 -15 5.66699 -15 17zM453 303.999
c6.66699 0 10 2.66699 10 8c0 4 -0.333008 7 -1 9l-84 234c-2 4 -4.33301 6 -7 6c-2 0 -4 -2.33301 -6 -7l-85 -233c-1.33301 -4 -2 -7 -2 -9c0 -5.33301 3.66699 -8 11 -8h164zM266 962.499c3.33301 1.66699 7.00195 1.83301 11.002 0.5l235 -99c5.33301 -2 8 -6 8 -12
c0 -3.33301 -0.666992 -6 -2 -8l-12 -35c-2.66699 -8 -7.33398 -12 -14.001 -12c-4 0 -7 0.333008 -9 1l-232 62c-11.333 4 -17 9.66699 -17 17c0 2.66699 0.666992 6 2 10l23 67c1.33301 4 3.66602 6.83301 6.99902 8.5z" />
    <glyph glyph-name="Aacute" unicode="&#xc1;" horiz-adv-x="771" 
d="M33 17c0 5.33301 0.666992 9.33203 2 11.999l249 693c2.66699 7.33301 5.83398 12.5 9.50098 15.5s9.16699 4.5 16.5 4.5h150c7.33301 0 13.666 -2 18.999 -6s9 -9.33301 11 -16l247 -693c1.33301 -4 2 -7 2 -9c0 -5.33301 -1.16699 -9.66602 -3.5 -12.999
s-5.83301 -5 -10.5 -5h-147c-10 0 -16.333 4.66699 -19 14l-52 146c-1.33301 4 -2.83301 6.83301 -4.5 8.5s-4.5 2.5 -8.5 2.5h-244c-6.66699 0 -11 -3.33301 -13 -10l-53 -148c-4 -8.66699 -11 -13 -21 -13h-115c-10 0 -15 5.66699 -15 17zM453 303.999
c6.66699 0 10 2.66699 10 8c0 4 -0.333008 7 -1 9l-84 234c-2 4 -4.33301 6 -7 6c-2 0 -4 -2.33301 -6 -7l-85 -233c-1.33301 -4 -2 -7 -2 -9c0 -5.33301 3.66699 -8 11 -8h164zM523 886.999c1.33301 -4 2 -7.33398 2 -10.001c0 -7.33301 -5.66699 -13 -17 -17l-231 -62
c-2.66699 -0.666992 -5.66699 -1 -9 -1c-4 0 -7 0.833008 -9 2.5s-4 4.83398 -6 9.50098l-12 35l-2 8c0 6 2.66699 10 8 12l236 99c1.33301 0.666992 3 1 5 1c6 0 10 -3.33301 12 -10z" />
    <glyph glyph-name="Acircumflex" unicode="&#xc2;" horiz-adv-x="771" 
d="M33 17c0 5.33301 0.666992 9.33203 2 11.999l249 693c2.66699 7.33301 5.83398 12.5 9.50098 15.5s9.16699 4.5 16.5 4.5h150c7.33301 0 13.666 -2 18.999 -6s9 -9.33301 11 -16l247 -693c1.33301 -4 2 -7 2 -9c0 -5.33301 -1.16699 -9.66602 -3.5 -12.999
s-5.83301 -5 -10.5 -5h-147c-10 0 -16.333 4.66699 -19 14l-52 146c-1.33301 4 -2.83301 6.83301 -4.5 8.5s-4.5 2.5 -8.5 2.5h-244c-6.66699 0 -11 -3.33301 -13 -10l-53 -148c-4 -8.66699 -11 -13 -21 -13h-115c-10 0 -15 5.66699 -15 17zM453 303.999
c6.66699 0 10 2.66699 10 8c0 4 -0.333008 7 -1 9l-84 234c-2 4 -4.33301 6 -7 6c-2 0 -4 -2.33301 -6 -7l-85 -233c-1.33301 -4 -2 -7 -2 -9c0 -5.33301 3.66699 -8 11 -8h164zM395 881.999c-2.66699 3.33301 -5.33203 6.16699 -7.99902 8.5s-5 3.5 -7 3.5
c-3.33301 0 -8.33301 -4 -15 -12l-50 -53c-4 -4 -7.33301 -6.33301 -10 -7s-7 -1 -13 -1h-81c-6 0 -9 1.66699 -9 5s2 7 6 11l108 112c5.33301 4.66699 10.166 8 14.499 10s10.5 3 18.5 3h72c6 0 10.667 -1 14 -3s7 -5 11 -9l107 -113c5.33301 -5.33301 8 -9.33301 8 -12
s-3.33301 -4 -10 -4h-86c-10.667 0 -18.667 2.66699 -24 8z" />
    <glyph glyph-name="Atilde" unicode="&#xc3;" horiz-adv-x="771" 
d="M33 17c0 5.33301 0.666992 9.33203 2 11.999l249 693c2.66699 7.33301 5.83398 12.5 9.50098 15.5s9.16699 4.5 16.5 4.5h150c7.33301 0 13.666 -2 18.999 -6s9 -9.33301 11 -16l247 -693c1.33301 -4 2 -7 2 -9c0 -5.33301 -1.16699 -9.66602 -3.5 -12.999
s-5.83301 -5 -10.5 -5h-147c-10 0 -16.333 4.66699 -19 14l-52 146c-1.33301 4 -2.83301 6.83301 -4.5 8.5s-4.5 2.5 -8.5 2.5h-244c-6.66699 0 -11 -3.33301 -13 -10l-53 -148c-4 -8.66699 -11 -13 -21 -13h-115c-10 0 -15 5.66699 -15 17zM453 303.999
c6.66699 0 10 2.66699 10 8c0 4 -0.333008 7 -1 9l-84 234c-2 4 -4.33301 6 -7 6c-2 0 -4 -2.33301 -6 -7l-85 -233c-1.33301 -4 -2 -7 -2 -9c0 -5.33301 3.66699 -8 11 -8h164zM458 838.999c-12.667 0 -24.502 1.16797 -35.502 3.50098s-24.833 6.16602 -41.5 11.499
c-15.333 4.66699 -28.166 8.16699 -38.499 10.5s-21.166 3.5 -32.499 3.5c-13.333 0 -24.666 -1.66699 -33.999 -5s-20.333 -9.33301 -33 -18c-4.66699 -3.33301 -8 -5 -10 -5c-4 0 -7 4 -9 12l-14 43c-1.33301 4 -2 7.33301 -2 10c0 4 2.66699 8.66699 8 14
c14 12 27.5 21.167 40.5 27.5s29.167 9.5 48.5 9.5c13.333 0 26.166 -1.33301 38.499 -4s27.833 -7 46.5 -13c30 -10 52.667 -15 68 -15c12.667 0 24.5 2.16699 35.5 6.5s22.167 10.5 33.5 18.5c4 2.66699 7.33301 4 10 4c5.33301 0 9 -3.66699 11 -11l12 -52
c0.666992 -1.33301 1 -3.33301 1 -6c0 -6 -4 -12 -12 -18c-26 -18 -56.333 -27 -91 -27z" />
    <glyph glyph-name="Adieresis" unicode="&#xc4;" horiz-adv-x="771" 
d="M33 17c0 5.33301 0.666992 9.33203 2 11.999l249 693c2.66699 7.33301 5.83398 12.5 9.50098 15.5s9.16699 4.5 16.5 4.5h150c7.33301 0 13.666 -2 18.999 -6s9 -9.33301 11 -16l247 -693c1.33301 -4 2 -7 2 -9c0 -5.33301 -1.16699 -9.66602 -3.5 -12.999
s-5.83301 -5 -10.5 -5h-147c-10 0 -16.333 4.66699 -19 14l-52 146c-1.33301 4 -2.83301 6.83301 -4.5 8.5s-4.5 2.5 -8.5 2.5h-244c-6.66699 0 -11 -3.33301 -13 -10l-53 -148c-4 -8.66699 -11 -13 -21 -13h-115c-10 0 -15 5.66699 -15 17zM453 303.999
c6.66699 0 10 2.66699 10 8c0 4 -0.333008 7 -1 9l-84 234c-2 4 -4.33301 6 -7 6c-2 0 -4 -2.33301 -6 -7l-85 -233c-1.33301 -4 -2 -7 -2 -9c0 -5.33301 3.66699 -8 11 -8h164zM348 843.999c0 -7.33301 -1.83203 -12.5 -5.49902 -15.5s-9.83398 -4.5 -18.501 -4.5h-93
c-7.33301 0 -12.333 1.5 -15 4.5s-4 7.5 -4 13.5v95c0 11.333 4.66699 17 14 17h108c9.33301 0 14 -5.33301 14 -16v-94zM551.001 843.999c0 -7.33301 -1.83203 -12.5 -5.49902 -15.5s-9.83398 -4.5 -18.501 -4.5h-93c-7.33301 0 -12.333 1.5 -15 4.5s-4 7.5 -4 13.5v95
c0 11.333 4.66699 17 14 17h108c9.33301 0 14 -5.33301 14 -16v-94z" />
    <glyph glyph-name="Aring" unicode="&#xc5;" horiz-adv-x="771" 
d="M739 18c0 -5.33301 -1.16797 -9.66895 -3.50098 -13.002s-5.83301 -5 -10.5 -5h-147c-10 0 -16.333 4.66699 -19 14l-52 146c-1.33301 4 -2.83301 6.83301 -4.5 8.5s-4.5 2.5 -8.5 2.5h-244c-6.66699 0 -11 -3.33301 -13 -10l-53 -148c-4 -8.66699 -11 -13 -21 -13h-115
c-10 0 -15 5.66699 -15 17c0 5.33301 0.666992 9.33301 2 12l249 693c2.66699 7.33301 5.83398 12.5 9.50098 15.5s9.16699 4.5 16.5 4.5h38c-23.333 7.33301 -42.333 20.833 -57 40.5s-22 42.5 -22 68.5c0 30 11 55.5 33 76.5s48.333 31.5 79 31.5
c31.333 0 57.833 -10.667 79.5 -32s32.5 -47.333 32.5 -78c0 -25.333 -7.16699 -47.666 -21.5 -66.999s-33.166 -32.666 -56.499 -39.999h45c7.33301 0 13.666 -2 18.999 -6s9 -9.33301 11 -16l247 -693c1.33301 -4 2 -7 2 -9zM343.999 811.997
c10.667 -10.667 22.668 -16 36.001 -16c14 0 26 5.16699 36 15.5s15 22.5 15 36.5c0 14.667 -4.83301 26.834 -14.5 36.501s-21.834 14.5 -36.501 14.5c-14 0 -26.167 -4.83301 -36.5 -14.5s-15.5 -21.834 -15.5 -36.501c0 -13.333 5.33301 -25.333 16 -36zM463 311.997
c0 4 -0.333008 7 -1 9l-84 234c-2 4 -4.33301 6 -7 6c-2 0 -4 -2.33301 -6 -7l-85 -233c-1.33301 -4 -2 -7 -2 -9c0 -5.33301 3.66699 -8 11 -8h164c6.66699 0 10 2.66699 10 8z" />
    <glyph glyph-name="AE" unicode="&#xc6;" horiz-adv-x="1080" 
d="M1042 113v-95c0 -5.33301 -1.66699 -9.66602 -5 -12.999s-8 -5 -14 -5h-497c-8 0 -13.5 1.66699 -16.5 5s-4.5 8.66602 -4.5 15.999v139c0 7.33301 -3.66699 11 -11 11h-216c-8 0 -13.333 -3.33301 -16 -10l-79 -148c-4.66699 -8.66699 -12 -13 -22 -13h-116
c-8 -0 -12 4.33301 -12 13c0 6 1.66699 11.333 5 16l371 693c6 13.333 15.333 20 28 20h579c10 0 15 -5.66699 15 -17l-1 -90c0 -14 -7 -21 -21 -21h-311c-12 0 -18 -5.33301 -18 -16v-145c0 -11.333 5 -17 15 -17h206c10.667 0 16 -5.33301 16 -16v-96
c0 -9.33301 -5 -14 -15 -14h-208c-9.33301 0 -14 -4 -14 -12v-157c0 -5.33301 0.666992 -8.83301 2 -10.5s4.33301 -2.5 9 -2.5h333c12 0 18 -5 18 -15zM505 320l-0.000976562 256.001c-1.33301 13.333 -5.66602 20 -12.999 20s-14 -6.33301 -20 -19l-138 -256
c-2.66699 -4.66699 -4 -8.33398 -4 -11.001c0 -4 3 -6 9 -6h150c10.667 0 16 5.33301 16 16z" />
    <glyph glyph-name="Ccedilla" unicode="&#xc7;" horiz-adv-x="725" 
d="M689 207c-6.66699 -26.667 -20.834 -55.668 -42.501 -87.001s-52.334 -59.5 -92.001 -84.5s-86.834 -39.833 -141.501 -44.5l-15 -38c-2 -4.66699 -0.333008 -7 5 -7c33.333 -0.666992 58 -9 74 -25s24 -34.667 24 -56c0 -25.333 -12 -45.666 -36 -60.999
s-53.333 -23 -88 -23c-45.333 0 -82.333 8 -111 24c-6 3.33301 -7.66699 7.66602 -5 12.999l14 35c2 4.66699 5.66699 6 11 4c24.667 -14.667 48.667 -22 72 -22c16 0 28.5 2.83301 37.5 8.5s13.5 13.5 13.5 23.5c0 13.333 -6.83301 23.5 -20.5 30.5
s-35.834 10.5 -66.501 10.5c-8.66699 0 -11.334 3.33301 -8.00098 10l31 74c-61.333 5.33301 -114.666 24.833 -159.999 58.5s-80.166 78.667 -104.499 135s-36.5 120.166 -36.5 191.499c0 76 13.667 142.333 41 199s66.5 100.167 117.5 130.5s110.833 45.5 179.5 45.5
c50.667 0 97.334 -9.66699 140.001 -29s77.834 -45.666 105.501 -78.999s45.167 -70.666 52.5 -111.999c1.33301 -4.66699 2 -10 2 -16c0 -4 -1 -6.66699 -3 -8s-5 -2.33301 -9 -3l-135 -9c-6 0 -9.83301 1 -11.5 3s-3.16699 6 -4.5 12c-7.33301 36.667 -22 65.667 -44 87
s-51.333 32 -88 32c-106.667 0 -160 -85.333 -160 -256c0 -88.667 13.333 -153.334 40 -194.001s67.334 -61 122.001 -61c40 0 73.833 10 101.5 30s50.167 52.667 67.5 98c2 4.66699 6.33301 7 13 7c4 0 7 -0.333008 9 -1l98 -21c9.33301 -3.33301 13 -11.666 11 -24.999z
" />
    <glyph glyph-name="Egrave" unicode="&#xc8;" horiz-adv-x="654" 
d="M86 742l504 0.000976562c10 0 15 -5.66699 15 -17l-1 -90c0 -14 -7 -21 -21 -21h-319c-12.667 0 -19 -5.33301 -19 -16v-145c0 -11.333 5 -17 15 -17h212c11.333 0 17 -5.33301 17 -16v-96c0 -9.33301 -5.33301 -14 -16 -14h-214c-9.33301 0 -14 -4 -14 -12v-157
c0 -4.66699 0.833008 -8 2.5 -10s4.5 -3 8.5 -3h342c12 0 18 -5 18 -15v-95c0 -12 -6.66699 -18 -20 -18h-504c-8 0 -13.667 1.66699 -17 5s-5 8.66602 -5 15.999v702c0 12.667 5.33301 19 16 19zM223 962.501c3.33301 1.66699 7.00195 1.83301 11.002 0.5l235 -99
c5.33301 -2 8 -6 8 -12c0 -3.33301 -0.666992 -6 -2 -8l-12 -35c-2.66699 -8 -7.33398 -12 -14.001 -12c-4 0 -7 0.333008 -9 1l-232 62c-11.333 4 -17 9.66699 -17 17c0 2.66699 0.666992 6 2 10l23 67c1.33301 4 3.66602 6.83301 6.99902 8.5z" />
    <glyph glyph-name="Eacute" unicode="&#xc9;" horiz-adv-x="654" 
d="M86 742l504 0.000976562c10 0 15 -5.66699 15 -17l-1 -90c0 -14 -7 -21 -21 -21h-319c-12.667 0 -19 -5.33301 -19 -16v-145c0 -11.333 5 -17 15 -17h212c11.333 0 17 -5.33301 17 -16v-96c0 -9.33301 -5.33301 -14 -16 -14h-214c-9.33301 0 -14 -4 -14 -12v-157
c0 -4.66699 0.833008 -8 2.5 -10s4.5 -3 8.5 -3h342c12 0 18 -5 18 -15v-95c0 -12 -6.66699 -18 -20 -18h-504c-8 0 -13.667 1.66699 -17 5s-5 8.66602 -5 15.999v702c0 12.667 5.33301 19 16 19zM480 887.001c1.33301 -4 2 -7.33398 2 -10.001
c0 -7.33301 -5.66699 -13 -17 -17l-231 -62c-2.66699 -0.666992 -5.66699 -1 -9 -1c-4 0 -7 0.833008 -9 2.5s-4 4.83398 -6 9.50098l-12 35l-2 8c0 6 2.66699 10 8 12l236 99c1.33301 0.666992 3 1 5 1c6 0 10 -3.33301 12 -10z" />
    <glyph glyph-name="Ecircumflex" unicode="&#xca;" horiz-adv-x="654" 
d="M86 742l504 0.000976562c10 0 15 -5.66699 15 -17l-1 -90c0 -14 -7 -21 -21 -21h-319c-12.667 0 -19 -5.33301 -19 -16v-145c0 -11.333 5 -17 15 -17h212c11.333 0 17 -5.33301 17 -16v-96c0 -9.33301 -5.33301 -14 -16 -14h-214c-9.33301 0 -14 -4 -14 -12v-157
c0 -4.66699 0.833008 -8 2.5 -10s4.5 -3 8.5 -3h342c12 0 18 -5 18 -15v-95c0 -12 -6.66699 -18 -20 -18h-504c-8 0 -13.667 1.66699 -17 5s-5 8.66602 -5 15.999v702c0 12.667 5.33301 19 16 19zM352 882.001c-2.66699 3.33301 -5.33203 6.16699 -7.99902 8.5
s-5 3.5 -7 3.5c-3.33301 0 -8.33301 -4 -15 -12l-50 -53c-4 -4 -7.33301 -6.33301 -10 -7s-7 -1 -13 -1h-81c-6 0 -9 1.66699 -9 5s2 7 6 11l108 112c5.33301 4.66699 10.166 8 14.499 10s10.5 3 18.5 3h72c6 0 10.667 -1 14 -3s7 -5 11 -9l107 -113
c5.33301 -5.33301 8 -9.33301 8 -12s-3.33301 -4 -10 -4h-86c-10.667 0 -18.667 2.66699 -24 8z" />
    <glyph glyph-name="Edieresis" unicode="&#xcb;" horiz-adv-x="654" 
d="M86 742l504 0.000976562c10 0 15 -5.66699 15 -17l-1 -90c0 -14 -7 -21 -21 -21h-319c-12.667 0 -19 -5.33301 -19 -16v-145c0 -11.333 5 -17 15 -17h212c11.333 0 17 -5.33301 17 -16v-96c0 -9.33301 -5.33301 -14 -16 -14h-214c-9.33301 0 -14 -4 -14 -12v-157
c0 -4.66699 0.833008 -8 2.5 -10s4.5 -3 8.5 -3h342c12 0 18 -5 18 -15v-95c0 -12 -6.66699 -18 -20 -18h-504c-8 0 -13.667 1.66699 -17 5s-5 8.66602 -5 15.999v702c0 12.667 5.33301 19 16 19zM305 844.001c0 -7.33301 -1.83203 -12.5 -5.49902 -15.5
s-9.83398 -4.5 -18.501 -4.5h-93c-7.33301 0 -12.333 1.5 -15 4.5s-4 7.5 -4 13.5v95c0 11.333 4.66699 17 14 17h108c9.33301 0 14 -5.33301 14 -16v-94zM508.001 844.001c0 -7.33301 -1.83203 -12.5 -5.49902 -15.5s-9.83398 -4.5 -18.501 -4.5h-93
c-7.33301 0 -12.333 1.5 -15 4.5s-4 7.5 -4 13.5v95c0 11.333 4.66699 17 14 17h108c9.33301 0 14 -5.33301 14 -16v-94z" />
    <glyph glyph-name="Igrave" unicode="&#xcc;" horiz-adv-x="315" 
d="M229 742c10.667 0 16 -5.99805 16 -17.998v-700c0 -8.66699 -2 -14.834 -6 -18.501s-11 -5.5 -21 -5.5h-126c-8 0 -13.667 1.66699 -17 5s-5 8.66602 -5 15.999v702c0 12.667 5.33301 19 16 19h143zM43 962.502c3.33301 1.66699 7.00195 1.83301 11.002 0.5l235 -99
c5.33301 -2 8 -6 8 -12c0 -3.33301 -0.666992 -6 -2 -8l-12 -35c-2.66699 -8 -7.33398 -12 -14.001 -12c-4 0 -7 0.333008 -9 1l-232 62c-11.333 4 -17 9.66699 -17 17c0 2.66699 0.666992 6 2 10l23 67c1.33301 4 3.66602 6.83301 6.99902 8.5z" />
    <glyph glyph-name="Iacute" unicode="&#xcd;" horiz-adv-x="315" 
d="M229 742c10.667 0 16 -5.99805 16 -17.998v-700c0 -8.66699 -2 -14.834 -6 -18.501s-11 -5.5 -21 -5.5h-126c-8 0 -13.667 1.66699 -17 5s-5 8.66602 -5 15.999v702c0 12.667 5.33301 19 16 19h143zM300 887.002c1.33301 -4 2 -7.33398 2 -10.001
c0 -7.33301 -5.66699 -13 -17 -17l-231 -62c-2.66699 -0.666992 -5.66699 -1 -9 -1c-4 0 -7 0.833008 -9 2.5s-4 4.83398 -6 9.50098l-12 35l-2 8c0 6 2.66699 10 8 12l236 99c1.33301 0.666992 3 1 5 1c6 0 10 -3.33301 12 -10z" />
    <glyph glyph-name="Icircumflex" unicode="&#xce;" horiz-adv-x="315" 
d="M229 742c10.667 0 16 -5.99805 16 -17.998v-700c0 -8.66699 -2 -14.834 -6 -18.501s-11 -5.5 -21 -5.5h-126c-8 0 -13.667 1.66699 -17 5s-5 8.66602 -5 15.999v702c0 12.667 5.33301 19 16 19h143zM172 882.002c-2.66699 3.33301 -5.33203 6.16699 -7.99902 8.5
s-5 3.5 -7 3.5c-3.33301 0 -8.33301 -4 -15 -12l-50 -53c-4 -4 -7.33301 -6.33301 -10 -7s-7 -1 -13 -1h-81c-6 0 -9 1.66699 -9 5s2 7 6 11l108 112c5.33301 4.66699 10.166 8 14.499 10s10.5 3 18.5 3h72c6 0 10.667 -1 14 -3s7 -5 11 -9l107 -113
c5.33301 -5.33301 8 -9.33301 8 -12s-3.33301 -4 -10 -4h-86c-10.667 0 -18.667 2.66699 -24 8z" />
    <glyph glyph-name="Idieresis" unicode="&#xcf;" horiz-adv-x="315" 
d="M229 742c10.667 0 16 -5.99805 16 -17.998v-700c0 -8.66699 -2 -14.834 -6 -18.501s-11 -5.5 -21 -5.5h-126c-8 0 -13.667 1.66699 -17 5s-5 8.66602 -5 15.999v702c0 12.667 5.33301 19 16 19h143zM125 844.002c0 -7.33301 -1.83203 -12.5 -5.49902 -15.5
s-9.83398 -4.5 -18.501 -4.5h-93c-7.33301 0 -12.333 1.5 -15 4.5s-4 7.5 -4 13.5v95c0 11.333 4.66699 17 14 17h108c9.33301 0 14 -5.33301 14 -16v-94zM328.001 844.002c0 -7.33301 -1.83203 -12.5 -5.49902 -15.5s-9.83398 -4.5 -18.501 -4.5h-93
c-7.33301 0 -12.333 1.5 -15 4.5s-4 7.5 -4 13.5v95c0 11.333 4.66699 17 14 17h108c9.33301 0 14 -5.33301 14 -16v-94z" />
    <glyph glyph-name="Eth" unicode="&#xd0;" horiz-adv-x="766" 
d="M624 640c64.667 -63.333 97 -152 97 -266c0 -117.333 -33.667 -209 -101 -275s-166 -99 -296 -99h-217c-8 -0 -13.833 1.83301 -17.5 5.5s-5.5 9.83398 -5.5 18.501v286h-35c-8 0 -13.667 1.66699 -17 5s-5 8.66602 -5 15.999v73c0 12.667 5.33301 19 16 19h41v299
c0 7.33301 1.66699 12.5 5 15.5s9 4.5 17 4.5c110 0 184.333 -0.333008 223 -1c132 -4 230.333 -37.667 295 -101zM477.5 181.5c40.333 39 60.499 103.5 60.499 193.5c0 83.333 -17 143.333 -51 180s-86.667 57 -158 61l-61 2c-6 0 -9 -4.66699 -9 -14v-181h132
c10 0 15 -5.66699 15 -17v-73c0 -8 -2.16699 -13.833 -6.5 -17.5s-11.166 -5.5 -20.499 -5.5h-120v-173c0 -5.33301 0.833008 -9 2.5 -11s5.16699 -3 10.5 -3h19c84 0 146.167 19.5 186.5 58.5z" />
    <glyph glyph-name="Ntilde" unicode="&#xd1;" horiz-adv-x="759" 
d="M676 742c8.66699 0 13 -4.99805 13 -14.998v-711c0 -4.66699 -1.83301 -8.5 -5.5 -11.5s-8.16699 -4.5 -13.5 -4.5h-101c-6 0 -10.667 0.666992 -14 2s-7 4.66602 -11 9.99902l-319 448c-2.66699 3.33301 -5.16699 4.66602 -7.5 3.99902s-3.5 -2.66699 -3.5 -6v-440v-3
c0 -5.33301 -1.5 -9.16602 -4.5 -11.499s-8.16699 -3.5 -15.5 -3.5h-104c-13.333 0 -20 5.66699 -20 17v706c0 12.667 6 19 18 19h121c8 0 13.667 -0.833008 17 -2.5s7.33301 -5.83398 12 -12.501l294 -419c4 -5.33301 7.33301 -8 10 -8c3.33301 0 5 3.66699 5 11v413
c0 12 6 18 18 18h111zM461 839.002c-12.667 0 -24.502 1.16797 -35.502 3.50098s-24.833 6.16602 -41.5 11.499c-15.333 4.66699 -28.166 8.16699 -38.499 10.5s-21.166 3.5 -32.499 3.5c-13.333 0 -24.666 -1.66699 -33.999 -5s-20.333 -9.33301 -33 -18
c-4.66699 -3.33301 -8 -5 -10 -5c-4 0 -7 4 -9 12l-14 43c-1.33301 4 -2 7.33301 -2 10c0 4 2.66699 8.66699 8 14c14 12 27.5 21.167 40.5 27.5s29.167 9.5 48.5 9.5c13.333 0 26.166 -1.33301 38.499 -4s27.833 -7 46.5 -13c30 -10 52.667 -15 68 -15
c12.667 0 24.5 2.16699 35.5 6.5s22.167 10.5 33.5 18.5c4 2.66699 7.33301 4 10 4c5.33301 0 9 -3.66699 11 -11l12 -52c0.666992 -1.33301 1 -3.33301 1 -6c0 -6 -4 -12 -12 -18c-26 -18 -56.333 -27 -91 -27z" />
    <glyph glyph-name="Ograve" unicode="&#xd2;" horiz-adv-x="774" 
d="M205.5 35.5c-51.667 30.333 -91.334 73.832 -119.001 130.499s-41.5 124 -41.5 202c0 78.667 14 146.834 42 204.501s67.833 102 119.5 133s112.167 46.5 181.5 46.5c68.667 0 128.667 -15.5 180 -46.5s91 -75.333 119 -133s42 -125.5 42 -203.5
c0 -77.333 -13.833 -144.5 -41.5 -201.5s-67.167 -100.833 -118.5 -131.5s-111.666 -46 -180.999 -46c-70 0 -130.833 15.167 -182.5 45.5zM508.5 172.999c25 40 37.5 104.667 37.5 194c0 91.333 -12.833 158 -38.5 200s-65.5 63 -119.5 63
c-55.333 0 -95.833 -21 -121.5 -63s-38.5 -108.667 -38.5 -200c0 -89.333 12.667 -154 38 -194s66 -60 122 -60c55.333 0 95.5 20 120.5 60zM271 962.499c3.33301 1.66699 7.00195 1.83301 11.002 0.5l235 -99c5.33301 -2 8 -6 8 -12c0 -3.33301 -0.666992 -6 -2 -8l-12 -35
c-2.66699 -8 -7.33398 -12 -14.001 -12c-4 0 -7 0.333008 -9 1l-232 62c-11.333 4 -17 9.66699 -17 17c0 2.66699 0.666992 6 2 10l23 67c1.33301 4 3.66602 6.83301 6.99902 8.5z" />
    <glyph glyph-name="Oacute" unicode="&#xd3;" horiz-adv-x="774" 
d="M205.5 35.5c-51.667 30.333 -91.334 73.832 -119.001 130.499s-41.5 124 -41.5 202c0 78.667 14 146.834 42 204.501s67.833 102 119.5 133s112.167 46.5 181.5 46.5c68.667 0 128.667 -15.5 180 -46.5s91 -75.333 119 -133s42 -125.5 42 -203.5
c0 -77.333 -13.833 -144.5 -41.5 -201.5s-67.167 -100.833 -118.5 -131.5s-111.666 -46 -180.999 -46c-70 0 -130.833 15.167 -182.5 45.5zM508.5 172.999c25 40 37.5 104.667 37.5 194c0 91.333 -12.833 158 -38.5 200s-65.5 63 -119.5 63
c-55.333 0 -95.833 -21 -121.5 -63s-38.5 -108.667 -38.5 -200c0 -89.333 12.667 -154 38 -194s66 -60 122 -60c55.333 0 95.5 20 120.5 60zM528 886.999c1.33301 -4 2 -7.33398 2 -10.001c0 -7.33301 -5.66699 -13 -17 -17l-231 -62c-2.66699 -0.666992 -5.66699 -1 -9 -1
c-4 0 -7 0.833008 -9 2.5s-4 4.83398 -6 9.50098l-12 35l-2 8c0 6 2.66699 10 8 12l236 99c1.33301 0.666992 3 1 5 1c6 0 10 -3.33301 12 -10z" />
    <glyph glyph-name="Ocircumflex" unicode="&#xd4;" horiz-adv-x="774" 
d="M205.5 35.5c-51.667 30.333 -91.334 73.832 -119.001 130.499s-41.5 124 -41.5 202c0 78.667 14 146.834 42 204.501s67.833 102 119.5 133s112.167 46.5 181.5 46.5c68.667 0 128.667 -15.5 180 -46.5s91 -75.333 119 -133s42 -125.5 42 -203.5
c0 -77.333 -13.833 -144.5 -41.5 -201.5s-67.167 -100.833 -118.5 -131.5s-111.666 -46 -180.999 -46c-70 0 -130.833 15.167 -182.5 45.5zM508.5 172.999c25 40 37.5 104.667 37.5 194c0 91.333 -12.833 158 -38.5 200s-65.5 63 -119.5 63
c-55.333 0 -95.833 -21 -121.5 -63s-38.5 -108.667 -38.5 -200c0 -89.333 12.667 -154 38 -194s66 -60 122 -60c55.333 0 95.5 20 120.5 60zM400 881.999c-2.66699 3.33301 -5.33203 6.16699 -7.99902 8.5s-5 3.5 -7 3.5c-3.33301 0 -8.33301 -4 -15 -12l-50 -53
c-4 -4 -7.33301 -6.33301 -10 -7s-7 -1 -13 -1h-81c-6 0 -9 1.66699 -9 5s2 7 6 11l108 112c5.33301 4.66699 10.166 8 14.499 10s10.5 3 18.5 3h72c6 0 10.667 -1 14 -3s7 -5 11 -9l107 -113c5.33301 -5.33301 8 -9.33301 8 -12s-3.33301 -4 -10 -4h-86
c-10.667 0 -18.667 2.66699 -24 8z" />
    <glyph glyph-name="Otilde" unicode="&#xd5;" horiz-adv-x="774" 
d="M205.5 35.5c-51.667 30.333 -91.334 73.832 -119.001 130.499s-41.5 124 -41.5 202c0 78.667 14 146.834 42 204.501s67.833 102 119.5 133s112.167 46.5 181.5 46.5c68.667 0 128.667 -15.5 180 -46.5s91 -75.333 119 -133s42 -125.5 42 -203.5
c0 -77.333 -13.833 -144.5 -41.5 -201.5s-67.167 -100.833 -118.5 -131.5s-111.666 -46 -180.999 -46c-70 0 -130.833 15.167 -182.5 45.5zM508.5 172.999c25 40 37.5 104.667 37.5 194c0 91.333 -12.833 158 -38.5 200s-65.5 63 -119.5 63
c-55.333 0 -95.833 -21 -121.5 -63s-38.5 -108.667 -38.5 -200c0 -89.333 12.667 -154 38 -194s66 -60 122 -60c55.333 0 95.5 20 120.5 60zM463 838.999c-12.667 0 -24.502 1.16797 -35.502 3.50098s-24.833 6.16602 -41.5 11.499
c-15.333 4.66699 -28.166 8.16699 -38.499 10.5s-21.166 3.5 -32.499 3.5c-13.333 0 -24.666 -1.66699 -33.999 -5s-20.333 -9.33301 -33 -18c-4.66699 -3.33301 -8 -5 -10 -5c-4 0 -7 4 -9 12l-14 43c-1.33301 4 -2 7.33301 -2 10c0 4 2.66699 8.66699 8 14
c14 12 27.5 21.167 40.5 27.5s29.167 9.5 48.5 9.5c13.333 0 26.166 -1.33301 38.499 -4s27.833 -7 46.5 -13c30 -10 52.667 -15 68 -15c12.667 0 24.5 2.16699 35.5 6.5s22.167 10.5 33.5 18.5c4 2.66699 7.33301 4 10 4c5.33301 0 9 -3.66699 11 -11l12 -52
c0.666992 -1.33301 1 -3.33301 1 -6c0 -6 -4 -12 -12 -18c-26 -18 -56.333 -27 -91 -27z" />
    <glyph glyph-name="Odieresis" unicode="&#xd6;" horiz-adv-x="774" 
d="M205.5 35.5c-51.667 30.333 -91.334 73.832 -119.001 130.499s-41.5 124 -41.5 202c0 78.667 14 146.834 42 204.501s67.833 102 119.5 133s112.167 46.5 181.5 46.5c68.667 0 128.667 -15.5 180 -46.5s91 -75.333 119 -133s42 -125.5 42 -203.5
c0 -77.333 -13.833 -144.5 -41.5 -201.5s-67.167 -100.833 -118.5 -131.5s-111.666 -46 -180.999 -46c-70 0 -130.833 15.167 -182.5 45.5zM508.5 172.999c25 40 37.5 104.667 37.5 194c0 91.333 -12.833 158 -38.5 200s-65.5 63 -119.5 63
c-55.333 0 -95.833 -21 -121.5 -63s-38.5 -108.667 -38.5 -200c0 -89.333 12.667 -154 38 -194s66 -60 122 -60c55.333 0 95.5 20 120.5 60zM353 843.999c0 -7.33301 -1.83203 -12.5 -5.49902 -15.5s-9.83398 -4.5 -18.501 -4.5h-93c-7.33301 0 -12.333 1.5 -15 4.5
s-4 7.5 -4 13.5v95c0 11.333 4.66699 17 14 17h108c9.33301 0 14 -5.33301 14 -16v-94zM556.001 843.999c0 -7.33301 -1.83203 -12.5 -5.49902 -15.5s-9.83398 -4.5 -18.501 -4.5h-93c-7.33301 0 -12.333 1.5 -15 4.5s-4 7.5 -4 13.5v95c0 11.333 4.66699 17 14 17h108
c9.33301 0 14 -5.33301 14 -16v-94z" />
    <glyph glyph-name="multiply" unicode="&#xd7;" horiz-adv-x="576" 
d="M519 216c0 -4.66699 -1.66895 -8.66602 -5.00195 -11.999l-52 -52c-5.33301 -5.33301 -10.333 -8 -15 -8c-5.33301 0 -11.666 3.66699 -18.999 11l-139 139l-148 -147c-2.66699 -2.66699 -6 -4 -10 -4s-7.66699 1.66699 -11 5l-52 51c-5.33301 5.33301 -8 10.333 -8 15
c0 6 3.66699 12.667 11 20l139 139l-144 143c-5.33301 6.66699 -8 11.667 -8 15c0 4 2.66699 8.66699 8 14l51 52c4.66699 4.66699 9.33398 7 14.001 7c4 0 7.33301 -1.33301 10 -4l148 -148l143 144c6.66699 5.33301 11.667 8 15 8c4 0 8.66699 -2.66699 14 -8l52 -51
c4.66699 -4.66699 7 -9.33398 7 -14.001c0 -4 -1.33301 -7.33301 -4 -10l-149 -148l148 -148c2.66699 -2 4 -5 4 -9z" />
    <glyph glyph-name="Oslash" unicode="&#xd8;" horiz-adv-x="764" 
d="M755 687c0 -4 -2 -8.00098 -6 -12.001l-78 -81c35.333 -62.667 53 -137.667 53 -225c0 -77.333 -13.833 -144.5 -41.5 -201.5s-67.167 -100.833 -118.5 -131.5s-111.666 -46 -180.999 -46c-93.333 0 -169 26 -227 78l-61 -64c-6.66699 -6.66699 -12.667 -10 -18 -10
c-6 0 -12 3.33301 -18 10l-33 33c-7.33301 7.33301 -11 13 -11 17s2.33301 8.33301 7 13l72 75c-36.667 62.667 -55 138 -55 226c0 78.667 14.167 146.834 42.5 204.501s68.333 102 120 133s112.167 46.5 181.5 46.5c92 0 167.667 -27.667 227 -83l68 71
c5.33301 5.33301 10.666 8 15.999 8c4 0 7.33301 -1.33301 10 -4l46 -46c3.33301 -3.33301 5 -7 5 -11zM235 280.999l267.999 283c-24.667 44 -64.667 66 -120 66s-95.666 -21 -120.999 -63s-38 -108.667 -38 -200c0 -35.333 3.66699 -64 11 -86zM528.999 453.999l-267 -281
c24.667 -39.333 65 -59 121 -59c55.333 0 95.333 19.833 120 59.5s37 104.167 37 193.5c0 32.667 -3.66699 61.667 -11 87z" />
    <glyph glyph-name="Ugrave" unicode="&#xd9;" horiz-adv-x="721" 
d="M582 56.5c-51.333 -44.333 -125.333 -66.501 -222 -66.501c-106 0 -182.333 25 -229 75s-70 126 -70 228v429c0 6 1.5 10.833 4.5 14.5s6.83301 5.5 11.5 5.5h144c10 0 15 -6 15 -18v-453c0 -54 11.5 -93.5 34.5 -118.5s57.167 -37.5 102.5 -37.5
c94.667 0 142 53 142 159v449c0 12.667 5 19 15 19h114c10 0 15 -6 15 -18v-449c0 -101.333 -25.667 -174.166 -77 -218.499zM258 962.499c3.33301 1.66699 7.00195 1.83301 11.002 0.5l235 -99c5.33301 -2 8 -6 8 -12c0 -3.33301 -0.666992 -6 -2 -8l-12 -35
c-2.66699 -8 -7.33398 -12 -14.001 -12c-4 0 -7 0.333008 -9 1l-232 62c-11.333 4 -17 9.66699 -17 17c0 2.66699 0.666992 6 2 10l23 67c1.33301 4 3.66602 6.83301 6.99902 8.5z" />
    <glyph glyph-name="Uacute" unicode="&#xda;" horiz-adv-x="721" 
d="M582 56.5c-51.333 -44.333 -125.333 -66.501 -222 -66.501c-106 0 -182.333 25 -229 75s-70 126 -70 228v429c0 6 1.5 10.833 4.5 14.5s6.83301 5.5 11.5 5.5h144c10 0 15 -6 15 -18v-453c0 -54 11.5 -93.5 34.5 -118.5s57.167 -37.5 102.5 -37.5
c94.667 0 142 53 142 159v449c0 12.667 5 19 15 19h114c10 0 15 -6 15 -18v-449c0 -101.333 -25.667 -174.166 -77 -218.499zM515 886.999c1.33301 -4 2 -7.33398 2 -10.001c0 -7.33301 -5.66699 -13 -17 -17l-231 -62c-2.66699 -0.666992 -5.66699 -1 -9 -1
c-4 0 -7 0.833008 -9 2.5s-4 4.83398 -6 9.50098l-12 35l-2 8c0 6 2.66699 10 8 12l236 99c1.33301 0.666992 3 1 5 1c6 0 10 -3.33301 12 -10z" />
    <glyph glyph-name="Ucircumflex" unicode="&#xdb;" horiz-adv-x="721" 
d="M582 56.5c-51.333 -44.333 -125.333 -66.501 -222 -66.501c-106 0 -182.333 25 -229 75s-70 126 -70 228v429c0 6 1.5 10.833 4.5 14.5s6.83301 5.5 11.5 5.5h144c10 0 15 -6 15 -18v-453c0 -54 11.5 -93.5 34.5 -118.5s57.167 -37.5 102.5 -37.5
c94.667 0 142 53 142 159v449c0 12.667 5 19 15 19h114c10 0 15 -6 15 -18v-449c0 -101.333 -25.667 -174.166 -77 -218.499zM387 881.999c-2.66699 3.33301 -5.33203 6.16699 -7.99902 8.5s-5 3.5 -7 3.5c-3.33301 0 -8.33301 -4 -15 -12l-50 -53
c-4 -4 -7.33301 -6.33301 -10 -7s-7 -1 -13 -1h-81c-6 0 -9 1.66699 -9 5s2 7 6 11l108 112c5.33301 4.66699 10.166 8 14.499 10s10.5 3 18.5 3h72c6 0 10.667 -1 14 -3s7 -5 11 -9l107 -113c5.33301 -5.33301 8 -9.33301 8 -12s-3.33301 -4 -10 -4h-86
c-10.667 0 -18.667 2.66699 -24 8z" />
    <glyph glyph-name="Udieresis" unicode="&#xdc;" horiz-adv-x="721" 
d="M582 56.5c-51.333 -44.333 -125.333 -66.501 -222 -66.501c-106 0 -182.333 25 -229 75s-70 126 -70 228v429c0 6 1.5 10.833 4.5 14.5s6.83301 5.5 11.5 5.5h144c10 0 15 -6 15 -18v-453c0 -54 11.5 -93.5 34.5 -118.5s57.167 -37.5 102.5 -37.5
c94.667 0 142 53 142 159v449c0 12.667 5 19 15 19h114c10 0 15 -6 15 -18v-449c0 -101.333 -25.667 -174.166 -77 -218.499zM340 843.999c0 -7.33301 -1.83203 -12.5 -5.49902 -15.5s-9.83398 -4.5 -18.501 -4.5h-93c-7.33301 0 -12.333 1.5 -15 4.5s-4 7.5 -4 13.5v95
c0 11.333 4.66699 17 14 17h108c9.33301 0 14 -5.33301 14 -16v-94zM543.001 843.999c0 -7.33301 -1.83203 -12.5 -5.49902 -15.5s-9.83398 -4.5 -18.501 -4.5h-93c-7.33301 0 -12.333 1.5 -15 4.5s-4 7.5 -4 13.5v95c0 11.333 4.66699 17 14 17h108
c9.33301 0 14 -5.33301 14 -16v-94z" />
    <glyph glyph-name="Yacute" unicode="&#xdd;" horiz-adv-x="735" 
d="M704 732c0 -2.66699 -0.999023 -5.99805 -2.99902 -9.99805l-235 -385c-4 -6 -6.33301 -11.833 -7 -17.5s-1 -17.5 -1 -35.5v-260c0 -16 -9.33301 -24 -28 -24h-125c-8 0 -13.667 1.66699 -17 5s-5 8.66602 -5 15.999v269c0 8 -0.833008 14.167 -2.5 18.5
s-4.83398 10.5 -9.50098 18.5l-237 392c-2.66699 5.33301 -4 9 -4 11c0 3.33301 1.66699 6.16602 5 8.49902s8 3.5 14 3.5h150c8 0 14 -1.16699 18 -3.5s7.66699 -7.16602 11 -14.499l148 -260c4 -7.33301 7.33301 -11 10 -11c3.33301 0 6.33301 3 9 9l146 262
c4 7.33301 7.83301 12.166 11.5 14.499s9.5 3.5 17.5 3.5h120c9.33301 0 14 -3.33301 14 -10zM518.001 887.002c1.33301 -4 2 -7.33398 2 -10.001c0 -7.33301 -5.66699 -13 -17 -17l-231 -62c-2.66699 -0.666992 -5.66699 -1 -9 -1c-4 0 -7 0.833008 -9 2.5
s-4 4.83398 -6 9.50098l-12 35l-2 8c0 6 2.66699 10 8 12l236 99c1.33301 0.666992 3 1 5 1c6 0 10 -3.33301 12 -10z" />
    <glyph glyph-name="Thorn" unicode="&#xde;" horiz-adv-x="724" 
d="M611.5 212.5c-49.667 -39 -115.166 -58.5 -196.499 -58.5h-159c-7.33301 0 -11 -3.66699 -11 -11v-120c0 -15.333 -8.66699 -23 -26 -23h-128c-8 0 -13.5 1.66699 -16.5 5s-4.5 8.33301 -4.5 15v703c0 12.667 5.33301 19 16 19h143c10.667 0 16 -6 16 -18v-114
c0 -6.66699 3 -10 9 -10h141c85.333 0 155.166 -19 209.499 -57s81.5 -93.333 81.5 -166c0 -70.667 -24.833 -125.5 -74.5 -164.5zM473.501 449.5c-22.333 16.333 -51.833 24.5 -88.5 24.5h-121c-6.66699 0 -11.5 -1.33301 -14.5 -4s-4.5 -7 -4.5 -13v-159
c0 -6.66699 1 -11.5 3 -14.5s5.66699 -4.5 11 -4.5h132c36 0 64.333 8.83301 85 26.5s31 42.167 31 73.5c0 30.667 -11.167 54.167 -33.5 70.5z" />
    <glyph glyph-name="germandbls" unicode="&#xdf;" horiz-adv-x="649" 
d="M493 701c36.667 -27.333 54.9971 -64.667 54.9971 -112c0 -35.333 -10.667 -64 -32 -86s-55.666 -43 -102.999 -63c-10 -5.33301 -17 -9.83301 -21 -13.5s-6 -8.5 -6 -14.5s1.83301 -10.333 5.5 -13s11.167 -6 22.5 -10c45.333 -18.667 81.333 -35.667 108 -51
s49.667 -36.5 69 -63.5s29 -60.833 29 -101.5c0 -58.667 -19.833 -103.834 -59.5 -135.501s-92.5 -47.5 -158.5 -47.5c-51.333 0 -93 9.33301 -125 28c-4 2 -6.5 4.66699 -7.5 8s-0.5 6.66602 1.5 9.99902l33 71c2 4 5.33301 6 10 6c3.33301 0 6 -0.666992 8 -2
c24 -14.667 49 -22 75 -22c25.333 0 45.833 5.83301 61.5 17.5s23.5 28.5 23.5 50.5c0 21.333 -7.5 37.5 -22.5 48.5s-40.167 23.5 -75.5 37.5c-34 14 -61 31.333 -81 52s-30 47.667 -30 81c0 24 5.66699 44.833 17 62.5s28 34.834 50 51.501l27.5 22.5
c13.667 11 23.834 22 30.501 33s10 22.833 10 35.5c0 18 -7 32.667 -21 44s-33.333 17 -58 17c-32 0 -56.833 -9.5 -74.5 -28.5s-26.5 -45.167 -26.5 -78.5v-516c0.666992 -1.33301 1 -3.66602 1 -6.99902c0 -8 -4.66699 -12 -14 -12h-123c-10 0 -15 5.66699 -15 17v373
c0 6.66699 -2.66699 10 -8 10h-37c-11.333 0 -17 5 -17 15v73c0 5.33301 1.66699 9.66602 5 12.999s8 5 14 5h31c4.66699 0 7.83398 1.33301 9.50098 4s2.5 6.33398 2.5 11.001c1.33301 64 23 116.833 65 158.5s106.667 62.5 194 62.5c68 0 120.333 -13.667 157 -41z" />
    <glyph glyph-name="agrave" unicode="&#xe0;" horiz-adv-x="563" 
d="M190 -10c-50 0 -89.6641 13.5 -118.997 40.5s-44 62.167 -44 105.5c0 56 25.667 101 77 135s122 52 212 54l36 3c4 0 7.5 1.16699 10.5 3.5s4.5 5.83301 4.5 10.5v21c0 26 -7.33301 46 -22 60s-35.667 21 -63 21c-46.667 0 -81.334 -20 -104.001 -60
c-2.66699 -6.66699 -7 -10 -13 -10c-3.33301 0 -6.33301 0.333008 -9 1l-100 23c-6 1.33301 -9 5 -9 11c0 4 1.33301 9 4 15c16 38.667 44.5 67.667 85.5 87s91.833 29 152.5 29c79.333 0 136.666 -14.5 171.999 -43.5s53 -70.167 53 -123.5v-351
c0 -8 -1.33301 -13.667 -4 -17s-7.66699 -5 -15 -5h-103c-6.66699 -0 -11.5 2.33301 -14.5 7s-5.16699 11.667 -6.5 21l-1 22c-0.666992 6 -3.33398 9 -8.00098 9c-2.66699 0 -7.66699 -2.66699 -15 -8c-44 -40.667 -96.333 -61 -157 -61zM364.003 249
c-2 2.66699 -5.99902 4 -11.999 4l-28 -2c-38.667 -2 -72.834 -11.167 -102.501 -27.5s-44.5 -38.833 -44.5 -67.5c0 -20 7 -35.833 21 -47.5s33.333 -17.5 58 -17.5c30.667 0 56.667 9 78 27c22 17.333 33 35 33 53v65c0 6 -1 10.333 -3 13zM172.004 750.5
c3.33301 1.66699 7.00195 1.83301 11.002 0.5l235 -99c5.33301 -2 8 -6 8 -12c0 -3.33301 -0.666992 -6 -2 -8l-12 -35c-2.66699 -8 -7.33398 -12 -14.001 -12c-4 0 -7 0.333008 -9 1l-232 62c-11.333 4 -17 9.66699 -17 17c0 2.66699 0.666992 6 2 10l23 67
c1.33301 4 3.66602 6.83301 6.99902 8.5z" />
    <glyph glyph-name="aacute" unicode="&#xe1;" horiz-adv-x="563" 
d="M190 -10c-50 0 -89.6641 13.5 -118.997 40.5s-44 62.167 -44 105.5c0 56 25.667 101 77 135s122 52 212 54l36 3c4 0 7.5 1.16699 10.5 3.5s4.5 5.83301 4.5 10.5v21c0 26 -7.33301 46 -22 60s-35.667 21 -63 21c-46.667 0 -81.334 -20 -104.001 -60
c-2.66699 -6.66699 -7 -10 -13 -10c-3.33301 0 -6.33301 0.333008 -9 1l-100 23c-6 1.33301 -9 5 -9 11c0 4 1.33301 9 4 15c16 38.667 44.5 67.667 85.5 87s91.833 29 152.5 29c79.333 0 136.666 -14.5 171.999 -43.5s53 -70.167 53 -123.5v-351
c0 -8 -1.33301 -13.667 -4 -17s-7.66699 -5 -15 -5h-103c-6.66699 -0 -11.5 2.33301 -14.5 7s-5.16699 11.667 -6.5 21l-1 22c-0.666992 6 -3.33398 9 -8.00098 9c-2.66699 0 -7.66699 -2.66699 -15 -8c-44 -40.667 -96.333 -61 -157 -61zM364.003 249
c-2 2.66699 -5.99902 4 -11.999 4l-28 -2c-38.667 -2 -72.834 -11.167 -102.501 -27.5s-44.5 -38.833 -44.5 -67.5c0 -20 7 -35.833 21 -47.5s33.333 -17.5 58 -17.5c30.667 0 56.667 9 78 27c22 17.333 33 35 33 53v65c0 6 -1 10.333 -3 13zM429.004 675
c1.33301 -4 2 -7.33398 2 -10.001c0 -7.33301 -5.66699 -13 -17 -17l-231 -62c-2.66699 -0.666992 -5.66699 -1 -9 -1c-4 0 -7 0.833008 -9 2.5s-4 4.83398 -6 9.50098l-12 35l-2 8c0 6 2.66699 10 8 12l236 99c1.33301 0.666992 3 1 5 1c6 0 10 -3.33301 12 -10z" />
    <glyph glyph-name="acircumflex" unicode="&#xe2;" horiz-adv-x="563" 
d="M190 -10c-50 0 -89.6641 13.5 -118.997 40.5s-44 62.167 -44 105.5c0 56 25.667 101 77 135s122 52 212 54l36 3c4 0 7.5 1.16699 10.5 3.5s4.5 5.83301 4.5 10.5v21c0 26 -7.33301 46 -22 60s-35.667 21 -63 21c-46.667 0 -81.334 -20 -104.001 -60
c-2.66699 -6.66699 -7 -10 -13 -10c-3.33301 0 -6.33301 0.333008 -9 1l-100 23c-6 1.33301 -9 5 -9 11c0 4 1.33301 9 4 15c16 38.667 44.5 67.667 85.5 87s91.833 29 152.5 29c79.333 0 136.666 -14.5 171.999 -43.5s53 -70.167 53 -123.5v-351
c0 -8 -1.33301 -13.667 -4 -17s-7.66699 -5 -15 -5h-103c-6.66699 -0 -11.5 2.33301 -14.5 7s-5.16699 11.667 -6.5 21l-1 22c-0.666992 6 -3.33398 9 -8.00098 9c-2.66699 0 -7.66699 -2.66699 -15 -8c-44 -40.667 -96.333 -61 -157 -61zM364.003 249
c-2 2.66699 -5.99902 4 -11.999 4l-28 -2c-38.667 -2 -72.834 -11.167 -102.501 -27.5s-44.5 -38.833 -44.5 -67.5c0 -20 7 -35.833 21 -47.5s33.333 -17.5 58 -17.5c30.667 0 56.667 9 78 27c22 17.333 33 35 33 53v65c0 6 -1 10.333 -3 13zM301.004 670
c-2.66699 3.33301 -5.33203 6.16699 -7.99902 8.5s-5 3.5 -7 3.5c-3.33301 0 -8.33301 -4 -15 -12l-50 -53c-4 -4 -7.33301 -6.33301 -10 -7s-7 -1 -13 -1h-81c-6 0 -9 1.66699 -9 5s2 7 6 11l108 112c5.33301 4.66699 10.166 8 14.499 10s10.5 3 18.5 3h72
c6 0 10.667 -1 14 -3s7 -5 11 -9l107 -113c5.33301 -5.33301 8 -9.33301 8 -12s-3.33301 -4 -10 -4h-86c-10.667 0 -18.667 2.66699 -24 8z" />
    <glyph glyph-name="atilde" unicode="&#xe3;" horiz-adv-x="563" 
d="M190 -10c-50 0 -89.6641 13.5 -118.997 40.5s-44 62.167 -44 105.5c0 56 25.667 101 77 135s122 52 212 54l36 3c4 0 7.5 1.16699 10.5 3.5s4.5 5.83301 4.5 10.5v21c0 26 -7.33301 46 -22 60s-35.667 21 -63 21c-46.667 0 -81.334 -20 -104.001 -60
c-2.66699 -6.66699 -7 -10 -13 -10c-3.33301 0 -6.33301 0.333008 -9 1l-100 23c-6 1.33301 -9 5 -9 11c0 4 1.33301 9 4 15c16 38.667 44.5 67.667 85.5 87s91.833 29 152.5 29c79.333 0 136.666 -14.5 171.999 -43.5s53 -70.167 53 -123.5v-351
c0 -8 -1.33301 -13.667 -4 -17s-7.66699 -5 -15 -5h-103c-6.66699 -0 -11.5 2.33301 -14.5 7s-5.16699 11.667 -6.5 21l-1 22c-0.666992 6 -3.33398 9 -8.00098 9c-2.66699 0 -7.66699 -2.66699 -15 -8c-44 -40.667 -96.333 -61 -157 -61zM364.003 249
c-2 2.66699 -5.99902 4 -11.999 4l-28 -2c-38.667 -2 -72.834 -11.167 -102.501 -27.5s-44.5 -38.833 -44.5 -67.5c0 -20 7 -35.833 21 -47.5s33.333 -17.5 58 -17.5c30.667 0 56.667 9 78 27c22 17.333 33 35 33 53v65c0 6 -1 10.333 -3 13zM364.004 627
c-12.667 0 -24.502 1.16797 -35.502 3.50098s-24.833 6.16602 -41.5 11.499c-15.333 4.66699 -28.166 8.16699 -38.499 10.5s-21.166 3.5 -32.499 3.5c-13.333 0 -24.666 -1.66699 -33.999 -5s-20.333 -9.33301 -33 -18c-4.66699 -3.33301 -8 -5 -10 -5c-4 0 -7 4 -9 12
l-14 43c-1.33301 4 -2 7.33301 -2 10c0 4 2.66699 8.66699 8 14c14 12 27.5 21.167 40.5 27.5s29.167 9.5 48.5 9.5c13.333 0 26.166 -1.33301 38.499 -4s27.833 -7 46.5 -13c30 -10 52.667 -15 68 -15c12.667 0 24.5 2.16699 35.5 6.5s22.167 10.5 33.5 18.5
c4 2.66699 7.33301 4 10 4c5.33301 0 9 -3.66699 11 -11l12 -52c0.666992 -1.33301 1 -3.33301 1 -6c0 -6 -4 -12 -12 -18c-26 -18 -56.333 -27 -91 -27z" />
    <glyph glyph-name="adieresis" unicode="&#xe4;" horiz-adv-x="563" 
d="M190 -10c-50 0 -89.6641 13.5 -118.997 40.5s-44 62.167 -44 105.5c0 56 25.667 101 77 135s122 52 212 54l36 3c4 0 7.5 1.16699 10.5 3.5s4.5 5.83301 4.5 10.5v21c0 26 -7.33301 46 -22 60s-35.667 21 -63 21c-46.667 0 -81.334 -20 -104.001 -60
c-2.66699 -6.66699 -7 -10 -13 -10c-3.33301 0 -6.33301 0.333008 -9 1l-100 23c-6 1.33301 -9 5 -9 11c0 4 1.33301 9 4 15c16 38.667 44.5 67.667 85.5 87s91.833 29 152.5 29c79.333 0 136.666 -14.5 171.999 -43.5s53 -70.167 53 -123.5v-351
c0 -8 -1.33301 -13.667 -4 -17s-7.66699 -5 -15 -5h-103c-6.66699 -0 -11.5 2.33301 -14.5 7s-5.16699 11.667 -6.5 21l-1 22c-0.666992 6 -3.33398 9 -8.00098 9c-2.66699 0 -7.66699 -2.66699 -15 -8c-44 -40.667 -96.333 -61 -157 -61zM364.003 249
c-2 2.66699 -5.99902 4 -11.999 4l-28 -2c-38.667 -2 -72.834 -11.167 -102.501 -27.5s-44.5 -38.833 -44.5 -67.5c0 -20 7 -35.833 21 -47.5s33.333 -17.5 58 -17.5c30.667 0 56.667 9 78 27c22 17.333 33 35 33 53v65c0 6 -1 10.333 -3 13zM254.004 632
c0 -7.33301 -1.83203 -12.5 -5.49902 -15.5s-9.83398 -4.5 -18.501 -4.5h-93c-7.33301 0 -12.333 1.5 -15 4.5s-4 7.5 -4 13.5v95c0 11.333 4.66699 17 14 17h108c9.33301 0 14 -5.33301 14 -16v-94zM457.005 632c0 -7.33301 -1.83203 -12.5 -5.49902 -15.5
s-9.83398 -4.5 -18.501 -4.5h-93c-7.33301 0 -12.333 1.5 -15 4.5s-4 7.5 -4 13.5v95c0 11.333 4.66699 17 14 17h108c9.33301 0 14 -5.33301 14 -16v-94z" />
    <glyph glyph-name="aring" unicode="&#xe5;" horiz-adv-x="563" 
d="M190 -10c-50 0 -89.6641 13.5 -118.997 40.5s-44 62.167 -44 105.5c0 56 25.667 101 77 135s122 52 212 54l36 3c4 0 7.5 1.16699 10.5 3.5s4.5 5.83301 4.5 10.5v21c0 26 -7.33301 46 -22 60s-35.667 21 -63 21c-46.667 0 -81.334 -20 -104.001 -60
c-2.66699 -6.66699 -7 -10 -13 -10c-3.33301 0 -6.33301 0.333008 -9 1l-100 23c-6 1.33301 -9 5 -9 11c0 4 1.33301 9 4 15c16 38.667 44.5 67.667 85.5 87s91.833 29 152.5 29c79.333 0 136.666 -14.5 171.999 -43.5s53 -70.167 53 -123.5v-351
c0 -8 -1.33301 -13.667 -4 -17s-7.66699 -5 -15 -5h-103c-6.66699 -0 -11.5 2.33301 -14.5 7s-5.16699 11.667 -6.5 21l-1 22c-0.666992 6 -3.33398 9 -8.00098 9c-2.66699 0 -7.66699 -2.66699 -15 -8c-44 -40.667 -96.333 -61 -157 -61zM364.003 249
c-2 2.66699 -5.99902 4 -11.999 4l-28 -2c-38.667 -2 -72.834 -11.167 -102.501 -27.5s-44.5 -38.833 -44.5 -67.5c0 -20 7 -35.833 21 -47.5s33.333 -17.5 58 -17.5c30.667 0 56.667 9 78 27c22 17.333 33 35 33 53v65c0 6 -1 10.333 -3 13zM367.504 613.5
c-21.667 -21.667 -48.167 -32.5 -79.5 -32.5s-57.833 11 -79.5 33s-32.5 49 -32.5 81c0 30 11 55.5 33 76.5s48.333 31.5 79 31.5c31.333 0 57.833 -10.667 79.5 -32s32.5 -47.333 32.5 -78c0 -31.333 -10.833 -57.833 -32.5 -79.5zM323.504 728.5
c-9.66699 9.66699 -21.833 14.5 -36.5 14.5c-14 0 -26.167 -4.83301 -36.5 -14.5s-15.5 -21.834 -15.5 -36.501c0 -13.333 5.33301 -25.333 16 -36s22.667 -16 36 -16c14 0 26 5.16699 36 15.5s15 22.5 15 36.5c0 14.667 -4.83301 26.834 -14.5 36.501z" />
    <glyph glyph-name="ae" unicode="&#xe6;" horiz-adv-x="919" 
d="M526.5 232c-2.33301 -2.66699 -3.49707 -7.66504 -3.49707 -14.998c0 -35.333 12.5 -64.5 37.5 -87.5s56.167 -34.5 93.5 -34.5c25.333 0 47.666 5.33301 66.999 16s39.666 27.667 60.999 51c2.66699 2.66699 5.33398 4 8.00098 4c2 0 5.33301 -1 10 -3l71 -30
c5.33301 -2 8 -5.33301 8 -10c0 -4 -1.33301 -7.33301 -4 -10c-30.667 -44.667 -64.834 -76.334 -102.501 -95.001s-83.834 -28 -138.501 -28c-44 0 -83.333 8.5 -118 25.5s-64.334 39.167 -89.001 66.5c-3.33301 2.66699 -6.33301 2.66699 -9 0
c-29.333 -30 -61.166 -52.833 -95.499 -68.5s-75.833 -23.5 -124.5 -23.5c-54.667 0 -96.834 13.5 -126.501 40.5s-44.5 63.833 -44.5 110.5c0 53.333 23.167 96 69.5 128s114.5 50.333 204.5 55l48 4c12 0 18 4.66699 18 14v21c0 26 -7.33301 46 -22 60s-36 21 -64 21
c-21.333 0 -40.833 -4.83301 -58.5 -14.5s-32.5 -24.834 -44.5 -45.501c-1.33301 -4 -2.83301 -6.66699 -4.5 -8s-4.16699 -2 -7.5 -2c-4 0 -7.33301 0.333008 -10 1l-100 23c-4.66699 0.666992 -7 5.66699 -7 15c0 3.33301 0.666992 7 2 11c20.667 39.333 49 68.5 85 87.5
s86.333 28.5 151 28.5c88.667 -0.666992 149.667 -21.667 183 -63c42 42 96 63 162 63c50.667 0 95.667 -11 135 -33s70 -54.167 92 -96.5s33 -92.5 33 -150.5c0 -8.66699 -1.16699 -14.667 -3.5 -18s-7.16602 -5.33301 -14.499 -6h-335c-6 0 -10.167 -1.33301 -12.5 -4z
M557.503 412.502c-21.667 -22.333 -32.167 -52.833 -31.5 -91.5l198 -1c6.66699 0 11.167 1 13.5 3s3.5 6 3.5 12c0 17.333 -4 34.5 -12 51.5s-19.833 31.167 -35.5 42.5s-34.167 17 -55.5 17c-32 0 -58.833 -11.167 -80.5 -33.5zM350.003 247.002l-37.001 -3
c-38 -2.66699 -70.167 -12.167 -96.5 -28.5s-39.5 -37.833 -39.5 -64.5c0 -20 6.83301 -36 20.5 -48s32.834 -18 57.501 -18c30 0 56.167 7.66699 78.5 23s33.5 34.333 33.5 57v65c0 11.333 -5.66699 17 -17 17z" />
    <glyph glyph-name="ccedilla" unicode="&#xe7;" horiz-adv-x="551" 
d="M528 152l-1.99805 -9.00098c-12 -34.667 -34.5 -67.167 -67.5 -97.5s-76.167 -48.166 -129.5 -53.499l-16 -39c-2 -4.66699 -0.333008 -7 5 -7c33.333 -0.666992 58 -9 74 -25s24 -34.667 24 -56c0 -25.333 -12 -45.666 -36 -60.999s-53.333 -23 -88 -23
c-45.333 0 -82.333 8 -111 24c-6 3.33301 -7.66699 7.66602 -5 12.999l14 35c2 4.66699 5.66699 6 11 4c24.667 -14.667 48.667 -22 72 -22c16 0 28.5 2.83301 37.5 8.5s13.5 13.5 13.5 23.5c0 13.333 -6.83301 23.5 -20.5 30.5s-35.834 10.5 -66.501 10.5
c-8.66699 0 -11.334 3.33301 -8.00098 10l32 74c-45.333 5.33301 -85.333 20 -120 44s-61.667 55.667 -81 95s-29 83.333 -29 132c0 54 11.5 102 34.5 144s54.667 74.667 95 98s85.833 35 136.5 35c59.333 0 108.5 -14.833 147.5 -44.5s65.167 -65.5 78.5 -107.5
c1.33301 -5.33301 2 -8.66602 2 -9.99902c0 -6 -4.66699 -9.66699 -14 -11l-105 -10h-3c-6 0 -10 3.66699 -12 11c-12 24 -24.167 41.833 -36.5 53.5s-29.833 17.5 -52.5 17.5c-36 0 -64.167 -14.667 -84.5 -44s-30.5 -72.666 -30.5 -129.999
c0 -58.667 10.833 -102.667 32.5 -132s51.834 -44 90.501 -44c27.333 0 49.666 7 66.999 21s34.333 35.333 51 64c2 3.33301 4.16699 5.16602 6.5 5.49902s5.83301 0.166016 10.5 -0.500977l74 -17c6 -0.666992 9 -4 9 -10z" />
    <glyph glyph-name="egrave" unicode="&#xe8;" horiz-adv-x="586" 
d="M227.5 129.5c25 -23 56.165 -34.502 93.498 -34.502c24 0 46.167 5.16699 66.5 15.5s40.833 27.5 61.5 51.5c2.66699 2.66699 5.33398 4 8.00098 4c2 0 5.33301 -1 10 -3l72 -30c4.66699 -2 7 -5.33301 7 -10c0 -3.33301 -1.33301 -6.66602 -4 -9.99902
c-32 -45.333 -66.333 -77.166 -103 -95.499s-82.334 -27.5 -137.001 -27.5c-51.333 0 -97.666 11.333 -138.999 34s-73.666 54.167 -96.999 94.5s-35 86.5 -35 138.5c0 56 12 105.5 36 148.5s56.5 76.167 97.5 99.5s85.833 35 134.5 35c50.667 0 95.667 -11.167 135 -33.5
s70 -54.5 92 -96.5s33 -92 33 -150c0 -8.66699 -0.833008 -14.667 -2.5 -18s-6.5 -5.33301 -14.5 -6h-340c-8 0 -12 -5.33301 -12 -16c0 -37.333 12.5 -67.5 37.5 -90.5zM390.998 319.998c7.33301 0 11.998 0.834961 13.998 2.50195s3 5.5 3 11.5
c0 17.333 -4 34.666 -12 51.999s-19.667 31.666 -35 42.999s-34 17 -56 17c-33.333 0 -60.666 -11.667 -81.999 -35s-31.666 -53.333 -30.999 -90zM183.996 750.5c3.33301 1.66699 7.00195 1.83301 11.002 0.5l235 -99c5.33301 -2 8 -6 8 -12c0 -3.33301 -0.666992 -6 -2 -8
l-12 -35c-2.66699 -8 -7.33398 -12 -14.001 -12c-4 0 -7 0.333008 -9 1l-232 62c-11.333 4 -17 9.66699 -17 17c0 2.66699 0.666992 6 2 10l23 67c1.33301 4 3.66602 6.83301 6.99902 8.5z" />
    <glyph glyph-name="eacute" unicode="&#xe9;" horiz-adv-x="586" 
d="M227.5 129.5c25 -23 56.165 -34.502 93.498 -34.502c24 0 46.167 5.16699 66.5 15.5s40.833 27.5 61.5 51.5c2.66699 2.66699 5.33398 4 8.00098 4c2 0 5.33301 -1 10 -3l72 -30c4.66699 -2 7 -5.33301 7 -10c0 -3.33301 -1.33301 -6.66602 -4 -9.99902
c-32 -45.333 -66.333 -77.166 -103 -95.499s-82.334 -27.5 -137.001 -27.5c-51.333 0 -97.666 11.333 -138.999 34s-73.666 54.167 -96.999 94.5s-35 86.5 -35 138.5c0 56 12 105.5 36 148.5s56.5 76.167 97.5 99.5s85.833 35 134.5 35c50.667 0 95.667 -11.167 135 -33.5
s70 -54.5 92 -96.5s33 -92 33 -150c0 -8.66699 -0.833008 -14.667 -2.5 -18s-6.5 -5.33301 -14.5 -6h-340c-8 0 -12 -5.33301 -12 -16c0 -37.333 12.5 -67.5 37.5 -90.5zM390.998 319.998c7.33301 0 11.998 0.834961 13.998 2.50195s3 5.5 3 11.5
c0 17.333 -4 34.666 -12 51.999s-19.667 31.666 -35 42.999s-34 17 -56 17c-33.333 0 -60.666 -11.667 -81.999 -35s-31.666 -53.333 -30.999 -90zM440.996 675c1.33301 -4 2 -7.33398 2 -10.001c0 -7.33301 -5.66699 -13 -17 -17l-231 -62
c-2.66699 -0.666992 -5.66699 -1 -9 -1c-4 0 -7 0.833008 -9 2.5s-4 4.83398 -6 9.50098l-12 35l-2 8c0 6 2.66699 10 8 12l236 99c1.33301 0.666992 3 1 5 1c6 0 10 -3.33301 12 -10z" />
    <glyph glyph-name="ecircumflex" unicode="&#xea;" horiz-adv-x="586" 
d="M227.5 129.5c25 -23 56.165 -34.502 93.498 -34.502c24 0 46.167 5.16699 66.5 15.5s40.833 27.5 61.5 51.5c2.66699 2.66699 5.33398 4 8.00098 4c2 0 5.33301 -1 10 -3l72 -30c4.66699 -2 7 -5.33301 7 -10c0 -3.33301 -1.33301 -6.66602 -4 -9.99902
c-32 -45.333 -66.333 -77.166 -103 -95.499s-82.334 -27.5 -137.001 -27.5c-51.333 0 -97.666 11.333 -138.999 34s-73.666 54.167 -96.999 94.5s-35 86.5 -35 138.5c0 56 12 105.5 36 148.5s56.5 76.167 97.5 99.5s85.833 35 134.5 35c50.667 0 95.667 -11.167 135 -33.5
s70 -54.5 92 -96.5s33 -92 33 -150c0 -8.66699 -0.833008 -14.667 -2.5 -18s-6.5 -5.33301 -14.5 -6h-340c-8 0 -12 -5.33301 -12 -16c0 -37.333 12.5 -67.5 37.5 -90.5zM390.998 319.998c7.33301 0 11.998 0.834961 13.998 2.50195s3 5.5 3 11.5
c0 17.333 -4 34.666 -12 51.999s-19.667 31.666 -35 42.999s-34 17 -56 17c-33.333 0 -60.666 -11.667 -81.999 -35s-31.666 -53.333 -30.999 -90zM312.996 670c-2.66699 3.33301 -5.33203 6.16699 -7.99902 8.5s-5 3.5 -7 3.5c-3.33301 0 -8.33301 -4 -15 -12l-50 -53
c-4 -4 -7.33301 -6.33301 -10 -7s-7 -1 -13 -1h-81c-6 0 -9 1.66699 -9 5s2 7 6 11l108 112c5.33301 4.66699 10.166 8 14.499 10s10.5 3 18.5 3h72c6 0 10.667 -1 14 -3s7 -5 11 -9l107 -113c5.33301 -5.33301 8 -9.33301 8 -12s-3.33301 -4 -10 -4h-86
c-10.667 0 -18.667 2.66699 -24 8z" />
    <glyph glyph-name="edieresis" unicode="&#xeb;" horiz-adv-x="586" 
d="M227.5 129.5c25 -23 56.165 -34.502 93.498 -34.502c24 0 46.167 5.16699 66.5 15.5s40.833 27.5 61.5 51.5c2.66699 2.66699 5.33398 4 8.00098 4c2 0 5.33301 -1 10 -3l72 -30c4.66699 -2 7 -5.33301 7 -10c0 -3.33301 -1.33301 -6.66602 -4 -9.99902
c-32 -45.333 -66.333 -77.166 -103 -95.499s-82.334 -27.5 -137.001 -27.5c-51.333 0 -97.666 11.333 -138.999 34s-73.666 54.167 -96.999 94.5s-35 86.5 -35 138.5c0 56 12 105.5 36 148.5s56.5 76.167 97.5 99.5s85.833 35 134.5 35c50.667 0 95.667 -11.167 135 -33.5
s70 -54.5 92 -96.5s33 -92 33 -150c0 -8.66699 -0.833008 -14.667 -2.5 -18s-6.5 -5.33301 -14.5 -6h-340c-8 0 -12 -5.33301 -12 -16c0 -37.333 12.5 -67.5 37.5 -90.5zM390.998 319.998c7.33301 0 11.998 0.834961 13.998 2.50195s3 5.5 3 11.5
c0 17.333 -4 34.666 -12 51.999s-19.667 31.666 -35 42.999s-34 17 -56 17c-33.333 0 -60.666 -11.667 -81.999 -35s-31.666 -53.333 -30.999 -90zM265.996 632c0 -7.33301 -1.83203 -12.5 -5.49902 -15.5s-9.83398 -4.5 -18.501 -4.5h-93c-7.33301 0 -12.333 1.5 -15 4.5
s-4 7.5 -4 13.5v95c0 11.333 4.66699 17 14 17h108c9.33301 0 14 -5.33301 14 -16v-94zM468.997 632c0 -7.33301 -1.83203 -12.5 -5.49902 -15.5s-9.83398 -4.5 -18.501 -4.5h-93c-7.33301 0 -12.333 1.5 -15 4.5s-4 7.5 -4 13.5v95c0 11.333 4.66699 17 14 17h108
c9.33301 0 14 -5.33301 14 -16v-94z" />
    <glyph glyph-name="igrave" unicode="&#xec;" horiz-adv-x="265" 
d="M209 24c0 -8.66699 -2 -14.832 -6 -18.499s-11 -5.5 -21 -5.5h-105c-8 0 -13.667 1.66699 -17 5s-5 8.66602 -5 15.999v490c0 12.667 5.66699 19 17 19h122c10 0 15 -5.66699 15 -17v-489zM19 750.502c3.33301 1.66699 7.00195 1.83301 11.002 0.5l235 -99
c5.33301 -2 8 -6 8 -12c0 -3.33301 -0.666992 -6 -2 -8l-12 -35c-2.66699 -8 -7.33398 -12 -14.001 -12c-4 0 -7 0.333008 -9 1l-232 62c-11.333 4 -17 9.66699 -17 17c0 2.66699 0.666992 6 2 10l23 67c1.33301 4 3.66602 6.83301 6.99902 8.5z" />
    <glyph glyph-name="iacute" unicode="&#xed;" horiz-adv-x="265" 
d="M209 24c0 -8.66699 -2 -14.832 -6 -18.499s-11 -5.5 -21 -5.5h-105c-8 0 -13.667 1.66699 -17 5s-5 8.66602 -5 15.999v490c0 12.667 5.66699 19 17 19h122c10 0 15 -5.66699 15 -17v-489zM276 675.002c1.33301 -4 2 -7.33398 2 -10.001c0 -7.33301 -5.66699 -13 -17 -17
l-231 -62c-2.66699 -0.666992 -5.66699 -1 -9 -1c-4 0 -7 0.833008 -9 2.5s-4 4.83398 -6 9.50098l-12 35l-2 8c0 6 2.66699 10 8 12l236 99c1.33301 0.666992 3 1 5 1c6 0 10 -3.33301 12 -10z" />
    <glyph glyph-name="icircumflex" unicode="&#xee;" horiz-adv-x="265" 
d="M209 24c0 -8.66699 -2 -14.832 -6 -18.499s-11 -5.5 -21 -5.5h-105c-8 0 -13.667 1.66699 -17 5s-5 8.66602 -5 15.999v490c0 12.667 5.66699 19 17 19h122c10 0 15 -5.66699 15 -17v-489zM148 670.002c-2.66699 3.33301 -5.33203 6.16699 -7.99902 8.5s-5 3.5 -7 3.5
c-3.33301 0 -8.33301 -4 -15 -12l-50 -53c-4 -4 -7.33301 -6.33301 -10 -7s-7 -1 -13 -1h-81c-6 0 -9 1.66699 -9 5s2 7 6 11l108 112c5.33301 4.66699 10.166 8 14.499 10s10.5 3 18.5 3h72c6 0 10.667 -1 14 -3s7 -5 11 -9l107 -113c5.33301 -5.33301 8 -9.33301 8 -12
s-3.33301 -4 -10 -4h-86c-10.667 0 -18.667 2.66699 -24 8z" />
    <glyph glyph-name="idieresis" unicode="&#xef;" horiz-adv-x="265" 
d="M209 24c0 -8.66699 -2 -14.832 -6 -18.499s-11 -5.5 -21 -5.5h-105c-8 0 -13.667 1.66699 -17 5s-5 8.66602 -5 15.999v490c0 12.667 5.66699 19 17 19h122c10 0 15 -5.66699 15 -17v-489zM101 632.002c0 -7.33301 -1.83203 -12.5 -5.49902 -15.5
s-9.83398 -4.5 -18.501 -4.5h-93c-7.33301 0 -12.333 1.5 -15 4.5s-4 7.5 -4 13.5v95c0 11.333 4.66699 17 14 17h108c9.33301 0 14 -5.33301 14 -16v-94zM304.001 632.002c0 -7.33301 -1.83203 -12.5 -5.49902 -15.5s-9.83398 -4.5 -18.501 -4.5h-93
c-7.33301 0 -12.333 1.5 -15 4.5s-4 7.5 -4 13.5v95c0 11.333 4.66699 17 14 17h108c9.33301 0 14 -5.33301 14 -16v-94z" />
    <glyph glyph-name="eth" unicode="&#xf0;" horiz-adv-x="599" 
d="M534.5 124.5c-22.333 -43 -53.833 -76.168 -94.5 -99.501s-88 -35 -142 -35c-52 0 -98.167 11.333 -138.5 34s-71.833 54 -94.5 94s-34 84.667 -34 134c0 51.333 11.5 97.333 34.5 138s54.833 72.5 95.5 95.5s86 34.5 136 34.5c22 0 39 -5.33301 51 -16
c-22 38.667 -54 73 -96 103l-116 -66c-4 -2 -7 -3 -9 -3c-4 0 -8 3 -12 9l-13 21c-2.66699 3.33301 -4 7 -4 11s1.66699 6.66699 5 8l95 53c-28.667 16 -58.667 29.667 -90 41c-3.33301 1.33301 -5.33301 3.16602 -6 5.49902s0.666016 4.83301 3.99902 7.5l65 52
c4 4 7.66699 6 11 6l9 -2c46 -14 86 -29.667 120 -47l83 46c2.66699 2 5.33398 3 8.00098 3c2 0 4.33301 -1.33301 7 -4l19 -34c0.666992 -1.33301 1 -3 1 -5c0 -2.66699 -1.33301 -5 -4 -7l-59 -33c66 -45.333 116.167 -102.166 150.5 -170.499
s51.5 -143.166 51.5 -224.499c0 -56.667 -11.167 -106.5 -33.5 -149.5zM383 134.999c19.333 28.667 29 68.667 29 120c0 52.667 -9.83301 93.5 -29.5 122.5s-47.167 43.5 -82.5 43.5s-63 -14.667 -83 -44s-30 -70 -30 -122c0 -51.333 10 -91.333 30 -120s47.667 -43 83 -43
c36 0 63.667 14.333 83 43z" />
    <glyph glyph-name="ntilde" unicode="&#xf1;" horiz-adv-x="596" 
d="M60 4.5c-3.33301 3 -5 8.16699 -5 15.5v491c0 12.667 5.33301 19 16 19h121c10 0 15 -5.66699 15 -17v-49c0 -5.33301 1.66699 -8 5 -8c2 0 4.33301 1.33301 7 4c27.333 26 54.666 45.833 81.999 59.5s56.333 20.5 87 20.5c48.667 0 87.167 -14.333 115.5 -43
s42.5 -67 42.5 -115v-358c0 -16 -8 -24 -24 -24h-111c-7.33301 0 -12.333 1.5 -15 4.5s-4 8.16699 -4 15.5v338c0 22.667 -6.16699 40.167 -18.5 52.5s-30.5 18.5 -54.5 18.5c-20 0 -38.5 -5 -55.5 -15s-35.167 -25.667 -54.5 -47v-344c0 -8 -2 -13.833 -6 -17.5
s-10.667 -5.5 -20 -5.5h-107c-7.33301 0 -12.666 1.5 -15.999 4.5zM380 627c-12.667 0 -24.502 1.16797 -35.502 3.50098s-24.833 6.16602 -41.5 11.499c-15.333 4.66699 -28.166 8.16699 -38.499 10.5s-21.166 3.5 -32.499 3.5c-13.333 0 -24.666 -1.66699 -33.999 -5
s-20.333 -9.33301 -33 -18c-4.66699 -3.33301 -8 -5 -10 -5c-4 0 -7 4 -9 12l-14 43c-1.33301 4 -2 7.33301 -2 10c0 4 2.66699 8.66699 8 14c14 12 27.5 21.167 40.5 27.5s29.167 9.5 48.5 9.5c13.333 0 26.166 -1.33301 38.499 -4s27.833 -7 46.5 -13
c30 -10 52.667 -15 68 -15c12.667 0 24.5 2.16699 35.5 6.5s22.167 10.5 33.5 18.5c4 2.66699 7.33301 4 10 4c5.33301 0 9 -3.66699 11 -11l12 -52c0.666992 -1.33301 1 -3.33301 1 -6c0 -6 -4 -12 -12 -18c-26 -18 -56.333 -27 -91 -27z" />
    <glyph glyph-name="ograve" unicode="&#xf2;" horiz-adv-x="599" 
d="M159.5 24.5c-40.333 23 -71.832 55.166 -94.499 96.499s-34 88.333 -34 141c0 54.667 11.5 103 34.5 145s55 74.667 96 98s87.167 35 138.5 35c52.667 0 99.334 -11.833 140.001 -35.5s72.167 -56.5 94.5 -98.5s33.5 -89.667 33.5 -143
c0 -52.667 -11.333 -99.667 -34 -141s-54.334 -73.666 -95.001 -96.999s-87.334 -35 -140.001 -35s-99.167 11.5 -139.5 34.5zM383.501 135.499c19 29 28.5 72.167 28.5 129.5c0 58 -9.5 101.833 -28.5 131.5s-46.833 44.5 -83.5 44.5s-64.667 -14.833 -84 -44.5
s-29 -73.5 -29 -131.5c0 -56.667 9.66699 -99.667 29 -129s47.333 -44 84 -44s64.5 14.5 83.5 43.5zM184.001 750.499c3.33301 1.66699 7.00195 1.83301 11.002 0.5l235 -99c5.33301 -2 8 -6 8 -12c0 -3.33301 -0.666992 -6 -2 -8l-12 -35
c-2.66699 -8 -7.33398 -12 -14.001 -12c-4 0 -7 0.333008 -9 1l-232 62c-11.333 4 -17 9.66699 -17 17c0 2.66699 0.666992 6 2 10l23 67c1.33301 4 3.66602 6.83301 6.99902 8.5z" />
    <glyph glyph-name="oacute" unicode="&#xf3;" horiz-adv-x="599" 
d="M159.5 24.5c-40.333 23 -71.832 55.166 -94.499 96.499s-34 88.333 -34 141c0 54.667 11.5 103 34.5 145s55 74.667 96 98s87.167 35 138.5 35c52.667 0 99.334 -11.833 140.001 -35.5s72.167 -56.5 94.5 -98.5s33.5 -89.667 33.5 -143
c0 -52.667 -11.333 -99.667 -34 -141s-54.334 -73.666 -95.001 -96.999s-87.334 -35 -140.001 -35s-99.167 11.5 -139.5 34.5zM383.501 135.499c19 29 28.5 72.167 28.5 129.5c0 58 -9.5 101.833 -28.5 131.5s-46.833 44.5 -83.5 44.5s-64.667 -14.833 -84 -44.5
s-29 -73.5 -29 -131.5c0 -56.667 9.66699 -99.667 29 -129s47.333 -44 84 -44s64.5 14.5 83.5 43.5zM441.001 674.999c1.33301 -4 2 -7.33398 2 -10.001c0 -7.33301 -5.66699 -13 -17 -17l-231 -62c-2.66699 -0.666992 -5.66699 -1 -9 -1c-4 0 -7 0.833008 -9 2.5
s-4 4.83398 -6 9.50098l-12 35l-2 8c0 6 2.66699 10 8 12l236 99c1.33301 0.666992 3 1 5 1c6 0 10 -3.33301 12 -10z" />
    <glyph glyph-name="ocircumflex" unicode="&#xf4;" horiz-adv-x="599" 
d="M159.5 24.5c-40.333 23 -71.832 55.166 -94.499 96.499s-34 88.333 -34 141c0 54.667 11.5 103 34.5 145s55 74.667 96 98s87.167 35 138.5 35c52.667 0 99.334 -11.833 140.001 -35.5s72.167 -56.5 94.5 -98.5s33.5 -89.667 33.5 -143
c0 -52.667 -11.333 -99.667 -34 -141s-54.334 -73.666 -95.001 -96.999s-87.334 -35 -140.001 -35s-99.167 11.5 -139.5 34.5zM383.501 135.499c19 29 28.5 72.167 28.5 129.5c0 58 -9.5 101.833 -28.5 131.5s-46.833 44.5 -83.5 44.5s-64.667 -14.833 -84 -44.5
s-29 -73.5 -29 -131.5c0 -56.667 9.66699 -99.667 29 -129s47.333 -44 84 -44s64.5 14.5 83.5 43.5zM313.001 669.999c-2.66699 3.33301 -5.33203 6.16699 -7.99902 8.5s-5 3.5 -7 3.5c-3.33301 0 -8.33301 -4 -15 -12l-50 -53c-4 -4 -7.33301 -6.33301 -10 -7s-7 -1 -13 -1
h-81c-6 0 -9 1.66699 -9 5s2 7 6 11l108 112c5.33301 4.66699 10.166 8 14.499 10s10.5 3 18.5 3h72c6 0 10.667 -1 14 -3s7 -5 11 -9l107 -113c5.33301 -5.33301 8 -9.33301 8 -12s-3.33301 -4 -10 -4h-86c-10.667 0 -18.667 2.66699 -24 8z" />
    <glyph glyph-name="otilde" unicode="&#xf5;" horiz-adv-x="599" 
d="M159.5 24.5c-40.333 23 -71.832 55.166 -94.499 96.499s-34 88.333 -34 141c0 54.667 11.5 103 34.5 145s55 74.667 96 98s87.167 35 138.5 35c52.667 0 99.334 -11.833 140.001 -35.5s72.167 -56.5 94.5 -98.5s33.5 -89.667 33.5 -143
c0 -52.667 -11.333 -99.667 -34 -141s-54.334 -73.666 -95.001 -96.999s-87.334 -35 -140.001 -35s-99.167 11.5 -139.5 34.5zM383.501 135.499c19 29 28.5 72.167 28.5 129.5c0 58 -9.5 101.833 -28.5 131.5s-46.833 44.5 -83.5 44.5s-64.667 -14.833 -84 -44.5
s-29 -73.5 -29 -131.5c0 -56.667 9.66699 -99.667 29 -129s47.333 -44 84 -44s64.5 14.5 83.5 43.5zM376.001 626.999c-12.667 0 -24.502 1.16797 -35.502 3.50098s-24.833 6.16602 -41.5 11.499c-15.333 4.66699 -28.166 8.16699 -38.499 10.5s-21.166 3.5 -32.499 3.5
c-13.333 0 -24.666 -1.66699 -33.999 -5s-20.333 -9.33301 -33 -18c-4.66699 -3.33301 -8 -5 -10 -5c-4 0 -7 4 -9 12l-14 43c-1.33301 4 -2 7.33301 -2 10c0 4 2.66699 8.66699 8 14c14 12 27.5 21.167 40.5 27.5s29.167 9.5 48.5 9.5c13.333 0 26.166 -1.33301 38.499 -4
s27.833 -7 46.5 -13c30 -10 52.667 -15 68 -15c12.667 0 24.5 2.16699 35.5 6.5s22.167 10.5 33.5 18.5c4 2.66699 7.33301 4 10 4c5.33301 0 9 -3.66699 11 -11l12 -52c0.666992 -1.33301 1 -3.33301 1 -6c0 -6 -4 -12 -12 -18c-26 -18 -56.333 -27 -91 -27z" />
    <glyph glyph-name="odieresis" unicode="&#xf6;" horiz-adv-x="599" 
d="M159.5 24.5c-40.333 23 -71.832 55.166 -94.499 96.499s-34 88.333 -34 141c0 54.667 11.5 103 34.5 145s55 74.667 96 98s87.167 35 138.5 35c52.667 0 99.334 -11.833 140.001 -35.5s72.167 -56.5 94.5 -98.5s33.5 -89.667 33.5 -143
c0 -52.667 -11.333 -99.667 -34 -141s-54.334 -73.666 -95.001 -96.999s-87.334 -35 -140.001 -35s-99.167 11.5 -139.5 34.5zM383.501 135.499c19 29 28.5 72.167 28.5 129.5c0 58 -9.5 101.833 -28.5 131.5s-46.833 44.5 -83.5 44.5s-64.667 -14.833 -84 -44.5
s-29 -73.5 -29 -131.5c0 -56.667 9.66699 -99.667 29 -129s47.333 -44 84 -44s64.5 14.5 83.5 43.5zM266.001 631.999c0 -7.33301 -1.83203 -12.5 -5.49902 -15.5s-9.83398 -4.5 -18.501 -4.5h-93c-7.33301 0 -12.333 1.5 -15 4.5s-4 7.5 -4 13.5v95
c0 11.333 4.66699 17 14 17h108c9.33301 0 14 -5.33301 14 -16v-94zM469.002 631.999c0 -7.33301 -1.83203 -12.5 -5.49902 -15.5s-9.83398 -4.5 -18.501 -4.5h-93c-7.33301 0 -12.333 1.5 -15 4.5s-4 7.5 -4 13.5v95c0 11.333 4.66699 17 14 17h108
c9.33301 0 14 -5.33301 14 -16v-94z" />
    <glyph glyph-name="divide" unicode="&#xf7;" horiz-adv-x="584" 
d="M373 522c0 -8 -2 -13.5 -6 -16.5s-10.667 -4.5 -20 -4.5h-113c-8 0 -13.333 1.33301 -16 4s-4 7.66699 -4 15v116c0 11.333 4.66699 17 14 17h131c9.33301 0 14 -5 14 -15v-116zM536 340c0 -8 -2.16895 -13.667 -6.50195 -17s-11.166 -5 -20.499 -5l-440 -1
c-7.33301 0 -12.5 1.66699 -15.5 5s-4.5 8.33301 -4.5 15v73c0 12.667 5 19 15 19h457c4.66699 0 8.33398 -1.5 11.001 -4.5s4 -6.83301 4 -11.5v-73zM372.998 115c0 -8 -2 -13.667 -6 -17s-10.667 -5 -20 -5h-113c-8 0 -13.333 1.5 -16 4.5s-4 7.83301 -4 14.5v117
c0 11.333 4.66699 17 14 17h131c9.33301 0 14 -5 14 -15v-116z" />
    <glyph glyph-name="oslash" unicode="&#xf8;" horiz-adv-x="596" 
d="M576 484c0 -4 -1.99902 -8.00098 -5.99902 -12.001l-48 -46c30 -46.667 45 -101 45 -163c0 -52.667 -11.333 -99.667 -34 -141s-54.334 -73.666 -95.001 -96.999s-87.334 -35 -140.001 -35c-69.333 0 -127.666 19.667 -174.999 59l-41 -39c-6.66699 -6 -13 -9 -19 -9
c-5.33301 0 -11 3 -17 9l-16 17c-6.66699 6.66699 -10 13 -10 19c0 4 2.33301 8.33301 7 13l47 45c-29.333 45.333 -44 98 -44 158c0 54.667 11.5 103 34.5 145s55 74.667 96 98s87.167 35 138.5 35c68 0 126 -19.667 174 -59l43 40c6 6 11.333 9 16 9
c4 0 7.66699 -1.66699 11 -5l28 -30c3.33301 -3.33301 5 -7 5 -11zM189.001 211.999l194 184c-18 30 -46 45 -84 45c-36.667 0 -64.667 -14.833 -84 -44.5s-29 -73.5 -29 -131.5c0 -19.333 1 -37 3 -53zM408.001 317.999l-193 -182c19.333 -29.333 47.333 -44 84 -44
s64.5 14.5 83.5 43.5s28.5 72.167 28.5 129.5c0 19.333 -1 37 -3 53z" />
    <glyph glyph-name="ugrave" unicode="&#xf9;" horiz-adv-x="592" 
d="M383 160l0.000976562 346.998c0 15.333 8.66699 23 26 23h108c8 0 13.5 -1.66699 16.5 -5s4.5 -8.66602 4.5 -15.999l-2 -491c0 -5.33301 -1.5 -9.66602 -4.5 -12.999s-6.83301 -5 -11.5 -5h-119c-10 0 -15 5.66699 -15 17v49c0 4 -1 6.33301 -3 7
s-4.66699 -0.333008 -8 -3c-28 -28.667 -55.667 -49.167 -83 -61.5s-57 -18.5 -89 -18.5c-44.667 0 -81.334 14.5 -110.001 43.5s-43 68.167 -43 117.5v355c0 16 8 24 24 24h111c12.667 0 19 -7 19 -21v-336c0 -22 6.33301 -39.5 19 -52.5s29.667 -19.5 51 -19.5
c36.667 0 73 19.667 109 59zM174.001 750.498c3.33301 1.66699 7.00195 1.83301 11.002 0.5l235 -99c5.33301 -2 8 -6 8 -12c0 -3.33301 -0.666992 -6 -2 -8l-12 -35c-2.66699 -8 -7.33398 -12 -14.001 -12c-4 0 -7 0.333008 -9 1l-232 62c-11.333 4 -17 9.66699 -17 17
c0 2.66699 0.666992 6 2 10l23 67c1.33301 4 3.66602 6.83301 6.99902 8.5z" />
    <glyph glyph-name="uacute" unicode="&#xfa;" horiz-adv-x="592" 
d="M383 160l0.000976562 346.998c0 15.333 8.66699 23 26 23h108c8 0 13.5 -1.66699 16.5 -5s4.5 -8.66602 4.5 -15.999l-2 -491c0 -5.33301 -1.5 -9.66602 -4.5 -12.999s-6.83301 -5 -11.5 -5h-119c-10 0 -15 5.66699 -15 17v49c0 4 -1 6.33301 -3 7
s-4.66699 -0.333008 -8 -3c-28 -28.667 -55.667 -49.167 -83 -61.5s-57 -18.5 -89 -18.5c-44.667 0 -81.334 14.5 -110.001 43.5s-43 68.167 -43 117.5v355c0 16 8 24 24 24h111c12.667 0 19 -7 19 -21v-336c0 -22 6.33301 -39.5 19 -52.5s29.667 -19.5 51 -19.5
c36.667 0 73 19.667 109 59zM431.001 674.998c1.33301 -4 2 -7.33398 2 -10.001c0 -7.33301 -5.66699 -13 -17 -17l-231 -62c-2.66699 -0.666992 -5.66699 -1 -9 -1c-4 0 -7 0.833008 -9 2.5s-4 4.83398 -6 9.50098l-12 35l-2 8c0 6 2.66699 10 8 12l236 99
c1.33301 0.666992 3 1 5 1c6 0 10 -3.33301 12 -10z" />
    <glyph glyph-name="ucircumflex" unicode="&#xfb;" horiz-adv-x="592" 
d="M383 160l0.000976562 346.998c0 15.333 8.66699 23 26 23h108c8 0 13.5 -1.66699 16.5 -5s4.5 -8.66602 4.5 -15.999l-2 -491c0 -5.33301 -1.5 -9.66602 -4.5 -12.999s-6.83301 -5 -11.5 -5h-119c-10 0 -15 5.66699 -15 17v49c0 4 -1 6.33301 -3 7
s-4.66699 -0.333008 -8 -3c-28 -28.667 -55.667 -49.167 -83 -61.5s-57 -18.5 -89 -18.5c-44.667 0 -81.334 14.5 -110.001 43.5s-43 68.167 -43 117.5v355c0 16 8 24 24 24h111c12.667 0 19 -7 19 -21v-336c0 -22 6.33301 -39.5 19 -52.5s29.667 -19.5 51 -19.5
c36.667 0 73 19.667 109 59zM303.001 669.998c-2.66699 3.33301 -5.33203 6.16699 -7.99902 8.5s-5 3.5 -7 3.5c-3.33301 0 -8.33301 -4 -15 -12l-50 -53c-4 -4 -7.33301 -6.33301 -10 -7s-7 -1 -13 -1h-81c-6 0 -9 1.66699 -9 5s2 7 6 11l108 112
c5.33301 4.66699 10.166 8 14.499 10s10.5 3 18.5 3h72c6 0 10.667 -1 14 -3s7 -5 11 -9l107 -113c5.33301 -5.33301 8 -9.33301 8 -12s-3.33301 -4 -10 -4h-86c-10.667 0 -18.667 2.66699 -24 8z" />
    <glyph glyph-name="udieresis" unicode="&#xfc;" horiz-adv-x="592" 
d="M383 160l0.000976562 346.998c0 15.333 8.66699 23 26 23h108c8 0 13.5 -1.66699 16.5 -5s4.5 -8.66602 4.5 -15.999l-2 -491c0 -5.33301 -1.5 -9.66602 -4.5 -12.999s-6.83301 -5 -11.5 -5h-119c-10 0 -15 5.66699 -15 17v49c0 4 -1 6.33301 -3 7
s-4.66699 -0.333008 -8 -3c-28 -28.667 -55.667 -49.167 -83 -61.5s-57 -18.5 -89 -18.5c-44.667 0 -81.334 14.5 -110.001 43.5s-43 68.167 -43 117.5v355c0 16 8 24 24 24h111c12.667 0 19 -7 19 -21v-336c0 -22 6.33301 -39.5 19 -52.5s29.667 -19.5 51 -19.5
c36.667 0 73 19.667 109 59zM256.001 631.998c0 -7.33301 -1.83203 -12.5 -5.49902 -15.5s-9.83398 -4.5 -18.501 -4.5h-93c-7.33301 0 -12.333 1.5 -15 4.5s-4 7.5 -4 13.5v95c0 11.333 4.66699 17 14 17h108c9.33301 0 14 -5.33301 14 -16v-94zM459.002 631.998
c0 -7.33301 -1.83203 -12.5 -5.49902 -15.5s-9.83398 -4.5 -18.501 -4.5h-93c-7.33301 0 -12.333 1.5 -15 4.5s-4 7.5 -4 13.5v95c0 11.333 4.66699 17 14 17h108c9.33301 0 14 -5.33301 14 -16v-94z" />
    <glyph glyph-name="yacute" unicode="&#xfd;" horiz-adv-x="566" 
d="M58 -161.5c-8.66699 2.33301 -12.9971 7.5 -12.9971 15.5v77c0 10.667 9.66699 16 29 16h68c20 0 37.333 7.5 52 22.5s22 30.833 22 47.5c0 6 -1 11.333 -3 16l-192 473c-1.33301 4 -2 6.66699 -2 8c0 4.66699 1.66699 8.5 5 11.5s7.66602 4.5 12.999 4.5h126
c4.66699 0 9.16699 -1.5 13.5 -4.5s7.16602 -7.16699 8.49902 -12.5l111 -298c2 -6.66699 4.66699 -10 8 -10c2.66699 0 5.66699 3.66699 9 11l110 298c4.66699 10.667 12 16 22 16h86c4.66699 0 8.5 -1.5 11.5 -4.5s4.5 -6.5 4.5 -10.5c0 -1.33301 -0.666992 -4 -2 -8
l-205 -507c-18.667 -46 -38.334 -80.667 -59.001 -104s-44.5 -39.333 -71.5 -48s-62.167 -13 -105.5 -13c-22 0 -37.333 1.16699 -46 3.5zM447.003 675c1.33301 -4 2 -7.33398 2 -10.001c0 -7.33301 -5.66699 -13 -17 -17l-231 -62c-2.66699 -0.666992 -5.66699 -1 -9 -1
c-4 0 -7 0.833008 -9 2.5s-4 4.83398 -6 9.50098l-12 35l-2 8c0 6 2.66699 10 8 12l236 99c1.33301 0.666992 3 1 5 1c6 0 10 -3.33301 12 -10z" />
    <glyph glyph-name="thorn" unicode="&#xfe;" horiz-adv-x="607" 
d="M205 737.5c3.33301 -3 5.00098 -8.16699 5.00098 -15.5v-242c0 -4.66699 1.33301 -7 4 -7c2 0 5.33301 1.66699 10 5c20.667 19.333 41.834 34.5 63.501 45.5s49.167 16.5 82.5 16.5c60.667 0 110 -23 148 -69s57 -113.333 57 -202c0 -92 -19.5 -161.5 -58.5 -208.5
s-90.5 -70.5 -154.5 -70.5c-52.667 0 -97.334 17 -134.001 51c-6.66699 5.33301 -11.334 8 -14.001 8c-3.33301 0 -5 -4.66699 -5 -14v-183c0 -11.333 -5 -17 -15 -17h-123c-4.66699 0 -8.5 1.5 -11.5 4.5s-4.5 7.5 -4.5 13.5v867c0 8 1.83301 13.667 5.5 17s9.5 5 17.5 5
h110c8 0 13.667 -1.5 17 -4.5zM254.001 100c15.333 -8.66699 32.3311 -12.999 50.998 -12.999c76 0 114 61.667 114 185c0 61.333 -9.66699 105.166 -29 131.499s-46.666 39.5 -81.999 39.5c-27.333 0 -50.666 -8.16699 -69.999 -24.5s-29 -34.833 -29 -55.5v-226
c14.667 -16 29.667 -28.333 45 -37z" />
    <glyph glyph-name="ydieresis" unicode="&#xff;" horiz-adv-x="566" 
d="M58 -161.5c-8.66699 2.33301 -12.9971 7.5 -12.9971 15.5v77c0 10.667 9.66699 16 29 16h68c20 0 37.333 7.5 52 22.5s22 30.833 22 47.5c0 6 -1 11.333 -3 16l-192 473c-1.33301 4 -2 6.66699 -2 8c0 4.66699 1.66699 8.5 5 11.5s7.66602 4.5 12.999 4.5h126
c4.66699 0 9.16699 -1.5 13.5 -4.5s7.16602 -7.16699 8.49902 -12.5l111 -298c2 -6.66699 4.66699 -10 8 -10c2.66699 0 5.66699 3.66699 9 11l110 298c4.66699 10.667 12 16 22 16h86c4.66699 0 8.5 -1.5 11.5 -4.5s4.5 -6.5 4.5 -10.5c0 -1.33301 -0.666992 -4 -2 -8
l-205 -507c-18.667 -46 -38.334 -80.667 -59.001 -104s-44.5 -39.333 -71.5 -48s-62.167 -13 -105.5 -13c-22 0 -37.333 1.16699 -46 3.5zM272.003 632c0 -7.33301 -1.83203 -12.5 -5.49902 -15.5s-9.83398 -4.5 -18.501 -4.5h-93c-7.33301 0 -12.333 1.5 -15 4.5
s-4 7.5 -4 13.5v95c0 11.333 4.66699 17 14 17h108c9.33301 0 14 -5.33301 14 -16v-94zM475.004 632c0 -7.33301 -1.83203 -12.5 -5.49902 -15.5s-9.83398 -4.5 -18.501 -4.5h-93c-7.33301 0 -12.333 1.5 -15 4.5s-4 7.5 -4 13.5v95c0 11.333 4.66699 17 14 17h108
c9.33301 0 14 -5.33301 14 -16v-94z" />
    <glyph glyph-name="Amacron" unicode="&#x100;" horiz-adv-x="771" 
d="M33 17c0 5.33301 0.666992 9.33203 2 11.999l249 693c2.66699 7.33301 5.83398 12.5 9.50098 15.5s9.16699 4.5 16.5 4.5h150c7.33301 0 13.666 -2 18.999 -6s9 -9.33301 11 -16l247 -693c1.33301 -4 2 -7 2 -9c0 -5.33301 -1.16699 -9.66602 -3.5 -12.999
s-5.83301 -5 -10.5 -5h-147c-10 0 -16.333 4.66699 -19 14l-52 146c-1.33301 4 -2.83301 6.83301 -4.5 8.5s-4.5 2.5 -8.5 2.5h-244c-6.66699 0 -11 -3.33301 -13 -10l-53 -148c-4 -8.66699 -11 -13 -21 -13h-115c-10 0 -15 5.66699 -15 17zM453 303.999
c6.66699 0 10 2.66699 10 8c0 4 -0.333008 7 -1 9l-84 234c-2 4 -4.33301 6 -7 6c-2 0 -4 -2.33301 -6 -7l-85 -233c-1.33301 -4 -2 -7 -2 -9c0 -5.33301 3.66699 -8 11 -8h164zM564 868.999c0 -12.667 -7.66602 -19 -22.999 -19h-324c-6.66699 0 -11.334 1.5 -14.001 4.5
s-4 7.5 -4 13.5v64c0 10.667 4.33301 16 13 16h339c4 0 7.16699 -1.33301 9.5 -4s3.5 -6 3.5 -10v-65z" />
    <glyph glyph-name="amacron" unicode="&#x101;" horiz-adv-x="563" 
d="M190 -10c-50 0 -89.6641 13.5 -118.997 40.5s-44 62.167 -44 105.5c0 56 25.667 101 77 135s122 52 212 54l36 3c4 0 7.5 1.16699 10.5 3.5s4.5 5.83301 4.5 10.5v21c0 26 -7.33301 46 -22 60s-35.667 21 -63 21c-46.667 0 -81.334 -20 -104.001 -60
c-2.66699 -6.66699 -7 -10 -13 -10c-3.33301 0 -6.33301 0.333008 -9 1l-100 23c-6 1.33301 -9 5 -9 11c0 4 1.33301 9 4 15c16 38.667 44.5 67.667 85.5 87s91.833 29 152.5 29c79.333 0 136.666 -14.5 171.999 -43.5s53 -70.167 53 -123.5v-351
c0 -8 -1.33301 -13.667 -4 -17s-7.66699 -5 -15 -5h-103c-6.66699 -0 -11.5 2.33301 -14.5 7s-5.16699 11.667 -6.5 21l-1 22c-0.666992 6 -3.33398 9 -8.00098 9c-2.66699 0 -7.66699 -2.66699 -15 -8c-44 -40.667 -96.333 -61 -157 -61zM364.003 249
c-2 2.66699 -5.99902 4 -11.999 4l-28 -2c-38.667 -2 -72.834 -11.167 -102.501 -27.5s-44.5 -38.833 -44.5 -67.5c0 -20 7 -35.833 21 -47.5s33.333 -17.5 58 -17.5c30.667 0 56.667 9 78 27c22 17.333 33 35 33 53v65c0 6 -1 10.333 -3 13zM470.004 657
c0 -12.667 -7.66602 -19 -22.999 -19h-324c-6.66699 0 -11.334 1.5 -14.001 4.5s-4 7.5 -4 13.5v64c0 10.667 4.33301 16 13 16h339c4 0 7.16699 -1.33301 9.5 -4s3.5 -6 3.5 -10v-65z" />
    <glyph glyph-name="Abreve" unicode="&#x102;" horiz-adv-x="771" 
d="M33 17c0 5.33301 0.666992 9.33203 2 11.999l249 693c2.66699 7.33301 5.83398 12.5 9.50098 15.5s9.16699 4.5 16.5 4.5h150c7.33301 0 13.666 -2 18.999 -6s9 -9.33301 11 -16l247 -693c1.33301 -4 2 -7 2 -9c0 -5.33301 -1.16699 -9.66602 -3.5 -12.999
s-5.83301 -5 -10.5 -5h-147c-10 0 -16.333 4.66699 -19 14l-52 146c-1.33301 4 -2.83301 6.83301 -4.5 8.5s-4.5 2.5 -8.5 2.5h-244c-6.66699 0 -11 -3.33301 -13 -10l-53 -148c-4 -8.66699 -11 -13 -21 -13h-115c-10 0 -15 5.66699 -15 17zM453 303.999
c6.66699 0 10 2.66699 10 8c0 4 -0.333008 7 -1 9l-84 234c-2 4 -4.33301 6 -7 6c-2 0 -4 -2.33301 -6 -7l-85 -233c-1.33301 -4 -2 -7 -2 -9c0 -5.33301 3.66699 -8 11 -8h164zM559.5 950.499c1.66699 -2.33301 1.83398 -6.16504 0.500977 -11.498
c-11.333 -36.667 -33 -65.5 -65 -86.5s-69.667 -31.5 -113 -31.5c-42.667 0 -79.834 10.333 -111.501 31s-53.5 50 -65.5 88l-1 5c0 6 3.33301 9 10 9h65c4.66699 0 8.5 -0.833008 11.5 -2.5s6.16699 -4.83398 9.5 -9.50098c8 -12.667 19.333 -23.334 34 -32.001
s30.667 -13 48 -13c16.667 0 32.667 4.33301 48 13s27.333 19.667 36 33c2.66699 4.66699 5.16699 7.66699 7.5 9s5.5 2 9.5 2h65c6 0 9.83301 -1.16699 11.5 -3.5z" />
    <glyph glyph-name="abreve" unicode="&#x103;" horiz-adv-x="563" 
d="M190 -10c-50 0 -89.6641 13.5 -118.997 40.5s-44 62.167 -44 105.5c0 56 25.667 101 77 135s122 52 212 54l36 3c4 0 7.5 1.16699 10.5 3.5s4.5 5.83301 4.5 10.5v21c0 26 -7.33301 46 -22 60s-35.667 21 -63 21c-46.667 0 -81.334 -20 -104.001 -60
c-2.66699 -6.66699 -7 -10 -13 -10c-3.33301 0 -6.33301 0.333008 -9 1l-100 23c-6 1.33301 -9 5 -9 11c0 4 1.33301 9 4 15c16 38.667 44.5 67.667 85.5 87s91.833 29 152.5 29c79.333 0 136.666 -14.5 171.999 -43.5s53 -70.167 53 -123.5v-351
c0 -8 -1.33301 -13.667 -4 -17s-7.66699 -5 -15 -5h-103c-6.66699 -0 -11.5 2.33301 -14.5 7s-5.16699 11.667 -6.5 21l-1 22c-0.666992 6 -3.33398 9 -8.00098 9c-2.66699 0 -7.66699 -2.66699 -15 -8c-44 -40.667 -96.333 -61 -157 -61zM364.003 249
c-2 2.66699 -5.99902 4 -11.999 4l-28 -2c-38.667 -2 -72.834 -11.167 -102.501 -27.5s-44.5 -38.833 -44.5 -67.5c0 -20 7 -35.833 21 -47.5s33.333 -17.5 58 -17.5c30.667 0 56.667 9 78 27c22 17.333 33 35 33 53v65c0 6 -1 10.333 -3 13zM465.504 738.5
c1.66699 -2.33301 1.83398 -6.16504 0.500977 -11.498c-11.333 -36.667 -33 -65.5 -65 -86.5s-69.667 -31.5 -113 -31.5c-42.667 0 -79.834 10.333 -111.501 31s-53.5 50 -65.5 88l-1 5c0 6 3.33301 9 10 9h65c4.66699 0 8.5 -0.833008 11.5 -2.5
s6.16699 -4.83398 9.5 -9.50098c8 -12.667 19.333 -23.334 34 -32.001s30.667 -13 48 -13c16.667 0 32.667 4.33301 48 13s27.333 19.667 36 33c2.66699 4.66699 5.16699 7.66699 7.5 9s5.5 2 9.5 2h65c6 0 9.83301 -1.16699 11.5 -3.5z" />
    <glyph glyph-name="Aogonek" unicode="&#x104;" horiz-adv-x="771" 
d="M742 -85c2.66699 0 4.33398 -0.833984 5.00098 -2.50098s1 -4.5 1 -8.5v-43c0 -7.33301 -2.66699 -12.333 -8 -15c-9.33301 -4.66699 -23.333 -9 -42 -13s-38 -6 -58 -6c-35.333 0 -63 7.16699 -83 21.5s-30 35.166 -30 62.499c0 18.667 6 35.167 18 49.5
s33.333 27.5 64 39.5h-31c-10 0 -16.333 4.66699 -19 14l-52 146c-1.33301 4 -2.83301 6.83301 -4.5 8.5s-4.5 2.5 -8.5 2.5h-244c-6.66699 0 -11 -3.33301 -13 -10l-53 -148c-4 -8.66699 -11 -13 -21 -13h-115c-10 0 -15 5.66699 -15 17c0 5.33301 0.666992 9.33301 2 12
l249 693c2.66699 7.33301 5.83398 12.5 9.50098 15.5s9.16699 4.5 16.5 4.5h150c7.33301 0 13.666 -2 18.999 -6s9 -9.33301 11 -16l247 -693c1.33301 -4 2 -7 2 -9c0 -5.33301 -1.16699 -9.66602 -3.5 -12.999s-5.83301 -5 -10.5 -5h-3
c-30.667 -11.333 -52.334 -22.5 -65.001 -33.5s-19 -22.833 -19 -35.5c0 -11.333 3 -19.666 9 -24.999s15.333 -8 28 -8c20 0 39.333 5 58 15c2.66699 1.33301 5.66699 2 9 2zM463 311.999c0 4 -0.333008 7 -1 9l-84 234c-2 4 -4.33301 6 -7 6c-2 0 -4 -2.33301 -6 -7
l-85 -233c-1.33301 -4 -2 -7 -2 -9c0 -5.33301 3.66699 -8 11 -8h164c6.66699 0 10 2.66699 10 8z" />
    <glyph glyph-name="aogonek" unicode="&#x105;" horiz-adv-x="563" 
d="M519 -84c2.66699 0 4.33691 -0.832031 5.00391 -2.49902s1 -4.5 1 -8.5v-43c0 -7.33301 -2.66699 -12.333 -8 -15c-9.33301 -4.66699 -23.333 -9 -42 -13s-38 -6 -58 -6c-35.333 0 -63 7.16699 -83 21.5s-30 35.166 -30 62.499c0 18.667 6 35.167 18 49.5
s33.333 27.5 64 39.5c-7.33301 2 -12.333 11 -15 27l-1 22c-0.666992 6 -3.33398 9 -8.00098 9c-2.66699 0 -7.66699 -2.66699 -15 -8c-44 -40.667 -96.333 -61 -157 -61c-50 0 -89.667 13.5 -119 40.5s-44 62.167 -44 105.5c0 56 25.667 101 77 135s122 52 212 54l36 3
c4 0 7.5 1.16699 10.5 3.5s4.5 5.83301 4.5 10.5v21c0 26 -7.33301 46 -22 60s-35.667 21 -63 21c-46.667 0 -81.334 -20 -104.001 -60c-2.66699 -6.66699 -7 -10 -13 -10c-3.33301 0 -6.33301 0.333008 -9 1l-100 23c-6 1.33301 -9 5 -9 11c0 4 1.33301 9 4 15
c16 38.667 44.5 67.667 85.5 87s91.833 29 152.5 29c79.333 0 136.666 -14.5 171.999 -43.5s53 -70.167 53 -123.5v-351c0 -8 -1.33301 -13.667 -4 -17s-7.33398 -5 -14.001 -5c-30 -11.333 -51 -22.333 -63 -33s-18 -22.334 -18 -35.001c0 -11.333 3 -19.666 9 -24.999
s15.333 -8 28 -8c20 0 39.333 5 58 15c2.66699 1.33301 5.66699 2 9 2zM367.003 236.001c0 6 -0.999023 10.333 -2.99902 13s-6 4 -12 4l-28 -2c-38.667 -2 -72.834 -11.167 -102.501 -27.5s-44.5 -38.833 -44.5 -67.5c0 -20 7 -35.833 21 -47.5s33.333 -17.5 58 -17.5
c30.667 0 56.667 9 78 27c22 17.333 33 35 33 53v65z" />
    <glyph glyph-name="Cacute" unicode="&#x106;" horiz-adv-x="725" 
d="M522 723c42.667 -19.333 77.8311 -45.667 105.498 -79s45.167 -70.666 52.5 -111.999c1.33301 -4.66699 2 -10 2 -16c0 -4 -1 -6.66699 -3 -8s-5 -2.33301 -9 -3l-135 -9c-6 0 -9.83301 1 -11.5 3s-3.16699 6 -4.5 12c-7.33301 36.667 -22 65.667 -44 87
s-51.333 32 -88 32c-106.667 0 -160 -85.333 -160 -256c0 -88.667 13.333 -153.334 40 -194.001s67.334 -61 122.001 -61c40 0 73.833 10 101.5 30s50.167 52.667 67.5 98c2 4.66699 6.33301 7 13 7c4 0 7 -0.333008 9 -1l98 -21c9.33301 -3.33301 13 -11.666 11 -24.999
c-6.66699 -28.667 -22.167 -59.667 -46.5 -93s-58.5 -62.333 -102.5 -87s-96.667 -37 -158 -37c-68.667 0 -128.5 16.167 -179.5 48.5s-90.167 77.666 -117.5 135.999s-41 125.833 -41 202.5c0 76 13.667 142.333 41 199s66.5 100.167 117.5 130.5s110.833 45.5 179.5 45.5
c50.667 0 97.334 -9.66699 140.001 -29zM522.997 886.999c1.33301 -4 2 -7.33398 2 -10.001c0 -7.33301 -5.66699 -13 -17 -17l-231 -62c-2.66699 -0.666992 -5.66699 -1 -9 -1c-4 0 -7 0.833008 -9 2.5s-4 4.83398 -6 9.50098l-12 35l-2 8c0 6 2.66699 10 8 12l236 99
c1.33301 0.666992 3 1 5 1c6 0 10 -3.33301 12 -10z" />
    <glyph glyph-name="cacute" unicode="&#x107;" horiz-adv-x="551" 
d="M444.5 495.5c39 -29.667 65.165 -65.498 78.498 -107.498c1.33301 -5.33301 2 -8.66602 2 -9.99902c0 -6 -4.66699 -9.66699 -14 -11l-105 -10h-3c-6 0 -10 3.66699 -12 11c-12 24 -24.167 41.833 -36.5 53.5s-29.833 17.5 -52.5 17.5c-36 0 -64.167 -14.667 -84.5 -44
s-30.5 -72.666 -30.5 -129.999c0 -58.667 10.833 -102.667 32.5 -132s51.834 -44 90.501 -44c27.333 0 49.666 7 66.999 21s34.333 35.333 51 64c2 3.33301 4.16699 5.16602 6.5 5.49902s5.83301 0.166016 10.5 -0.500977l74 -17c6 -0.666992 9 -4 9 -10l-2 -9
c-13.333 -38.667 -39.166 -73.834 -77.499 -105.501s-88.833 -47.5 -151.5 -47.5c-51.333 0 -97.166 11.5 -137.499 34.5s-71.833 55.167 -94.5 96.5s-34 88.666 -34 141.999c0 54 11.5 102 34.5 144s54.667 74.667 95 98s85.833 35 136.5 35
c59.333 0 108.5 -14.833 147.5 -44.5zM437.998 675.002c1.33301 -4 2 -7.33398 2 -10.001c0 -7.33301 -5.66699 -13 -17 -17l-231 -62c-2.66699 -0.666992 -5.66699 -1 -9 -1c-4 0 -7 0.833008 -9 2.5s-4 4.83398 -6 9.50098l-12 35l-2 8c0 6 2.66699 10 8 12l236 99
c1.33301 0.666992 3 1 5 1c6 0 10 -3.33301 12 -10z" />
    <glyph glyph-name="Ccircumflex" unicode="&#x108;" horiz-adv-x="725" 
d="M522 723c42.667 -19.333 77.8311 -45.667 105.498 -79s45.167 -70.666 52.5 -111.999c1.33301 -4.66699 2 -10 2 -16c0 -4 -1 -6.66699 -3 -8s-5 -2.33301 -9 -3l-135 -9c-6 0 -9.83301 1 -11.5 3s-3.16699 6 -4.5 12c-7.33301 36.667 -22 65.667 -44 87
s-51.333 32 -88 32c-106.667 0 -160 -85.333 -160 -256c0 -88.667 13.333 -153.334 40 -194.001s67.334 -61 122.001 -61c40 0 73.833 10 101.5 30s50.167 52.667 67.5 98c2 4.66699 6.33301 7 13 7c4 0 7 -0.333008 9 -1l98 -21c9.33301 -3.33301 13 -11.666 11 -24.999
c-6.66699 -28.667 -22.167 -59.667 -46.5 -93s-58.5 -62.333 -102.5 -87s-96.667 -37 -158 -37c-68.667 0 -128.5 16.167 -179.5 48.5s-90.167 77.666 -117.5 135.999s-41 125.833 -41 202.5c0 76 13.667 142.333 41 199s66.5 100.167 117.5 130.5s110.833 45.5 179.5 45.5
c50.667 0 97.334 -9.66699 140.001 -29zM394.997 881.999c-2.66699 3.33301 -5.33203 6.16699 -7.99902 8.5s-5 3.5 -7 3.5c-3.33301 0 -8.33301 -4 -15 -12l-50 -53c-4 -4 -7.33301 -6.33301 -10 -7s-7 -1 -13 -1h-81c-6 0 -9 1.66699 -9 5s2 7 6 11l108 112
c5.33301 4.66699 10.166 8 14.499 10s10.5 3 18.5 3h72c6 0 10.667 -1 14 -3s7 -5 11 -9l107 -113c5.33301 -5.33301 8 -9.33301 8 -12s-3.33301 -4 -10 -4h-86c-10.667 0 -18.667 2.66699 -24 8z" />
    <glyph glyph-name="ccircumflex" unicode="&#x109;" horiz-adv-x="551" 
d="M444.5 495.5c39 -29.667 65.165 -65.498 78.498 -107.498c1.33301 -5.33301 2 -8.66602 2 -9.99902c0 -6 -4.66699 -9.66699 -14 -11l-105 -10h-3c-6 0 -10 3.66699 -12 11c-12 24 -24.167 41.833 -36.5 53.5s-29.833 17.5 -52.5 17.5c-36 0 -64.167 -14.667 -84.5 -44
s-30.5 -72.666 -30.5 -129.999c0 -58.667 10.833 -102.667 32.5 -132s51.834 -44 90.501 -44c27.333 0 49.666 7 66.999 21s34.333 35.333 51 64c2 3.33301 4.16699 5.16602 6.5 5.49902s5.83301 0.166016 10.5 -0.500977l74 -17c6 -0.666992 9 -4 9 -10l-2 -9
c-13.333 -38.667 -39.166 -73.834 -77.499 -105.501s-88.833 -47.5 -151.5 -47.5c-51.333 0 -97.166 11.5 -137.499 34.5s-71.833 55.167 -94.5 96.5s-34 88.666 -34 141.999c0 54 11.5 102 34.5 144s54.667 74.667 95 98s85.833 35 136.5 35
c59.333 0 108.5 -14.833 147.5 -44.5zM309.998 670.002c-2.66699 3.33301 -5.33203 6.16699 -7.99902 8.5s-5 3.5 -7 3.5c-3.33301 0 -8.33301 -4 -15 -12l-50 -53c-4 -4 -7.33301 -6.33301 -10 -7s-7 -1 -13 -1h-81c-6 0 -9 1.66699 -9 5s2 7 6 11l108 112
c5.33301 4.66699 10.166 8 14.499 10s10.5 3 18.5 3h72c6 0 10.667 -1 14 -3s7 -5 11 -9l107 -113c5.33301 -5.33301 8 -9.33301 8 -12s-3.33301 -4 -10 -4h-86c-10.667 0 -18.667 2.66699 -24 8z" />
    <glyph glyph-name="Cdotaccent" unicode="&#x10a;" horiz-adv-x="725" 
d="M522 723c42.667 -19.333 77.8311 -45.667 105.498 -79s45.167 -70.666 52.5 -111.999c1.33301 -4.66699 2 -10 2 -16c0 -4 -1 -6.66699 -3 -8s-5 -2.33301 -9 -3l-135 -9c-6 0 -9.83301 1 -11.5 3s-3.16699 6 -4.5 12c-7.33301 36.667 -22 65.667 -44 87
s-51.333 32 -88 32c-106.667 0 -160 -85.333 -160 -256c0 -88.667 13.333 -153.334 40 -194.001s67.334 -61 122.001 -61c40 0 73.833 10 101.5 30s50.167 52.667 67.5 98c2 4.66699 6.33301 7 13 7c4 0 7 -0.333008 9 -1l98 -21c9.33301 -3.33301 13 -11.666 11 -24.999
c-6.66699 -28.667 -22.167 -59.667 -46.5 -93s-58.5 -62.333 -102.5 -87s-96.667 -37 -158 -37c-68.667 0 -128.5 16.167 -179.5 48.5s-90.167 77.666 -117.5 135.999s-41 125.833 -41 202.5c0 76 13.667 142.333 41 199s66.5 100.167 117.5 130.5s110.833 45.5 179.5 45.5
c50.667 0 97.334 -9.66699 140.001 -29zM460.997 829.999c0 -8.66699 -2.16797 -14.833 -6.50098 -18.5s-11.166 -5.5 -20.499 -5.5h-108c-8 0 -13.667 1.66699 -17 5s-5 9 -5 17v107c0 12.667 5.33301 19 16 19h125c10.667 0 16 -6 16 -18v-106z" />
    <glyph glyph-name="cdotaccent" unicode="&#x10b;" horiz-adv-x="551" 
d="M444.5 495.5c39 -29.667 65.165 -65.498 78.498 -107.498c1.33301 -5.33301 2 -8.66602 2 -9.99902c0 -6 -4.66699 -9.66699 -14 -11l-105 -10h-3c-6 0 -10 3.66699 -12 11c-12 24 -24.167 41.833 -36.5 53.5s-29.833 17.5 -52.5 17.5c-36 0 -64.167 -14.667 -84.5 -44
s-30.5 -72.666 -30.5 -129.999c0 -58.667 10.833 -102.667 32.5 -132s51.834 -44 90.501 -44c27.333 0 49.666 7 66.999 21s34.333 35.333 51 64c2 3.33301 4.16699 5.16602 6.5 5.49902s5.83301 0.166016 10.5 -0.500977l74 -17c6 -0.666992 9 -4 9 -10l-2 -9
c-13.333 -38.667 -39.166 -73.834 -77.499 -105.501s-88.833 -47.5 -151.5 -47.5c-51.333 0 -97.166 11.5 -137.499 34.5s-71.833 55.167 -94.5 96.5s-34 88.666 -34 141.999c0 54 11.5 102 34.5 144s54.667 74.667 95 98s85.833 35 136.5 35
c59.333 0 108.5 -14.833 147.5 -44.5zM375.998 618.002c0 -8.66699 -2.16797 -14.833 -6.50098 -18.5s-11.166 -5.5 -20.499 -5.5h-108c-8 0 -13.667 1.66699 -17 5s-5 9 -5 17v107c0 12.667 5.33301 19 16 19h125c10.667 0 16 -6 16 -18v-106z" />
    <glyph glyph-name="Ccaron" unicode="&#x10c;" horiz-adv-x="725" 
d="M522 723c42.667 -19.333 77.8311 -45.667 105.498 -79s45.167 -70.666 52.5 -111.999c1.33301 -4.66699 2 -10 2 -16c0 -4 -1 -6.66699 -3 -8s-5 -2.33301 -9 -3l-135 -9c-6 0 -9.83301 1 -11.5 3s-3.16699 6 -4.5 12c-7.33301 36.667 -22 65.667 -44 87
s-51.333 32 -88 32c-106.667 0 -160 -85.333 -160 -256c0 -88.667 13.333 -153.334 40 -194.001s67.334 -61 122.001 -61c40 0 73.833 10 101.5 30s50.167 52.667 67.5 98c2 4.66699 6.33301 7 13 7c4 0 7 -0.333008 9 -1l98 -21c9.33301 -3.33301 13 -11.666 11 -24.999
c-6.66699 -28.667 -22.167 -59.667 -46.5 -93s-58.5 -62.333 -102.5 -87s-96.667 -37 -158 -37c-68.667 0 -128.5 16.167 -179.5 48.5s-90.167 77.666 -117.5 135.999s-41 125.833 -41 202.5c0 76 13.667 142.333 41 199s66.5 100.167 117.5 130.5s110.833 45.5 179.5 45.5
c50.667 0 97.334 -9.66699 140.001 -29zM464.997 954.999l85.999 -0.000976562c6.66699 0 10 -1.33301 10 -4s-2.66699 -6.66699 -8 -12l-107 -113c-4 -4 -7.66699 -7 -11 -9s-8 -3 -14 -3h-72c-8 0 -14.167 1 -18.5 3s-9.16602 5.33301 -14.499 10l-108 112
c-4 4 -6 7.66699 -6 11s3 5 9 5h81c6 0 10.333 -0.333008 13 -1s6 -3 10 -7l50 -53c6.66699 -8 12 -12 16 -12c2.66699 0 5.5 1.83301 8.5 5.5s4.83301 5.83398 5.5 6.50098l46 53c5.33301 5.33301 13.333 8 24 8z" />
    <glyph glyph-name="ccaron" unicode="&#x10d;" horiz-adv-x="551" 
d="M444.5 495.5c39 -29.667 65.165 -65.498 78.498 -107.498c1.33301 -5.33301 2 -8.66602 2 -9.99902c0 -6 -4.66699 -9.66699 -14 -11l-105 -10h-3c-6 0 -10 3.66699 -12 11c-12 24 -24.167 41.833 -36.5 53.5s-29.833 17.5 -52.5 17.5c-36 0 -64.167 -14.667 -84.5 -44
s-30.5 -72.666 -30.5 -129.999c0 -58.667 10.833 -102.667 32.5 -132s51.834 -44 90.501 -44c27.333 0 49.666 7 66.999 21s34.333 35.333 51 64c2 3.33301 4.16699 5.16602 6.5 5.49902s5.83301 0.166016 10.5 -0.500977l74 -17c6 -0.666992 9 -4 9 -10l-2 -9
c-13.333 -38.667 -39.166 -73.834 -77.499 -105.501s-88.833 -47.5 -151.5 -47.5c-51.333 0 -97.166 11.5 -137.499 34.5s-71.833 55.167 -94.5 96.5s-34 88.666 -34 141.999c0 54 11.5 102 34.5 144s54.667 74.667 95 98s85.833 35 136.5 35
c59.333 0 108.5 -14.833 147.5 -44.5zM379.998 743.002l85.999 -0.000976562c6.66699 0 10 -1.33301 10 -4s-2.66699 -6.66699 -8 -12l-107 -113c-4 -4 -7.66699 -7 -11 -9s-8 -3 -14 -3h-72c-8 0 -14.167 1 -18.5 3s-9.16602 5.33301 -14.499 10l-108 112
c-4 4 -6 7.66699 -6 11s3 5 9 5h81c6 0 10.333 -0.333008 13 -1s6 -3 10 -7l50 -53c6.66699 -8 12 -12 16 -12c2.66699 0 5.5 1.83301 8.5 5.5s4.83301 5.83398 5.5 6.50098l46 53c5.33301 5.33301 13.333 8 24 8z" />
    <glyph glyph-name="Dcaron" unicode="&#x10e;" horiz-adv-x="751" 
d="M315 741c132 -4 230.333 -37.668 295 -101.001s97 -152 97 -266c0 -117.333 -33.667 -209 -101 -275s-166 -99 -296 -99h-217c-8 0 -13.833 1.83301 -17.5 5.5s-5.5 9.83398 -5.5 18.501v698c0 7.33301 1.66699 12.5 5 15.5s9 4.5 17 4.5c110 0 184.333 -0.333008 223 -1
zM245 603.999v-467c0 -5.33301 0.833008 -9 2.5 -11s5.16699 -3 10.5 -3h19c84 0 146.167 19.5 186.5 58.5s60.5 103.5 60.5 193.5c0 83.333 -17 143.333 -51 180s-86.667 57 -158 61l-61 2c-6 0 -9 -4.66699 -9 -14zM457 954.999l85.999 -0.000976562
c6.66699 0 10 -1.33301 10 -4s-2.66699 -6.66699 -8 -12l-107 -113c-4 -4 -7.66699 -7 -11 -9s-8 -3 -14 -3h-72c-8 0 -14.167 1 -18.5 3s-9.16602 5.33301 -14.499 10l-108 112c-4 4 -6 7.66699 -6 11s3 5 9 5h81c6 0 10.333 -0.333008 13 -1s6 -3 10 -7l50 -53
c6.66699 -8 12 -12 16 -12c2.66699 0 5.5 1.83301 8.5 5.5s4.83301 5.83398 5.5 6.50098l46 53c5.33301 5.33301 13.333 8 24 8z" />
    <glyph glyph-name="dcaron" unicode="&#x10f;" horiz-adv-x="746" 
d="M402 20v28c0 5.33301 -1.66699 8 -5 8c-2 0 -5 -1.33301 -9 -4c-19.333 -18.667 -40.5 -33.667 -63.5 -45s-50.5 -17 -82.5 -17c-62.667 0 -113.167 23.333 -151.5 70s-57.5 113.667 -57.5 201c0 54.667 9.83301 103.167 29.5 145.5s46.167 75.166 79.5 98.499
s70 35 110 35c26 0 49.5 -4.33301 70.5 -13s41.167 -22 60.5 -40c4.66699 -3.33301 8 -5 10 -5c4.66699 0 7 4.33301 7 13v229c0 12 5.33301 18 16 18h122c4.66699 0 8.5 -1.66699 11.5 -5s4.5 -8 4.5 -14v-702c0 -7.33301 -1.66699 -12.666 -5 -15.999s-9.33301 -5 -18 -5
h-108c-14 0 -21 6.66699 -21 20zM354.5 429c-15 8 -31.833 11.999 -50.5 11.999c-35.333 0 -63.333 -14.5 -84 -43.5s-31 -73.833 -31 -134.5c0 -61.333 10 -106.166 30 -134.499s47.667 -42.5 83 -42.5c26.667 0 49.667 8.83301 69 26.5s29 38.167 29 61.5v218
c-15.333 16.667 -30.5 29 -45.5 37zM614.5 519.999c-1.66699 2.66699 -1.83398 5.66602 -0.500977 8.99902l31 75c1.33301 2.66699 2 6 2 10c0 4.66699 -2.66699 7.33398 -8 8.00098l-10 1c-5.33301 0.666992 -9.16602 2.16699 -11.499 4.5s-3.5 5.83301 -3.5 10.5v91
c0 8.66699 4 13 12 13h81c7.33301 0 11 -3.66699 11 -11v-108c0 -2 -0.333008 -3.5 -1 -4.5s-1 -2.16699 -1 -3.5l-37 -86c-1.33301 -4.66699 -3.83301 -8 -7.5 -10s-9.5 -3 -17.5 -3h-31c-4 0 -6.83301 1.33301 -8.5 4z" />
    <glyph glyph-name="Dcroat" unicode="&#x110;" horiz-adv-x="766" 
d="M624 640c64.667 -63.333 97 -152 97 -266c0 -117.333 -33.667 -209 -101 -275s-166 -99 -296 -99h-217c-8 -0 -13.833 1.83301 -17.5 5.5s-5.5 9.83398 -5.5 18.501v286h-35c-8 0 -13.667 1.66699 -17 5s-5 8.66602 -5 15.999v73c0 12.667 5.33301 19 16 19h41v299
c0 7.33301 1.66699 12.5 5 15.5s9 4.5 17 4.5c110 0 184.333 -0.333008 223 -1c132 -4 230.333 -37.667 295 -101zM477.5 181.5c40.333 39 60.499 103.5 60.499 193.5c0 83.333 -17 143.333 -51 180s-86.667 57 -158 61l-61 2c-6 0 -9 -4.66699 -9 -14v-181h132
c10 0 15 -5.66699 15 -17v-73c0 -8 -2.16699 -13.833 -6.5 -17.5s-11.166 -5.5 -20.499 -5.5h-120v-173c0 -5.33301 0.833008 -9 2.5 -11s5.16699 -3 10.5 -3h19c84 0 146.167 19.5 186.5 58.5z" />
    <glyph glyph-name="dcroat" unicode="&#x111;" horiz-adv-x="619" 
d="M599.5 676c2.33301 -2.66699 3.50098 -6.33301 3.50098 -11v-52c0 -6.66699 -2 -11.5 -6 -14.5s-10 -4.5 -18 -4.5h-25v-573c0 -7.33301 -1.66699 -12.666 -5 -15.999s-9.33301 -5 -18 -5h-108c-14 0 -21 6.66699 -21 20v28c0 5.33301 -1.66699 8 -5 8
c-2 0 -5 -1.33301 -9 -4c-19.333 -18.667 -40.5 -33.667 -63.5 -45s-50.5 -17 -82.5 -17c-62.667 0 -113.167 23.333 -151.5 70s-57.5 113.667 -57.5 201c0 54.667 9.83301 103.167 29.5 145.5s46.167 75.166 79.5 98.499s70 35 110 35c26 0 49.5 -4.33301 70.5 -13
s41.167 -22 60.5 -40c4.66699 -3.33301 8 -5 10 -5c4.66699 0 7 4.33301 7 13v99h-127c-6.66699 0 -11.334 1.33301 -14.001 4s-4 7 -4 13v53c0 10.667 4.33301 16 13 16h132v44c0 12 5.33301 18 16 18h122c4.66699 0 8.5 -1.66699 11.5 -5s4.5 -8 4.5 -14v-43h36
c4 0 7.16699 -1.33301 9.5 -4zM400.001 392.001c-15.333 16.667 -30.5 28.999 -45.5 36.999s-31.833 12 -50.5 12c-35.333 0 -63.333 -14.5 -84 -43.5s-31 -73.833 -31 -134.5c0 -61.333 10 -106.166 30 -134.499s47.667 -42.5 83 -42.5c26.667 0 49.667 8.83301 69 26.5
s29 38.167 29 61.5v218z" />
    <glyph glyph-name="Emacron" unicode="&#x112;" horiz-adv-x="654" 
d="M86 742l504 0.000976562c10 0 15 -5.66699 15 -17l-1 -90c0 -14 -7 -21 -21 -21h-319c-12.667 0 -19 -5.33301 -19 -16v-145c0 -11.333 5 -17 15 -17h212c11.333 0 17 -5.33301 17 -16v-96c0 -9.33301 -5.33301 -14 -16 -14h-214c-9.33301 0 -14 -4 -14 -12v-157
c0 -4.66699 0.833008 -8 2.5 -10s4.5 -3 8.5 -3h342c12 0 18 -5 18 -15v-95c0 -12 -6.66699 -18 -20 -18h-504c-8 0 -13.667 1.66699 -17 5s-5 8.66602 -5 15.999v702c0 12.667 5.33301 19 16 19zM521 869.001c0 -12.667 -7.66602 -19 -22.999 -19h-324
c-6.66699 0 -11.334 1.5 -14.001 4.5s-4 7.5 -4 13.5v64c0 10.667 4.33301 16 13 16h339c4 0 7.16699 -1.33301 9.5 -4s3.5 -6 3.5 -10v-65z" />
    <glyph glyph-name="emacron" unicode="&#x113;" horiz-adv-x="586" 
d="M227.5 129.5c25 -23 56.165 -34.502 93.498 -34.502c24 0 46.167 5.16699 66.5 15.5s40.833 27.5 61.5 51.5c2.66699 2.66699 5.33398 4 8.00098 4c2 0 5.33301 -1 10 -3l72 -30c4.66699 -2 7 -5.33301 7 -10c0 -3.33301 -1.33301 -6.66602 -4 -9.99902
c-32 -45.333 -66.333 -77.166 -103 -95.499s-82.334 -27.5 -137.001 -27.5c-51.333 0 -97.666 11.333 -138.999 34s-73.666 54.167 -96.999 94.5s-35 86.5 -35 138.5c0 56 12 105.5 36 148.5s56.5 76.167 97.5 99.5s85.833 35 134.5 35c50.667 0 95.667 -11.167 135 -33.5
s70 -54.5 92 -96.5s33 -92 33 -150c0 -8.66699 -0.833008 -14.667 -2.5 -18s-6.5 -5.33301 -14.5 -6h-340c-8 0 -12 -5.33301 -12 -16c0 -37.333 12.5 -67.5 37.5 -90.5zM390.998 319.998c7.33301 0 11.998 0.834961 13.998 2.50195s3 5.5 3 11.5
c0 17.333 -4 34.666 -12 51.999s-19.667 31.666 -35 42.999s-34 17 -56 17c-33.333 0 -60.666 -11.667 -81.999 -35s-31.666 -53.333 -30.999 -90zM481.996 657c0 -12.667 -7.66602 -19 -22.999 -19h-324c-6.66699 0 -11.334 1.5 -14.001 4.5s-4 7.5 -4 13.5v64
c0 10.667 4.33301 16 13 16h339c4 0 7.16699 -1.33301 9.5 -4s3.5 -6 3.5 -10v-65z" />
    <glyph glyph-name="Ebreve" unicode="&#x114;" horiz-adv-x="654" 
d="M86 742l504 0.000976562c10 0 15 -5.66699 15 -17l-1 -90c0 -14 -7 -21 -21 -21h-319c-12.667 0 -19 -5.33301 -19 -16v-145c0 -11.333 5 -17 15 -17h212c11.333 0 17 -5.33301 17 -16v-96c0 -9.33301 -5.33301 -14 -16 -14h-214c-9.33301 0 -14 -4 -14 -12v-157
c0 -4.66699 0.833008 -8 2.5 -10s4.5 -3 8.5 -3h342c12 0 18 -5 18 -15v-95c0 -12 -6.66699 -18 -20 -18h-504c-8 0 -13.667 1.66699 -17 5s-5 8.66602 -5 15.999v702c0 12.667 5.33301 19 16 19zM516.5 950.501c1.66699 -2.33301 1.83398 -6.16504 0.500977 -11.498
c-11.333 -36.667 -33 -65.5 -65 -86.5s-69.667 -31.5 -113 -31.5c-42.667 0 -79.834 10.333 -111.501 31s-53.5 50 -65.5 88l-1 5c0 6 3.33301 9 10 9h65c4.66699 0 8.5 -0.833008 11.5 -2.5s6.16699 -4.83398 9.5 -9.50098c8 -12.667 19.333 -23.334 34 -32.001
s30.667 -13 48 -13c16.667 0 32.667 4.33301 48 13s27.333 19.667 36 33c2.66699 4.66699 5.16699 7.66699 7.5 9s5.5 2 9.5 2h65c6 0 9.83301 -1.16699 11.5 -3.5z" />
    <glyph glyph-name="ebreve" unicode="&#x115;" horiz-adv-x="586" 
d="M227.5 129.5c25 -23 56.165 -34.502 93.498 -34.502c24 0 46.167 5.16699 66.5 15.5s40.833 27.5 61.5 51.5c2.66699 2.66699 5.33398 4 8.00098 4c2 0 5.33301 -1 10 -3l72 -30c4.66699 -2 7 -5.33301 7 -10c0 -3.33301 -1.33301 -6.66602 -4 -9.99902
c-32 -45.333 -66.333 -77.166 -103 -95.499s-82.334 -27.5 -137.001 -27.5c-51.333 0 -97.666 11.333 -138.999 34s-73.666 54.167 -96.999 94.5s-35 86.5 -35 138.5c0 56 12 105.5 36 148.5s56.5 76.167 97.5 99.5s85.833 35 134.5 35c50.667 0 95.667 -11.167 135 -33.5
s70 -54.5 92 -96.5s33 -92 33 -150c0 -8.66699 -0.833008 -14.667 -2.5 -18s-6.5 -5.33301 -14.5 -6h-340c-8 0 -12 -5.33301 -12 -16c0 -37.333 12.5 -67.5 37.5 -90.5zM390.998 319.998c7.33301 0 11.998 0.834961 13.998 2.50195s3 5.5 3 11.5
c0 17.333 -4 34.666 -12 51.999s-19.667 31.666 -35 42.999s-34 17 -56 17c-33.333 0 -60.666 -11.667 -81.999 -35s-31.666 -53.333 -30.999 -90zM477.496 738.5c1.66699 -2.33301 1.83398 -6.16504 0.500977 -11.498c-11.333 -36.667 -33 -65.5 -65 -86.5
s-69.667 -31.5 -113 -31.5c-42.667 0 -79.834 10.333 -111.501 31s-53.5 50 -65.5 88l-1 5c0 6 3.33301 9 10 9h65c4.66699 0 8.5 -0.833008 11.5 -2.5s6.16699 -4.83398 9.5 -9.50098c8 -12.667 19.333 -23.334 34 -32.001s30.667 -13 48 -13
c16.667 0 32.667 4.33301 48 13s27.333 19.667 36 33c2.66699 4.66699 5.16699 7.66699 7.5 9s5.5 2 9.5 2h65c6 0 9.83301 -1.16699 11.5 -3.5z" />
    <glyph glyph-name="Edotaccent" unicode="&#x116;" horiz-adv-x="654" 
d="M86 742l504 0.000976562c10 0 15 -5.66699 15 -17l-1 -90c0 -14 -7 -21 -21 -21h-319c-12.667 0 -19 -5.33301 -19 -16v-145c0 -11.333 5 -17 15 -17h212c11.333 0 17 -5.33301 17 -16v-96c0 -9.33301 -5.33301 -14 -16 -14h-214c-9.33301 0 -14 -4 -14 -12v-157
c0 -4.66699 0.833008 -8 2.5 -10s4.5 -3 8.5 -3h342c12 0 18 -5 18 -15v-95c0 -12 -6.66699 -18 -20 -18h-504c-8 0 -13.667 1.66699 -17 5s-5 8.66602 -5 15.999v702c0 12.667 5.33301 19 16 19zM418 830.001c0 -8.66699 -2.16797 -14.833 -6.50098 -18.5
s-11.166 -5.5 -20.499 -5.5h-108c-8 0 -13.667 1.66699 -17 5s-5 9 -5 17v107c0 12.667 5.33301 19 16 19h125c10.667 0 16 -6 16 -18v-106z" />
    <glyph glyph-name="edotaccent" unicode="&#x117;" horiz-adv-x="586" 
d="M227.5 129.5c25 -23 56.165 -34.502 93.498 -34.502c24 0 46.167 5.16699 66.5 15.5s40.833 27.5 61.5 51.5c2.66699 2.66699 5.33398 4 8.00098 4c2 0 5.33301 -1 10 -3l72 -30c4.66699 -2 7 -5.33301 7 -10c0 -3.33301 -1.33301 -6.66602 -4 -9.99902
c-32 -45.333 -66.333 -77.166 -103 -95.499s-82.334 -27.5 -137.001 -27.5c-51.333 0 -97.666 11.333 -138.999 34s-73.666 54.167 -96.999 94.5s-35 86.5 -35 138.5c0 56 12 105.5 36 148.5s56.5 76.167 97.5 99.5s85.833 35 134.5 35c50.667 0 95.667 -11.167 135 -33.5
s70 -54.5 92 -96.5s33 -92 33 -150c0 -8.66699 -0.833008 -14.667 -2.5 -18s-6.5 -5.33301 -14.5 -6h-340c-8 0 -12 -5.33301 -12 -16c0 -37.333 12.5 -67.5 37.5 -90.5zM390.998 319.998c7.33301 0 11.998 0.834961 13.998 2.50195s3 5.5 3 11.5
c0 17.333 -4 34.666 -12 51.999s-19.667 31.666 -35 42.999s-34 17 -56 17c-33.333 0 -60.666 -11.667 -81.999 -35s-31.666 -53.333 -30.999 -90zM371.996 618c0 -8.66699 -2.16797 -14.833 -6.50098 -18.5s-11.166 -5.5 -20.499 -5.5h-108c-8 0 -13.667 1.66699 -17 5
s-5 9 -5 17v107c0 12.667 5.33301 19 16 19h125c10.667 0 16 -6 16 -18v-106z" />
    <glyph glyph-name="Eogonek" unicode="&#x118;" horiz-adv-x="654" 
d="M619 -85c2.66699 0 4.33301 -0.833008 5 -2.5s1 -4.5 1 -8.5v-43c0 -7.33301 -2.66699 -12.333 -8 -15c-9.33301 -4.66699 -23.333 -9 -42 -13s-38 -6 -58 -6c-35.333 0 -63 7.16699 -83 21.5s-30 35.166 -30 62.499c0 18.667 6 35.167 18 49.5s33.333 27.5 64 39.5h-394
c-8 0 -13.667 1.66699 -17 5s-5 8.66602 -5 15.999v702c0 12.667 5.33301 19 16 19h504c10 0 15 -5.66699 15 -17l-1 -90c0 -14 -7 -21 -21 -21h-319c-12.667 0 -19 -5.33301 -19 -16v-145c0 -11.333 5 -17 15 -17h212c11.333 0 17 -5.33301 17 -16v-96
c0 -9.33301 -5.33301 -14 -16 -14h-214c-9.33301 0 -14 -4 -14 -12v-157c0 -4.66699 0.833008 -8 2.5 -10s4.5 -3 8.5 -3h342c12 0 18 -5 18 -15v-95c0 -6 -2 -10.667 -6 -14c-2.66699 -1.33301 -6 -2.66602 -10 -3.99902c-31.333 -11.333 -53.333 -22.333 -66 -33
s-19 -22.667 -19 -36c0 -11.333 3 -19.666 9 -24.999s15.333 -8 28 -8c20 0 39.333 5 58 15c2.66699 1.33301 5.66699 2 9 2z" />
    <glyph glyph-name="eogonek" unicode="&#x119;" horiz-adv-x="586" 
d="M190 220c0 -37.333 12.4971 -67.502 37.4971 -90.502s56.167 -34.5 93.5 -34.5c24 0 46.167 5.16699 66.5 15.5s40.833 27.5 61.5 51.5c2.66699 2.66699 5.33398 4 8.00098 4c2 0 5.33301 -1 10 -3l72 -30c4.66699 -2 7 -5.33301 7 -10
c0 -3.33301 -1.33301 -6.66602 -4 -9.99902c-21.333 -30.667 -43.5 -54.834 -66.5 -72.501s-48.167 -30.5 -75.5 -38.5c-20 -9.33301 -34.167 -18.5 -42.5 -27.5s-12.5 -18.833 -12.5 -29.5c0 -11.333 3 -19.666 9 -24.999s15.333 -8 28 -8c20 0 39.333 5 58 15
c2.66699 1.33301 5.66699 2 9 2c2.66699 0 4.33398 -0.833008 5.00098 -2.5s1 -4.5 1 -8.5v-43c0 -7.33301 -2.66699 -12.333 -8 -15c-9.33301 -4.66699 -23.333 -9 -42 -13s-38 -6 -58 -6c-35.333 0 -63 7.16699 -83 21.5s-30 35.166 -30 62.499c0 28 12.333 50 37 66
c-46.667 4.66699 -88.167 18.834 -124.5 42.501s-64.666 54.834 -84.999 93.501s-30.5 82 -30.5 130c0 56 12 105.5 36 148.5s56.5 76.167 97.5 99.5s85.833 35 134.5 35c50.667 0 95.667 -11.167 135 -33.5s70 -54.5 92 -96.5s33 -92 33 -150
c0 -8.66699 -0.833008 -14.667 -2.5 -18s-6.5 -5.33301 -14.5 -6h-340c-8 0 -12 -5.33301 -12 -16zM222.997 410.998c-21.333 -23.333 -31.668 -53.3311 -31.001 -89.998l199 -1c7.33301 0 12 0.833008 14 2.5s3 5.5 3 11.5c0 17.333 -4 34.666 -12 51.999
s-19.667 31.666 -35 42.999s-34 17 -56 17c-33.333 0 -60.666 -11.667 -81.999 -35z" />
    <glyph glyph-name="Ecaron" unicode="&#x11a;" horiz-adv-x="654" 
d="M86 742l504 0.000976562c10 0 15 -5.66699 15 -17l-1 -90c0 -14 -7 -21 -21 -21h-319c-12.667 0 -19 -5.33301 -19 -16v-145c0 -11.333 5 -17 15 -17h212c11.333 0 17 -5.33301 17 -16v-96c0 -9.33301 -5.33301 -14 -16 -14h-214c-9.33301 0 -14 -4 -14 -12v-157
c0 -4.66699 0.833008 -8 2.5 -10s4.5 -3 8.5 -3h342c12 0 18 -5 18 -15v-95c0 -12 -6.66699 -18 -20 -18h-504c-8 0 -13.667 1.66699 -17 5s-5 8.66602 -5 15.999v702c0 12.667 5.33301 19 16 19zM422 955.001l85.999 -0.000976562c6.66699 0 10 -1.33301 10 -4
s-2.66699 -6.66699 -8 -12l-107 -113c-4 -4 -7.66699 -7 -11 -9s-8 -3 -14 -3h-72c-8 0 -14.167 1 -18.5 3s-9.16602 5.33301 -14.499 10l-108 112c-4 4 -6 7.66699 -6 11s3 5 9 5h81c6 0 10.333 -0.333008 13 -1s6 -3 10 -7l50 -53c6.66699 -8 12 -12 16 -12
c2.66699 0 5.5 1.83301 8.5 5.5s4.83301 5.83398 5.5 6.50098l46 53c5.33301 5.33301 13.333 8 24 8z" />
    <glyph glyph-name="ecaron" unicode="&#x11b;" horiz-adv-x="586" 
d="M227.5 129.5c25 -23 56.165 -34.502 93.498 -34.502c24 0 46.167 5.16699 66.5 15.5s40.833 27.5 61.5 51.5c2.66699 2.66699 5.33398 4 8.00098 4c2 0 5.33301 -1 10 -3l72 -30c4.66699 -2 7 -5.33301 7 -10c0 -3.33301 -1.33301 -6.66602 -4 -9.99902
c-32 -45.333 -66.333 -77.166 -103 -95.499s-82.334 -27.5 -137.001 -27.5c-51.333 0 -97.666 11.333 -138.999 34s-73.666 54.167 -96.999 94.5s-35 86.5 -35 138.5c0 56 12 105.5 36 148.5s56.5 76.167 97.5 99.5s85.833 35 134.5 35c50.667 0 95.667 -11.167 135 -33.5
s70 -54.5 92 -96.5s33 -92 33 -150c0 -8.66699 -0.833008 -14.667 -2.5 -18s-6.5 -5.33301 -14.5 -6h-340c-8 0 -12 -5.33301 -12 -16c0 -37.333 12.5 -67.5 37.5 -90.5zM390.998 319.998c7.33301 0 11.998 0.834961 13.998 2.50195s3 5.5 3 11.5
c0 17.333 -4 34.666 -12 51.999s-19.667 31.666 -35 42.999s-34 17 -56 17c-33.333 0 -60.666 -11.667 -81.999 -35s-31.666 -53.333 -30.999 -90zM382.996 743l85.999 -0.000976562c6.66699 0 10 -1.33301 10 -4s-2.66699 -6.66699 -8 -12l-107 -113
c-4 -4 -7.66699 -7 -11 -9s-8 -3 -14 -3h-72c-8 0 -14.167 1 -18.5 3s-9.16602 5.33301 -14.499 10l-108 112c-4 4 -6 7.66699 -6 11s3 5 9 5h81c6 0 10.333 -0.333008 13 -1s6 -3 10 -7l50 -53c6.66699 -8 12 -12 16 -12c2.66699 0 5.5 1.83301 8.5 5.5
s4.83301 5.83398 5.5 6.50098l46 53c5.33301 5.33301 13.333 8 24 8z" />
    <glyph glyph-name="Gcircumflex" unicode="&#x11c;" horiz-adv-x="752" 
d="M201.5 37c-50.333 31.333 -89.167 75.499 -116.5 132.499s-41 123.167 -41 198.5c0 77.333 14.333 145 43 203s69 102.667 121 134s112 47 180 47c52 0 99.5 -10 142.5 -30s78 -46.167 105 -78.5s43.833 -66.833 50.5 -103.5c1.33301 -4 2 -9 2 -15
c0 -7.33301 -4.33301 -11.333 -13 -12l-132 -20c-5.33301 0 -9 1.16699 -11 3.5s-3.66699 6.5 -5 12.5c-6.66699 34.667 -22.334 63.334 -47.001 86.001s-56.667 34 -96 34c-51.333 0 -90.333 -20.333 -117 -61s-40 -105.334 -40 -194.001
c0 -92.667 14 -159.334 42 -200.001s68.333 -61 121 -61c40 0 72 10.833 96 32.5s39.667 48.834 47 81.501l2 29c0.666992 1.33301 1 3.33301 1 6c0 6 -3.66699 9 -11 9h-121c-5.33301 0 -9.33301 1.33301 -12 4s-4 7 -4 13v75c0 9.33301 5.33301 14 16 14l267 -1
c9.33301 0 16.5 -2.16699 21.5 -6.5s7.5 -10.166 7.5 -17.499v-337c0 -4.66699 -1.33301 -8.33398 -4 -11.001s-6.33398 -4 -11.001 -4h-32c-11.333 0 -20 5.33301 -26 16l-29 72c-2 4.66699 -5.33301 4.33398 -10 -0.999023c-23.333 -28.667 -51.166 -52 -83.499 -70
s-74.5 -27 -126.5 -27c-67.333 0 -126.166 15.667 -176.499 47zM392.999 881.999c-2.66699 3.33301 -5.33203 6.16699 -7.99902 8.5s-5 3.5 -7 3.5c-3.33301 0 -8.33301 -4 -15 -12l-50 -53c-4 -4 -7.33301 -6.33301 -10 -7s-7 -1 -13 -1h-81c-6 0 -9 1.66699 -9 5s2 7 6 11
l108 112c5.33301 4.66699 10.166 8 14.499 10s10.5 3 18.5 3h72c6 0 10.667 -1 14 -3s7 -5 11 -9l107 -113c5.33301 -5.33301 8 -9.33301 8 -12s-3.33301 -4 -10 -4h-86c-10.667 0 -18.667 2.66699 -24 8z" />
    <glyph glyph-name="gcircumflex" unicode="&#x11d;" horiz-adv-x="633" 
d="M611 531l-0.00488281 -67.9961c0 -18.667 -7.66699 -26.334 -23 -23.001c-10 2 -19.667 3 -29 3c-5.33301 0 -11.333 -0.666992 -18 -2c-17.333 -2.66699 -24 -10.334 -20 -23.001c6 -18 9 -33 9 -45c0 -30.667 -9.16699 -58.334 -27.5 -83.001
s-45.666 -44.334 -81.999 -59.001s-80.166 -22 -131.499 -22c-37.333 0 -64.833 -3 -82.5 -9s-26.5 -14 -26.5 -24c0 -8.66699 4.83301 -14.834 14.5 -18.501s25.834 -6.16699 48.501 -7.5l143 -8c66 -4 115.167 -18.667 147.5 -44s48.5 -59 48.5 -101
c0 -52 -24.667 -93.667 -74 -125s-119.333 -47 -210 -47c-194 0 -291 43 -291 129c0 21.333 8.33301 39.5 25 54.5s40.334 28.167 71.001 39.5c4 1.33301 6 3 6 5s-2 4 -6 6c-38.667 18.667 -58 43.334 -58 74.001c0 18 8.83301 34.833 26.5 50.5s41.167 29.167 70.5 40.5
c8 4 8.66699 8 2 12c-64.667 30 -97 75.333 -97 136c0 50.667 21.833 91 65.5 121s106.167 45 187.5 45c68.667 0 122 -15 160 -45c4.66699 -3.33301 9 -5 13 -5c5.33301 0 10 2.33301 14 7c12.667 15.333 29.334 28.833 50.001 40.5s38.667 17.5 54 17.5
c13.333 0 20 -7.33301 20 -22zM364.495 308.504c17 15.667 25.5 36.167 25.5 61.5c0 28 -8.5 50.167 -25.5 66.5s-42.5 24.5 -76.5 24.5c-32 0 -57.167 -8.33301 -75.5 -25s-27.5 -38.667 -27.5 -66c0 -25.333 9.16699 -45.833 27.5 -61.5s43.5 -23.5 75.5 -23.5
c34 0 59.5 7.83301 76.5 23.5zM213.995 30.0039c-20.667 1.33301 -39.166 -3.49707 -55.499 -14.4971s-24.5 -24.833 -24.5 -41.5c0 -24.667 13.667 -43.334 41 -56.001s71.666 -19 132.999 -19c44.667 0 79 6.16699 103 18.5s36 29.833 36 52.5
c0 15.333 -6.66699 27.666 -20 36.999s-33 14.666 -59 15.999zM311.996 670.007c-2.66699 3.33301 -5.33203 6.16699 -7.99902 8.5s-5 3.5 -7 3.5c-3.33301 0 -8.33301 -4 -15 -12l-50 -53c-4 -4 -7.33301 -6.33301 -10 -7s-7 -1 -13 -1h-81c-6 0 -9 1.66699 -9 5s2 7 6 11
l108 112c5.33301 4.66699 10.166 8 14.499 10s10.5 3 18.5 3h72c6 0 10.667 -1 14 -3s7 -5 11 -9l107 -113c5.33301 -5.33301 8 -9.33301 8 -12s-3.33301 -4 -10 -4h-86c-10.667 0 -18.667 2.66699 -24 8z" />
    <glyph glyph-name="Gbreve" unicode="&#x11e;" horiz-adv-x="752" 
d="M201.5 37c-50.333 31.333 -89.167 75.499 -116.5 132.499s-41 123.167 -41 198.5c0 77.333 14.333 145 43 203s69 102.667 121 134s112 47 180 47c52 0 99.5 -10 142.5 -30s78 -46.167 105 -78.5s43.833 -66.833 50.5 -103.5c1.33301 -4 2 -9 2 -15
c0 -7.33301 -4.33301 -11.333 -13 -12l-132 -20c-5.33301 0 -9 1.16699 -11 3.5s-3.66699 6.5 -5 12.5c-6.66699 34.667 -22.334 63.334 -47.001 86.001s-56.667 34 -96 34c-51.333 0 -90.333 -20.333 -117 -61s-40 -105.334 -40 -194.001
c0 -92.667 14 -159.334 42 -200.001s68.333 -61 121 -61c40 0 72 10.833 96 32.5s39.667 48.834 47 81.501l2 29c0.666992 1.33301 1 3.33301 1 6c0 6 -3.66699 9 -11 9h-121c-5.33301 0 -9.33301 1.33301 -12 4s-4 7 -4 13v75c0 9.33301 5.33301 14 16 14l267 -1
c9.33301 0 16.5 -2.16699 21.5 -6.5s7.5 -10.166 7.5 -17.499v-337c0 -4.66699 -1.33301 -8.33398 -4 -11.001s-6.33398 -4 -11.001 -4h-32c-11.333 0 -20 5.33301 -26 16l-29 72c-2 4.66699 -5.33301 4.33398 -10 -0.999023c-23.333 -28.667 -51.166 -52 -83.499 -70
s-74.5 -27 -126.5 -27c-67.333 0 -126.166 15.667 -176.499 47zM557.499 950.499c1.66699 -2.33301 1.83398 -6.16504 0.500977 -11.498c-11.333 -36.667 -33 -65.5 -65 -86.5s-69.667 -31.5 -113 -31.5c-42.667 0 -79.834 10.333 -111.501 31s-53.5 50 -65.5 88l-1 5
c0 6 3.33301 9 10 9h65c4.66699 0 8.5 -0.833008 11.5 -2.5s6.16699 -4.83398 9.5 -9.50098c8 -12.667 19.333 -23.334 34 -32.001s30.667 -13 48 -13c16.667 0 32.667 4.33301 48 13s27.333 19.667 36 33c2.66699 4.66699 5.16699 7.66699 7.5 9s5.5 2 9.5 2h65
c6 0 9.83301 -1.16699 11.5 -3.5z" />
    <glyph glyph-name="gbreve" unicode="&#x11f;" horiz-adv-x="633" 
d="M611 531l-0.00488281 -67.9961c0 -18.667 -7.66699 -26.334 -23 -23.001c-10 2 -19.667 3 -29 3c-5.33301 0 -11.333 -0.666992 -18 -2c-17.333 -2.66699 -24 -10.334 -20 -23.001c6 -18 9 -33 9 -45c0 -30.667 -9.16699 -58.334 -27.5 -83.001
s-45.666 -44.334 -81.999 -59.001s-80.166 -22 -131.499 -22c-37.333 0 -64.833 -3 -82.5 -9s-26.5 -14 -26.5 -24c0 -8.66699 4.83301 -14.834 14.5 -18.501s25.834 -6.16699 48.501 -7.5l143 -8c66 -4 115.167 -18.667 147.5 -44s48.5 -59 48.5 -101
c0 -52 -24.667 -93.667 -74 -125s-119.333 -47 -210 -47c-194 0 -291 43 -291 129c0 21.333 8.33301 39.5 25 54.5s40.334 28.167 71.001 39.5c4 1.33301 6 3 6 5s-2 4 -6 6c-38.667 18.667 -58 43.334 -58 74.001c0 18 8.83301 34.833 26.5 50.5s41.167 29.167 70.5 40.5
c8 4 8.66699 8 2 12c-64.667 30 -97 75.333 -97 136c0 50.667 21.833 91 65.5 121s106.167 45 187.5 45c68.667 0 122 -15 160 -45c4.66699 -3.33301 9 -5 13 -5c5.33301 0 10 2.33301 14 7c12.667 15.333 29.334 28.833 50.001 40.5s38.667 17.5 54 17.5
c13.333 0 20 -7.33301 20 -22zM364.495 308.504c17 15.667 25.5 36.167 25.5 61.5c0 28 -8.5 50.167 -25.5 66.5s-42.5 24.5 -76.5 24.5c-32 0 -57.167 -8.33301 -75.5 -25s-27.5 -38.667 -27.5 -66c0 -25.333 9.16699 -45.833 27.5 -61.5s43.5 -23.5 75.5 -23.5
c34 0 59.5 7.83301 76.5 23.5zM213.995 30.0039c-20.667 1.33301 -39.166 -3.49707 -55.499 -14.4971s-24.5 -24.833 -24.5 -41.5c0 -24.667 13.667 -43.334 41 -56.001s71.666 -19 132.999 -19c44.667 0 79 6.16699 103 18.5s36 29.833 36 52.5
c0 15.333 -6.66699 27.666 -20 36.999s-33 14.666 -59 15.999zM476.496 738.507c1.66699 -2.33301 1.83398 -6.16504 0.500977 -11.498c-11.333 -36.667 -33 -65.5 -65 -86.5s-69.667 -31.5 -113 -31.5c-42.667 0 -79.834 10.333 -111.501 31s-53.5 50 -65.5 88l-1 5
c0 6 3.33301 9 10 9h65c4.66699 0 8.5 -0.833008 11.5 -2.5s6.16699 -4.83398 9.5 -9.50098c8 -12.667 19.333 -23.334 34 -32.001s30.667 -13 48 -13c16.667 0 32.667 4.33301 48 13s27.333 19.667 36 33c2.66699 4.66699 5.16699 7.66699 7.5 9s5.5 2 9.5 2h65
c6 0 9.83301 -1.16699 11.5 -3.5z" />
    <glyph glyph-name="Gdotaccent" unicode="&#x120;" horiz-adv-x="752" 
d="M201.5 37c-50.333 31.333 -89.167 75.499 -116.5 132.499s-41 123.167 -41 198.5c0 77.333 14.333 145 43 203s69 102.667 121 134s112 47 180 47c52 0 99.5 -10 142.5 -30s78 -46.167 105 -78.5s43.833 -66.833 50.5 -103.5c1.33301 -4 2 -9 2 -15
c0 -7.33301 -4.33301 -11.333 -13 -12l-132 -20c-5.33301 0 -9 1.16699 -11 3.5s-3.66699 6.5 -5 12.5c-6.66699 34.667 -22.334 63.334 -47.001 86.001s-56.667 34 -96 34c-51.333 0 -90.333 -20.333 -117 -61s-40 -105.334 -40 -194.001
c0 -92.667 14 -159.334 42 -200.001s68.333 -61 121 -61c40 0 72 10.833 96 32.5s39.667 48.834 47 81.501l2 29c0.666992 1.33301 1 3.33301 1 6c0 6 -3.66699 9 -11 9h-121c-5.33301 0 -9.33301 1.33301 -12 4s-4 7 -4 13v75c0 9.33301 5.33301 14 16 14l267 -1
c9.33301 0 16.5 -2.16699 21.5 -6.5s7.5 -10.166 7.5 -17.499v-337c0 -4.66699 -1.33301 -8.33398 -4 -11.001s-6.33398 -4 -11.001 -4h-32c-11.333 0 -20 5.33301 -26 16l-29 72c-2 4.66699 -5.33301 4.33398 -10 -0.999023c-23.333 -28.667 -51.166 -52 -83.499 -70
s-74.5 -27 -126.5 -27c-67.333 0 -126.166 15.667 -176.499 47zM458.999 829.999c0 -8.66699 -2.16797 -14.833 -6.50098 -18.5s-11.166 -5.5 -20.499 -5.5h-108c-8 0 -13.667 1.66699 -17 5s-5 9 -5 17v107c0 12.667 5.33301 19 16 19h125c10.667 0 16 -6 16 -18v-106z" />
    <glyph glyph-name="gdotaccent" unicode="&#x121;" horiz-adv-x="633" 
d="M611 531l-0.00488281 -67.9961c0 -18.667 -7.66699 -26.334 -23 -23.001c-10 2 -19.667 3 -29 3c-5.33301 0 -11.333 -0.666992 -18 -2c-17.333 -2.66699 -24 -10.334 -20 -23.001c6 -18 9 -33 9 -45c0 -30.667 -9.16699 -58.334 -27.5 -83.001
s-45.666 -44.334 -81.999 -59.001s-80.166 -22 -131.499 -22c-37.333 0 -64.833 -3 -82.5 -9s-26.5 -14 -26.5 -24c0 -8.66699 4.83301 -14.834 14.5 -18.501s25.834 -6.16699 48.501 -7.5l143 -8c66 -4 115.167 -18.667 147.5 -44s48.5 -59 48.5 -101
c0 -52 -24.667 -93.667 -74 -125s-119.333 -47 -210 -47c-194 0 -291 43 -291 129c0 21.333 8.33301 39.5 25 54.5s40.334 28.167 71.001 39.5c4 1.33301 6 3 6 5s-2 4 -6 6c-38.667 18.667 -58 43.334 -58 74.001c0 18 8.83301 34.833 26.5 50.5s41.167 29.167 70.5 40.5
c8 4 8.66699 8 2 12c-64.667 30 -97 75.333 -97 136c0 50.667 21.833 91 65.5 121s106.167 45 187.5 45c68.667 0 122 -15 160 -45c4.66699 -3.33301 9 -5 13 -5c5.33301 0 10 2.33301 14 7c12.667 15.333 29.334 28.833 50.001 40.5s38.667 17.5 54 17.5
c13.333 0 20 -7.33301 20 -22zM364.495 308.504c17 15.667 25.5 36.167 25.5 61.5c0 28 -8.5 50.167 -25.5 66.5s-42.5 24.5 -76.5 24.5c-32 0 -57.167 -8.33301 -75.5 -25s-27.5 -38.667 -27.5 -66c0 -25.333 9.16699 -45.833 27.5 -61.5s43.5 -23.5 75.5 -23.5
c34 0 59.5 7.83301 76.5 23.5zM213.995 30.0039c-20.667 1.33301 -39.166 -3.49707 -55.499 -14.4971s-24.5 -24.833 -24.5 -41.5c0 -24.667 13.667 -43.334 41 -56.001s71.666 -19 132.999 -19c44.667 0 79 6.16699 103 18.5s36 29.833 36 52.5
c0 15.333 -6.66699 27.666 -20 36.999s-33 14.666 -59 15.999zM377.996 618.007c0 -8.66699 -2.16797 -14.833 -6.50098 -18.5s-11.166 -5.5 -20.499 -5.5h-108c-8 0 -13.667 1.66699 -17 5s-5 9 -5 17v107c0 12.667 5.33301 19 16 19h125c10.667 0 16 -6 16 -18v-106z" />
    </font>
</defs>
</svg>
