<?xml version="1.0" standalone="no"?>
<!DOCTYPE svg PUBLIC "-//W3C//DTD SVG 1.1//EN" "http://www.w3.org/Graphics/SVG/1.1/DTD/svg11.dtd" >
<svg>
<metadata>
Created by FontForge 20090914 at Wed Jun 28 20:15:16 2017
 By www-data
Copyright (c) 2015, Impallari Type (www.impallari.com)
</metadata>
<defs>
<font id="LibreFranklin-ExtraBold" horiz-adv-x="600" >
  <font-face 
    font-family="Libre Franklin ExtraBold"
    font-weight="800"
    font-stretch="normal"
    units-per-em="1000"
    panose-1="0 0 9 0 0 0 0 0 0 0"
    ascent="800"
    descent="-200"
    x-height="529.999"
    cap-height="742"
    bbox="-439.001 -245.002 1406 964.5"
    underline-thickness="50"
    underline-position="-50"
    unicode-range="U+000D-U+FB02"
  />
<missing-glyph horiz-adv-x="629" 
d="M564 841.5c3.33301 -3.66699 5 -8.83301 5 -15.5v-962c0 -10.667 -2.66699 -18.167 -8 -22.5s-13.666 -6.5 -24.999 -6.5h-448c-10 0 -17 2 -21 6s-6 10.333 -6 19v964c0 7.33301 1.66699 13 5 17s8 6 14 6h471c5.33301 0 9.66602 -1.83301 12.999 -5.5zM513 792.001
c-2.66699 3.33301 -6.33301 5.00098 -11 5.00098h-353l368 -855v837c0 5.33301 -1.33301 9.66602 -4 12.999zM118.001 -109.998c3.33301 -3.33301 9.33301 -5.00098 18 -5.00098h344l-367 849v-828c0 -7.33301 1.66699 -12.666 5 -15.999z" />
    <glyph glyph-name="fi" unicode="fi" horiz-adv-x="685" 
d="M385.5 524.5c3.66699 -3.66699 5.49902 -8.50098 5.49902 -14.501v-84c0 -11.333 -6.33301 -17 -19 -17h-72c-7.33301 0 -11 -4 -11 -12v-377c0 -13.333 -6 -20 -18 -20h-144c-10.667 0 -16 6.33301 -16 19v380c0 6.66699 -2.66699 10 -8 10h-64
c-6.66699 0 -11.667 1.33301 -15 4s-5 7 -5 13v84c0 13.333 7.33301 20 22 20h57c4.66699 0 8 1.16699 10 3.5s3 6.5 3 12.5v57c0 43.333 13.333 77.333 40 102s63.667 37 111 37h108c8.66699 0 15.167 -2 19.5 -6s6.5 -9.66699 6.5 -17v-76
c0 -5.33301 -1.33301 -9.66602 -4 -12.999s-6.66699 -5 -12 -5h-48c-13.333 0 -24.666 -5.33301 -33.999 -16s-14 -23.667 -14 -39v-28c0 -8 4 -12 12 -12h73c7.33301 0 12.833 -1.83301 16.5 -5.5zM637.999 610.999c0 -9.33301 -2.49707 -16.167 -7.49707 -20.5
s-12.833 -6.5 -23.5 -6.5h-125c-8.66699 0 -14.834 2 -18.501 6s-5.5 10 -5.5 18v112c0 6.66699 1.66699 12 5 16s7.66602 6 12.999 6h144c5.33301 0 9.66602 -1.83301 12.999 -5.5s5 -8.5 5 -14.5v-111zM637.002 26.998c0 -10 -2.33301 -17 -7 -21s-12.334 -6 -23.001 -6
h-124c-9.33301 0 -15.666 1.83301 -18.999 5.5s-5 9.5 -5 17.5v486c0 14 6 21 18 21h143c11.333 0 17 -6.33301 17 -19v-484z" />
    <glyph glyph-name="fl" unicode="fl" horiz-adv-x="686" 
d="M385.5 524.5c3.66699 -3.66699 5.49902 -8.50098 5.49902 -14.501v-84c0 -11.333 -6.33301 -17 -19 -17h-72c-7.33301 0 -11 -4 -11 -12v-377c0 -13.333 -6 -20 -18 -20h-144c-10.667 0 -16 6.33301 -16 19v380c0 6.66699 -2.66699 10 -8 10h-64
c-6.66699 0 -11.667 1.33301 -15 4s-5 7 -5 13v84c0 13.333 7.33301 20 22 20h57c4.66699 0 8 1.16699 10 3.5s3 6.5 3 12.5v57c0 43.333 13.333 77.333 40 102s63.667 37 111 37h108c8.66699 0 15.167 -2 19.5 -6s6.5 -9.66699 6.5 -17v-76
c0 -5.33301 -1.33301 -9.66602 -4 -12.999s-6.66699 -5 -12 -5h-48c-13.333 0 -24.666 -5.33301 -33.999 -16s-14 -23.667 -14 -39v-28c0 -8 4 -12 12 -12h73c7.33301 0 12.833 -1.83301 16.5 -5.5zM637.999 26.999c0 -10 -2.33203 -17 -6.99902 -21s-12.334 -6 -23.001 -6
h-125c-9.33301 0 -15.833 1.83301 -19.5 5.5s-5.5 9.5 -5.5 17.5l4 698c0 14 6 21 18 21h141c5.33301 0 9.5 -1.66699 12.5 -5s4.5 -8 4.5 -14v-696z" />
    <glyph glyph-name=".notdef" horiz-adv-x="629" 
d="M564 841.5c3.33301 -3.66699 5 -8.83301 5 -15.5v-962c0 -10.667 -2.66699 -18.167 -8 -22.5s-13.666 -6.5 -24.999 -6.5h-448c-10 0 -17 2 -21 6s-6 10.333 -6 19v964c0 7.33301 1.66699 13 5 17s8 6 14 6h471c5.33301 0 9.66602 -1.83301 12.999 -5.5zM513 792.001
c-2.66699 3.33301 -6.33301 5.00098 -11 5.00098h-353l368 -855v837c0 5.33301 -1.33301 9.66602 -4 12.999zM118.001 -109.998c3.33301 -3.33301 9.33301 -5.00098 18 -5.00098h344l-367 849v-828c0 -7.33301 1.66699 -12.666 5 -15.999z" />
    <glyph glyph-name="uni0000" horiz-adv-x="0" 
 />
    <glyph glyph-name="uni0000" horiz-adv-x="0" 
 />
    <glyph glyph-name="nonmarkingreturn" unicode="&#xd;" horiz-adv-x="211" 
 />
    <glyph glyph-name="space" unicode=" " horiz-adv-x="203" 
 />
    <glyph glyph-name="exclam" unicode="!" horiz-adv-x="271" 
d="M192 275c-0.666992 -9.33301 -3.16699 -15.833 -7.5 -19.5s-11.5 -5.5 -21.5 -5.5h-62c-8.66699 0 -14.5 1.66699 -17.5 5s-4.83301 9 -5.5 17l-45 449v4c0 5.33301 1.5 9.5 4.5 12.5s7.16699 4.5 12.5 4.5h169c5.33301 0 9.5 -1.66699 12.5 -5s4.16699 -8 3.5 -14z
M228 27c0 -10 -2.16699 -17 -6.5 -21s-12.166 -6 -23.499 -6h-135c-8.66699 -0 -15 1.83301 -19 5.5s-6 9.5 -6 17.5v138c0 6 1.66699 10.833 5 14.5s7.66602 5.5 12.999 5.5h156c10.667 0 16 -6.33301 16 -19v-135z" />
    <glyph glyph-name="quotedbl" unicode="&#x22;" horiz-adv-x="490" 
d="M415 456c-1.33301 -10 -4 -16.833 -8 -20.5s-11.333 -5.5 -22 -5.5h-39c-8.66699 0 -14.5 1.66699 -17.5 5s-5.16699 9.33301 -6.5 18l-37 269v4c0 5.33301 1.66699 9.33301 5 12s7.33301 4 12 4h134c5.33301 0 9.5 -1.5 12.5 -4.5s4.16699 -7.5 3.5 -13.5zM175 456
c-1.33301 -10 -4 -16.833 -8 -20.5s-11.333 -5.5 -22 -5.5h-39c-8.66699 0 -14.5 1.66699 -17.5 5s-5.16699 9.33301 -6.5 18l-37 269v4c0 5.33301 1.66699 9.33301 5 12s7.33301 4 12 4h134c5.33301 0 9.5 -1.5 12.5 -4.5s4.16699 -7.5 3.5 -13.5z" />
    <glyph glyph-name="numbersign" unicode="#" horiz-adv-x="603" 
d="M588.5 519c3 -3.33301 4.5 -7.66504 4.5 -12.998v-45c0 -8.66699 -2.5 -15 -7.5 -19s-12.5 -6 -22.5 -6h-95l-18 -122h93c5.33301 0 9.5 -1.66699 12.5 -5s4.5 -7.66602 4.5 -12.999v-45c0 -8.66699 -2.5 -15 -7.5 -19s-12.5 -6 -22.5 -6h-93l-29 -198
c-1.33301 -12 -3.66602 -20 -6.99902 -24s-10.333 -5.33301 -21 -4l-37 5c-10 2 -16.833 4.16699 -20.5 6.5s-5.16699 7.16602 -4.5 14.499l29 200h-131l-29 -198c-1.33301 -12 -3.83301 -20 -7.5 -24s-10.834 -5.33301 -21.501 -4l-36 5c-10.667 2 -17.667 4.16699 -21 6.5
s-4.66602 7.16602 -3.99902 14.499l29 200h-92c-8.66699 0 -14.834 1.66699 -18.501 5s-5.5 9 -5.5 17v45c0 14 6 21 18 21h111l18 122h-90c-8.66699 0 -14.834 1.66699 -18.501 5s-5.5 9 -5.5 17v45c0 14 6 21 18 21h109l29 196c1.33301 8 3.33301 13.833 6 17.5
s6.33398 5.16699 11.001 4.5l56 -6c12.667 -1.33301 18 -7.33301 16 -18l-28 -194h131l29 196c3.33301 15.333 9 22.666 17 21.999l56 -6c12.667 -1.33301 18 -7.33301 16 -18l-28 -194h95c5.33301 0 9.5 -1.66699 12.5 -5zM378 436.001h-131l-18 -122h131z" />
    <glyph glyph-name="dollar" unicode="$" horiz-adv-x="671" 
d="M576.5 71c-41 -41.333 -96.1621 -65.6689 -165.495 -73.002c-8.66699 -0.666992 -14 -2.16699 -16 -4.5s-3 -7.16602 -3 -14.499v-29c0 -9.33301 -2.16699 -16 -6.5 -20s-11.5 -6 -21.5 -6h-61c-8.66699 0 -14.834 1.83301 -18.501 5.5s-5.5 9.5 -5.5 17.5v34
c0 6.66699 -1.16699 11.167 -3.5 13.5s-6.5 3.5 -12.5 3.5c-46 2.66699 -86.667 11 -122 25s-69.333 34 -102 60c-11.333 8 -17 16 -17 24c0 4 2 8 6 12l68 76c6 6.66699 11.667 10 17 10s10.666 -2.66699 15.999 -8c38.667 -39.333 83.667 -63.666 135 -72.999l7 -1
c6.66699 0 10 3.66699 10 11l1 146c0 5.33301 -1 9.33301 -3 12s-5.66699 4.66699 -11 6c-150.667 27.333 -226 101.666 -226 222.999c0 53.333 18.833 99.166 56.5 137.499s91.5 64.166 161.5 77.499c5.33301 1.33301 10.166 3.83301 14.499 7.5s6.5 7.83398 6.5 12.501v34
c0 4.66699 1.5 8.33398 4.5 11.001s6.16699 4 9.5 4h77c6.66699 0 11.667 -1.5 15 -4.5s5 -8.5 5 -16.5v-36c0 -2.66699 1 -4.83398 3 -6.50098s6 -3.16699 12 -4.5c66.667 -15.333 122.667 -39 168 -71c6.66699 -3.33301 10 -8 10 -14c0 -4 -1.66699 -8.33301 -5 -13
l-61 -78c-4.66699 -6 -9.33398 -9 -14.001 -9s-10.334 3 -17.001 9c-22.667 21.333 -50.667 37.333 -84 48l-4 1c-6 0 -9 -3 -9 -9v-141c0 -3.33301 1 -6 3 -8s5.33301 -3.33301 10 -4l61 -16c51.333 -14 93 -39.667 125 -77s48 -80.666 48 -129.999
c0 -61.333 -20.5 -112.666 -61.5 -153.999zM281.005 601.997c0 10.667 -4.33301 15 -13 13c-26 -6 -45.833 -15.5 -59.5 -28.5s-20.5 -27.833 -20.5 -44.5c0 -18.667 5.83301 -34 17.5 -46s30.167 -21.333 55.5 -28h5c10 0 15 6.66699 15 20v114zM405.005 122.997
c26.667 4 47.5 12.667 62.5 26s22.5 29 22.5 47c0 42 -29 69 -87 81h-4c-5.33301 0 -8 -3.66699 -8 -11v-136c0 -6.66699 4.66699 -9 14 -7z" />
    <glyph glyph-name="percent" unicode="%" horiz-adv-x="954" 
d="M326 724c29.333 -19.333 52.501 -45.333 69.501 -78s25.5 -67.667 25.5 -105s-8.33301 -72 -25 -104s-39.667 -57.333 -69 -76s-62 -28 -98 -28s-68.833 9.33301 -98.5 28s-53 44 -70 76s-25.5 66.667 -25.5 104s8.66699 72.333 26 105s40.833 58.667 70.5 78
s62.167 29 97.5 29s67.666 -9.66699 96.999 -29zM283.001 7c-3.33301 -4 -7 -6.83203 -11 -8.49902s-9.33301 -2.5 -16 -2.5l-47 1c-6 0 -10.5 1.5 -13.5 4.5s-4.5 6.83301 -4.5 11.5s1.66699 9.66699 5 15l472 710c3.33301 5.33301 7 8.66602 11 9.99902s9 2 15 2h60
c8 0 12 -2.66699 12 -8c0 -2.66699 -1 -6 -3 -10zM276.501 451.501c9.66699 19.667 14.499 49.167 14.499 88.5c0 41.333 -5 72.5 -15 93.5s-26 31.5 -48 31.5c-42 0 -63 -41.667 -63 -125c0 -39.333 5 -68.833 15 -88.5s26 -29.5 48 -29.5
c22.667 0 38.834 9.83301 48.501 29.5zM824 381.001c29.333 -19.333 52.501 -45.333 69.501 -78s25.5 -67.667 25.5 -105s-8.33301 -72 -25 -104s-39.667 -57.333 -69 -76s-62 -28 -98 -28s-68.833 9.33301 -98.5 28s-53 44 -70 76s-25.5 66.667 -25.5 104
s8.66699 72.333 26 105s40.833 58.667 70.5 78s62.167 29 97.5 29s67.666 -9.66699 96.999 -29zM774.501 108.501c9.66699 19.667 14.499 49.167 14.499 88.5c0 41.333 -5 72.5 -15 93.5s-26 31.5 -48 31.5c-42 0 -63 -41.667 -63 -125c0 -38.667 5 -68 15 -88
s26 -30 48 -30c22.667 0 38.834 9.83301 48.501 29.5z" />
    <glyph glyph-name="ampersand" unicode="&#x26;" horiz-adv-x="859" 
d="M511 733c36 -13.333 64.002 -32.3281 84.002 -56.9951s30 -52.667 30 -84c0 -32 -13.5 -65.5 -40.5 -100.5s-61.5 -62.5 -103.5 -82.5c-5.33301 -2.66699 -8 -5.33398 -8 -8.00098s1.66699 -5.66699 5 -9l89 -94c4 -4 7.66699 -6 11 -6s7.33301 3 12 9
c30 35.333 51.667 70.666 65 105.999c4 8 9.66699 12 17 12c2 0 5 -0.666992 9 -2l89 -28c6.66699 -2 11.5 -6 14.5 -12s3.5 -12 1.5 -18c-10.667 -24 -23.5 -47.5 -38.5 -70.5s-35.167 -50.833 -60.5 -83.5c-1.33301 -1.33301 -2.83301 -3.33301 -4.5 -6
s-2.5 -4.66699 -2.5 -6c0 -2 3 -5 9 -9c28.667 -19.333 66 -30.666 112 -33.999c8 -0.666992 13.667 -2.5 17 -5.5s5 -7.83301 5 -14.5v-103c0 -8.66699 -2 -15.334 -6 -20.001s-9.66699 -7 -17 -7c-96.667 0 -177.334 22.667 -242.001 68
c-6.66699 3.33301 -11.334 5 -14.001 5c-3.33301 0 -8 -2 -14 -6c-34 -24.667 -70.167 -42.834 -108.5 -54.501s-81.833 -17.5 -130.5 -17.5c-80 0 -142 17.333 -186 52s-66 83.667 -66 147c0 39.333 13.667 75.666 41 108.999s71 66.666 131 99.999
c6.66699 4 10 7.66699 10 11s-2.66699 8 -8 14c-19.333 21.333 -34.5 44.5 -45.5 69.5s-16.5 49.167 -16.5 72.5c0 34.667 10.167 66 30.5 94s48.5 49.833 84.5 65.5s76.667 23.5 122 23.5c46 0 87 -6.66699 123 -20zM345.502 629.505
c-13 -12.333 -19.501 -26.833 -19.501 -43.5c0 -14.667 7.66699 -31 23 -49l35 -42c2.66699 -2.66699 6.33398 -4 11.001 -4c2.66699 0 6 0.666992 10 2c44 23.333 66 53 66 89c0 20 -6.83301 36 -20.5 48s-31.5 18 -53.5 18c-21.333 0 -38.5 -6.16699 -51.5 -18.5z
M305.001 314.005c-3.33301 0 -7.33203 -1.66699 -11.999 -5c-19.333 -11.333 -34.5 -25.333 -45.5 -42s-16.5 -33.667 -16.5 -51c0 -24 9.66699 -45.167 29 -63.5s42.666 -27.5 69.999 -27.5c16 0 33.333 3.16699 52 9.5s33.667 14.5 45 24.5c6 4.66699 9 9 9 13
c0 3.33301 -2 7.33301 -6 12l-110 121c-6 6 -11 9 -15 9z" />
    <glyph glyph-name="quotesingle" unicode="'" horiz-adv-x="251" 
d="M175 456c-1.33301 -10 -4 -16.833 -8 -20.5s-11.333 -5.5 -22 -5.5h-39c-8.66699 0 -14.5 1.66699 -17.5 5s-5.16699 9.33301 -6.5 18l-37 269v4c0 5.33301 1.66699 9.33301 5 12s7.33301 4 12 4h134c5.33301 0 9.5 -1.5 12.5 -4.5s4.16699 -7.5 3.5 -13.5z" />
    <glyph glyph-name="parenleft" unicode="(" horiz-adv-x="323" 
d="M306 728c-34.667 -68.667 -61.667 -140.667 -81 -216s-29 -151.333 -29 -228c0 -72.667 8.83301 -143.5 26.5 -212.5s44.834 -142.5 81.501 -220.5c1.33301 -2.66699 2 -5 2 -7c0 -6 -4 -9 -12 -9h-95c-4.66699 0 -8.33398 0.833008 -11.001 2.5
s-5.66699 4.83398 -9 9.50098c-46 79.333 -80.5 152.333 -103.5 219s-34.5 139.667 -34.5 219c0 80 12.167 157.667 36.5 233s58.166 145.666 101.499 210.999c6.66699 8.66699 15.334 13 26.001 13h91c10.667 0 14 -4.66699 10 -14z" />
    <glyph glyph-name="parenright" unicode=")" horiz-adv-x="323" 
d="M118 742c10.667 0 19.334 -4.33301 26.001 -13c43.333 -65.333 77.166 -135.666 101.499 -210.999s36.5 -153 36.5 -233c0 -79.333 -11.5 -152.333 -34.5 -219s-57.5 -139.667 -103.5 -219c-3.33301 -4.66699 -6.33301 -7.83398 -9 -9.50098s-6.33398 -2.5 -11.001 -2.5
h-95c-5.33301 0 -8.83301 1.66699 -10.5 5s-1.5 7 0.5 11c36.667 78 63.834 151.5 81.501 220.5s26.5 139.833 26.5 212.5c0 76.667 -9.66699 152.667 -29 228s-46.333 147.333 -81 216c-0.666992 1.33301 -1 3.33301 -1 6c0 5.33301 3.66699 8 11 8h91z" />
    <glyph glyph-name="asterisk" unicode="*" horiz-adv-x="494" 
d="M254 442c-1.33301 2 -3.1709 3.00293 -5.50391 3.00293s-4.16602 -1 -5.49902 -3l-74 -126c-2.66699 -4 -6.66699 -6 -12 -6s-9.66602 1.33301 -12.999 4l-62 44c-5.33301 3.33301 -8 7 -8 11s1.66699 7.66699 5 11l92 108c1.33301 2.66699 2 4.33398 2 5.00098
c0 4 -2.66699 6.66699 -8 8l-130 35c-6.66699 2 -10 6.66699 -10 14c0 1.33301 0.666992 4.66602 2 9.99902l25 67c3.33301 10 9.66602 13 18.999 9l123 -56c1.33301 -0.666992 3 -1 5 -1c6 0 8.33301 2.66699 7 8l-12 141c0 3.33301 1.16699 6.5 3.5 9.5
s5.83301 4.5 10.5 4.5h82c4.66699 0 8.33398 -1.5 11.001 -4.5s3.66699 -6.16699 3 -9.5l-13 -142v-2c0 -6 3 -7.66699 9 -5l126 56l8 2c7.33301 0 12 -4.66699 14 -14l21 -65l2 -8c0 -8 -4.33301 -12.667 -13 -14l-127 -36
c-3.33301 -0.666992 -5.16602 -2.33398 -5.49902 -5.00098s0.833984 -5.33398 3.50098 -8.00098l88 -104c2.66699 -2.66699 4 -6 4 -10c0 -6.66699 -4 -12.334 -12 -17.001l-54 -37c-6 -4 -11.333 -6 -16 -6c-6 0 -10 2 -12 6z" />
    <glyph glyph-name="plus" unicode="+" horiz-adv-x="592" 
d="M544.5 432c3 -3.33301 4.5 -7.66797 4.5 -13.001v-84c0 -8.66699 -2.33301 -15 -7 -19s-12 -6 -22 -6h-159v-172c0 -5.33301 -1.66699 -9.5 -5 -12.5s-7.66602 -4.5 -12.999 -4.5h-84c-8.66699 0 -15 2.33301 -19 7s-6 12.334 -6 23.001v159h-166
c-8.66699 0 -14.834 1.66699 -18.501 5s-5.5 9 -5.5 17v84c0 14 5.66699 21 17 21h173v166c0 8.66699 1.66699 14.667 5 18s9 5 17 5h84c14 0 21 -5.66699 21 -17v-172h172c4.66699 0 8.5 -1.66699 11.5 -5z" />
    <glyph glyph-name="comma" unicode="," horiz-adv-x="266" 
d="M41.5 -153.5c-3 5 -3.16602 10.168 -0.499023 15.501l49 109c3.33301 8 5 13.667 5 17c0 8 -4.66699 12 -14 12h-20c-8.66699 0 -14.834 1.83301 -18.501 5.5s-5.5 9.5 -5.5 17.5v139c0 6.66699 1.5 11.667 4.5 15s7.16699 5 12.5 5h156c10.667 0 16 -6 16 -18v-134
c0 -5.33301 -1.33301 -10.333 -4 -15l-106 -155c-4 -6.66699 -10 -11.834 -18 -15.501s-15.667 -5.5 -23 -5.5h-20c-6 0 -10.5 2.5 -13.5 7.5z" />
    <glyph glyph-name="hyphen" unicode="-" horiz-adv-x="380" 
d="M335 226c0 -9.33301 -2.33301 -16 -7 -20s-12.334 -6 -23.001 -6h-236c-9.33301 0 -15.666 1.83301 -18.999 5.5s-5 9.5 -5 17.5v83c0 13.333 5.66699 20 17 20l257 1c4.66699 0 8.5 -1.83301 11.5 -5.5s4.5 -8.16699 4.5 -13.5v-82z" />
    <glyph glyph-name="period" unicode="." horiz-adv-x="266" 
d="M226 27c0 -10 -2.33301 -17 -7 -21s-12.667 -6 -24 -6h-134c-9.33301 -0 -15.833 1.83301 -19.5 5.5s-5.5 9.5 -5.5 17.5v141c0 13.333 5.66699 20 17 20h156c11.333 0 17 -6 17 -18v-139z" />
    <glyph glyph-name="slash" unicode="/" horiz-adv-x="373" 
d="M3 9l248.999 717c4 10.667 12 16 24 16h76c6.66699 0 11.334 -1 14.001 -3s4 -5.66699 4 -11c0 -4.66699 -1 -10 -3 -16l-242 -697c-2.66699 -8.66699 -6.5 -14.667 -11.5 -18s-11.833 -5 -20.5 -5h-75c-13.333 0 -18.333 5.66699 -15 17z" />
    <glyph glyph-name="zero" unicode="0" horiz-adv-x="716" 
d="M523 704c48.667 -32.667 86.666 -78.167 113.999 -136.5s41 -124.5 41 -198.5s-13.5 -139.5 -40.5 -196.5s-64.667 -101.333 -113 -133s-103.5 -47.5 -165.5 -47.5c-62.667 0 -118.334 15.833 -167.001 47.5s-86.5 76 -113.5 133s-40.5 122.5 -40.5 196.5
s13.833 140.167 41.5 198.5s65.834 103.833 114.501 136.5s103.667 49 165 49c60.667 0 115.334 -16.333 164.001 -49zM445.999 186c18 36 27 96.667 27 182c0 87.333 -9.16699 150.166 -27.5 188.499s-47.5 57.5 -87.5 57.5s-69.167 -19.167 -87.5 -57.5
s-27.5 -101.166 -27.5 -188.499c0 -84.667 9 -145.167 27 -181.5s47.333 -54.5 88 -54.5s70 18 88 54z" />
    <glyph glyph-name="one" unicode="1" horiz-adv-x="523" 
d="M493 130l-0.000976562 -110.002c0 -6 -2 -10.833 -6 -14.5s-9.66699 -5.5 -17 -5.5h-411c-14 0 -21 6.33301 -21 19v111c0 6 1.66699 10.333 5 13s8.33301 4 15 4h96c2.66699 0 5.16699 0.833008 7.5 2.5s3.5 3.83398 3.5 6.50098v375c0 5.33301 -1.16699 9 -3.5 11
s-6.16602 2.33301 -11.499 1l-89 -24l-7 -1c-11.333 0 -17 7.33301 -17 22v76c0 7.33301 1 12.833 3 16.5s6.33301 6.83398 13 9.50098l174 87c11.333 5.33301 19.833 8.83301 25.5 10.5s12.5 2.5 20.5 2.5h78c10.667 0 16 -6.33301 16 -19v-565
c0 -7.33301 3.33301 -11 10 -11h95c14 0 21 -5.66699 21 -17z" />
    <glyph glyph-name="two" unicode="2" horiz-adv-x="659" 
d="M262 325c45.333 38 78.8301 67.8359 100.497 89.5029s36.334 40.167 44.001 55.5s11.5 32 11.5 50c0 26 -9 47 -27 63s-41.667 24 -71 24c-27.333 0 -51.666 -8.16699 -72.999 -24.5s-42.666 -44.166 -63.999 -83.499c-3.33301 -5.33301 -8 -8 -14 -8
c-4 0 -9.33301 1.66699 -16 5l-105 53c-8.66699 4 -13 10.333 -13 19c0 5.33301 1.66699 10.666 5 15.999c36 57.333 77.667 99.666 125 126.999s102.666 41 165.999 41c56.667 0 106.334 -9.5 149.001 -28.5s75.667 -46 99 -81s35 -75.5 35 -121.5
c0 -40 -10.333 -76.333 -31 -109s-56 -67.334 -106 -104.001l-180 -131c-4 -2.66699 -6 -5.33398 -6 -8.00098s4 -4 12 -4h297c14 0 21 -5.66699 21 -17v-128c0 -6 -1.83301 -10.833 -5.5 -14.5s-9.16699 -5.5 -16.5 -5.5h-541c-9.33301 0 -15.833 1.66699 -19.5 5
s-5.5 9.33301 -5.5 18v88c0 6 3.16699 13 9.5 21s20.833 21.333 43.5 40z" />
    <glyph glyph-name="three" unicode="3" horiz-adv-x="677" 
d="M57 633c0 3.33301 1.66504 7.66992 4.99805 13.0029c25.333 31.333 62.5 56.833 111.5 76.5s101.167 29.5 156.5 29.5c59.333 0 110.833 -8.16699 154.5 -24.5s77.167 -39.333 100.5 -69s35 -63.834 35 -102.501c0 -32 -10.167 -62 -30.5 -90s-48.5 -47.667 -84.5 -59
c-8 -2.66699 -12 -6 -12 -10c0 -4.66699 3.66699 -8 11 -10c42.667 -14 76.5 -36.167 101.5 -66.5s37.5 -64.5 37.5 -102.5c0 -74.667 -27.167 -131.334 -81.5 -170.001s-135.5 -58 -243.5 -58c-59.333 0 -115.166 12 -167.499 36s-92.166 55.333 -119.499 94
c-3.33301 5.33301 -5 10 -5 14c0 8 4 14.333 12 19l90 63c6 4 11 6 15 6c4.66699 0 8 -1.66699 10 -5c32 -32 60.333 -54.5 85 -67.5s55 -19.5 91 -19.5c35.333 0 63.333 7.66699 84 23s31 35.666 31 60.999c0 28 -11.333 50.5 -34 67.5s-52 26.167 -88 27.5l-85 1
c-12.667 0 -19 5.33301 -19 16v108c0 8.66699 6.33301 14 19 16l68 3c35.333 2 63.833 11.167 85.5 27.5s32.5 37.166 32.5 62.499c0 20 -9.33301 37 -28 51s-41.334 21 -68.001 21c-29.333 0 -56.166 -5.5 -80.499 -16.5s-49.833 -29.5 -76.5 -55.5
c-4.66699 -4.66699 -8.66699 -7 -12 -7s-7 2 -11 6l-85 80c-3.33301 4.66699 -5 8.33398 -5 11.001z" />
    <glyph glyph-name="four" unicode="4" horiz-adv-x="703" 
d="M374.5 738c5.66699 2.66699 14.5039 4.00098 26.5039 4.00098h146c5.33301 0 9.66602 -1.66699 12.999 -5s5 -8 5 -14v-409c0 -7.33301 3.33301 -11 10 -11h78c13.333 0 20 -6 20 -18v-98c0 -13.333 -7.33301 -20 -22 -20h-75c-7.33301 0 -11 -4.33301 -11 -13v-128
c0 -9.33301 -2.33301 -16 -7 -20s-12.334 -6 -23.001 -6h-152c-8.66699 0 -14.834 1.83301 -18.501 5.5s-5.5 9.5 -5.5 17.5l1 134c0 6.66699 -4.33301 10 -13 10h-293c-7.33301 0 -13 1.83301 -17 5.5s-6 8.5 -6 14.5v94c0 6.66699 2.16699 13.667 6.5 21
s12.166 18.666 23.499 33.999l294 384c7.33301 9.33301 13.833 15.333 19.5 18zM353.004 303.001c2.66699 0 4.83301 0.666992 6.5 2s2.5 3 2.5 5v219c0 10 -1 15 -3 15s-5.66699 -3.66699 -11 -11l-157 -217c-2.66699 -4 -4 -6.66699 -4 -8c0 -3.33301 3.66699 -5 11 -5
h155z" />
    <glyph glyph-name="five" unicode="5" horiz-adv-x="683" 
d="M568 742c12.667 0 20.502 -1.66309 23.502 -4.99609s4.16699 -10.333 3.5 -21l-6 -114c-0.666992 -8 -2.66699 -13.5 -6 -16.5s-9.66602 -4.5 -18.999 -4.5h-307c-12.667 0 -19 -5.66699 -19 -17l-10 -95v-4c0 -4.66699 1.5 -7.83398 4.5 -9.50098
s6.5 -1.83398 10.5 -0.500977c31.333 9.33301 56 16 74 20s38.333 6 61 6c52.667 0 99.5 -9.33301 140.5 -28s73.167 -46 96.5 -82s35 -79 35 -129c0 -52 -12.667 -97 -38 -135s-61.333 -67 -108 -87s-100.667 -30 -162 -30c-67.333 0 -128.333 11.5 -183 34.5
s-95.334 53.5 -122.001 91.5c-6 9.33301 -9 16.666 -9 21.999c0 6 3.66699 11.333 11 16l96 66c5.33301 3.33301 9.66602 5 12.999 5c5.33301 0 11 -3 17 -9c25.333 -29.333 49 -51 71 -65s50 -21 84 -21c41.333 0 73.5 10 96.5 30s34.5 45.333 34.5 76
c0 30 -10.667 54.667 -32 74s-51.333 29 -90 29c-18 0 -35.333 -2.5 -52 -7.5s-37.334 -13.5 -62.001 -25.5c-5.33301 -2.66699 -9.33301 -4 -12 -4c-2 0 -7 2 -15 6l-106 57c-4.66699 2.66699 -8 5.66699 -10 9s-3 7.66602 -3 12.999s0.333008 9.66602 1 12.999l29 315
c1.33301 10.667 4.5 17.834 9.5 21.501s15.167 5.5 30.5 5.5h429z" />
    <glyph glyph-name="six" unicode="6" horiz-adv-x="693" 
d="M493.5 726.5c36.333 -15.667 65.665 -35.001 87.998 -58.001s36.5 -45.167 42.5 -66.5c0.666992 -2 1 -5.33301 1 -10c0 -7.33301 -3.66699 -12.333 -11 -15l-127 -38c-1.33301 -0.666992 -3 -1 -5 -1c-4 0 -7.33301 1.5 -10 4.5s-4.66699 5.83301 -6 8.5
c-13.333 20.667 -26.666 36 -39.999 46s-31.333 15 -54 15c-41.333 0 -74 -15.167 -98 -45.5s-36 -70.833 -36 -121.5c0 -8.66699 0.666992 -14.834 2 -18.501s4 -5.5 8 -5.5c1.33301 0 6 1.33301 14 4c26.667 11.333 49.667 19.666 69 24.999s42.333 8 69 8
c50.667 0 95.834 -9.5 135.501 -28.5s70.5 -45.167 92.5 -78.5s33 -71.333 33 -114c0 -46.667 -13.167 -88.667 -39.5 -126s-62.333 -66.5 -108 -87.5s-96.5 -31.5 -152.5 -31.5c-65.333 0 -122.333 14.833 -171 44.5s-86.167 71.834 -112.5 126.501
s-39.5 118.334 -39.5 191.001c0 81.333 14 151.833 42 211.5s67.167 105.334 117.5 137.001s108.5 47.5 174.5 47.5c44.667 0 85.167 -7.83301 121.5 -23.5zM299.499 318.499c-20.333 -6.33301 -36.1689 -13.168 -47.502 -20.501
c-5.33301 -3.33301 -8.66602 -7 -9.99902 -11s-2 -10.667 -2 -20c0 -42 10.5 -76.667 31.5 -104s48.833 -41 83.5 -41c30 0 55.333 10.167 76 30.5s31 45.833 31 76.5s-10.167 54.834 -30.5 72.501s-45.5 26.5 -75.5 26.5c-17.333 0 -36.166 -3.16699 -56.499 -9.5z" />
    <glyph glyph-name="seven" unicode="7" horiz-adv-x="626" 
d="M564 742c10.667 0 18.835 -2.49512 24.502 -7.49512s8.16699 -10.833 7.5 -17.5l-3 -61c-0.666992 -6 -4.16699 -15.833 -10.5 -29.5s-12.5 -24.834 -18.5 -33.501c-37.333 -56.667 -71.333 -120.167 -102 -190.5s-55.334 -138.5 -74.001 -204.5s-29.667 -122 -33 -168
c-0.666992 -10.667 -2.83398 -18.334 -6.50098 -23.001s-9.16699 -7 -16.5 -7h-186c-13.333 0 -20 5.66699 -20 17c0 1.33301 0.666992 4.66602 2 9.99902c23.333 81.333 53.333 162.166 90 242.499s91.667 178.5 165 294.5c2.66699 5.33301 4 8.66602 4 9.99902
c0 4.66699 -4.33301 7 -13 7h-320c-17.333 0 -25.333 7.66699 -24 23l12 122c0.666992 10.667 9.66699 16 27 16h495z" />
    <glyph glyph-name="eight" unicode="8" horiz-adv-x="688" 
d="M483.5 725c43.667 -18 77.833 -42.8359 102.5 -74.5029s37 -66.834 37 -105.501c0 -27.333 -8.16699 -52.166 -24.5 -74.499s-39.833 -41.5 -70.5 -57.5c-6 -3.33301 -9 -6.66602 -9 -9.99902c0 -2.66699 2.66699 -6 8 -10c48 -27.333 81.5 -54.666 100.5 -81.999
s28.5 -59.333 28.5 -96c0 -46.667 -13.667 -87 -41 -121s-65.333 -59.833 -114 -77.5s-105 -26.5 -169 -26.5c-89.333 0 -161.333 16.833 -216 50.5s-82 80.834 -82 141.501c0 34 8.66699 63.667 26 89s47.333 49.333 90 72c6 3.33301 9 6 9 8c0 1.33301 -2.33301 4 -7 8
c-31.333 23.333 -55.5 46.5 -72.5 69.5s-25.5 53.167 -25.5 90.5c0 42.667 11.5 81.667 34.5 117s56 63.5 99 84.5s93.167 31.5 150.5 31.5c53.333 0 101.833 -9 145.5 -27zM270.999 599.997c-18.667 -14 -28 -32.667 -28 -56c0 -16 5 -30 15 -42s24.333 -20.667 43 -26
l71 -23c5.33301 -1.33301 9 -2 11 -2c17.333 0 33.5 9.5 48.5 28.5s22.5 38.5 22.5 58.5c0 23.333 -10 43 -30 59s-47.667 24 -83 24c-28 0 -51.333 -7 -70 -21zM425.999 141.497c19.333 13.667 29 32.5 29 56.5c0 18 -5.33301 33 -16 45s-29.667 22.667 -57 32l-82 26
c-4.66699 2 -10 3 -16 3c-12.667 0 -25.167 -4 -37.5 -12s-22.5 -19 -30.5 -33s-12 -29 -12 -45c0 -62 47 -93 141 -93c34.667 0 61.667 6.83301 81 20.5z" />
    <glyph glyph-name="nine" unicode="9" horiz-adv-x="693" 
d="M199.5 15.5c-36.333 15.667 -65.832 35.002 -88.499 58.002s-37 45.167 -43 66.5c-0.666992 2 -1 5 -1 9c0 8 4 13.333 12 16l126 38c1.33301 0.666992 3 1 5 1c5.33301 0 9.16602 -1.83301 11.499 -5.5s3.83301 -5.83398 4.5 -6.50098
c13.333 -20.667 26.833 -36.167 40.5 -46.5s31.834 -15.5 54.501 -15.5c41.333 0 74 15.167 98 45.5s36 70.833 36 121.5c0 8.66699 -0.666992 14.834 -2 18.501s-4 5.5 -8 5.5c-1.33301 0 -6 -1.33301 -14 -4c-26.667 -11.333 -49.667 -19.666 -69 -24.999
s-42.333 -8 -69 -8c-50.667 0 -95.834 9.5 -135.501 28.5s-70.5 45.167 -92.5 78.5s-33 71.333 -33 114c0 46.667 13.167 88.667 39.5 126s62.333 66.5 108 87.5s96.5 31.5 152.5 31.5c65.333 0 122.333 -14.833 171 -44.5s86.167 -71.834 112.5 -126.501
s39.5 -118.334 39.5 -191.001c0 -81.333 -14 -151.833 -42 -211.5s-67.167 -105.334 -117.5 -137.001s-108.5 -47.5 -174.5 -47.5c-44.667 0 -85.167 7.83301 -121.5 23.5zM394.501 423.502c20.333 6.33301 35.8359 13.501 46.5029 21.501
c5.33301 3.33301 8.66602 7 9.99902 11s2 10.667 2 20c0 42 -10.333 76.5 -31 103.5s-48.334 40.5 -83.001 40.5c-30 0 -55.333 -10.167 -76 -30.5s-31 -45.833 -31 -76.5s10.167 -54.834 30.5 -72.501s45.166 -26.5 74.499 -26.5c18 0 37.167 3.16699 57.5 9.5z" />
    <glyph glyph-name="colon" unicode=":" horiz-adv-x="266" 
d="M226 367c0 -9.33301 -2.5 -16.001 -7.5 -20.001s-12.833 -6 -23.5 -6h-134c-9.33301 0 -15.833 2 -19.5 6s-5.5 10 -5.5 18v136c0 6.66699 1.5 11.834 4.5 15.501s7.16699 5.5 12.5 5.5h156c11.333 0 17 -6.33301 17 -19v-136zM226 29.999
c0 -9.33301 -2.5 -16.167 -7.5 -20.5s-12.833 -6.5 -23.5 -6.5h-134c-9.33301 0 -15.833 2 -19.5 6s-5.5 10 -5.5 18v137c0 6.66699 1.5 11.667 4.5 15s7.16699 5 12.5 5h156c11.333 0 17 -6.33301 17 -19v-135z" />
    <glyph glyph-name="semicolon" unicode=";" horiz-adv-x="270" 
d="M41.5 340.5c-3.66699 3.66699 -5.5 9.5 -5.5 17.5v141c0 13.333 5.66699 20 17 20h156c11.333 0 17 -6 17 -18v-140c0 -9.33301 -2.33301 -16 -7 -20s-12.667 -6 -24 -6h-134c-9.33301 0 -15.833 1.83301 -19.5 5.5zM41.5 -157c-3 4.66699 -3.16602 10 -0.499023 16
l49 112c2.66699 6 4 11.667 4 17c0 8 -4.33301 12 -13 12h-20c-8.66699 -0 -14.834 1.83301 -18.501 5.5s-5.5 9.5 -5.5 17.5v139c0 6.66699 1.5 11.667 4.5 15s7.16699 5 12.5 5h156c10.667 0 16 -6 16 -18v-134c0 -5.33301 -1.33301 -10.333 -4 -15l-106 -159
c-4 -6 -10 -10.833 -18 -14.5s-15.667 -5.5 -23 -5.5h-20c-6 0 -10.5 2.33301 -13.5 7z" />
    <glyph glyph-name="less" unicode="&#x3c;" horiz-adv-x="589" 
d="M531 125c0 -17.333 -7 -26 -21 -26c-4.66699 0 -9.33398 1 -14.001 3l-432 167c-17.333 6 -26 16 -26 30v101c0 16 8.66699 26.667 26 32l433 168c2.66699 1.33301 6.33398 2 11.001 2c6.66699 0 12.167 -2.33301 16.5 -7s6.5 -10.667 6.5 -18v-86
c0 -10 -3.16699 -18.167 -9.5 -24.5s-16.5 -12.166 -30.5 -17.499l-262 -100l262 -97c14.667 -5.33301 25 -10.833 31 -16.5s9 -13.834 9 -24.501v-86z" />
    <glyph glyph-name="equal" unicode="=" horiz-adv-x="592" 
d="M549 432c0 -8.66699 -2.33203 -15.001 -6.99902 -19.001s-12 -6 -22 -6l-452 -1c-8.66699 0 -14.834 1.83301 -18.501 5.5s-5.5 9.5 -5.5 17.5v83c0 14 5.66699 21 17 21h472c4.66699 0 8.5 -1.66699 11.5 -5s4.5 -7.66602 4.5 -12.999v-83zM549.001 193.999
c0 -17.333 -9.66602 -26.001 -28.999 -26.001h-452c-8.66699 0 -14.834 1.83301 -18.501 5.5s-5.5 9.5 -5.5 17.5v83c0 14 5.66699 21 17 21h472c4.66699 0 8.5 -1.66699 11.5 -5s4.5 -7.66602 4.5 -12.999v-83z" />
    <glyph glyph-name="greater" unicode="&#x3e;" horiz-adv-x="589" 
d="M66.5 235c6.33301 6 16.833 11.667 31.5 17l262 97l-262 100c-14.667 6 -25.167 12 -31.5 18s-9.5 14 -9.5 24v86c0 7.33301 2.16699 13.333 6.5 18s9.83301 7 16.5 7c4.66699 0 8.33398 -0.666992 11.001 -2l434 -168c16.667 -5.33301 25 -16 25 -32v-101
c0 -14 -8.33301 -24 -25 -30l-433 -167c-4.66699 -2 -9.33398 -3 -14.001 -3c-6 0 -11 2.16699 -15 6.5s-6 10.833 -6 19.5v86c0 10 3.16699 18 9.5 24z" />
    <glyph glyph-name="question" unicode="?" horiz-adv-x="542" 
d="M0 584c0 2.66699 0.668945 5.99805 2.00195 9.99805c21.333 51.333 54.333 90.5 99 117.5s99 40.5 163 40.5c49.333 0 93.166 -7.83301 131.499 -23.5s68 -36.667 89 -63s31.5 -55.166 31.5 -86.499c0 -24 -4.5 -45.5 -13.5 -64.5s-20.167 -35.167 -33.5 -48.5
s-31 -29.333 -53 -48c-31.333 -24.667 -54.833 -47.167 -70.5 -67.5s-23.5 -45.833 -23.5 -76.5c0 -5.33301 -2.16699 -10.166 -6.5 -14.499s-9.83301 -6.5 -16.5 -6.5h-94c-7.33301 0 -13 2.16699 -17 6.5s-6 10.833 -6 19.5c0 30.667 4.83301 58 14.5 82
s21.167 44.333 34.5 61s30.333 35 51 55c20.667 20.667 35.667 37.334 45 50.001s14 26.667 14 42c0 19.333 -7.5 35 -22.5 47s-33.833 18 -56.5 18c-23.333 0 -45.333 -7.16699 -66 -21.5s-36.334 -33.833 -47.001 -58.5c-2 -4.66699 -4 -7.83398 -6 -9.50098
s-4.66699 -2.5 -8 -2.5c-4 0 -7 0.333008 -9 1l-115 26c-7.33301 2 -11 7 -11 15zM346.002 26.998c0 -10 -2.33203 -17 -6.99902 -21s-12.667 -6 -24 -6h-135c-8.66699 0 -14.834 1.83301 -18.501 5.5s-5.5 9.5 -5.5 17.5v138c0 13.333 5.66699 20 17 20h156
c5.33301 0 9.5 -1.66699 12.5 -5s4.5 -8 4.5 -14v-135z" />
    <glyph glyph-name="at" unicode="@" horiz-adv-x="834" 
d="M568 -93.5c-42 -13 -88.3369 -19.5029 -139.004 -19.5029c-80 0 -149.667 16.667 -209 50s-104.833 78.5 -136.5 135.5s-47.5 120.167 -47.5 189.5c0 72 17 138.5 51 199.5s82.333 109.5 145 145.5s135.334 54 218.001 54c64 0 123.667 -11.5 179 -34.5
s100 -58.833 134 -107.5s51 -109 51 -181c0 -50 -8.33301 -94.5 -25 -133.5s-40 -69.333 -70 -91s-64.667 -32.5 -104 -32.5c-26.667 0 -48 4.5 -64 13.5s-27.667 19.5 -35 31.5c-3.33301 3.33301 -5.33301 5 -6 5c-1.33301 0 -3.66602 -2 -6.99902 -6
c-16 -18 -35.167 -32.167 -57.5 -42.5s-47.166 -15.5 -74.499 -15.5c-29.333 0 -55.833 7.16699 -79.5 21.5s-42.167 34.833 -55.5 61.5s-20 57.334 -20 92.001c0 40.667 8.5 78.834 25.5 114.501s41 64.334 72 86.001s67.167 32.5 108.5 32.5
c25.333 0 45.666 -4 60.999 -12s30 -19.333 44 -34c1.33301 -1.33301 3 -2 5 -2c2.66699 0 4.33398 2 5.00098 6l2 9c0.666992 4.66699 4 7 10 7h79c6 0 8.66699 -2.66699 8 -8l-35 -209c-1.33301 -5.33301 -2 -12.666 -2 -21.999c0 -22 9.66699 -33 29 -33
c14 0 27.5 5.66699 40.5 17s23.667 28.666 32 51.999s12.5 52 12.5 86c0 83.333 -24.667 143.5 -74 180.5s-112.333 55.5 -189 55.5c-70.667 0 -129.167 -13.5 -175.5 -40.5s-80.333 -63.333 -102 -109s-32.5 -97.167 -32.5 -154.5c0 -92.667 27.333 -164.5 82 -215.5
s129.334 -76.5 224.001 -76.5c38.667 0 70 4.16699 94 12.5s49.667 21.5 77 39.5c4.66699 2.66699 8.66699 4 12 4c4 0 7 -1.66699 9 -5l36 -49c2 -2 3 -4.33301 3 -7c0 -4 -3.33301 -8.33301 -10 -13c-24 -18.667 -57 -34.5 -99 -47.5zM353.496 193.997
c11.667 -16.667 28.166 -24.998 49.499 -24.998c26.667 0 49.334 11.333 68.001 34s28.334 48.667 29.001 78c1.33301 25.333 -4.33398 47 -17.001 65s-30 27 -52 27c-26 0 -48.333 -11.333 -67 -34s-28 -50.334 -28 -83.001c0 -24.667 5.83301 -45.334 17.5 -62.001z" />
    <glyph glyph-name="A" unicode="A" horiz-adv-x="785" 
d="M32.5 5c-3 3.33301 -4.5 7.99902 -4.5 13.999c0 4.66699 1 9.33398 3 14.001l246 688c2.66699 8 6 13.5 10 16.5s10 4.5 18 4.5h174c16 0 27.333 -8.33301 34 -25l243 -686c0.666992 -2 1 -5.33301 1 -10c0 -6 -1.16699 -11 -3.5 -15s-5.83301 -6 -10.5 -6h-173
c-10.667 -0 -17.667 5.33301 -21 16l-44 130c-2 4 -3.83301 6.83301 -5.5 8.5s-4.83398 2.5 -9.50098 2.5h-227c-7.33301 0 -12 -3.66699 -14 -11l-47 -132c-3.33301 -9.33301 -10.666 -14 -21.999 -14h-135c-5.33301 0 -9.5 1.66699 -12.5 5zM445 308.999
c6.66699 0 10 3.33301 10 10c0 4 -0.333008 7 -1 9l-72 201c-0.666992 4 -2.66699 6 -6 6c-2.66699 0 -4.66699 -2 -6 -6l-73 -201c-1.33301 -2.66699 -2 -6 -2 -10c0 -6 4 -9 12 -9h138z" />
    <glyph glyph-name="B" unicode="B" horiz-adv-x="731" 
d="M66.5 6c-3.66699 4 -5.50098 8.66992 -5.50098 14.0029v698c0 7.33301 2 13.166 6 17.499s9.33301 6.5 16 6.5h286c100.667 0 177.334 -16.5 230.001 -49.5s79 -81.5 79 -145.5c0 -36 -9.83301 -66.667 -29.5 -92s-53.5 -48.666 -101.5 -69.999
c-1.33301 -0.666992 -2 -1.83398 -2 -3.50098s0.666992 -2.83398 2 -3.50098c53.333 -18.667 91.5 -41.834 114.5 -69.501s34.5 -63.5 34.5 -107.5c0 -68 -25.833 -118.5 -77.5 -151.5s-130.167 -49.5 -235.5 -49.5h-302c-6 0 -10.833 2 -14.5 6zM383.999 444.003
c27.333 0 49.833 7.16699 67.5 21.5s26.5 33.833 26.5 58.5c0 25.333 -9.5 45.5 -28.5 60.5s-43.5 22.5 -73.5 22.5h-92c-8 0 -13.5 -1.33301 -16.5 -4s-4.5 -7.33398 -4.5 -14.001v-124c0 -7.33301 1 -12.666 3 -15.999s6 -5 12 -5h106zM377.999 135.003
c34.667 0 61.334 8.16797 80.001 24.501s28 37.166 28 62.499c0 26 -9.33301 46.5 -28 61.5s-43.334 22.5 -74.001 22.5h-100c-8 0 -13.5 -1.5 -16.5 -4.5s-4.5 -8.16699 -4.5 -15.5v-131c0 -7.33301 1 -12.5 3 -15.5s6 -4.5 12 -4.5h100z" />
    <glyph glyph-name="C" unicode="C" horiz-adv-x="731" 
d="M529 723c44 -19.333 80 -46.1602 108 -80.4932s46 -72.833 54 -115.5l2 -17c0 -5.33301 -1 -8.83301 -3 -10.5s-5.66699 -2.83398 -11 -3.50098l-156 -11c-6 0 -9.83301 1.16699 -11.5 3.5s-3.5 7.16602 -5.5 14.499c-15.333 73.333 -54.333 110 -117 110
c-94 0 -141 -79 -141 -237c0 -84 11.667 -144.833 35 -182.5s58.666 -56.5 105.999 -56.5c37.333 0 69.166 9.5 95.499 28.5s48.166 50.167 65.499 93.5c2 5.33301 7 8 15 8c4 0 7.33301 -0.333008 10 -1l113 -22c4 -1.33301 7.16699 -3.33301 9.5 -6
s3.5 -7.33398 3.5 -14.001c0 -4 -0.333008 -7.33301 -1 -10c-5.33301 -26.667 -20.166 -57.334 -44.499 -92.001s-59.333 -65.334 -105 -92.001s-101.5 -40 -167.5 -40c-69.333 0 -130.166 16.5 -182.499 49.5s-92.666 78.833 -120.999 137.5s-42.5 126 -42.5 202
c0 75.333 14.167 141.166 42.5 197.499s68.5 99.666 120.5 129.999s113.333 45.5 184 45.5c52.667 0 101 -9.66699 145 -29z" />
    <glyph glyph-name="D" unicode="D" horiz-adv-x="762" 
d="M192 742c72.667 0 118.668 -0.333008 138.001 -1c131.333 -4.66699 229.833 -39.167 295.5 -103.5s98.5 -152.5 98.5 -264.5c0 -74.667 -14.833 -140 -44.5 -196s-74.167 -99.5 -133.5 -130.5s-132 -46.5 -218 -46.5h-241c-9.33301 0 -16 2 -20 6s-6 11 -6 21v692
c0 8.66699 1.66699 14.667 5 18s9.66602 5 18.999 5h107zM263.001 587v-432.001c0 -5.33301 0.833008 -9 2.5 -11s5.16699 -3 10.5 -3h13c74.667 0 130.5 18.167 167.5 54.5s55.5 96.166 55.5 179.499c0 74.667 -14.833 129.334 -44.5 164.001s-74.5 54.334 -134.5 59.001
l-61 3c-6 0 -9 -4.66699 -9 -14z" />
    <glyph glyph-name="E" unicode="E" horiz-adv-x="663" 
d="M78 742l523.001 -0.000976562c10.667 0 16 -6.33301 16 -19v-104c0 -7.33301 -2 -13.166 -6 -17.499s-10 -6.5 -18 -6.5h-309c-14 0 -21 -6 -21 -18v-113c0 -6 1.5 -10.667 4.5 -14s6.83301 -5 11.5 -5h195c12.667 0 19 -6 19 -18v-111c0 -10 -5.33301 -15 -16 -15h-199
c-10 0 -15 -4.66699 -15 -14v-127c0 -4.66699 0.833008 -8 2.5 -10s4.5 -3 8.5 -3h333c6.66699 0 11.667 -1.33301 15 -4s5 -7 5 -13v-110c0 -13.333 -7 -20 -21 -20h-521c-8.66699 -0 -14.834 1.83301 -18.501 5.5s-5.5 9.5 -5.5 17.5v698c0 14 5.66699 21 17 21z" />
    <glyph glyph-name="F" unicode="F" horiz-adv-x="641" 
d="M65.5 736.5c3 3.66699 7.16602 5.5 12.499 5.5h516c10.667 0 16 -6.33301 16 -19l-1 -104c0 -16 -7.33301 -24 -22 -24h-303c-7.33301 0 -12.666 -1.33301 -15.999 -4s-5 -7.33398 -5 -14.001v-122c0 -12.667 5.33301 -19 16 -19h199c12.667 0 19 -6 19 -18v-109
c0 -10 -5.66699 -15 -17 -15h-202c-10 0 -15 -4.66699 -15 -14v-254c0 -9.33301 -2.33301 -16 -7 -20s-12.334 -6 -23.001 -6h-148c-9.33301 0 -15.666 1.83301 -18.999 5.5s-5 9.5 -5 17.5v698c0 6.66699 1.5 11.834 4.5 15.501z" />
    <glyph glyph-name="G" unicode="G" horiz-adv-x="757" 
d="M199.5 37.5c-51.667 31.667 -91.668 76 -120.001 133s-42.5 122.833 -42.5 197.5c0 76.667 14.833 144 44.5 202s71.167 102.833 124.5 134.5s114.666 47.5 183.999 47.5c55.333 0 105 -10.167 149 -30.5s79.667 -47 107 -80s45 -67.833 53 -104.5l2 -16
c0 -6 -1.16699 -10 -3.5 -12s-6.16602 -3.33301 -11.499 -4l-152 -23c-6.66699 0 -11 1.16699 -13 3.5s-4 7.16602 -6 14.499c-5.33301 32.667 -19 59.667 -41 81s-51.333 32 -88 32c-45.333 0 -79.666 -18.667 -102.999 -56s-35 -98.333 -35 -183
c0 -88.667 12.333 -151.5 37 -188.5s60.667 -55.5 108 -55.5c33.333 0 60.333 8.16699 81 24.5s35.334 38.5 44.001 66.5l2 19c1.33301 4 2 6.66699 2 8c0 5.33301 -3.66699 8 -11 8h-107c-6.66699 0 -11.334 1.33301 -14.001 4s-4 8 -4 16v86c0 10 6.33301 15 19 15l274 -2
c10.667 0 18.834 -2.5 24.501 -7.5s8.5 -11.5 8.5 -19.5v-332c0 -4.66699 -1.5 -8.5 -4.5 -11.5s-6.83301 -4.5 -11.5 -4.5h-35c-12.667 0 -22.334 6 -29.001 18l-35 64c-1.33301 2.66699 -2.83301 3.83398 -4.5 3.50098s-3.5 -1.83301 -5.5 -4.5
c-25.333 -27.333 -53.333 -49.333 -84 -66s-72 -25 -124 -25c-68 0 -127.833 15.833 -179.5 47.5z" />
    <glyph glyph-name="H" unicode="H" horiz-adv-x="757" 
d="M277 306c-4 0 -7.33301 -1.16699 -10 -3.5s-4 -5.5 -4 -9.5v-267c0 -9.33301 -2.33301 -16 -7 -20s-12.334 -6 -23.001 -6h-148c-9.33301 -0 -15.666 1.83301 -18.999 5.5s-5 9.5 -5 17.5v698c0 6.66699 1.5 11.834 4.5 15.501s7.16699 5.5 12.5 5.5h168
c5.33301 0 9.5 -1.66699 12.5 -5s4.5 -8 4.5 -14v-244c0 -12.667 5.33301 -19 16 -19h199c10.667 0 16 6.33301 16 19v244c0 6 1.5 10.667 4.5 14s7.16699 5 12.5 5h168c5.33301 0 9.5 -1.83301 12.5 -5.5s4.5 -8.83398 4.5 -15.501v-698c0 -8 -1.66699 -13.833 -5 -17.5
s-9.66602 -5.5 -18.999 -5.5h-148c-10.667 0 -18.334 2 -23.001 6s-7 10.667 -7 20v267c0 4 -1.16699 7.16699 -3.5 9.5s-5.83301 3.5 -10.5 3.5h-203z" />
    <glyph glyph-name="I" unicode="I" horiz-adv-x="323" 
d="M246 742c11.333 0 17 -6.33398 17 -19.001v-696c0 -10 -2.33301 -17 -7 -21s-12.334 -6 -23.001 -6h-148c-9.33301 0 -15.666 1.83301 -18.999 5.5s-5 9.5 -5 17.5v698c0 6.66699 1.5 11.834 4.5 15.501s7.16699 5.5 12.5 5.5h168z" />
    <glyph glyph-name="J" unicode="J" horiz-adv-x="458" 
d="M347.5 39.5c-36.333 -33 -92.4971 -49.5 -168.497 -49.5c-34.667 0 -75.334 4.66699 -122.001 14c-10.667 2 -18 5.83301 -22 11.5s-5.66699 14.5 -5 26.5l9 103c1.33301 15.333 8.66602 22 21.999 20c4 -0.666992 11.667 -2.33398 23 -5.00098s23.666 -4 36.999 -4
c26.667 0 46.5 7.33301 59.5 22s19.5 39.334 19.5 74.001v469c0 14 6 21 18 21h167c11.333 0 17 -6.33301 17 -19v-520c0 -76 -18.167 -130.5 -54.5 -163.5z" />
    <glyph glyph-name="K" unicode="K" horiz-adv-x="759" 
d="M732 13c0 -8.66699 -5.33203 -13 -15.999 -13h-174c-16 0 -26.667 6 -32 18l-141 295c-2.66699 4 -5.33398 6 -8.00098 6s-7 -3.33301 -13 -10l-79 -99c-4 -4.66699 -6 -11.667 -6 -21v-163c0 -9.33301 -2.33301 -16 -7 -20s-12.334 -6 -23.001 -6h-148
c-9.33301 -0 -15.666 1.83301 -18.999 5.5s-5 9.5 -5 17.5v698c0 6.66699 1.5 11.834 4.5 15.501s7.16699 5.5 12.5 5.5h168c11.333 0 17 -6.33301 17 -19v-275c0 -7.33301 1.33301 -11 4 -11s6 2.33301 10 7l211 279c5.33301 7.33301 10.5 12.333 15.5 15s12.833 4 23.5 4
h136c6.66699 0 12.167 -1.33301 16.5 -4s6.5 -6.33398 6.5 -11.001c0 -4 -1.66699 -7.66699 -5 -11l-177 -212c-4 -6 -6 -11 -6 -15s1.33301 -8.66699 4 -14l226 -447c2.66699 -4.66699 4 -9.66699 4 -15z" />
    <glyph glyph-name="L" unicode="L" horiz-adv-x="635" 
d="M65.5 736.5c3 3.66699 7.16602 5.49902 12.499 5.49902h168c11.333 0 17 -6.33301 17 -19v-563c0 -4.66699 0.833008 -8 2.5 -10s4.5 -3 8.5 -3h310c14 0 21 -5.66699 21 -17v-110c0 -6 -2 -10.833 -6 -14.5s-9.66699 -5.5 -17 -5.5h-497
c-9.33301 0 -15.666 1.83301 -18.999 5.5s-5 9.5 -5 17.5v698c0 6.66699 1.5 11.834 4.5 15.501z" />
    <glyph glyph-name="M" unicode="M" horiz-adv-x="964" 
d="M67 7c-4 4.66699 -5.99902 11.001 -5.99902 19.001v695c0 7.33301 1.5 12.666 4.5 15.999s7.83301 5 14.5 5h245c8 0 13.667 -1.16699 17 -3.5s6.33301 -6.83301 9 -13.5l126 -366c2 -5.33301 4.33301 -8 7 -8s5 2.66699 7 8l117 357c5.33301 17.333 13.666 26 24.999 26
h253c11.333 0 17 -6.33301 17 -19v-697c0 -9.33301 -2.16699 -16 -6.5 -20s-11.833 -6 -22.5 -6h-149c-9.33301 -0 -15.666 1.83301 -18.999 5.5s-5 9.5 -5 17.5v472c0 4.66699 -1.33301 7 -4 7s-5 -2.66699 -7 -8l-158 -477c-4 -11.333 -11.667 -17 -23 -17h-94
c-12 0 -20 5.66699 -24 17l-158 470c-2 6 -4 9 -6 9c-2.66699 0 -4 -3.33301 -4 -10v-466c0 -8 -1.33301 -13.333 -4 -16s-8.33398 -4 -17.001 -4h-118c-7.33301 -0 -13 2.33301 -17 7z" />
    <glyph glyph-name="N" unicode="N" horiz-adv-x="760" 
d="M685 742c10 0 15.001 -5.33203 15.001 -15.999v-709c0 -5.33301 -2 -9.5 -6 -12.5s-9 -4.5 -15 -4.5h-121c-5.33301 0 -9.83301 0.833008 -13.5 2.5s-7.83398 5.5 -12.501 11.5l-296 408c-2.66699 4 -5 5.83301 -7 5.5s-3 -2.5 -3 -6.5v-401v-3
c0 -6 -1.66699 -10.333 -5 -13s-9 -4 -17 -4h-121c-14.667 0 -22 6.33301 -22 19v702c0 7.33301 1.5 12.666 4.5 15.999s8.16699 5 15.5 5h143c8 0 13.833 -1 17.5 -3s8.16699 -6.33301 13.5 -13l266 -375c4 -5.33301 7.66699 -8 11 -8s5 4 5 12v368
c0 12.667 6.66699 19 20 19h128z" />
    <glyph glyph-name="O" unicode="O" horiz-adv-x="777" 
d="M202.5 36c-53 30.667 -93.833 74.5 -122.5 131.5s-43 124.167 -43 201.5s14.5 144.833 43.5 202.5s70 102.167 123 133.5s114.833 47 185.5 47c70 0 131.5 -15.667 184.5 -47s94 -75.833 123 -133.5s43.5 -125.167 43.5 -202.5c0 -76.667 -14.333 -143.5 -43 -200.5
s-69.5 -101 -122.5 -132s-114.833 -46.5 -185.5 -46.5c-71.333 0 -133.5 15.333 -186.5 46zM495.5 185c21.667 36.667 32.499 97 32.499 181c0 86.667 -11.167 149.5 -33.5 188.5s-57.5 58.5 -105.5 58.5c-48.667 0 -84.167 -19.5 -106.5 -58.5s-33.5 -101.833 -33.5 -188.5
c0 -84 11 -144.333 33 -181s58 -55 108 -55c48.667 0 83.834 18.333 105.501 55z" />
    <glyph glyph-name="P" unicode="P" horiz-adv-x="723" 
d="M656 381.5c-22.667 -35 -54.666 -61.668 -95.999 -80.001s-89 -27.5 -143 -27.5h-143c-7.33301 0 -11 -3.33301 -11 -10v-238c0 -9.33301 -2.33301 -16 -7 -20s-12.334 -6 -23.001 -6h-149c-8.66699 0 -14.667 1.83301 -18 5.5s-5 9.5 -5 17.5v698c0 14 5.66699 21 17 21
h316c56 0 106.333 -8.83301 151 -26.5s80 -44.167 106 -79.5s39 -78.666 39 -129.999c0 -48 -11.333 -89.5 -34 -124.5zM455.501 574.999c-19 16 -43.499 24 -73.499 24h-98c-8 0 -13.5 -1.5 -16.5 -4.5s-4.5 -8.16699 -4.5 -15.5v-141c0 -7.33301 1 -12.5 3 -15.5
s6 -4.5 12 -4.5h110c29.333 0 52.666 8.33301 69.999 25s26 38.667 26 66c0 28 -9.5 50 -28.5 66z" />
    <glyph glyph-name="Q" unicode="Q" horiz-adv-x="779" 
d="M80.5 571.5c29 57.667 69.998 102.166 122.998 133.499s114.833 47 185.5 47s132.5 -15.667 185.5 -47s93.833 -75.833 122.5 -133.5s43 -125.167 43 -202.5c0 -63.333 -9.5 -119.5 -28.5 -168.5s-46.5 -89.833 -82.5 -122.5c-2 -2 -3 -5 -3 -9
c0 -9.33301 10.5 -20 31.5 -32s42.833 -19.333 65.5 -22c10.667 -1.33301 16 -6.66602 16 -15.999v-98c0 -11.333 -3 -18.833 -9 -22.5s-16.667 -5.5 -32 -5.5c-45.333 0 -86.166 9.83301 -122.499 29.5s-69.166 49.167 -98.499 88.5c-2.66699 4 -7.66699 5.33301 -15 4
c-20 -3.33301 -44.333 -5 -73 -5c-71.333 0 -133.5 15.333 -186.5 46s-93.833 74.5 -122.5 131.5s-43 124.167 -43 201.5s14.5 144.833 43.5 202.5zM281.498 184.999c21.667 -36.667 57.5 -54.999 107.5 -54.999s85.833 18.333 107.5 55s32.5 97.334 32.5 182.001
c0 86 -11.167 148.5 -33.5 187.5s-57.833 58.5 -106.5 58.5c-49.333 0 -85 -19.333 -107 -58s-33 -101.334 -33 -188.001c0 -84.667 10.833 -145.334 32.5 -182.001z" />
    <glyph glyph-name="R" unicode="R" horiz-adv-x="731" 
d="M689 20c0 -6 -1.66602 -10.835 -4.99902 -14.502s-8 -5.5 -14 -5.5h-171c-12.667 0 -21 6.33301 -25 19l-100 269c-2 5.33301 -5.16699 9.16602 -9.5 11.499s-11.166 3.5 -20.499 3.5h-69c-4 0 -7 -1.16699 -9 -3.5s-3 -4.83301 -3 -7.5v-265c0 -10 -2.33301 -17 -7 -21
s-12.334 -6 -23.001 -6h-149c-8.66699 0 -14.667 1.83301 -18 5.5s-5 9.5 -5 17.5v698c0 14 5.66699 21 17 21h324c93.333 0 165.666 -18.167 216.999 -54.5s77 -87.5 77 -153.5c0 -47.333 -12.5 -88.666 -37.5 -123.999s-57.167 -60 -96.5 -74
c-3.33301 -1.33301 -5 -4.66602 -5 -9.99902c0 -3.33301 0.333008 -6 1 -8l129 -288c1.33301 -5.33301 2 -8.66602 2 -9.99902zM462.001 458.998c16.667 14.667 25 35.334 25 62.001c0 28 -9.16699 49.667 -27.5 65s-41.833 23 -70.5 23h-105c-8 0 -13.5 -1.33301 -16.5 -4
s-4.5 -7.33398 -4.5 -14.001v-134c0 -7.33301 1 -12.5 3 -15.5s6 -4.5 12 -4.5h111c32 0 56.333 7.33301 73 22z" />
    <glyph glyph-name="S" unicode="S" horiz-adv-x="690" 
d="M439.5 597.5c-20.333 10.333 -48.165 15.502 -83.498 15.502c-37.333 0 -65.5 -6.16699 -84.5 -18.5s-28.5 -27.833 -28.5 -46.5c0 -12.667 5.33301 -24.667 16 -36s29.334 -20.333 56.001 -27l162 -44c60 -16 105 -42.667 135 -80s45 -82 45 -134
c0 -48 -12.5 -89.833 -37.5 -125.5s-60.833 -63.167 -107.5 -82.5s-101.334 -29 -164.001 -29c-70.667 0 -134.834 11.833 -192.501 35.5s-98.5 55.5 -122.5 95.5c-3.33301 6.66699 -5 11.667 -5 15c0 5.33301 3.66699 10.666 11 15.999l90 62
c7.33301 4.66699 13.666 7 18.999 7c6.66699 0 12 -2.66699 16 -8c24 -30.667 48.167 -52.334 72.5 -65.001s56.5 -19 96.5 -19c40.667 0 72.834 6 96.501 18s35.5 29.333 35.5 52c0 30.667 -24.333 52.667 -73 66l-152 40c-58.667 15.333 -104.667 42.5 -138 81.5
s-50 83.833 -50 134.5c0 43.333 12.333 82.5 37 117.5s59.5 62.667 104.5 83s97.167 30.5 156.5 30.5c57.333 0 110.666 -9.66699 159.999 -29s86 -45 110 -77c4.66699 -8 7 -13.667 7 -17s-2.33301 -7 -7 -11l-98 -71c-2.66699 -2.66699 -5.66699 -4 -9 -4
c-4 0 -10 4 -18 12c-16.667 18 -35.167 32.167 -55.5 42.5z" />
    <glyph glyph-name="T" unicode="T" horiz-adv-x="693" 
d="M31 721c0 6 1.83301 11 5.5 15s9.16699 6 16.5 6h587c7.33301 0 12.833 -2 16.5 -6s5.5 -9 5.5 -15v-106c0 -11.333 -6.66699 -17 -20 -17h-182c-7.33301 0 -11 -3.33301 -11 -10v-568c0 -13.333 -6 -20 -18 -20h-168c-11.333 -0 -17 6.33301 -17 19v565
c0 5.33301 -0.666992 9 -2 11s-4 3 -8 3h-184c-14 0 -21 5.66699 -21 17v106z" />
    <glyph glyph-name="U" unicode="U" horiz-adv-x="724" 
d="M592 58c-53.333 -45.333 -130 -68.002 -230 -68.002c-111.333 0 -190.833 25.833 -238.5 77.5s-71.5 130.5 -71.5 236.5v417c0 14 6 21 18 21h167c11.333 0 17 -6.33301 17 -19v-443c0 -51.333 10.5 -88.666 31.5 -111.999s51.5 -35 91.5 -35c85.333 0 128 50 128 150
v438c0 14 6 21 18 21h133c10.667 0 16 -6.33301 16 -19v-439c0 -105.333 -26.667 -180.666 -80 -225.999z" />
    <glyph glyph-name="V" unicode="V" horiz-adv-x="743" 
d="M712 734c3.33301 -5.33301 4.00098 -11.333 2.00098 -18l-236 -693c-4.66699 -15.333 -16 -23 -34 -23h-145c-18.667 0 -30 7.66699 -34 23l-235 693c-1.33301 4 -2 7 -2 9c0 4.66699 1.66699 8.66699 5 12s8 5 14 5h170c11.333 0 19 -6.33301 23 -19l148 -471
c2 -4.66699 4 -7 6 -7c1.33301 0 3 2.66699 5 8l142 470c0.666992 6 3.16699 10.667 7.5 14s9.5 5 15.5 5h132c7.33301 0 12.666 -2.66699 15.999 -8z" />
    <glyph glyph-name="W" unicode="W" horiz-adv-x="1097" 
d="M1060.5 735.5c5 -4.33301 7.50195 -10.167 7.50195 -17.5c0 -2.66699 -0.666992 -6.66699 -2 -12l-203 -683c-3.33301 -8 -7.5 -13.833 -12.5 -17.5s-12.167 -5.5 -21.5 -5.5h-123c-9.33301 -0 -16.666 1.83301 -21.999 5.5s-9.33301 9.5 -12 17.5l-114 393
c-2 7.33301 -4 11 -6 11c-2.66699 0 -5.33398 -4.33301 -8.00098 -13l-115 -391c-4 -15.333 -15 -23 -33 -23h-128c-17.333 0 -28.333 7.66699 -33 23l-204 683c-0.666992 2.66699 -1 6.33398 -1 11.001c0 8 2.33301 14.167 7 18.5s11.667 6.5 21 6.5h146
c8.66699 0 15.167 -1.5 19.5 -4.5s7.5 -7.83301 9.5 -14.5l117 -411c2 -8 4.33301 -12 7 -12c2 0 3.66699 2.66699 5 8l116 415c1.33301 6.66699 4.33301 11.5 9 14.5s11.667 4.5 21 4.5h124c8.66699 0 15.167 -1.5 19.5 -4.5s7.5 -7.83301 9.5 -14.5l121 -419
c1.33301 -4.66699 3.16602 -7.33398 5.49902 -8.00098s4.16602 1.33301 5.49902 6l114 421c2 12.667 11.667 19 29 19h103c9.33301 0 16.5 -2.16699 21.5 -6.5z" />
    <glyph glyph-name="X" unicode="X" horiz-adv-x="743" 
d="M716 15c0 -10 -8.33301 -15.0029 -25 -15.0029h-160c-18 0 -30.333 6 -37 18l-126 206c-5.33301 9.33301 -9.66602 14 -12.999 14c-4.66699 0 -9.33398 -4.33301 -14.001 -13l-123 -207c-6 -12 -18.667 -18 -38 -18h-127c-16.667 0 -25 5 -25 15
c0 6.66699 4.33301 16.667 13 30l203 313c4.66699 6.66699 7 12.334 7 17.001s-2.33301 10.334 -7 17.001l-206 319c-3.33301 5.33301 -5 10 -5 14c0 4.66699 1.66699 8.66699 5 12s8 5 14 5h169c9.33301 0 16.5 -1.5 21.5 -4.5s9.5 -7.83301 13.5 -14.5l107 -181
c3.33301 -5.33301 7 -8 11 -8s7.66699 2.66699 11 8l107 181c3.33301 6.66699 7.5 11.5 12.5 14.5s12.167 4.5 21.5 4.5h140c11.333 0 17 -4.33301 17 -13c0 -5.33301 -2 -10.666 -6 -15.999l-195 -298c-4 -6 -6 -11 -6 -15c0 -4.66699 2.66699 -10.667 8 -18l220 -337
c8 -12.667 12 -22.667 12 -30z" />
    <glyph glyph-name="Y" unicode="Y" horiz-adv-x="755" 
d="M729 731c0 -3.33301 -1.33008 -6.66699 -3.99707 -10l-235 -382c-4 -6.66699 -6.5 -13.5 -7.5 -20.5s-1.5 -20.167 -1.5 -39.5v-252c0 -10 -2.33301 -17 -7 -21s-12.334 -6 -23.001 -6h-148c-8.66699 -0 -14.834 1.83301 -18.501 5.5s-5.5 9.5 -5.5 17.5v266
c0 8.66699 -1 15.667 -3 21s-5.33301 12 -10 20l-235 386c-2.66699 4.66699 -4 8.66699 -4 12c0 9.33301 7 14 21 14h176c8.66699 0 15 -1.16699 19 -3.5s8.33301 -7.5 13 -15.5l135 -241c3.33301 -6.66699 6.33301 -10 9 -10c2 0 5 3 9 9l133 242
c3.33301 7.33301 7.16602 12.333 11.499 15s10.833 4 19.5 4h139c11.333 0 17 -3.66699 17 -11z" />
    <glyph glyph-name="Z" unicode="Z" horiz-adv-x="698" 
d="M35 4.5c-3.33301 3 -5.00098 9.16895 -5.00098 18.502v40c0 9.33301 1 16.333 3 21s7.33301 13.334 16 26.001l323 469c2.66699 3.33301 4 6.66602 4 9.99902s-4 5 -12 5h-284c-8 0 -13.333 1.66699 -16 5s-4 9 -4 17v107c0 12.667 5.33301 19 16 19h571
c11.333 0 17 -6 17 -18v-46c0 -6.66699 -1 -12.334 -3 -17.001s-6 -11.334 -12 -20.001l-335 -479c-1.33301 -2.66699 -2 -4.66699 -2 -6c0 -4.66699 4.33301 -7 13 -7h314c13.333 0 20 -5.66699 20 -17v-112c0 -6 -1.83301 -10.833 -5.5 -14.5s-9.16699 -5.5 -16.5 -5.5
h-583c-9.33301 0 -15.666 1.5 -18.999 4.5z" />
    <glyph glyph-name="bracketleft" unicode="[" horiz-adv-x="327" 
d="M59.5 737.5c3.66699 3 9.83398 4.50098 18.501 4.50098h220c9.33301 0 14 -4 14 -12v-72c0 -8.66699 -4.66699 -13 -14 -13h-78c-15.333 0 -23 -8.33301 -23 -25v-669c0 -8 1.33301 -13.167 4 -15.5s7.66699 -3.5 15 -3.5h79c11.333 0 17 -5 17 -15v-65
c0 -11.333 -5.66699 -17 -17 -17h-214c-8.66699 0 -15.334 2.16699 -20.001 6.5s-7 10.166 -7 17.499v863c0 7.33301 1.83301 12.5 5.5 15.5z" />
    <glyph glyph-name="backslash" unicode="\" horiz-adv-x="373" 
d="M258.5 -3c-5 3.33301 -8.83203 9.33301 -11.499 18l-242 697c-2 6 -3 11.333 -3 16c0 5.33301 1.33301 9 4 11s7.33398 3 14.001 3h76c5.33301 0 10.166 -1.5 14.499 -4.5s7.16602 -6.83301 8.49902 -11.5l250 -717c0.666992 -1.33301 1 -3.33301 1 -6
c0 -7.33301 -5.33301 -11 -16 -11h-75c-8.66699 0 -15.5 1.66699 -20.5 5z" />
    <glyph glyph-name="bracketright" unicode="]" horiz-adv-x="327" 
d="M273 -141c0 -7.33301 -2.33301 -13.167 -7 -17.5s-11.334 -6.5 -20.001 -6.5h-214c-11.333 0 -17 5.66699 -17 17v65c0 10 5.66699 15 17 15h79c7.33301 0 12.333 1.16699 15 3.5s4 7.5 4 15.5v669c0 16.667 -7.66699 25 -23 25h-78c-9.33301 0 -14 4.33301 -14 13v72
c0 8 4.66699 12 14 12h220c8.66699 0 14.834 -1.5 18.501 -4.5s5.5 -8.16699 5.5 -15.5v-863z" />
    <glyph glyph-name="asciicircum" unicode="^" horiz-adv-x="475" 
d="M247 339c-2 6.66699 -5.66992 10.001 -11.0029 10.001c-4.66699 0 -8.33398 -3.33301 -11.001 -10l-84 -208c-2 -3.33301 -4.66699 -5.5 -8 -6.5s-8.66602 -1.5 -15.999 -1.5h-76c-8.66699 0 -13 3.66699 -13 11c0 3.33301 1 7 3 11l154 359
c4.66699 11.333 11.834 20.166 21.501 26.499s19.834 9.5 30.501 9.5s20.667 -3 30 -9s16.333 -14.667 21 -26l155 -363c1.33301 -4 2 -7 2 -9c0 -7.33301 -5.33301 -11 -16 -11h-72c-15.333 0 -23.666 3 -24.999 9z" />
    <glyph glyph-name="underscore" unicode="_" horiz-adv-x="554" 
d="M509 -127c0 -8.66699 -2.33203 -15.001 -6.99902 -19.001s-12 -6 -22 -6h-412c-8.66699 0 -14.834 1.66699 -18.501 5s-5.5 9 -5.5 17v83c0 14 5.66699 21 17 21h432c4.66699 0 8.5 -1.66699 11.5 -5s4.5 -7.66602 4.5 -12.999v-83z" />
    <glyph glyph-name="grave" unicode="`" horiz-adv-x="313" 
d="M46 751c3.33301 2 7 2 11 0l237 -100c6.66699 -3.33301 10 -8 10 -14l-2 -8l-14 -39c-4 -9.33301 -9.33301 -14 -16 -14c-2 0 -5.66699 0.666992 -11 2l-232 59c-12.667 2.66699 -19 9 -19 19c0 4 0.666992 7.33301 2 10l26 74c2 5.33301 4.66699 9 8 11z" />
    <glyph glyph-name="a" unicode="a" horiz-adv-x="568" 
d="M184 -10c-49.333 0 -88.668 13.667 -118.001 41s-44 62.333 -44 105c0 38 12 71.5 36 100.5s58.5 51.5 103.5 67.5s98.167 24.333 159.5 25l20 1c10.667 0 16 4.66699 16 14v19c0 22 -6.16699 39 -18.5 51s-30.166 18 -53.499 18
c-18.667 0 -35.834 -4.16699 -51.501 -12.5s-28.5 -21.833 -38.5 -40.5c-2 -4 -4 -6.83301 -6 -8.5s-5 -2.5 -9 -2.5s-7.33301 0.333008 -10 1l-116 24c-6.66699 1.33301 -10 5.33301 -10 12c0 4 1.33301 9.66699 4 17c30.667 78.667 112.334 118 245.001 118
c83.333 0 143 -14.5 179 -43.5s54 -69.833 54 -122.5v-349c0 -10 -1.33301 -16.667 -4 -20s-8.33398 -5 -17.001 -5h-121c-7.33301 0 -12.666 2.66699 -15.999 8s-6 13 -8 23l-1 15c-0.666992 6 -3 9 -7 9s-9.66699 -3 -17 -9c-44 -37.333 -94.333 -56 -151 -56z
M353.498 243c-2.33301 2.66699 -6.16797 4 -11.501 4l-16 -1c-18 -0.666992 -37.167 -4.16699 -57.5 -10.5s-37.666 -16 -51.999 -29s-21.5 -28.5 -21.5 -46.5c0 -17.333 6.16699 -31 18.5 -41s28.833 -15 49.5 -15c24.667 0 46.667 7.66699 66 23
c18.667 16 28 30.667 28 44v59c0 6 -1.16699 10.333 -3.5 13z" />
    <glyph glyph-name="b" unicode="b" horiz-adv-x="613" 
d="M73 0c-9.33301 0 -15.8311 1.83301 -19.498 5.5s-5.5 9.5 -5.5 17.5v698c0 14 6 21 18 21h143c11.333 0 17 -6.66699 17 -20v-228c0 -8.66699 2.33301 -13 7 -13c2.66699 0 6.33398 1.66699 11.001 5c38 36 82.333 54 133 54c65.333 0 116.333 -24.333 153 -73
s55 -114.667 55 -198c0 -86 -19.833 -154 -59.5 -204s-95.5 -75 -167.5 -75c-32.667 0 -62.334 7.5 -89.001 22.5s-49.667 34.833 -69 59.5c-2 2.66699 -4 4 -6 4c-3.33301 0 -5.33301 -2.33301 -6 -7l-14 -47c-2.66699 -8 -5.83398 -13.667 -9.50098 -17
s-8.83398 -5 -15.501 -5h-76zM226.002 184c0 -26.667 8 -48.001 24 -64.001s36 -24 60 -24c31.333 0 55 13.333 71 40s24 69.667 24 129c0 58.667 -7.5 100.834 -22.5 126.501s-37.833 38.5 -68.5 38.5c-32.667 0 -62 -15.667 -88 -47v-199z" />
    <glyph glyph-name="c" unicode="c" horiz-adv-x="553" 
d="M410.5 516.5c32.333 -15.667 58.501 -35.833 78.501 -60.5s33.667 -50.334 41 -77.001c1.33301 -5.33301 2 -8.66602 2 -9.99902c0 -8 -6 -12.667 -18 -14l-121 -8c-0.666992 0 -1.33398 -0.166992 -2.00098 -0.5s-1.66699 -0.166016 -3 0.500977c-5.33301 0 -9 4 -11 12
c-7.33301 21.333 -16 37.833 -26 49.5s-26 17.5 -48 17.5c-30.667 0 -54.5 -13.333 -71.5 -40s-25.5 -67 -25.5 -121c0 -108.667 35.333 -163 106 -163c26 0 46.5 6.66699 61.5 20s30.5 34 46.5 62c1.33301 2.66699 3.33301 4.33398 6 5.00098s7 0.666992 13 0l84 -18
c6.66699 -0.666992 10 -4 10 -10c0 -2 -0.666992 -5.66699 -2 -11c-6 -22 -18.167 -45.333 -36.5 -70s-44 -45.834 -77 -63.501s-72.833 -26.5 -119.5 -26.5c-52 0 -98.667 11.5 -140 34.5s-73.666 55.167 -96.999 96.5s-35 88.666 -35 141.999c0 54 11.833 102 35.5 144
s56.167 74.667 97.5 98s87.666 35 138.999 35c42.667 0 80.167 -7.83301 112.5 -23.5z" />
    <glyph glyph-name="d" unicode="d" horiz-adv-x="613" 
d="M390 21l-0.00292969 24c0 2.66699 -0.666992 4.66699 -2 6s-2.66602 2 -3.99902 2c-2 0 -5 -1.33301 -9 -4c-20 -19.333 -41 -34 -63 -44s-48.667 -15 -80 -15c-61.333 0 -110.666 23.333 -147.999 70s-56 114 -56 202c0 54.667 9.66699 103 29 145s45.333 74.667 78 98
s68.334 35 107.001 35c25.333 0 48 -4 68 -12s39.667 -21.333 59 -40c4 -4 8 -6 12 -6c4.66699 0 7 4.66699 7 14v227c0 12.667 5.33301 19 16 19h143c12 0 18 -7 18 -21v-698c0 -8 -1.83301 -13.833 -5.5 -17.5s-10.167 -5.5 -19.5 -5.5h-127c-15.333 0 -23 7 -23 21z
M348.497 417.5c-12.333 7 -27.167 10.499 -44.5 10.499c-30 0 -53.5 -13.167 -70.5 -39.5s-25.5 -68.166 -25.5 -125.499c0 -58 8.16699 -99.833 24.5 -125.5s39.833 -38.5 70.5 -38.5c23.333 0 43.166 7.33301 59.499 22s24.5 32.667 24.5 54v210
c-13.333 14.667 -26.166 25.5 -38.499 32.5z" />
    <glyph glyph-name="e" unicode="e" horiz-adv-x="588" 
d="M242 137.5c22 -19 50 -28.498 84 -28.498c20.667 0 40.167 4.66699 58.5 14s38.166 25 59.499 47c2.66699 2.66699 5.66699 4 9 4s6.66602 -0.666992 9.99902 -2l82 -34c6 -2.66699 9 -6.33398 9 -11.001c0 -2.66699 -1.66699 -6.33398 -5 -11.001
c-33.333 -48 -68.666 -81 -105.999 -99s-84.333 -27 -141 -27c-52 0 -99 11.333 -141 34s-75 54.167 -99 94.5s-36 86.5 -36 138.5c0 55.333 12.333 104.5 37 147.5s57.834 76.333 99.501 100s87.167 35.5 136.5 35.5c52 0 98 -11.167 138 -33.5s71.333 -54.833 94 -97.5
s34 -93.334 34 -152.001c0 -9.33301 -0.833008 -15.666 -2.5 -18.999s-6.5 -5.33301 -14.5 -6h-325c-9.33301 0 -14 -5.33301 -14 -16c0 -33.333 11 -59.5 33 -78.5zM375 326.002c6.66699 0 11.167 0.833008 13.5 2.5s3.5 5.5 3.5 11.5c0 22.667 -7.5 44 -22.5 64
s-35.833 30 -62.5 30c-28 0 -51 -9.66699 -69 -29s-26.667 -45.333 -26 -78z" />
    <glyph glyph-name="f" unicode="f" horiz-adv-x="411" 
d="M385.5 524.5c3.66699 -3.66699 5.49902 -8.50098 5.49902 -14.501v-84c0 -11.333 -6.33301 -17 -19 -17h-72c-7.33301 0 -11 -4 -11 -12v-377c0 -13.333 -6 -20 -18 -20h-144c-10.667 0 -16 6.33301 -16 19v380c0 6.66699 -2.66699 10 -8 10h-64
c-6.66699 0 -11.667 1.33301 -15 4s-5 7 -5 13v84c0 13.333 7.33301 20 22 20h57c4.66699 0 8 1.16699 10 3.5s3 6.5 3 12.5v57c0 43.333 13.333 77.333 40 102s63.667 37 111 37h108c8.66699 0 15.167 -2 19.5 -6s6.5 -9.66699 6.5 -17v-76
c0 -5.33301 -1.33301 -9.66602 -4 -12.999s-6.66699 -5 -12 -5h-48c-13.333 0 -24.666 -5.33301 -33.999 -16s-14 -23.667 -14 -39v-28c0 -8 4 -12 12 -12h73c7.33301 0 12.833 -1.83301 16.5 -5.5z" />
    <glyph glyph-name="g" unicode="g" horiz-adv-x="643" 
d="M618.5 552c3.66699 -4 5.50195 -10 5.50195 -18v-79c0 -10 -2.16699 -17.167 -6.5 -21.5s-10.5 -5.5 -18.5 -3.5c-12 3.33301 -23.667 5 -35 5c-5.33301 0 -9 -0.333008 -11 -1c-18 -0.666992 -24.667 -8.33398 -20 -23.001c5.33301 -14.667 8 -27.334 8 -38.001
c0 -30.667 -9.66699 -58.334 -29 -83.001s-47.833 -44.334 -85.5 -59.001s-82.834 -22 -135.501 -22c-34.667 0 -60 -2.66699 -76 -8s-24 -12.666 -24 -21.999c0 -8 4 -13.5 12 -16.5s21.333 -5.16699 40 -6.5l148 -9c69.333 -4.66699 121 -19.834 155 -45.501
s51 -59.5 51 -101.5c0 -34.667 -11.167 -65.167 -33.5 -91.5s-55.5 -46.833 -99.5 -61.5s-97.667 -22 -161 -22c-101.333 0 -177 10.333 -227 31s-75 52.334 -75 95.001c0 20.667 8.5 37.834 25.5 51.501s40.833 25.5 71.5 35.5c4 1.33301 6 3 6 5s-2 4 -6 6
c-41.333 19.333 -62 45.333 -62 78c0 37.333 34.333 70 103 98c4 2 6.5 3.83301 7.5 5.5s-0.833008 3.83398 -5.5 6.50098c-32.667 14 -57.5 32.5 -74.5 55.5s-25.5 49.5 -25.5 79.5c0 50.667 22.5 91 67.5 121s109.5 45 193.5 45c36 0 68 -4 96 -12s50.667 -19 68 -33
c4 -3.33301 8.66699 -5 14 -5c6 0 11 2.33301 15 7c12.667 16.667 30.167 31.334 52.5 44.001s41.166 19 56.499 19c6 0 10.833 -2 14.5 -6zM356.502 315c15 14.667 22.5 33 22.5 55c0 24.667 -7.5 44.667 -22.5 60s-37.5 23 -67.5 23c-28 0 -49.833 -7.83301 -65.5 -23.5
s-23.5 -35.5 -23.5 -59.5c0 -22 8 -40.333 24 -55s37.667 -22 65 -22c30 0 52.5 7.33301 67.5 22zM220.002 19c-20.667 1.33301 -38.167 -2.50098 -52.5 -11.501s-21.5 -20.167 -21.5 -33.5c0 -22 12.667 -38.667 38 -50s68 -17 128 -17c42 0 74.167 5.33301 96.5 16
s33.5 25.334 33.5 44.001c0 12.667 -6.33301 23.167 -19 31.5s-30.667 12.833 -54 13.5z" />
    <glyph glyph-name="h" unicode="h" horiz-adv-x="601" 
d="M54 5c-3.33301 3.33301 -4.99902 9.33301 -4.99902 18v698c0 14 5.66699 21 17 21h141c11.333 0 17 -6.33301 17 -19v-253c0 -4.66699 1.33301 -7 4 -7c2 0 4.66699 1 8 3c29.333 26.667 57 45.667 83 57s53.333 17 82 17c50 0 88.667 -14.167 116 -42.5
s41 -68.5 41 -120.5v-350c0 -18 -9.33301 -27 -28 -27h-129c-8 0 -13.5 1.66699 -16.5 5s-4.5 9.33301 -4.5 18v332c0 18 -5.5 32.167 -16.5 42.5s-26.167 15.5 -45.5 15.5c-18 0 -34.167 -4.5 -48.5 -13.5s-28.5 -23.167 -42.5 -42.5v-331c0 -9.33301 -2.33301 -16 -7 -20
s-12.334 -6 -23.001 -6h-125c-8.66699 0 -14.667 1.66699 -18 5z" />
    <glyph glyph-name="i" unicode="i" horiz-adv-x="274" 
d="M227 611c0 -9.33301 -2.49707 -16.167 -7.49707 -20.5s-12.833 -6.5 -23.5 -6.5h-125c-8.66699 0 -14.834 2 -18.501 6s-5.5 10 -5.5 18v112c0 6.66699 1.66699 12 5 16s7.66602 6 12.999 6h144c5.33301 0 9.66602 -1.83301 12.999 -5.5s5 -8.5 5 -14.5v-111z
M226.003 26.999c0 -10 -2.33301 -17 -7 -21s-12.334 -6 -23.001 -6h-124c-9.33301 0 -15.666 1.83301 -18.999 5.5s-5 9.5 -5 17.5v486c0 14 6 21 18 21h143c11.333 0 17 -6.33301 17 -19v-484z" />
    <glyph glyph-name="j" unicode="j" horiz-adv-x="275" 
d="M227 611c0 -9.33301 -2.16699 -16.167 -6.5 -20.5s-11.833 -6.5 -22.5 -6.5h-125c-9.33301 0 -15.833 2 -19.5 6s-5.5 10 -5.5 18v112c0 6.66699 1.83301 12 5.5 16s8.16699 6 13.5 6h143c11.333 0 17 -6.66699 17 -20v-111zM178.5 -123.001
c-32.333 -31.333 -81.833 -47 -148.5 -47c-28 0 -46.333 1.5 -55 4.5s-13 9.16699 -13 18.5v91c0 5.33301 1.5 10.333 4.5 15s7.5 7.66699 13.5 9l38 5c10 2 17.667 6.83301 23 14.5s8 20.167 8 37.5v484c0 14 6 21 18 21h143c11.333 0 17 -6.33301 17 -19v-493
c0 -62.667 -16.167 -109.667 -48.5 -141z" />
    <glyph glyph-name="k" unicode="k" horiz-adv-x="618" 
d="M602 18c0 -4.66699 -1.66699 -8.83398 -5 -12.501s-8 -5.5 -14 -5.5h-152c-13.333 0 -23.333 7.66699 -30 23l-87 189c-2.66699 6.66699 -6 10 -10 10c-2.66699 0 -6 -2 -10 -6l-59 -56c-5.33301 -5.33301 -8 -14.333 -8 -27v-106c0 -10 -2.16699 -17 -6.5 -21
s-12.166 -6 -23.499 -6h-123c-9.33301 0 -15.833 1.83301 -19.5 5.5s-5.5 9.5 -5.5 17.5v698c0 6.66699 1.5 11.834 4.5 15.501s7.16699 5.5 12.5 5.5h144c11.333 0 17 -6.33301 17 -19v-392c0 -5.33301 1.33301 -8 4 -8c1.33301 0 3.66602 1.66699 6.99902 5l169 186
c9.33301 10.667 19 16 29 16h123c12.667 0 19 -4 19 -12c0 -5.33301 -2.33301 -10.333 -7 -15l-135 -135c-4.66699 -6 -7 -11 -7 -15s2 -9.66699 6 -17l165 -310z" />
    <glyph glyph-name="l" unicode="l" horiz-adv-x="275" 
d="M227 27c0 -10 -2.33203 -17 -6.99902 -21s-12.334 -6 -23.001 -6h-125c-9.33301 -0 -15.833 1.83301 -19.5 5.5s-5.5 9.5 -5.5 17.5l4 698c0 14 6 21 18 21h141c5.33301 0 9.5 -1.66699 12.5 -5s4.5 -8 4.5 -14v-696z" />
    <glyph glyph-name="m" unicode="m" horiz-adv-x="924" 
d="M53.5 5c-3.66699 3.33301 -5.49805 9.33203 -5.49805 17.999v486c0 6.66699 1.5 11.834 4.5 15.501s7.16699 5.5 12.5 5.5h141c11.333 0 17 -6 17 -18v-48c0 -5.33301 1.66699 -8 5 -8c2 0 4.33301 1.33301 7 4c52.667 54 107 81 163 81
c34.667 0 64.334 -8.33301 89.001 -25s42.334 -40 53.001 -70c1.33301 -2 2.66602 -3 3.99902 -3c2.66699 0 5.66699 1.66699 9 5c21.333 26 48.166 47.833 80.499 65.5s63.5 26.5 93.5 26.5c46.667 0 84 -14.5 112 -43.5s42 -69.167 42 -120.5v-349
c0 -18 -9.33301 -27 -28 -27h-129c-7.33301 0 -12.666 1.66699 -15.999 5s-5 9.33301 -5 18v332c0 18 -5.33301 32.167 -16 42.5s-25.334 15.5 -44.001 15.5c-14.667 0 -29.167 -4.16699 -43.5 -12.5s-26.833 -18.833 -37.5 -31.5c-6 -8.66699 -9 -18 -9 -28v-314
c0 -18 -9 -27 -27 -27h-129c-7.33301 -0 -12.666 1.83301 -15.999 5.5s-5 9.5 -5 17.5v332c0 18 -5.33301 32.167 -16 42.5s-25.334 15.5 -44.001 15.5c-18 0 -34 -4.5 -48 -13.5s-28 -23.167 -42 -42.5v-331c0 -9.33301 -2.33301 -16 -7 -20s-12.334 -6 -23.001 -6h-124
c-8.66699 0 -14.834 1.66699 -18.501 5z" />
    <glyph glyph-name="n" unicode="n" 
d="M53.5 5c-3.66699 3.33301 -5.49902 9.33301 -5.49902 18v486c0 14 5.66699 21 17 21h142c11.333 0 17 -6 17 -18v-48c0 -5.33301 1.66699 -8 5 -8c2 0 4.33301 1.33301 7 4c52 53.333 106.667 80 164 80c47.333 0 85.5 -14.5 114.5 -43.5s43.5 -67.833 43.5 -116.5v-353
c0 -18 -9.33301 -27 -28 -27h-129c-8 0 -13.5 1.66699 -16.5 5s-4.5 9.33301 -4.5 18v332c0 18 -5.66699 32.167 -17 42.5s-26.666 15.5 -45.999 15.5c-18 0 -34.167 -4.5 -48.5 -13.5s-28.5 -23.167 -42.5 -42.5v-331c0 -9.33301 -2.33301 -16 -7 -20
s-12.334 -6 -23.001 -6h-124c-8.66699 0 -14.834 1.66699 -18.501 5z" />
    <glyph glyph-name="o" unicode="o" 
d="M157 24.5c-41.333 23 -73.502 55.166 -96.502 96.499s-34.5 88.333 -34.5 141c0 54 11.833 102.167 35.5 144.5s56.334 75.166 98.001 98.499s88.5 35 140.5 35c54 0 101.667 -11.833 143 -35.5s73.5 -56.667 96.5 -99s34.5 -90.166 34.5 -143.499
c0 -52 -11.667 -98.667 -35 -140s-55.833 -73.666 -97.5 -96.999s-89.167 -35 -142.5 -35s-100.666 11.5 -141.999 34.5zM370.998 144.999c15.333 26 23 66.333 23 121s-7.83301 95.334 -23.5 122.001s-39.167 40 -70.5 40s-54.833 -13.333 -70.5 -40
s-23.5 -67.334 -23.5 -122.001c0 -54 7.83301 -94.167 23.5 -120.5s39.167 -39.5 70.5 -39.5c32 0 55.667 13 71 39z" />
    <glyph glyph-name="p" unicode="p" horiz-adv-x="613" 
d="M221 525c3.33301 -3.33301 4.99707 -9 4.99707 -17v-25c0 -4.66699 2 -7 6 -7c3.33301 0 6.33301 1.33301 9 4c20.667 19.333 41.834 34.166 63.501 44.499s48.167 15.5 79.5 15.5c60 0 108.5 -23 145.5 -69s55.5 -113.667 55.5 -203c0 -93.333 -19.167 -163 -57.5 -209
s-88.5 -69 -150.5 -69c-25.333 0 -48.666 4 -69.999 12s-41.666 21 -60.999 39c-8 6.66699 -13 10 -15 10c-3.33301 0 -5 -5 -5 -15v-182c0 -12.667 -5.66699 -19 -17 -19h-144c-11.333 0 -17 6.66699 -17 20v651c0 8.66699 1.83301 14.834 5.5 18.501s10.167 5.5 19.5 5.5
h130c8.66699 0 14.667 -1.66699 18 -5zM307.997 100c31.333 0 55.332 13.167 71.999 39.5s25 70.833 25 133.5c0 58 -8.16699 98.667 -24.5 122s-40.166 35 -71.499 35c-23.333 0 -43 -6.66699 -59 -20s-24 -29 -24 -47v-218c22.667 -30 50 -45 82 -45z" />
    <glyph glyph-name="q" unicode="q" horiz-adv-x="613" 
d="M540 530c9.33301 0 15.834 -2.00098 19.501 -6.00098s5.5 -10 5.5 -18v-651c0 -13.333 -6 -20 -18 -20h-143c-11.333 0 -17 6.33301 -17 19v175c0 10.667 -2 16 -6 16c-3.33301 0 -7 -2 -11 -6c-42 -32.667 -85 -49 -129 -49c-66 0 -118 24 -156 72s-57 115.667 -57 203
c0 55.333 9 103.833 27 145.5s43.833 73.834 77.5 96.501s73.167 34 118.5 34c66.667 0 122 -27.333 166 -82c3.33301 -3.33301 5.66602 -5 6.99902 -5c2 0 4 2.66699 6 8l14 46c4 14.667 11.667 22 23 22h73zM387.001 344.999c0 26.667 -7.66797 48.5 -23.001 65.5
s-35.333 25.5 -60 25.5c-29.333 0 -52.666 -13.833 -69.999 -41.5s-26 -70.5 -26 -128.5c0 -58.667 8 -101.167 24 -127.5s39 -39.5 69 -39.5c33.333 0 62 13 86 39v207z" />
    <glyph glyph-name="r" unicode="r" horiz-adv-x="441" 
d="M53 5.5c-3.33301 3.66699 -5 9.49902 -5 17.499v486c0 14 5.66699 21 17 21h138c4.66699 0 8.5 -1.66699 11.5 -5s4.5 -7.66602 4.5 -12.999v-58c0 -6 2.33301 -9 7 -9c3.33301 0 6.33301 2 9 6c18 25.333 41 46.5 69 63.5s54 25.5 78 25.5c24.667 0 37 -6.33301 37 -19
v-134c0 -12 -6 -17 -18 -15c-26.667 6.66699 -52.667 10 -78 10c-24 0 -46.167 -8 -66.5 -24s-30.5 -33.667 -30.5 -53v-279c0 -9.33301 -2.33301 -16 -7 -20s-12.334 -6 -23.001 -6h-124c-9.33301 -0 -15.666 1.83301 -18.999 5.5z" />
    <glyph glyph-name="s" unicode="s" horiz-adv-x="536" 
d="M269 435c-21.333 0 -39.165 -3.99707 -53.498 -11.9971s-21.5 -19 -21.5 -33c0 -7.33301 3.16699 -13.833 9.5 -19.5s18.833 -10.834 37.5 -15.501l110 -25c56 -12.667 96.833 -33.334 122.5 -62.001s38.5 -63 38.5 -103c0 -54.667 -22.5 -97.5 -67.5 -128.5
s-104.5 -46.5 -178.5 -46.5c-59.333 0 -110.5 10.167 -153.5 30.5s-73.167 46.5 -90.5 78.5c-3.33301 5.33301 -5 10.333 -5 15c0 5.33301 2.33301 9.33301 7 12l78 40c5.33301 2.66699 10.333 4 15 4c5.33301 0 9.66602 -2 12.999 -6c16 -20 33.5 -35.5 52.5 -46.5
s45.833 -16.5 80.5 -16.5c26.667 0 48.5 4 65.5 12s25.5 19.333 25.5 34c0 9.33301 -4.16699 17.333 -12.5 24s-22.833 12 -43.5 16l-102 20c-105.333 20.667 -158 73 -158 157c0 34 9.16699 64.333 27.5 91s45.166 47.5 80.499 62.5s77 22.5 125 22.5
c50 0 94.333 -9.16699 133 -27.5s66 -40.833 82 -67.5c4.66699 -6.66699 7 -12.334 7 -17.001s-2.33301 -8 -7 -10l-82 -40c-4 -2 -7.33301 -3 -10 -3c-6 0 -11.667 3.33301 -17 10c-26.667 33.333 -62.667 50 -108 50z" />
    <glyph glyph-name="t" unicode="t" horiz-adv-x="448" 
d="M299 409c-8 0 -12 -4.00098 -12 -12.001v-216c0 -20 5.5 -34.667 16.5 -44s28.5 -14 52.5 -14h48c4.66699 0 8.5 -1.66699 11.5 -5s4.5 -7.66602 4.5 -12.999l-1 -72c0 -14 -8.66699 -22.667 -26 -26c-30 -4.66699 -72.333 -7 -127 -7c-48 -0 -86.167 11.333 -114.5 34
s-42.5 55 -42.5 97v261c0 6 -1 10.333 -3 13s-5.66699 4 -11 4h-54c-14.667 0 -22 6.66699 -22 20v84c0 11.333 6.66699 17 20 17h64c6 0 9.66699 3.66699 11 11l15 150c0.666992 6.66699 2.16699 11.5 4.5 14.5s6.5 4.5 12.5 4.5h128c12 0 18 -6.66699 18 -20v-149
c0 -6.66699 3.33301 -10 10 -10h99c6 0 10.833 -1.5 14.5 -4.5s5.5 -7.16699 5.5 -12.5v-85c0 -13.333 -7.66699 -20 -23 -20h-99z" />
    <glyph glyph-name="u" unicode="u" horiz-adv-x="597" 
d="M328.5 129.5c15.667 9 29.8291 21.168 42.4961 36.501v338c0 9.33301 2.33301 16 7 20s12.334 6 23.001 6h126c8.66699 0 14.834 -1.83301 18.501 -5.5s5.5 -9.83398 5.5 -18.501l-4 -486c0 -13.333 -5.66699 -20 -17 -20h-139c-11.333 0 -17 6 -17 18v47
c0 4 -1.16699 6.5 -3.5 7.5s-4.83301 -0.166992 -7.5 -3.5c-25.333 -27.333 -51.666 -47.333 -78.999 -60s-57.333 -19 -90 -19c-45.333 0 -82 14.667 -110 44s-42 69.333 -42 120v349c0 18 9.33301 27 28 27h129c8 0 13.5 -1.66699 16.5 -5s4.5 -9.66602 4.5 -18.999v-330
c0 -18.667 5.5 -33.334 16.5 -44.001s25.5 -16 43.5 -16c16.667 0 32.834 4.5 48.501 13.5z" />
    <glyph glyph-name="v" unicode="v" horiz-adv-x="583" 
d="M560.5 525c3 -3.33301 4.49609 -7.33301 4.49609 -12c0 -2 -0.666992 -5 -2 -9l-196 -481c-3.33301 -8 -7.66602 -13.833 -12.999 -17.5s-12.333 -5.5 -21 -5.5h-83c-9.33301 -0 -16.666 1.83301 -21.999 5.5s-9.66602 9.5 -12.999 17.5l-196 481
c-0.666992 1.33301 -1 3.66602 -1 6.99902c0 5.33301 1.66699 9.83301 5 13.5s8 5.5 14 5.5h148c6 0 11.167 -1.66699 15.5 -5s7.5 -7.66602 9.5 -12.999l101 -262c2 -6 4.33301 -9 7 -9s5.33398 3.33301 8.00098 10l98 261c6 12 14 18 24 18h100
c5.33301 0 9.5 -1.66699 12.5 -5z" />
    <glyph glyph-name="w" unicode="w" horiz-adv-x="825" 
d="M803 525c3.33301 -3.33301 5.00391 -7.66699 5.00391 -13l-2 -8l-167 -487c-2 -6 -4.66699 -10.333 -8 -13s-8 -4 -14 -4h-94c-14 0 -23 6.66699 -27 20l-75 241c-2 7.33301 -4.66699 11 -8 11c-2.66699 0 -5 -3.66699 -7 -11l-78 -244c-2 -6 -4.66699 -10.333 -8 -13
s-8.33301 -4 -15 -4h-97c-13.333 0 -22 6.66699 -26 20l-162 484l-2 8c0 5.33301 1.66699 9.66602 5 12.999s8 5 14 5h137c5.33301 0 10.333 -1.66699 15 -5s7.66699 -7.66602 9 -12.999l79 -247c1.33301 -6.66699 3.66602 -10 6.99902 -10c2 0 4.66699 3.66699 8 11l75 246
c1.33301 5.33301 4.16602 9.66602 8.49902 12.999s9.16602 5 14.499 5h98c4.66699 0 9.33398 -1.66699 14.001 -5s7.66699 -7.66602 9 -12.999l74 -247c1.33301 -6.66699 3.66602 -10 6.99902 -10c2 0 4.66699 3.66699 8 11l77 246c6 12 14 18 24 18h89
c5.33301 0 9.66602 -1.66699 12.999 -5z" />
    <glyph glyph-name="x" unicode="x" horiz-adv-x="607" 
d="M592 11c0 -7.33301 -7.33301 -11 -22 -11h-148c-18 0 -30.667 6 -38 18l-90 129c-6 8.66699 -10.333 13 -13 13s-7 -4 -13 -12l-91 -130c-7.33301 -12 -20 -18 -38 -18h-94c-8 -0 -14.5 1.33301 -19.5 4s-7.5 6.66699 -7.5 12c0 7.33301 5 17.333 15 30l156 204
c5.33301 6.66699 8 11.667 8 15c0 4.66699 -2.66699 10.667 -8 18l-158 216c-3.33301 4.66699 -5 9 -5 13c0 5.33301 2 9.66602 6 12.999s9.33301 5 16 5h141c10 0 17.667 -1.33301 23 -4s10 -7.33398 14 -14.001l78 -114c3.33301 -5.33301 6.33301 -8 9 -8
s5.66699 2.66699 9 8l73 114c4.66699 6.66699 9.5 11.334 14.5 14.001s12.5 4 22.5 4h104c12.667 0 19 -3.66699 19 -11c0 -4.66699 -2 -9.66699 -6 -15l-143 -194c-4.66699 -5.33301 -7 -10.333 -7 -15s2.66699 -10.667 8 -18l171 -238
c9.33301 -13.333 14 -22.666 14 -27.999z" />
    <glyph glyph-name="y" unicode="y" horiz-adv-x="578" 
d="M57.5 -161.5c-7.66699 2.33301 -11.499 7.83203 -11.499 16.499v90c0 12 9.33301 18 28 18h69c20 0 36.833 6 50.5 18s20.5 25 20.5 39c0 2.66699 -0.666992 6.66699 -2 12l-194 471c-0.666992 2 -1 4.66699 -1 8c0 5.33301 1.66699 9.83301 5 13.5s8 5.5 14 5.5h148
c6 0 11.167 -1.66699 15.5 -5s7.5 -7.66602 9.5 -12.999l97 -268c2 -6.66699 4.66699 -10 8 -10s6.33301 3.33301 9 10l97 268c6 12 14 18 24 18h100c6 0 10.5 -1.66699 13.5 -5s4.5 -7.66602 4.5 -12.999l-2 -8l-200 -488c-20.667 -50.667 -42 -88.834 -64 -114.501
s-47.667 -43.167 -77 -52.5s-68 -14 -116 -14c-22.667 0 -37.834 1.16699 -45.501 3.5z" />
    <glyph glyph-name="z" unicode="z" horiz-adv-x="532" 
d="M26 5c-3.33301 3.33301 -5.00098 9.33496 -5.00098 18.002v42c0 9.33301 1.16699 16.666 3.5 21.999s7.83301 13.333 16.5 24l227 294c2.66699 2.66699 4 5.66699 4 9c0 4 -4.33301 6 -13 6h-196c-7.33301 0 -12.5 1.5 -15.5 4.5s-4.5 8.5 -4.5 16.5v71
c0 5.33301 1.5 9.66602 4.5 12.999s7.16699 5 12.5 5h427c5.33301 0 9.5 -1.5 12.5 -4.5s4.5 -7.16699 4.5 -12.5v-48c0 -7.33301 -1 -13.5 -3 -18.5s-6 -11.833 -12 -20.5l-232 -297c-3.33301 -4.66699 -5 -8 -5 -10c0 -4.66699 4 -7 12 -7h222
c13.333 0 20 -5.66699 20 -17v-75c0 -6 -1.83301 -10.833 -5.5 -14.5s-9.16699 -5.5 -16.5 -5.5h-439c-9.33301 0 -15.666 1.66699 -18.999 5z" />
    <glyph glyph-name="braceleft" unicode="{" horiz-adv-x="387" 
d="M141 683.5c16.667 19.667 38.1689 34.332 64.502 43.999s53.166 14.5 80.499 14.5h72c9.33301 0 14 -4 14 -12v-72c0 -8.66699 -4.66699 -13 -14 -13h-35c-27.333 0 -44.833 -4.5 -52.5 -13.5s-11.5 -22.167 -11.5 -39.5v-196c-0.666992 -31.333 -12 -54.833 -34 -70.5
s-47.667 -25.5 -77 -29.5c-4 -0.666992 -6.16699 -1.66699 -6.5 -3s1.83398 -2.33301 6.50098 -3c72.667 -6 109.667 -41.333 111 -106v-198c0 -19.333 4.5 -33.166 13.5 -41.499s25.833 -12.5 50.5 -12.5h32c11.333 0 17 -5 17 -15v-65c0 -11.333 -5.66699 -17 -17 -17h-66
c-28.667 0 -56.334 4.83301 -83.001 14.5s-48.334 24.334 -65.001 44.001s-25 43.5 -25 71.5v202c0 25.333 -8.66699 45.666 -26 60.999s-43.666 23 -78.999 23c-7.33301 0 -11 6 -11 18v49c0 12 3.66699 18 11 18c37.333 0.666992 64.166 8 80.499 22s24.5 36 24.5 66v188
c0 28 8.33301 51.833 25 71.5z" />
    <glyph glyph-name="bar" unicode="|" horiz-adv-x="248" 
d="M86 -165c-8.66699 0 -15 2.33301 -19 7s-6 12 -6 22v960c0 8.66699 1.83301 14.667 5.5 18s9.16699 5 16.5 5h84c14 0 21 -6 21 -18v-977c0 -5.33301 -1.83301 -9.5 -5.5 -12.5s-8.16699 -4.5 -13.5 -4.5h-83z" />
    <glyph glyph-name="braceright" unicode="}" horiz-adv-x="387" 
d="M271 424c0 -30 8.16895 -51.998 24.502 -65.998s43.166 -21.333 80.499 -22c7.33301 0 11 -6 11 -18v-49c0 -12 -3.66699 -18 -11 -18c-35.333 0 -61.666 -7.66699 -78.999 -23s-26 -35.666 -26 -60.999v-202c0 -28 -8.33301 -51.833 -25 -71.5
s-38.334 -34.334 -65.001 -44.001s-54.334 -14.5 -83.001 -14.5h-66c-11.333 0 -17 5.66699 -17 17v65c0 10 5.66699 15 17 15h32c24.667 0 41.5 4.16699 50.5 12.5s13.5 22.166 13.5 41.499v198c1.33301 64.667 38.333 100 111 106
c4.66699 0.666992 6.83398 1.66699 6.50098 3s-2.5 2.33301 -6.5 3c-29.333 4 -55 13.833 -77 29.5s-33.333 39.167 -34 70.5v196c0 17.333 -3.83301 30.5 -11.5 39.5s-25.167 13.5 -52.5 13.5h-35c-9.33301 0 -14 4.33301 -14 13v72c0 8 4.66699 12 14 12h72
c27.333 0 54.166 -4.83301 80.499 -14.5s47.833 -24.334 64.5 -44.001s25 -43.5 25 -71.5v-188z" />
    <glyph glyph-name="asciitilde" unicode="~" horiz-adv-x="623" 
d="M498.5 307c-27 -15.333 -54.8359 -22.998 -83.5029 -22.998c-19.333 0 -37 3.16699 -53 9.5s-34.333 15.5 -55 27.5c-19.333 10.667 -35.166 18.5 -47.499 23.5s-25.5 7.5 -39.5 7.5c-20.667 0 -39 -5.83301 -55 -17.5s-34.333 -28.5 -55 -50.5
c-3.33301 -3.33301 -6.66602 -5 -9.99902 -5s-6.33301 2 -9 6l-37 61c-1.33301 2 -2 4.66699 -2 8c0 5.33301 3.33301 11.333 10 18c30.667 30.667 57.667 53.167 81 67.5s49.666 21.5 78.999 21.5c20 0 37.833 -3.16699 53.5 -9.5s34.5 -15.833 56.5 -28.5
c18.667 -10.667 33.334 -18.334 44.001 -23.001s22.667 -7 36 -7c20 0 38.333 5.66699 55 17s31.334 26 44.001 44c4 5.33301 8 8 12 8c6 0 11 -3.66699 15 -11l29 -49c2.66699 -3.33301 4 -7.33301 4 -12s-2 -10.334 -6 -17.001c-17.333 -28.667 -39.5 -50.667 -66.5 -66z
" />
    <glyph glyph-name="uni00A0" unicode="&#xa0;" horiz-adv-x="211" 
 />
    <glyph glyph-name="exclamdown" unicode="&#xa1;" horiz-adv-x="271" 
d="M214 349h-156c-5.33301 0 -9.5 1.66699 -12.5 5s-4.5 8.33301 -4.5 15v138c0 8 1.83301 13.833 5.5 17.5s10.167 5.5 19.5 5.5h134c11.333 0 19.333 -2 24 -6s7 -11 7 -21v-135c0 -12.667 -5.66699 -19 -17 -19zM238 -150c0 -4.66699 -1.49902 -8.33398 -4.49902 -11.001
s-6.83301 -4 -11.5 -4h-169c-6 0 -10.5 1.83301 -13.5 5.5s-4.16699 8.83398 -3.5 15.501l44 402c1.33301 8 3.5 13.667 6.5 17s8.83301 5 17.5 5h61c10 0 17.167 -1.83301 21.5 -5.5s7.16602 -10.167 8.49902 -19.5l43 -401v-4z" />
    <glyph glyph-name="cent" unicode="&#xa2;" horiz-adv-x="558" 
d="M533 272c0 -2 -0.664062 -5.66797 -1.99707 -11.001c-8.66699 -30.667 -27.334 -61.334 -56.001 -92.001s-67 -51.334 -115 -62.001v-80c0 -9.33301 -2.16699 -16.166 -6.5 -20.499s-11.5 -6.5 -21.5 -6.5h-60c-9.33301 0 -15.833 2 -19.5 6s-5.5 10 -5.5 18v81
c-43.333 6.66699 -81.666 22.167 -114.999 46.5s-59.333 55.666 -78 93.999s-28 81.166 -28 128.499c0 48 9.33301 91.333 28 130s44.667 70.334 78 95.001s71.666 40.667 114.999 48v69c0 9.33301 2.16699 16 6.5 20s11.5 6 21.5 6h61c8.66699 0 14.834 -2 18.501 -6
s5.5 -10 5.5 -18v-74c45.333 -10 82.666 -29.5 111.999 -58.5s48.666 -60.833 57.999 -95.5c1.33301 -5.33301 2 -8.66602 2 -9.99902c0 -8 -6 -12.667 -18 -14l-121 -8c-0.666992 0 -1.33398 -0.166992 -2.00098 -0.5s-1.66699 -0.166016 -3 0.500977
c-5.33301 0 -9 4 -11 12c-7.33301 21.333 -16 37.833 -26 49.5s-26 17.5 -48 17.5c-30.667 0 -54.5 -13.333 -71.5 -40s-25.5 -67 -25.5 -121c0 -108.667 35.333 -163 106 -163c26 0 46.5 6.66699 61.5 20s30.5 34 46.5 62c1.33301 2.66699 3.33301 4.33398 6 5.00098
s7 0.666992 13 0l84 -18c6.66699 -0.666992 10 -4 10 -10z" />
    <glyph glyph-name="sterling" unicode="&#xa3;" horiz-adv-x="655" 
d="M12 18l0.00292969 114c0 9.33301 4.66699 14 14 14h19c56.667 0 85 29.333 85 88c0 24 -2.33301 57.667 -7 101c-0.666992 6.66699 -4.66699 10 -12 10h-84c-3.33301 0 -6.16602 1.16699 -8.49902 3.5s-3.5 5.5 -3.5 9.5v70c0 7.33301 4 11 12 11h63
c8 0 11.667 4.33301 11 13l-8 84c-0.666992 4.66699 -1 12 -1 22c0 41.333 11.167 76.5 33.5 105.5s52 51 89 66s77.5 22.5 121.5 22.5c52 0 101.167 -12.5 147.5 -37.5s80.166 -61.833 101.499 -110.5c0.666992 -1.33301 1 -3.33301 1 -6c0 -5.33301 -4 -9 -12 -11
l-121 -36c-2 -0.666992 -4.66699 -1 -8 -1c-6.66699 0 -11.334 2.66699 -14.001 8c-15.333 36.667 -38 55 -68 55c-19.333 0 -34.833 -6.5 -46.5 -19.5s-17.5 -30.833 -17.5 -53.5c0 -23.333 3.66699 -53.333 11 -90c0.666992 -3.33301 2.16699 -6 4.5 -8
s5.16602 -3 8.49902 -3h120c7.33301 0 11 -3.33301 11 -10v-73c0 -7.33301 -3.66699 -11 -11 -11h-107c-6.66699 0 -10 -3.33301 -10 -10c0.666992 -35.333 -2 -66.666 -8 -93.999c-6 -30.667 -20.667 -57.334 -44 -80.001c-3.33301 -3.33301 -5 -6.33301 -5 -9
c0 -3.33301 3 -5 9 -5h98c28 0 50 5.16699 66 15.5s28.333 27.5 37 51.5c2.66699 7.33301 7.66699 11 15 11c3.33301 0 6 -0.333008 8 -1l109 -22c14.667 -3.33301 20.334 -11 17.001 -23c-14.667 -57.333 -42.834 -101.5 -84.501 -132.5s-92.834 -46.5 -153.501 -46.5h-361
c-11.333 0 -17 6 -17 18z" />
    <glyph glyph-name="currency" unicode="&#xa4;" horiz-adv-x="588" 
d="M176 169c-3.33301 2 -6.33301 3.00098 -9 3.00098s-5.33398 -1.33301 -8.00098 -4l-54 -54c-2.66699 -2.66699 -5.66699 -4 -9 -4s-7.33301 1.66699 -12 5l-51 52c-2.66699 2.66699 -4 5.66699 -4 9c0 4 1.33301 7.33301 4 10l54 54c2.66699 2.66699 4 5.66699 4 9
s-1 6.33301 -3 9c-10 20 -17.5 38.667 -22.5 56s-7.5 36.666 -7.5 57.999c0 42.667 10.333 81.667 31 117c1.33301 2 2 4.66699 2 8s-1.33301 6.33301 -4 9l-54 54c-2.66699 4 -4 7 -4 9c0 2.66699 1.33301 6 4 10l52 53c4 4 7.66699 6 11 6
c2.66699 0 5.66699 -1.66699 9 -5l55 -55c2.66699 -2 5.33398 -3 8.00098 -3l8 2c39.333 21.333 78 32 116 32c42.667 0 84 -11 124 -33c4.66699 -3.33301 8.33398 -3 11.001 1l53 52c3.33301 4.66699 6.66602 4.66699 9.99902 0l60 -61c3.33301 -4 3.33301 -8 0 -12
l-53 -53c-2.66699 -2 -3 -5.33301 -1 -10c22.667 -37.333 34 -77.333 34 -120c0 -47.333 -11.667 -88 -35 -122c-1.33301 -2.66699 -1.33301 -4.66699 0 -6l55 -54c4 -4.66699 4 -9 0 -13l-59 -60c-4 -4 -8 -4 -12 0l-52 53c-3.33301 2.66699 -7 2.66699 -11 0
c-40 -22.667 -80 -34 -120 -34c-43.333 0 -83.333 10.667 -120 32zM356.5 267.001c19 11.333 33.833 26.5 44.5 45.5s16 39.167 16 60.5s-5.33301 41.5 -16 60.5s-25.5 34.167 -44.5 45.5s-39.833 17 -62.5 17s-43.5 -5.66699 -62.5 -17s-33.833 -26.5 -44.5 -45.5
s-16 -39.167 -16 -60.5s5.33301 -41.5 16 -60.5s25.5 -34.167 44.5 -45.5s39.833 -17 62.5 -17s43.5 5.66699 62.5 17z" />
    <glyph glyph-name="yen" unicode="&#xa5;" horiz-adv-x="675" 
d="M692 731c0 -2.66699 -0.996094 -6.00195 -2.99609 -10.002l-221 -359h112c5.33301 0 9.5 -1.66699 12.5 -5s4.5 -7.66602 4.5 -12.999v-49c0 -8.66699 -2.33301 -15 -7 -19s-12.334 -6 -23.001 -6h-122v-74h135c5.33301 0 9.5 -1.66699 12.5 -5s4.5 -7.66602 4.5 -12.999
v-49c0 -8.66699 -2.33301 -15 -7 -19s-12.334 -6 -23.001 -6h-122v-77c0 -10 -2.33301 -17 -7 -21s-12.334 -6 -23.001 -6h-148c-8.66699 -0 -14.834 1.83301 -18.501 5.5s-5.5 9.5 -5.5 17.5v81h-128c-8.66699 0 -14.667 1.66699 -18 5s-5 9 -5 17v49
c0 14 5.66699 21 17 21h134v74h-128c-8.66699 0 -14.667 1.66699 -18 5s-5 9 -5 17v49c0 14 5.66699 21 17 21h102l-216 354c-2.66699 4.66699 -4 8.66699 -4 12c0 9.33301 7 14 21 14h177c8.66699 0 15 -1.33301 19 -4s8 -7.66699 12 -15l135 -241
c3.33301 -6.66699 6 -10 8 -10c3.33301 0 6.33301 3 9 9l134 242c4 7.33301 8 12.333 12 15s10.333 4 19 4h139c10.667 0 16 -3.66699 16 -11z" />
    <glyph glyph-name="brokenbar" unicode="&#xa6;" horiz-adv-x="248" 
d="M86 426c-8.66699 0 -15 2.33301 -19 7s-6 12 -6 22v369c0 8.66699 1.83301 14.667 5.5 18s9.16699 5 16.5 5h84c14 0 21 -6 21 -18v-387c0 -4.66699 -1.83301 -8.5 -5.5 -11.5s-8.16699 -4.5 -13.5 -4.5h-83zM86 -165c-8.66699 0 -15 2.33301 -19 7s-6 12 -6 22v369
c0 8.66699 1.66699 14.667 5 18s9 5 17 5h84c14 0 21 -6 21 -18v-386c0 -5.33301 -1.83301 -9.5 -5.5 -12.5s-8.16699 -4.5 -13.5 -4.5h-83z" />
    <glyph glyph-name="section" unicode="&#xa7;" horiz-adv-x="512" 
d="M471 166c14 -20.667 21.001 -45.3311 21.001 -73.998c0 -52.667 -20.333 -95 -61 -127s-98 -48 -172 -48c-57.333 0 -106.5 9.5 -147.5 28.5s-69.5 42.5 -85.5 70.5c-4 8 -6 13.667 -6 17c0 4 2 7.33301 6 10l83 40c4 1.33301 7 2 9 2
c4.66699 0 10.334 -3.33301 17.001 -10c16 -16.667 33 -29.667 51 -39s41 -14 69 -14c24.667 0 44.167 4 58.5 12s21.5 19.667 21.5 35c0 12 -5 22.833 -15 32.5s-28.333 19.5 -55 29.5l-74 27c-59.333 22 -101.833 45.833 -127.5 71.5s-38.5 58.834 -38.5 99.501
c0 30.667 7.33301 57.5 22 80.5s35.667 40.833 63 53.5c-27.333 17.333 -46.833 36 -58.5 56s-17.5 42.333 -17.5 67c0 31.333 8.66699 59.666 26 84.999s42.166 45.166 74.499 59.499s70.166 21.5 113.499 21.5c50 0 94 -9.33301 132 -28s64.667 -41 80 -67
c4.66699 -7.33301 7 -13.333 7 -18s-2.33301 -7.66699 -7 -9l-82 -40c-2.66699 -2 -5.66699 -3 -9 -3c-4.66699 0 -10.334 3.33301 -17.001 10c-16 15.333 -31.667 27.5 -47 36.5s-32.666 13.5 -51.999 13.5s-34.666 -3.83301 -45.999 -11.5s-17 -18.167 -17 -31.5
c0 -9.33301 3.66699 -17.5 11 -24.5s20.666 -14.167 39.999 -21.5l73 -28c60.667 -22.667 104 -46.834 130 -72.501s39 -59.167 39 -100.5c0 -58 -26.333 -102.667 -79 -134c30.667 -17.333 53 -36.333 67 -57zM327.501 287.003c9 9.33301 13.5 21.6641 13.5 36.9971
c0 14 -4.66699 26.5 -14 37.5s-29 22.167 -59 33.5l-41 15c-20 -1.33301 -35 -7.16602 -45 -17.499s-15 -22.833 -15 -37.5c0 -13.333 4.83301 -24.166 14.5 -32.499s29.5 -18.166 59.5 -29.499l46 -18c18 -1.33301 31.5 2.66699 40.5 12z" />
    <glyph glyph-name="dieresis" unicode="&#xa8;" horiz-adv-x="397" 
d="M164 628c0 -15.333 -8.66699 -22.999 -26 -22.999h-108c-7.33301 0 -12.5 1.66699 -15.5 5s-4.5 8.66602 -4.5 15.999v97c0 12.667 5 19 15 19h124c10 0 15 -5.66699 15 -17v-97zM387 628.001c0 -8 -2.16797 -13.832 -6.50098 -17.499s-11.166 -5.5 -20.499 -5.5h-107
c-8 0 -13.5 1.66699 -16.5 5s-4.5 8.66602 -4.5 15.999v97c0 12.667 5 19 15 19h125c10 0 15 -5.66699 15 -17v-97z" />
    <glyph glyph-name="copyright" unicode="&#xa9;" horiz-adv-x="830" 
d="M223.5 41c-58.333 34 -104.5 80.167 -138.5 138.5s-51 122.166 -51 191.499c0 68.667 17 132.167 51 190.5s80.167 104.666 138.5 138.999s122.166 51.5 191.499 51.5c68.667 0 132.167 -17.167 190.5 -51.5s104.666 -80.666 138.999 -138.999s51.5 -121.833 51.5 -190.5
c0 -69.333 -17.167 -133.166 -51.5 -191.499s-80.666 -104.5 -138.999 -138.5s-121.833 -51 -190.5 -51c-69.333 0 -133.166 17 -191.499 51zM560 118.5c42 23.667 74.667 57.167 98 100.5s35 94 35 152c0 57.333 -11.667 107.833 -35 151.5s-56 77.5 -98 101.5
s-90.333 36 -145 36c-55.333 0 -104 -12 -146 -36s-74.5 -57.833 -97.5 -101.5s-34.5 -94.167 -34.5 -151.5c0 -58 11.5 -108.667 34.5 -152s55.5 -76.833 97.5 -100.5s90.667 -35.5 146 -35.5c54.667 0 103 11.833 145 35.5zM537 547
c31.333 -25.333 51.332 -54.667 59.999 -88c0.666992 -2 1 -4.33301 1 -7c0 -6 -4.33301 -9.66699 -13 -11l-94 -7h-3c-2.66699 0 -4.66699 0.833008 -6 2.5s-2.66602 4.5 -3.99902 8.5c-4.66699 15.333 -11 27.666 -19 36.999s-20.333 14 -37 14
c-22.667 0 -40.5 -10.167 -53.5 -30.5s-19.5 -51.166 -19.5 -92.499c0 -82.667 26.667 -124 80 -124c20 0 35.833 5.16699 47.5 15.5s23.5 26.166 35.5 47.499c2 4 7 5 15 3l65 -14c5.33301 -1.33301 8 -3.66602 8 -6.99902l-2 -8c-4.66699 -17.333 -14 -35.5 -28 -54.5
s-33.833 -35.5 -59.5 -49.5s-56.5 -21 -92.5 -21c-40 0 -75.833 8.83301 -107.5 26.5s-56.5 42.5 -74.5 74.5s-27 68.333 -27 109c0 41.333 9 78.333 27 111s42.833 58 74.5 76s67.5 27 107.5 27c48 0 87.667 -12.667 119 -38z" />
    <glyph glyph-name="ordfeminine" unicode="&#xaa;" horiz-adv-x="389" 
d="M304.5 725c22.333 -17.333 33.502 -43.333 33.502 -78v-172c0 -12.667 2.66699 -27.667 8 -45c3.33301 -10.667 -6.33398 -16 -29.001 -16h-66c-6 0 -9.83301 1 -11.5 3s-3.16699 5.66699 -4.5 11l-2 9c-1.33301 3.33301 -3 5 -5 5s-5.66699 -1.66699 -11 -5
c-17.333 -10.667 -32 -18.167 -44 -22.5s-26 -6.5 -42 -6.5c-34.667 0 -61.5 8.66699 -80.5 26s-28.5 40.333 -28.5 69c0 33.333 15 60 45 80s74.333 32 133 36l20 1c8 1.33301 12 5 12 11v10c0 27.333 -15 41 -45 41c-26 0 -44.333 -10.667 -55 -32
c-1.33301 -3.33301 -3 -5.5 -5 -6.5s-5.66699 -0.833008 -11 0.5l-74 15c-2.66699 0.666992 -4.33398 3.16699 -5.00098 7.5s-0.333984 7.83301 0.999023 10.5c12.667 26 30.334 45 53.001 57s55.667 18 99 18c54 -0.666992 92.167 -9.66699 114.5 -27zM143.502 485
c7.66699 -6 18.5 -9.00098 32.5 -9.00098c16.667 0 31 5 43 15c8.66699 6.66699 13 14.667 13 24v37c0 8 -4 11.667 -12 11l-19 -2c-18 -1.33301 -34 -6.66602 -48 -15.999s-21 -21 -21 -35c0 -10.667 3.83301 -19 11.5 -25z" />
    <glyph glyph-name="guillemotleft" unicode="&#xab;" horiz-adv-x="500" 
d="M247 74c0.666992 -0.666992 0.999023 -1.99902 0.999023 -3.99902c0 -5.33301 -5.33301 -8 -16 -8h-64c-8 0 -13 3.33301 -15 10l-99 165c-4 7.33301 -6 14 -6 20s1.66699 12.333 5 19l100 175c2.66699 4 4.83398 6.66699 6.50098 8s4.5 2 8.5 2h67
c4.66699 0 8.16699 -1.33301 10.5 -4s2.5 -6.33398 0.5 -11.001l-65 -177c-1.33301 -5.33301 -2 -9.33301 -2 -12s0.666992 -6.66699 2 -12zM448.999 74.001l1 -3.99902c0 -5.33301 -5 -8 -15 -8h-65c-6.66699 0 -11.667 3.33301 -15 10l-98 165c-4 7.33301 -6 14 -6 20
s1.66699 12.333 5 19l99 175c2.66699 4 5 6.66699 7 8s5 2 9 2h66c4.66699 0 8.16699 -1.33301 10.5 -4s2.5 -6.33398 0.5 -11.001l-64 -177c-1.33301 -5.33301 -2 -9.33301 -2 -12s0.666992 -6.66699 2 -12z" />
    <glyph glyph-name="logicalnot" unicode="&#xac;" horiz-adv-x="592" 
d="M544.5 432c3 -3.33301 4.50098 -7.66504 4.50098 -12.998v-244c0 -8.66699 -2 -14.834 -6 -18.501s-10.667 -5.5 -20 -5.5h-95c-8 0 -13.667 1.66699 -17 5s-5 8.66602 -5 15.999v138h-338c-8.66699 0 -14.834 1.66699 -18.501 5s-5.5 9 -5.5 17v84
c0 14 5.66699 21 17 21h472c4.66699 0 8.5 -1.66699 11.5 -5z" />
    <glyph glyph-name="uni00AD" unicode="&#xad;" horiz-adv-x="380" 
d="M335 226c0 -9.33301 -2.33301 -16 -7 -20s-12.334 -6 -23.001 -6h-236c-9.33301 0 -15.666 1.83301 -18.999 5.5s-5 9.5 -5 17.5v83c0 13.333 5.66699 20 17 20l257 1c4.66699 0 8.5 -1.83301 11.5 -5.5s4.5 -8.16699 4.5 -13.5v-82z" />
    <glyph glyph-name="registered" unicode="&#xae;" horiz-adv-x="545" 
d="M153 307c-36.667 21.333 -65.6699 50.166 -87.0029 86.499s-32 76.166 -32 119.499s10.667 83.333 32 120s50.333 65.667 87 87s76.667 32 120 32c42.667 0 82.334 -10.667 119.001 -32s65.667 -50.333 87 -87s32 -76.667 32 -120s-10.667 -83.166 -32 -119.499
s-50.166 -65.166 -86.499 -86.499s-76.166 -32 -119.499 -32s-83.333 10.667 -120 32zM393.497 387.5c30.333 31 45.5 72.833 45.5 125.5c0 52 -15.167 93.833 -45.5 125.5s-70.5 47.5 -120.5 47.5c-50.667 0 -91.167 -15.833 -121.5 -47.5s-45.5 -73.5 -45.5 -125.5
c0 -52.667 15.167 -94.5 45.5 -125.5s70.833 -46.5 121.5 -46.5c50 0 90.167 15.5 120.5 46.5zM378.997 400c0 -4 -2.00098 -5.99902 -6.00098 -5.99902h-57c-4 0 -7 2 -9 6l-30 89c-0.666992 1.33301 -1.66699 2.5 -3 3.5s-3.66602 1.5 -6.99902 1.5h-23
c-2.66699 0 -4 -1.33301 -4 -4v-88c0 -5.33301 -3.33301 -8 -10 -8h-49c-4.66699 0 -7 2.33301 -7 7v222c0 4.66699 1.66699 7 5 7h108c30 0 53.333 -5.66699 70 -17s25 -27.333 25 -48c0 -14 -4 -26.333 -12 -37s-18.333 -18.667 -31 -24
c-1.33301 -0.666992 -2 -2.33398 -2 -5.00098l41 -96zM304.996 544.501c5.33301 4.33301 8 10.168 8 17.501s-2.83301 13.166 -8.5 17.499s-13.167 6.5 -22.5 6.5h-35c-4.66699 0 -7 -2 -7 -6v-35c0 -4.66699 1.66699 -7 5 -7h39c8.66699 0 15.667 2.16699 21 6.5z" />
    <glyph glyph-name="macron" unicode="&#xaf;" horiz-adv-x="409" 
d="M399 650c0 -8 -2 -13.667 -6 -17s-10.667 -5 -20 -5h-343c-8 0 -13.333 1.5 -16 4.5s-4 8.16699 -4 15.5v73c0 12 4.66699 18 14 18h361c9.33301 0 14 -5.33301 14 -16v-73z" />
    <glyph glyph-name="degree" unicode="&#xb0;" horiz-adv-x="464" 
d="M387 587.5c-15.333 -27 -36.498 -48 -63.498 -63s-57.5 -22.5 -91.5 -22.5s-64.5 7.5 -91.5 22.5s-48.167 36 -63.5 63s-23 57.833 -23 92.5c0 34 7.66699 64.5 23 91.5s36.5 48 63.5 63s57.5 22.5 91.5 22.5c33.333 0 63.666 -7.66699 90.999 -23
s48.666 -36.333 63.999 -63s23 -57 23 -91c0 -34.667 -7.66699 -65.5 -23 -92.5zM286.002 736c-14 14.667 -32.667 22 -56 22c-22.667 0 -41 -7.16699 -55 -21.5s-21 -32.833 -21 -55.5c0 -24.667 6.83301 -44.667 20.5 -60s32.5 -23 56.5 -23c22.667 0 41 7.5 55 22.5
s21 34.5 21 58.5c0 23.333 -7 42.333 -21 57z" />
    <glyph glyph-name="plusminus" unicode="&#xb1;" horiz-adv-x="592" 
d="M544.5 523c3 -3.33301 4.5 -7.66797 4.5 -13.001v-83c0 -8.66699 -2.33301 -15 -7 -19s-12 -6 -22 -6h-159v-173c0 -4.66699 -1.66699 -8.5 -5 -11.5s-7.66602 -4.5 -12.999 -4.5h-84c-8.66699 0 -15 2.33301 -19 7s-6 12.334 -6 23.001v158h-166
c-8.66699 0 -14.834 1.83301 -18.501 5.5s-5.5 9.5 -5.5 17.5v83c0 14 5.66699 21 17 21h173v167c0 8.66699 1.66699 14.667 5 18s9 5 17 5h84c14 0 21 -5.66699 21 -17v-173h172c4.66699 0 8.5 -1.66699 11.5 -5zM544.5 145.998c3 -3.33301 4.50098 -7.66699 4.50098 -13
v-83c0 -17.333 -9.66699 -26 -29 -26h-452c-8.66699 0 -14.834 1.83301 -18.501 5.5s-5.5 9.5 -5.5 17.5v83c0 14 5.66699 21 17 21h472c4.66699 0 8.5 -1.66699 11.5 -5z" />
    <glyph glyph-name="uni00B2" unicode="&#xb2;" horiz-adv-x="452" 
d="M183 588c28.667 24.667 49.665 43.668 62.998 57.001s22.5 24.833 27.5 34.5s7.5 20.167 7.5 31.5c0 16.667 -5.66699 30 -17 40s-26.333 15 -45 15c-16.667 0 -31.667 -5.16699 -45 -15.5s-27 -27.833 -41 -52.5c-2 -3.33301 -5 -5 -9 -5c-2.66699 0 -6 1 -10 3l-66 33
c-5.33301 3.33301 -8 7.33301 -8 12c0 4 1 7.33301 3 10c22.667 36 48.834 62.667 78.501 80s64.5 26 104.5 26c54 0 97.167 -13.167 129.5 -39.5s48.5 -61.5 48.5 -105.5c0 -25.333 -6.5 -48.333 -19.5 -69s-35.167 -42.334 -66.5 -65.001l-113 -83
c-2.66699 -0.666992 -4 -2 -4 -4s2.66699 -3 8 -3h186c9.33301 0 14 -3.66699 14 -11v-80c0 -3.33301 -1.16699 -6.33301 -3.5 -9s-5.83301 -4 -10.5 -4h-341c-5.33301 0 -9.16602 1 -11.499 3s-3.5 5.66699 -3.5 11v56c0 3.33301 2 7.5 6 12.5s13 13.5 27 25.5z" />
    <glyph glyph-name="uni00B3" unicode="&#xb3;" horiz-adv-x="467" 
d="M64 782c0 2.66699 1.00098 5.33301 3.00098 8c15.333 20 38.666 36.167 69.999 48.5s64.333 18.5 99 18.5c56 0 100.333 -11.333 133 -34s49 -52.334 49 -89.001c0 -20 -6.33301 -38.833 -19 -56.5s-30.334 -30.167 -53.001 -37.5c-5.33301 -2 -8 -4 -8 -6
s2.33301 -4.33301 7 -7c26.667 -8.66699 47.834 -22.5 63.501 -41.5s23.5 -40.5 23.5 -64.5c0 -46.667 -17 -82.167 -51 -106.5s-85 -36.5 -153 -36.5c-37.333 0 -72.5 7.5 -105.5 22.5s-58.167 34.5 -75.5 58.5c-2 3.33301 -3 6.33301 -3 9c0 4.66699 2.66699 8.66699 8 12
l57 40c6.66699 4.66699 11.667 4.66699 15 0c20 -20 37.833 -34 53.5 -42s34.834 -12 57.501 -12c22 0 39.5 4.83301 52.5 14.5s19.5 22.5 19.5 38.5c0 17.333 -7.16699 31.333 -21.5 42s-32.5 16.334 -54.5 17.001l-54 1c-8 0 -12 3.33301 -12 10v68
c0 5.33301 4 8.66602 12 9.99902l43 2c22.667 0.666992 40.667 6.33398 54 17.001s20 24 20 40c0 12.667 -5.83301 23.334 -17.5 32.001s-25.834 13 -42.501 13c-18.667 0 -35.5 -3.5 -50.5 -10.5s-31.167 -18.5 -48.5 -34.5c-3.33301 -3.33301 -6 -5 -8 -5
c-0.666992 0 -3 1.33301 -7 4l-53 50c-2 3.33301 -3 5.66602 -3 6.99902z" />
    <glyph glyph-name="acute" unicode="&#xb4;" horiz-adv-x="313" 
d="M302 666c1.33301 -5.33301 1.99707 -8.66699 1.99707 -10c0 -10 -6.66699 -16.333 -20 -19l-232 -59c-5.33301 -1.33301 -8.66602 -2 -9.99902 -2c-7.33301 0 -13 4.66699 -17 14l-13 39c-1.33301 2 -2 5 -2 9c0 6 3 10.333 9 13l237 100c1.33301 0.666992 3.33301 1 6 1
s5.33398 -1 8.00098 -3s4.33398 -5 5.00098 -9z" />
    <glyph glyph-name="paragraph" unicode="&#xb6;" horiz-adv-x="618" 
d="M522 644c-4 0 -7 -1.16699 -9 -3.5s-3 -5.5 -3 -9.5v-700c0 -10.667 -4.66699 -16 -14 -16h-75c-6 0 -10.5 1.5 -13.5 4.5s-4.5 6.83301 -4.5 11.5v702c0 7.33301 -4 11 -12 11h-39c-3.33301 0 -6.16602 -1.33301 -8.49902 -4s-3.5 -5.66699 -3.5 -9v-701
c0 -10 -4.66699 -15 -14 -15h-78c-9.33301 0 -14 5 -14 15v369c0 5.33301 -3.33301 8.33301 -10 9c-56.667 6 -103.834 27.333 -141.501 64s-56.5 87 -56.5 151c0 41.333 9.33301 78.5 28 111.5s46.167 59.167 82.5 78.5s79.5 29 129.5 29h296c8.66699 0 13 -4 13 -12v-75
c0 -4 -1 -6.83301 -3 -8.5s-5.33301 -2.5 -10 -2.5h-40z" />
    <glyph glyph-name="periodcentered" unicode="&#xb7;" horiz-adv-x="264" 
d="M216 315c0 -8.66699 -2 -14.833 -6 -18.5s-11 -5.5 -21 -5.5h-123c-8 0 -13.667 1.5 -17 4.5s-5 8.16699 -5 15.5v127c0 12 5.33301 18 16 18h141c10 0 15 -5.33301 15 -16v-125z" />
    <glyph glyph-name="cedilla" unicode="&#xb8;" horiz-adv-x="274" 
d="M227 -198.5c-24.667 -15.667 -55 -23.502 -91 -23.502c-48.667 0 -88.667 8 -120 24c-6 4.66699 -7.66699 9.66699 -5 15l16 38c2 5.33301 5.66699 7 11 5c28 -15.333 53.333 -23 76 -23c15.333 0 27.333 2.66699 36 8s13 12.333 13 21
c0 13.333 -6.83301 23.333 -20.5 30s-36.5 10.334 -68.5 11.001c-5.33301 0 -8.83301 0.666992 -10.5 2s-1.5 4.33301 0.5 9l38 87h75l-20 -51l-1 -4c0 -2.66699 2.33301 -4 7 -4c34.667 -0.666992 60.167 -9.16699 76.5 -25.5s24.5 -35.166 24.5 -56.499
c0 -26 -12.333 -46.833 -37 -62.5z" />
    <glyph glyph-name="uni00B9" unicode="&#xb9;" horiz-adv-x="367" 
d="M316 462l-0.000976562 -69.001c0 -8.66699 -4.66699 -13 -14 -13h-259c-8.66699 0 -13 4 -13 12v70c0 4 1 6.66699 3 8s5 2 9 2h61c1.33301 0 2.83301 0.5 4.5 1.5s2.5 2.5 2.5 4.5v236c0 6 -3.33301 8.66699 -10 8l-56 -16h-3c-4 0 -7 1 -9 3s-3 5.66699 -3 11v47
c0 4.66699 0.666992 8.16699 2 10.5s4 4.5 8 6.5l110 55c5.33301 2.66699 10.333 4.66699 15 6s9.33398 2 14.001 2h49c2.66699 0 5 -1.16699 7 -3.5s3 -5.16602 3 -8.49902v-356c0 -4.66699 2 -7 6 -7h60c8.66699 0 13 -3.33301 13 -10z" />
    <glyph glyph-name="ordmasculine" unicode="&#xba;" horiz-adv-x="395" 
d="M321.5 703.5c31.667 -32.333 47.499 -74.167 47.499 -125.5c0 -50 -15.833 -90.833 -47.5 -122.5s-73.167 -47.5 -124.5 -47.5s-92.666 15.833 -123.999 47.5s-47 72.5 -47 122.5c0 34 7.33301 64.167 22 90.5s35 46.833 61 61.5s55.333 22 88 22
c51.333 0 92.833 -16.167 124.5 -48.5zM153.999 655.499c-9.33301 -16.333 -14 -41.167 -14 -74.5c0 -34 4.66699 -59.167 14 -75.5s23.666 -24.5 42.999 -24.5c38.667 0 58 33.333 58 100c0 66 -19.333 99 -58 99c-19.333 0 -33.666 -8.16699 -42.999 -24.5z" />
    <glyph glyph-name="guillemotright" unicode="&#xbb;" horiz-adv-x="500" 
d="M119 257c0 5.33301 -0.666992 9.33398 -2 12.001l-65 177c-0.666992 1.33301 -1 3.33301 -1 6c0 6 4 9 12 9h66c4 0 7 -0.666992 9 -2s4.33301 -4 7 -8l99 -175c4 -6 6 -12.333 6 -19s-2.33301 -13.334 -7 -20.001l-98 -165c-3.33301 -6.66699 -8.33301 -10 -15 -10h-64
c-12.667 0 -17.667 4 -15 12l66 171c1.33301 2.66699 2 6.66699 2 12zM321 257.001c0 5.33301 -0.666992 9.33301 -2 12l-65 177c-0.666992 1.33301 -1 3 -1 5c0 6.66699 4 10 12 10h67c4 0 7 -0.666992 9 -2s4 -4 6 -8l100 -175c3.33301 -6.66699 5 -13 5 -19
s-2 -12.667 -6 -20l-98 -165c-3.33301 -6.66699 -8.33301 -10 -15 -10h-65c-12.667 0 -17.667 4 -15 12l66 171c1.33301 2.66699 2 6.66699 2 12z" />
    <glyph glyph-name="onequarter" unicode="&#xbc;" horiz-adv-x="957" 
d="M282 358l-0.000976562 -69.001c0 -8.66699 -4.66699 -13 -14 -13h-259c-8.66699 0 -13 4 -13 12v70c0 4 1 6.66699 3 8s5 2 9 2h61c1.33301 0 2.83301 0.5 4.5 1.5s2.5 2.5 2.5 4.5v236c0 6 -3.33301 8.66699 -10 8l-56 -16h-3c-4 0 -7 1 -9 3s-3 5.66699 -3 11v47
c0 4.66699 0.666992 8.16699 2 10.5s4 4.5 8 6.5l110 55c5.33301 2.66699 10.333 4.66699 15 6s9.33398 2 14.001 2h49c2.66699 0 5 -1.16699 7 -3.5s3 -5.16602 3 -8.49902v-356c0 -4.66699 2 -7 6 -7h60c8.66699 0 13 -3.33301 13 -10zM225.999 6.99902
c-3.33301 -4 -7 -6.83203 -11 -8.49902s-9.33301 -2.5 -16 -2.5l-47 1c-6 0 -10.5 1.5 -13.5 4.5s-4.5 6.83301 -4.5 11.5s1.66699 9.66699 5 15l472 710c3.33301 5.33301 7 8.66602 11 9.99902s9 2 15 2h60c8 0 12 -2.66699 12 -8c0 -2.66699 -1 -6 -3 -10zM740.999 464.5
c3.33301 1.66699 8.66895 2.5 16.002 2.5h92c7.33301 0 11 -4 11 -12v-257c0 -4.66699 2.33301 -7 7 -7h49c8 0 12 -4 12 -12v-61c0 -8.66699 -4.66699 -13 -14 -13h-47c-4.66699 0 -7 -2.66699 -7 -8v-81c0 -6 -1.33301 -10.167 -4 -12.5s-7.33398 -3.5 -14.001 -3.5h-96
c-5.33301 0 -9.16602 1 -11.499 3s-3.5 5.66699 -3.5 11v85c0 4 -2.66699 6 -8 6h-184c-4.66699 0 -8.33398 1.16699 -11.001 3.5s-4 5.5 -4 9.5v59c0 4 1.66699 8.83301 5 14.5s8 12.167 14 19.5l185 242c5.33301 6 9.66602 9.83301 12.999 11.5zM727.002 191
c4 0 6 1.33301 6 4v138c0 6 -0.666992 9 -2 9c-2 0 -4.33301 -2.33301 -7 -7l-99 -136c-2 -2 -3 -3.66699 -3 -5c0 -2 2.66699 -3 8 -3h97z" />
    <glyph glyph-name="onehalf" unicode="&#xbd;" horiz-adv-x="1007" 
d="M282 358l-0.000976562 -69.001c0 -8.66699 -4.66699 -13 -14 -13h-259c-8.66699 0 -13 4 -13 12v70c0 4 1 6.66699 3 8s5 2 9 2h61c1.33301 0 2.83301 0.5 4.5 1.5s2.5 2.5 2.5 4.5v236c0 6 -3.33301 8.66699 -10 8l-56 -16h-3c-4 0 -7 1 -9 3s-3 5.66699 -3 11v47
c0 4.66699 0.666992 8.16699 2 10.5s4 4.5 8 6.5l110 55c5.33301 2.66699 10.333 4.66699 15 6s9.33398 2 14.001 2h49c2.66699 0 5 -1.16699 7 -3.5s3 -5.16602 3 -8.49902v-356c0 -4.66699 2 -7 6 -7h60c8.66699 0 13 -3.33301 13 -10zM295.999 6.99902
c-3.33301 -4 -7 -6.83203 -11 -8.49902s-9.33301 -2.5 -16 -2.5l-47 1c-6 0 -10.5 1.5 -13.5 4.5s-4.5 6.83301 -4.5 11.5s1.66699 9.66699 5 15l472 710c3.33301 5.33301 7 8.66602 11 9.99902s9 2 15 2h60c8 0 12 -2.66699 12 -8c0 -2.66699 -1 -6 -3 -10zM735.999 204
c28.667 24.667 49.665 43.668 62.998 57.001s22.5 24.833 27.5 34.5s7.5 20.167 7.5 31.5c0 16.667 -5.66699 30 -17 40s-26.333 15 -45 15c-16.667 0 -31.667 -5.16699 -45 -15.5s-27 -27.833 -41 -52.5c-2 -3.33301 -5 -5 -9 -5c-2.66699 0 -6 1 -10 3l-66 33
c-5.33301 3.33301 -8 7.33301 -8 12c0 4 1 7.33301 3 10c22.667 36 48.834 62.667 78.501 80s64.5 26 104.5 26c54 0 97.167 -13.167 129.5 -39.5s48.5 -61.5 48.5 -105.5c0 -25.333 -6.5 -48.333 -19.5 -69s-35.167 -42.334 -66.5 -65.001l-113 -83
c-2.66699 -0.666992 -4 -2 -4 -4s2.66699 -3 8 -3h186c9.33301 0 14 -3.66699 14 -11v-80c0 -3.33301 -1.16699 -6.33301 -3.5 -9s-5.83301 -4 -10.5 -4h-341c-5.33301 0 -9.16602 1 -11.499 3s-3.5 5.66699 -3.5 11v56c0 3.33301 2 7.5 6 12.5s13 13.5 27 25.5z" />
    <glyph glyph-name="threequarters" unicode="&#xbe;" horiz-adv-x="1038" 
d="M30 677c0 2.66699 1.00098 5.33301 3.00098 8c15.333 20 38.666 36.167 69.999 48.5s64.333 18.5 99 18.5c56 0 100.333 -11.333 133 -34s49 -52.334 49 -89.001c0 -20 -6.33301 -38.833 -19 -56.5s-30.334 -30.167 -53.001 -37.5c-5.33301 -2 -8 -4 -8 -6
s2.33301 -4.33301 7 -7c26.667 -8.66699 47.834 -22.5 63.501 -41.5s23.5 -40.5 23.5 -64.5c0 -46.667 -17 -82.167 -51 -106.5s-85 -36.5 -153 -36.5c-37.333 0 -72.5 7.5 -105.5 22.5s-58.167 34.5 -75.5 58.5c-2 3.33301 -3 6.33301 -3 9c0 4.66699 2.66699 8.66699 8 12
l57 40c6.66699 4.66699 11.667 4.66699 15 0c20 -20 37.833 -34 53.5 -42s34.834 -12 57.501 -12c22 0 39.5 4.83301 52.5 14.5s19.5 22.5 19.5 38.5c0 17.333 -7.16699 31.333 -21.5 42s-32.5 16.334 -54.5 17.001l-54 1c-8 0 -12 3.33301 -12 10v68
c0 5.33301 4 8.66602 12 9.99902l43 2c22.667 0.666992 40.667 6.33398 54 17.001s20 24 20 40c0 12.667 -5.83301 23.334 -17.5 32.001s-25.834 13 -42.501 13c-18.667 0 -35.5 -3.5 -50.5 -10.5s-31.167 -18.5 -48.5 -34.5c-3.33301 -3.33301 -6 -5 -8 -5
c-0.666992 0 -3 1.33301 -7 4l-53 50c-2 3.33301 -3 5.66602 -3 6.99902zM326.001 6.99902c-3.33301 -4 -7 -6.83203 -11 -8.49902s-9.33301 -2.5 -16 -2.5l-47 1c-6 0 -10.5 1.5 -13.5 4.5s-4.5 6.83301 -4.5 11.5s1.66699 9.66699 5 15l472 710
c3.33301 5.33301 7 8.66602 11 9.99902s9 2 15 2h60c8 0 12 -2.66699 12 -8c0 -2.66699 -1 -6 -3 -10zM813.001 464.5c3.33301 1.66699 8.66895 2.5 16.002 2.5h92c7.33301 0 11 -4 11 -12v-257c0 -4.66699 2.33301 -7 7 -7h49c8 0 12 -4 12 -12v-61
c0 -8.66699 -4.66699 -13 -14 -13h-47c-4.66699 0 -7 -2.66699 -7 -8v-81c0 -6 -1.33301 -10.167 -4 -12.5s-7.33398 -3.5 -14.001 -3.5h-96c-5.33301 0 -9.16602 1 -11.499 3s-3.5 5.66699 -3.5 11v85c0 4 -2.66699 6 -8 6h-184c-4.66699 0 -8.33398 1.16699 -11.001 3.5
s-4 5.5 -4 9.5v59c0 4 1.66699 8.83301 5 14.5s8 12.167 14 19.5l185 242c5.33301 6 9.66602 9.83301 12.999 11.5zM799.004 191c4 0 6 1.33301 6 4v138c0 6 -0.666992 9 -2 9c-2 0 -4.33301 -2.33301 -7 -7l-99 -136c-2 -2 -3 -3.66699 -3 -5c0 -2 2.66699 -3 8 -3h97z" />
    <glyph glyph-name="questiondown" unicode="&#xbf;" horiz-adv-x="539" 
d="M193 503c0 10 2.33105 17 6.99805 21s12.334 6 23.001 6h136c8.66699 0 14.834 -1.83301 18.501 -5.5s5.5 -9.5 5.5 -17.5v-138c0 -13.333 -6 -20 -18 -20h-155c-11.333 0 -17 6.33301 -17 19v135zM537.998 -8c0 -4 -0.332031 -6.99805 -0.999023 -8.99805
c-21.333 -51.333 -54.333 -90.5 -99 -117.5s-99 -40.5 -163 -40.5c-54 0 -100 7.83301 -138 23.5s-66.5 36.5 -85.5 62.5s-28.5 55 -28.5 87c0 25.333 5 47.166 15 65.499s22 33.666 36 45.999s32.667 26.5 56 42.5c30 20.667 52 38.667 66 54s21 34.666 21 57.999
c0 6 2.16699 11.167 6.5 15.5s9.5 6.5 15.5 6.5h95c7.33301 0 13 -2.16699 17 -6.5s6 -10.833 6 -19.5c0 -36.667 -8.33301 -66.667 -25 -90s-40.334 -48 -71.001 -74c-21.333 -17.333 -37.166 -32.333 -47.499 -45s-15.5 -27 -15.5 -43c0 -17.333 7.5 -31.833 22.5 -43.5
s33.5 -17.5 55.5 -17.5c23.333 0 45.333 7 66 21s36.667 32.333 48 55c3.33301 8 7.66602 12 12.999 12l10 -2l115 -25c6.66699 -1.33301 10 -6.66602 10 -15.999z" />
    <glyph glyph-name="Agrave" unicode="&#xc0;" horiz-adv-x="785" 
d="M32.5 5c-3 3.33301 -4.5 7.99902 -4.5 13.999c0 4.66699 1 9.33398 3 14.001l246 688c2.66699 8 6 13.5 10 16.5s10 4.5 18 4.5h174c16 0 27.333 -8.33301 34 -25l243 -686c0.666992 -2 1 -5.33301 1 -10c0 -6 -1.16699 -11 -3.5 -15s-5.83301 -6 -10.5 -6h-173
c-10.667 -0 -17.667 5.33301 -21 16l-44 130c-2 4 -3.83301 6.83301 -5.5 8.5s-4.83398 2.5 -9.50098 2.5h-227c-7.33301 0 -12 -3.66699 -14 -11l-47 -132c-3.33301 -9.33301 -10.666 -14 -21.999 -14h-135c-5.33301 0 -9.5 1.66699 -12.5 5zM445 308.999
c6.66699 0 10 3.33301 10 10c0 4 -0.333008 7 -1 9l-72 201c-0.666992 4 -2.66699 6 -6 6c-2.66699 0 -4.66699 -2 -6 -6l-73 -201c-1.33301 -2.66699 -2 -6 -2 -10c0 -6 4 -9 12 -9h138zM276 962.999c3.33301 2 7 2 11 0l237 -100c6.66699 -3.33301 10 -8 10 -14l-2 -8
l-14 -39c-4 -9.33301 -9.33301 -14 -16 -14c-2 0 -5.66699 0.666992 -11 2l-232 59c-12.667 2.66699 -19 9 -19 19c0 4 0.666992 7.33301 2 10l26 74c2 5.33301 4.66699 9 8 11z" />
    <glyph glyph-name="Aacute" unicode="&#xc1;" horiz-adv-x="785" 
d="M32.5 5c-3 3.33301 -4.5 7.99902 -4.5 13.999c0 4.66699 1 9.33398 3 14.001l246 688c2.66699 8 6 13.5 10 16.5s10 4.5 18 4.5h174c16 0 27.333 -8.33301 34 -25l243 -686c0.666992 -2 1 -5.33301 1 -10c0 -6 -1.16699 -11 -3.5 -15s-5.83301 -6 -10.5 -6h-173
c-10.667 -0 -17.667 5.33301 -21 16l-44 130c-2 4 -3.83301 6.83301 -5.5 8.5s-4.83398 2.5 -9.50098 2.5h-227c-7.33301 0 -12 -3.66699 -14 -11l-47 -132c-3.33301 -9.33301 -10.666 -14 -21.999 -14h-135c-5.33301 0 -9.5 1.66699 -12.5 5zM445 308.999
c6.66699 0 10 3.33301 10 10c0 4 -0.333008 7 -1 9l-72 201c-0.666992 4 -2.66699 6 -6 6c-2.66699 0 -4.66699 -2 -6 -6l-73 -201c-1.33301 -2.66699 -2 -6 -2 -10c0 -6 4 -9 12 -9h138zM534 877.999c1.33301 -5.33301 1.99707 -8.66699 1.99707 -10
c0 -10 -6.66699 -16.333 -20 -19l-232 -59c-5.33301 -1.33301 -8.66602 -2 -9.99902 -2c-7.33301 0 -13 4.66699 -17 14l-13 39c-1.33301 2 -2 5 -2 9c0 6 3 10.333 9 13l237 100c1.33301 0.666992 3.33301 1 6 1s5.33398 -1 8.00098 -3s4.33398 -5 5.00098 -9z" />
    <glyph glyph-name="Acircumflex" unicode="&#xc2;" horiz-adv-x="785" 
d="M32.5 5c-3 3.33301 -4.5 7.99902 -4.5 13.999c0 4.66699 1 9.33398 3 14.001l246 688c2.66699 8 6 13.5 10 16.5s10 4.5 18 4.5h174c16 0 27.333 -8.33301 34 -25l243 -686c0.666992 -2 1 -5.33301 1 -10c0 -6 -1.16699 -11 -3.5 -15s-5.83301 -6 -10.5 -6h-173
c-10.667 -0 -17.667 5.33301 -21 16l-44 130c-2 4 -3.83301 6.83301 -5.5 8.5s-4.83398 2.5 -9.50098 2.5h-227c-7.33301 0 -12 -3.66699 -14 -11l-47 -132c-3.33301 -9.33301 -10.666 -14 -21.999 -14h-135c-5.33301 0 -9.5 1.66699 -12.5 5zM445 308.999
c6.66699 0 10 3.33301 10 10c0 4 -0.333008 7 -1 9l-72 201c-0.666992 4 -2.66699 6 -6 6c-2.66699 0 -4.66699 -2 -6 -6l-73 -201c-1.33301 -2.66699 -2 -6 -2 -10c0 -6 4 -9 12 -9h138zM404 875.999c-3.33301 4 -6.33594 7.33301 -9.00293 10s-5 4 -7 4
c-3.33301 0 -8.66602 -4.66699 -15.999 -14l-49 -54c-3.33301 -4 -6.33301 -6.33301 -9 -7s-7.66699 -1 -15 -1h-91c-6 0 -9 1.66699 -9 5c0 2 2.33301 6 7 12l110 118c4 5.33301 8.5 9 13.5 11s11.833 3 20.5 3h85c10.667 0 19.334 -4 26.001 -12l109 -120
c5.33301 -6.66699 8 -11 8 -13c0 -2.66699 -3 -4 -9 -4h-97c-6.66699 0 -11.667 0.5 -15 1.5s-6.66602 3.16699 -9.99902 6.5z" />
    <glyph glyph-name="Atilde" unicode="&#xc3;" horiz-adv-x="785" 
d="M32.5 5c-3 3.33301 -4.5 7.99902 -4.5 13.999c0 4.66699 1 9.33398 3 14.001l246 688c2.66699 8 6 13.5 10 16.5s10 4.5 18 4.5h174c16 0 27.333 -8.33301 34 -25l243 -686c0.666992 -2 1 -5.33301 1 -10c0 -6 -1.16699 -11 -3.5 -15s-5.83301 -6 -10.5 -6h-173
c-10.667 -0 -17.667 5.33301 -21 16l-44 130c-2 4 -3.83301 6.83301 -5.5 8.5s-4.83398 2.5 -9.50098 2.5h-227c-7.33301 0 -12 -3.66699 -14 -11l-47 -132c-3.33301 -9.33301 -10.666 -14 -21.999 -14h-135c-5.33301 0 -9.5 1.66699 -12.5 5zM445 308.999
c6.66699 0 10 3.33301 10 10c0 4 -0.333008 7 -1 9l-72 201c-0.666992 4 -2.66699 6 -6 6c-2.66699 0 -4.66699 -2 -6 -6l-73 -201c-1.33301 -2.66699 -2 -6 -2 -10c0 -6 4 -9 12 -9h138zM523 837.999c-16.667 -5.33301 -34.665 -7.99902 -53.998 -7.99902
c-12.667 0 -26 1.5 -40 4.5s-27.333 6.5 -40 10.5c-30 10 -55 15 -75 15c-13.333 0 -25 -1.83301 -35 -5.5s-21.333 -9.83398 -34 -18.501c-4.66699 -3.33301 -8.33398 -5 -11.001 -5c-4.66699 0 -8 4 -10 12l-16 49c-1.33301 5.33301 -2 8.66602 -2 9.99902
c0 5.33301 3 11.333 9 18c15.333 12.667 29.833 22.334 43.5 29.001s30.5 10 50.5 10c22.667 0 52.667 -6 90 -18c31.333 -10 54.666 -15 69.999 -15c22.667 0 47 8.66699 73 26c3.33301 2.66699 7 4 11 4c5.33301 0 9 -4 11 -12l14 -59l1 -6
c0 -7.33301 -4.66699 -14.333 -14 -21c-11.333 -8 -25.333 -14.667 -42 -20z" />
    <glyph glyph-name="Adieresis" unicode="&#xc4;" horiz-adv-x="785" 
d="M32.5 5c-3 3.33301 -4.5 7.99902 -4.5 13.999c0 4.66699 1 9.33398 3 14.001l246 688c2.66699 8 6 13.5 10 16.5s10 4.5 18 4.5h174c16 0 27.333 -8.33301 34 -25l243 -686c0.666992 -2 1 -5.33301 1 -10c0 -6 -1.16699 -11 -3.5 -15s-5.83301 -6 -10.5 -6h-173
c-10.667 -0 -17.667 5.33301 -21 16l-44 130c-2 4 -3.83301 6.83301 -5.5 8.5s-4.83398 2.5 -9.50098 2.5h-227c-7.33301 0 -12 -3.66699 -14 -11l-47 -132c-3.33301 -9.33301 -10.666 -14 -21.999 -14h-135c-5.33301 0 -9.5 1.66699 -12.5 5zM445 308.999
c6.66699 0 10 3.33301 10 10c0 4 -0.333008 7 -1 9l-72 201c-0.666992 4 -2.66699 6 -6 6c-2.66699 0 -4.66699 -2 -6 -6l-73 -201c-1.33301 -2.66699 -2 -6 -2 -10c0 -6 4 -9 12 -9h138zM354 839.999c0 -15.333 -8.66699 -22.999 -26 -22.999h-108
c-7.33301 0 -12.5 1.66699 -15.5 5s-4.5 8.66602 -4.5 15.999v97c0 12.667 5 19 15 19h124c10 0 15 -5.66699 15 -17v-97zM577 840c0 -8 -2.16797 -13.832 -6.50098 -17.499s-11.166 -5.5 -20.499 -5.5h-107c-8 0 -13.5 1.66699 -16.5 5s-4.5 8.66602 -4.5 15.999v97
c0 12.667 5 19 15 19h125c10 0 15 -5.66699 15 -17v-97z" />
    <glyph glyph-name="Aring" unicode="&#xc5;" horiz-adv-x="785" 
d="M757 21c0 -6 -1.16602 -11.0039 -3.49902 -15.0039s-5.83301 -6 -10.5 -6h-173c-10.667 0 -17.667 5.33301 -21 16l-44 130c-2 4 -3.83301 6.83301 -5.5 8.5s-4.83398 2.5 -9.50098 2.5h-227c-7.33301 0 -12 -3.66699 -14 -11l-47 -132
c-3.33301 -9.33301 -10.666 -14 -21.999 -14h-135c-5.33301 0 -9.5 1.66699 -12.5 5s-4.5 8 -4.5 14c0 4.66699 1 9.33398 3 14.001l246 688c2.66699 8 6 13.5 10 16.5s10 4.5 18 4.5h34c-20 9.33301 -36 23.5 -48 42.5s-18 40.167 -18 63.5
c0 30.667 11.333 56.834 34 78.501s49.667 32.5 81 32.5s58.166 -11 80.499 -33s33.5 -48.667 33.5 -80c0 -23.333 -5.83301 -44.166 -17.5 -62.499s-27.5 -32.166 -47.5 -41.499h42c16 0 27.333 -8.33301 34 -25l243 -686c0.666992 -2 1 -5.33301 1 -10zM351.001 879.996
c-10 -9.33301 -14.999 -21 -14.999 -35c0 -13.333 5.16699 -25 15.5 -35s22.166 -15 35.499 -15s24.833 5 34.5 15s14.5 21.667 14.5 35c0 14 -4.83301 25.667 -14.5 35s-21.167 14 -34.5 14c-14 0 -26 -4.66699 -36 -14zM455.002 318.996c0 4 -0.333008 7 -1 9l-72 201
c-0.666992 4 -2.66699 6 -6 6c-2.66699 0 -4.66699 -2 -6 -6l-73 -201c-1.33301 -2.66699 -2 -6 -2 -10c0 -6 4 -9 12 -9h138c6.66699 0 10 3.33301 10 10z" />
    <glyph glyph-name="AE" unicode="&#xc6;" horiz-adv-x="1105" 
d="M1064 143c3.33301 -2.66699 4.99805 -7 4.99805 -13v-110c0 -13.333 -7.33301 -20 -22 -20h-516c-8.66699 -0 -15 1.83301 -19 5.5s-6 9.5 -6 17.5v121c0 8.66699 -4 13 -12 13h-208c-7.33301 0 -12.666 -3.66699 -15.999 -11l-69 -132
c-4.66699 -9.33301 -12.667 -14 -24 -14h-134c-10 0 -15 5 -15 15c0 5.33301 2 11.333 6 18l362 688c4 8 8.16699 13.5 12.5 16.5s10.5 4.5 18.5 4.5h616c10.667 0 16 -6.33301 16 -19l-1 -104c0 -16 -7.66699 -24 -23 -24h-305c-14.667 0 -22 -6 -22 -18v-113
c0 -6 1.66699 -10.667 5 -14s7.33301 -5 12 -5h192c13.333 0 20 -6 20 -18v-111c0 -4 -1.33301 -7.5 -4 -10.5s-7 -4.5 -13 -4.5h-196c-4.66699 0 -8.5 -1.33301 -11.5 -4s-4.5 -6 -4.5 -10v-127c0 -4.66699 0.833008 -8 2.5 -10s4.83398 -3 9.50098 -3h329
c6.66699 0 11.667 -1.33301 15 -4zM505.998 328l0.000976562 226.999c0 6.66699 -1.16699 11.834 -3.5 15.501s-5.5 5.5 -9.5 5.5c-8.66699 0 -16.334 -6.66699 -23.001 -20l-120 -228c-2.66699 -4.66699 -4 -8.66699 -4 -12c0 -4.66699 3.33301 -7 10 -7h133
c11.333 0 17 6.33301 17 19z" />
    <glyph glyph-name="Ccedilla" unicode="&#xc7;" horiz-adv-x="731" 
d="M697.5 238c2.33301 -2.66699 3.50195 -7.33301 3.50195 -14c0 -4 -0.333008 -7.33301 -1 -10c-5.33301 -24.667 -18.666 -53.167 -39.999 -85.5s-52.333 -61.833 -93 -88.5s-89.667 -42.667 -147 -48l-15 -38l-1 -4c0 -2.66699 2.33301 -4 7 -4
c34.667 -0.666992 60.167 -9.16699 76.5 -25.5s24.5 -35.166 24.5 -56.499c0 -26 -12.333 -46.833 -37 -62.5s-55 -23.5 -91 -23.5c-48.667 0 -88.667 8 -120 24c-6 4.66699 -7.66699 9.66699 -5 15l16 38c2 5.33301 5.66699 7 11 5c28 -15.333 53.333 -23 76 -23
c15.333 0 27.333 2.66699 36 8s13 12.333 13 21c0 13.333 -6.83301 23.333 -20.5 30s-36.5 10.334 -68.5 11.001c-5.33301 0 -8.83301 0.666992 -10.5 2s-1.5 4.33301 0.5 9l32 74c-62 6 -116.167 26 -162.5 60s-82 79.333 -107 136s-37.5 120.334 -37.5 191.001
c0 75.333 14.167 141.166 42.5 197.499s68.5 99.666 120.5 129.999s113.333 45.5 184 45.5c52.667 0 101 -9.66699 145 -29s80 -46.166 108 -80.499s46 -72.833 54 -115.5l2 -17c0 -5.33301 -1 -8.83301 -3 -10.5s-5.66699 -2.83398 -11 -3.50098l-156 -11
c-6 0 -9.83301 1.16699 -11.5 3.5s-3.5 7.16602 -5.5 14.499c-15.333 73.333 -54.333 110 -117 110c-94 0 -141 -79 -141 -237c0 -84 11.667 -144.833 35 -182.5s58.666 -56.5 105.999 -56.5c37.333 0 69.166 9.5 95.499 28.5s48.166 50.167 65.499 93.5c2 5.33301 7 8 15 8
c4 0 7.33301 -0.333008 10 -1l113 -22c4 -1.33301 7.16699 -3.33301 9.5 -6z" />
    <glyph glyph-name="Egrave" unicode="&#xc8;" horiz-adv-x="663" 
d="M78 742l523.001 -0.000976562c10.667 0 16 -6.33301 16 -19v-104c0 -7.33301 -2 -13.166 -6 -17.499s-10 -6.5 -18 -6.5h-309c-14 0 -21 -6 -21 -18v-113c0 -6 1.5 -10.667 4.5 -14s6.83301 -5 11.5 -5h195c12.667 0 19 -6 19 -18v-111c0 -10 -5.33301 -15 -16 -15h-199
c-10 0 -15 -4.66699 -15 -14v-127c0 -4.66699 0.833008 -8 2.5 -10s4.5 -3 8.5 -3h333c6.66699 0 11.667 -1.33301 15 -4s5 -7 5 -13v-110c0 -13.333 -7 -20 -21 -20h-521c-8.66699 -0 -14.834 1.83301 -18.501 5.5s-5.5 9.5 -5.5 17.5v698c0 14 5.66699 21 17 21z
M224.001 962.999c3.33301 2 7 2 11 0l237 -100c6.66699 -3.33301 10 -8 10 -14l-2 -8l-14 -39c-4 -9.33301 -9.33301 -14 -16 -14c-2 0 -5.66699 0.666992 -11 2l-232 59c-12.667 2.66699 -19 9 -19 19c0 4 0.666992 7.33301 2 10l26 74c2 5.33301 4.66699 9 8 11z" />
    <glyph glyph-name="Eacute" unicode="&#xc9;" horiz-adv-x="663" 
d="M78 742l523.001 -0.000976562c10.667 0 16 -6.33301 16 -19v-104c0 -7.33301 -2 -13.166 -6 -17.499s-10 -6.5 -18 -6.5h-309c-14 0 -21 -6 -21 -18v-113c0 -6 1.5 -10.667 4.5 -14s6.83301 -5 11.5 -5h195c12.667 0 19 -6 19 -18v-111c0 -10 -5.33301 -15 -16 -15h-199
c-10 0 -15 -4.66699 -15 -14v-127c0 -4.66699 0.833008 -8 2.5 -10s4.5 -3 8.5 -3h333c6.66699 0 11.667 -1.33301 15 -4s5 -7 5 -13v-110c0 -13.333 -7 -20 -21 -20h-521c-8.66699 -0 -14.834 1.83301 -18.501 5.5s-5.5 9.5 -5.5 17.5v698c0 14 5.66699 21 17 21z
M482.001 877.999c1.33301 -5.33301 1.99707 -8.66699 1.99707 -10c0 -10 -6.66699 -16.333 -20 -19l-232 -59c-5.33301 -1.33301 -8.66602 -2 -9.99902 -2c-7.33301 0 -13 4.66699 -17 14l-13 39c-1.33301 2 -2 5 -2 9c0 6 3 10.333 9 13l237 100
c1.33301 0.666992 3.33301 1 6 1s5.33398 -1 8.00098 -3s4.33398 -5 5.00098 -9z" />
    <glyph glyph-name="Ecircumflex" unicode="&#xca;" horiz-adv-x="663" 
d="M78 742l523.001 -0.000976562c10.667 0 16 -6.33301 16 -19v-104c0 -7.33301 -2 -13.166 -6 -17.499s-10 -6.5 -18 -6.5h-309c-14 0 -21 -6 -21 -18v-113c0 -6 1.5 -10.667 4.5 -14s6.83301 -5 11.5 -5h195c12.667 0 19 -6 19 -18v-111c0 -10 -5.33301 -15 -16 -15h-199
c-10 0 -15 -4.66699 -15 -14v-127c0 -4.66699 0.833008 -8 2.5 -10s4.5 -3 8.5 -3h333c6.66699 0 11.667 -1.33301 15 -4s5 -7 5 -13v-110c0 -13.333 -7 -20 -21 -20h-521c-8.66699 -0 -14.834 1.83301 -18.501 5.5s-5.5 9.5 -5.5 17.5v698c0 14 5.66699 21 17 21z
M352.001 875.999c-3.33301 4 -6.33594 7.33301 -9.00293 10s-5 4 -7 4c-3.33301 0 -8.66602 -4.66699 -15.999 -14l-49 -54c-3.33301 -4 -6.33301 -6.33301 -9 -7s-7.66699 -1 -15 -1h-91c-6 0 -9 1.66699 -9 5c0 2 2.33301 6 7 12l110 118c4 5.33301 8.5 9 13.5 11
s11.833 3 20.5 3h85c10.667 0 19.334 -4 26.001 -12l109 -120c5.33301 -6.66699 8 -11 8 -13c0 -2.66699 -3 -4 -9 -4h-97c-6.66699 0 -11.667 0.5 -15 1.5s-6.66602 3.16699 -9.99902 6.5z" />
    <glyph glyph-name="Edieresis" unicode="&#xcb;" horiz-adv-x="663" 
d="M78 742l523.001 -0.000976562c10.667 0 16 -6.33301 16 -19v-104c0 -7.33301 -2 -13.166 -6 -17.499s-10 -6.5 -18 -6.5h-309c-14 0 -21 -6 -21 -18v-113c0 -6 1.5 -10.667 4.5 -14s6.83301 -5 11.5 -5h195c12.667 0 19 -6 19 -18v-111c0 -10 -5.33301 -15 -16 -15h-199
c-10 0 -15 -4.66699 -15 -14v-127c0 -4.66699 0.833008 -8 2.5 -10s4.5 -3 8.5 -3h333c6.66699 0 11.667 -1.33301 15 -4s5 -7 5 -13v-110c0 -13.333 -7 -20 -21 -20h-521c-8.66699 -0 -14.834 1.83301 -18.501 5.5s-5.5 9.5 -5.5 17.5v698c0 14 5.66699 21 17 21z
M302.001 839.999c0 -15.333 -8.66699 -22.999 -26 -22.999h-108c-7.33301 0 -12.5 1.66699 -15.5 5s-4.5 8.66602 -4.5 15.999v97c0 12.667 5 19 15 19h124c10 0 15 -5.66699 15 -17v-97zM525.001 840c0 -8 -2.16797 -13.832 -6.50098 -17.499s-11.166 -5.5 -20.499 -5.5
h-107c-8 0 -13.5 1.66699 -16.5 5s-4.5 8.66602 -4.5 15.999v97c0 12.667 5 19 15 19h125c10 0 15 -5.66699 15 -17v-97z" />
    <glyph glyph-name="Igrave" unicode="&#xcc;" horiz-adv-x="323" 
d="M246 742c11.333 0 17 -6.33398 17 -19.001v-696c0 -10 -2.33301 -17 -7 -21s-12.334 -6 -23.001 -6h-148c-9.33301 0 -15.666 1.83301 -18.999 5.5s-5 9.5 -5 17.5v698c0 6.66699 1.5 11.834 4.5 15.501s7.16699 5.5 12.5 5.5h168zM49 962.999c3.33301 2 7 2 11 0
l237 -100c6.66699 -3.33301 10 -8 10 -14l-2 -8l-14 -39c-4 -9.33301 -9.33301 -14 -16 -14c-2 0 -5.66699 0.666992 -11 2l-232 59c-12.667 2.66699 -19 9 -19 19c0 4 0.666992 7.33301 2 10l26 74c2 5.33301 4.66699 9 8 11z" />
    <glyph glyph-name="Iacute" unicode="&#xcd;" horiz-adv-x="323" 
d="M246 742c11.333 0 17 -6.33398 17 -19.001v-696c0 -10 -2.33301 -17 -7 -21s-12.334 -6 -23.001 -6h-148c-9.33301 0 -15.666 1.83301 -18.999 5.5s-5 9.5 -5 17.5v698c0 6.66699 1.5 11.834 4.5 15.501s7.16699 5.5 12.5 5.5h168zM307 877.999
c1.33301 -5.33301 1.99707 -8.66699 1.99707 -10c0 -10 -6.66699 -16.333 -20 -19l-232 -59c-5.33301 -1.33301 -8.66602 -2 -9.99902 -2c-7.33301 0 -13 4.66699 -17 14l-13 39c-1.33301 2 -2 5 -2 9c0 6 3 10.333 9 13l237 100c1.33301 0.666992 3.33301 1 6 1
s5.33398 -1 8.00098 -3s4.33398 -5 5.00098 -9z" />
    <glyph glyph-name="Icircumflex" unicode="&#xce;" horiz-adv-x="323" 
d="M246 742c11.333 0 17 -6.33398 17 -19.001v-696c0 -10 -2.33301 -17 -7 -21s-12.334 -6 -23.001 -6h-148c-9.33301 0 -15.666 1.83301 -18.999 5.5s-5 9.5 -5 17.5v698c0 6.66699 1.5 11.834 4.5 15.501s7.16699 5.5 12.5 5.5h168zM177 875.999
c-3.33301 4 -6.33594 7.33301 -9.00293 10s-5 4 -7 4c-3.33301 0 -8.66602 -4.66699 -15.999 -14l-49 -54c-3.33301 -4 -6.33301 -6.33301 -9 -7s-7.66699 -1 -15 -1h-91c-6 0 -9 1.66699 -9 5c0 2 2.33301 6 7 12l110 118c4 5.33301 8.5 9 13.5 11s11.833 3 20.5 3h85
c10.667 0 19.334 -4 26.001 -12l109 -120c5.33301 -6.66699 8 -11 8 -13c0 -2.66699 -3 -4 -9 -4h-97c-6.66699 0 -11.667 0.5 -15 1.5s-6.66602 3.16699 -9.99902 6.5z" />
    <glyph glyph-name="Idieresis" unicode="&#xcf;" horiz-adv-x="323" 
d="M246 742c11.333 0 17 -6.33398 17 -19.001v-696c0 -10 -2.33301 -17 -7 -21s-12.334 -6 -23.001 -6h-148c-9.33301 0 -15.666 1.83301 -18.999 5.5s-5 9.5 -5 17.5v698c0 6.66699 1.5 11.834 4.5 15.501s7.16699 5.5 12.5 5.5h168zM127 839.999
c0 -15.333 -8.66699 -22.999 -26 -22.999h-108c-7.33301 0 -12.5 1.66699 -15.5 5s-4.5 8.66602 -4.5 15.999v97c0 12.667 5 19 15 19h124c10 0 15 -5.66699 15 -17v-97zM350 840c0 -8 -2.16797 -13.832 -6.50098 -17.499s-11.166 -5.5 -20.499 -5.5h-107
c-8 0 -13.5 1.66699 -16.5 5s-4.5 8.66602 -4.5 15.999v97c0 12.667 5 19 15 19h125c10 0 15 -5.66699 15 -17v-97z" />
    <glyph glyph-name="Eth" unicode="&#xd0;" horiz-adv-x="779" 
d="M642.5 637.5c65.667 -64.333 98.501 -152.5 98.501 -264.5c0 -74.667 -14.833 -140 -44.5 -196s-74.167 -99.5 -133.5 -130.5s-132 -46.5 -218 -46.5h-241c-9.33301 0 -16 2 -20 6s-6 11 -6 21v274h-29c-8.66699 0 -14.667 1.83301 -18 5.5s-5 9.5 -5 17.5v84
c0 14 5.66699 21 17 21h35v290c0 8.66699 1.66699 14.667 5 18s9.66602 5 18.999 5h107c72.667 0 118.667 -0.333008 138 -1c131.333 -4.66699 229.833 -39.167 295.5 -103.5zM473.501 195.5c37 36.333 55.5 96.165 55.5 179.498c0 74.667 -14.833 129.334 -44.5 164.001
s-74.5 54.334 -134.5 59.001l-61 3c-6 0 -9 -4.66699 -9 -14v-158h123c4.66699 0 8.66699 -1.83301 12 -5.5s5 -8.16699 5 -13.5v-83c0 -17.333 -10.333 -26 -31 -26h-109v-146c0 -5.33301 0.833008 -9 2.5 -11s5.16699 -3 10.5 -3h13c74.667 0 130.5 18.167 167.5 54.5z
" />
    <glyph glyph-name="Ntilde" unicode="&#xd1;" horiz-adv-x="760" 
d="M685 742c10 0 15.001 -5.33203 15.001 -15.999v-709c0 -5.33301 -2 -9.5 -6 -12.5s-9 -4.5 -15 -4.5h-121c-5.33301 0 -9.83301 0.833008 -13.5 2.5s-7.83398 5.5 -12.501 11.5l-296 408c-2.66699 4 -5 5.83301 -7 5.5s-3 -2.5 -3 -6.5v-401v-3
c0 -6 -1.66699 -10.333 -5 -13s-9 -4 -17 -4h-121c-14.667 0 -22 6.33301 -22 19v702c0 7.33301 1.5 12.666 4.5 15.999s8.16699 5 15.5 5h143c8 0 13.833 -1 17.5 -3s8.16699 -6.33301 13.5 -13l266 -375c4 -5.33301 7.66699 -8 11 -8s5 4 5 12v368
c0 12.667 6.66699 19 20 19h128zM517.001 838.001c-16.667 -5.33301 -34.665 -7.99902 -53.998 -7.99902c-12.667 0 -26 1.5 -40 4.5s-27.333 6.5 -40 10.5c-30 10 -55 15 -75 15c-13.333 0 -25 -1.83301 -35 -5.5s-21.333 -9.83398 -34 -18.501
c-4.66699 -3.33301 -8.33398 -5 -11.001 -5c-4.66699 0 -8 4 -10 12l-16 49c-1.33301 5.33301 -2 8.66602 -2 9.99902c0 5.33301 3 11.333 9 18c15.333 12.667 29.833 22.334 43.5 29.001s30.5 10 50.5 10c22.667 0 52.667 -6 90 -18c31.333 -10 54.666 -15 69.999 -15
c22.667 0 47 8.66699 73 26c3.33301 2.66699 7 4 11 4c5.33301 0 9 -4 11 -12l14 -59l1 -6c0 -7.33301 -4.66699 -14.333 -14 -21c-11.333 -8 -25.333 -14.667 -42 -20z" />
    <glyph glyph-name="Ograve" unicode="&#xd2;" horiz-adv-x="777" 
d="M202.5 36c-53 30.667 -93.833 74.5 -122.5 131.5s-43 124.167 -43 201.5s14.5 144.833 43.5 202.5s70 102.167 123 133.5s114.833 47 185.5 47c70 0 131.5 -15.667 184.5 -47s94 -75.833 123 -133.5s43.5 -125.167 43.5 -202.5c0 -76.667 -14.333 -143.5 -43 -200.5
s-69.5 -101 -122.5 -132s-114.833 -46.5 -185.5 -46.5c-71.333 0 -133.5 15.333 -186.5 46zM495.5 185c21.667 36.667 32.499 97 32.499 181c0 86.667 -11.167 149.5 -33.5 188.5s-57.5 58.5 -105.5 58.5c-48.667 0 -84.167 -19.5 -106.5 -58.5s-33.5 -101.833 -33.5 -188.5
c0 -84 11 -144.333 33 -181s58 -55 108 -55c48.667 0 83.834 18.333 105.501 55zM275.999 963c3.33301 2 7 2 11 0l237 -100c6.66699 -3.33301 10 -8 10 -14l-2 -8l-14 -39c-4 -9.33301 -9.33301 -14 -16 -14c-2 0 -5.66699 0.666992 -11 2l-232 59
c-12.667 2.66699 -19 9 -19 19c0 4 0.666992 7.33301 2 10l26 74c2 5.33301 4.66699 9 8 11z" />
    <glyph glyph-name="Oacute" unicode="&#xd3;" horiz-adv-x="777" 
d="M202.5 36c-53 30.667 -93.833 74.5 -122.5 131.5s-43 124.167 -43 201.5s14.5 144.833 43.5 202.5s70 102.167 123 133.5s114.833 47 185.5 47c70 0 131.5 -15.667 184.5 -47s94 -75.833 123 -133.5s43.5 -125.167 43.5 -202.5c0 -76.667 -14.333 -143.5 -43 -200.5
s-69.5 -101 -122.5 -132s-114.833 -46.5 -185.5 -46.5c-71.333 0 -133.5 15.333 -186.5 46zM495.5 185c21.667 36.667 32.499 97 32.499 181c0 86.667 -11.167 149.5 -33.5 188.5s-57.5 58.5 -105.5 58.5c-48.667 0 -84.167 -19.5 -106.5 -58.5s-33.5 -101.833 -33.5 -188.5
c0 -84 11 -144.333 33 -181s58 -55 108 -55c48.667 0 83.834 18.333 105.501 55zM533.999 878c1.33301 -5.33301 1.99707 -8.66699 1.99707 -10c0 -10 -6.66699 -16.333 -20 -19l-232 -59c-5.33301 -1.33301 -8.66602 -2 -9.99902 -2c-7.33301 0 -13 4.66699 -17 14l-13 39
c-1.33301 2 -2 5 -2 9c0 6 3 10.333 9 13l237 100c1.33301 0.666992 3.33301 1 6 1s5.33398 -1 8.00098 -3s4.33398 -5 5.00098 -9z" />
    <glyph glyph-name="Ocircumflex" unicode="&#xd4;" horiz-adv-x="777" 
d="M202.5 36c-53 30.667 -93.833 74.5 -122.5 131.5s-43 124.167 -43 201.5s14.5 144.833 43.5 202.5s70 102.167 123 133.5s114.833 47 185.5 47c70 0 131.5 -15.667 184.5 -47s94 -75.833 123 -133.5s43.5 -125.167 43.5 -202.5c0 -76.667 -14.333 -143.5 -43 -200.5
s-69.5 -101 -122.5 -132s-114.833 -46.5 -185.5 -46.5c-71.333 0 -133.5 15.333 -186.5 46zM495.5 185c21.667 36.667 32.499 97 32.499 181c0 86.667 -11.167 149.5 -33.5 188.5s-57.5 58.5 -105.5 58.5c-48.667 0 -84.167 -19.5 -106.5 -58.5s-33.5 -101.833 -33.5 -188.5
c0 -84 11 -144.333 33 -181s58 -55 108 -55c48.667 0 83.834 18.333 105.501 55zM403.999 876c-3.33301 4 -6.33594 7.33301 -9.00293 10s-5 4 -7 4c-3.33301 0 -8.66602 -4.66699 -15.999 -14l-49 -54c-3.33301 -4 -6.33301 -6.33301 -9 -7s-7.66699 -1 -15 -1h-91
c-6 0 -9 1.66699 -9 5c0 2 2.33301 6 7 12l110 118c4 5.33301 8.5 9 13.5 11s11.833 3 20.5 3h85c10.667 0 19.334 -4 26.001 -12l109 -120c5.33301 -6.66699 8 -11 8 -13c0 -2.66699 -3 -4 -9 -4h-97c-6.66699 0 -11.667 0.5 -15 1.5s-6.66602 3.16699 -9.99902 6.5z" />
    <glyph glyph-name="Otilde" unicode="&#xd5;" horiz-adv-x="777" 
d="M202.5 36c-53 30.667 -93.833 74.5 -122.5 131.5s-43 124.167 -43 201.5s14.5 144.833 43.5 202.5s70 102.167 123 133.5s114.833 47 185.5 47c70 0 131.5 -15.667 184.5 -47s94 -75.833 123 -133.5s43.5 -125.167 43.5 -202.5c0 -76.667 -14.333 -143.5 -43 -200.5
s-69.5 -101 -122.5 -132s-114.833 -46.5 -185.5 -46.5c-71.333 0 -133.5 15.333 -186.5 46zM495.5 185c21.667 36.667 32.499 97 32.499 181c0 86.667 -11.167 149.5 -33.5 188.5s-57.5 58.5 -105.5 58.5c-48.667 0 -84.167 -19.5 -106.5 -58.5s-33.5 -101.833 -33.5 -188.5
c0 -84 11 -144.333 33 -181s58 -55 108 -55c48.667 0 83.834 18.333 105.501 55zM522.999 838c-16.667 -5.33301 -34.665 -7.99902 -53.998 -7.99902c-12.667 0 -26 1.5 -40 4.5s-27.333 6.5 -40 10.5c-30 10 -55 15 -75 15c-13.333 0 -25 -1.83301 -35 -5.5
s-21.333 -9.83398 -34 -18.501c-4.66699 -3.33301 -8.33398 -5 -11.001 -5c-4.66699 0 -8 4 -10 12l-16 49c-1.33301 5.33301 -2 8.66602 -2 9.99902c0 5.33301 3 11.333 9 18c15.333 12.667 29.833 22.334 43.5 29.001s30.5 10 50.5 10c22.667 0 52.667 -6 90 -18
c31.333 -10 54.666 -15 69.999 -15c22.667 0 47 8.66699 73 26c3.33301 2.66699 7 4 11 4c5.33301 0 9 -4 11 -12l14 -59l1 -6c0 -7.33301 -4.66699 -14.333 -14 -21c-11.333 -8 -25.333 -14.667 -42 -20z" />
    <glyph glyph-name="Odieresis" unicode="&#xd6;" horiz-adv-x="777" 
d="M202.5 36c-53 30.667 -93.833 74.5 -122.5 131.5s-43 124.167 -43 201.5s14.5 144.833 43.5 202.5s70 102.167 123 133.5s114.833 47 185.5 47c70 0 131.5 -15.667 184.5 -47s94 -75.833 123 -133.5s43.5 -125.167 43.5 -202.5c0 -76.667 -14.333 -143.5 -43 -200.5
s-69.5 -101 -122.5 -132s-114.833 -46.5 -185.5 -46.5c-71.333 0 -133.5 15.333 -186.5 46zM495.5 185c21.667 36.667 32.499 97 32.499 181c0 86.667 -11.167 149.5 -33.5 188.5s-57.5 58.5 -105.5 58.5c-48.667 0 -84.167 -19.5 -106.5 -58.5s-33.5 -101.833 -33.5 -188.5
c0 -84 11 -144.333 33 -181s58 -55 108 -55c48.667 0 83.834 18.333 105.501 55zM353.999 840c0 -15.333 -8.66699 -22.999 -26 -22.999h-108c-7.33301 0 -12.5 1.66699 -15.5 5s-4.5 8.66602 -4.5 15.999v97c0 12.667 5 19 15 19h124c10 0 15 -5.66699 15 -17v-97z
M576.999 840.001c0 -8 -2.16797 -13.832 -6.50098 -17.499s-11.166 -5.5 -20.499 -5.5h-107c-8 0 -13.5 1.66699 -16.5 5s-4.5 8.66602 -4.5 15.999v97c0 12.667 5 19 15 19h125c10 0 15 -5.66699 15 -17v-97z" />
    <glyph glyph-name="multiply" unicode="&#xd7;" horiz-adv-x="589" 
d="M530 228c3.33301 -3.33301 5.00195 -7.33301 5.00195 -12c0 -4 -2 -8 -6 -12l-60 -59c-6 -6 -11.667 -9 -17 -9c-6.66699 0 -13.667 4 -21 12l-136 136l-145 -145c-2.66699 -4 -6.33398 -6 -11.001 -6s-9 2 -13 6l-59 60c-6 6 -9 11.667 -9 17c0 6.66699 4 14 12 22
l135 135l-141 141c-6 6 -9 11.333 -9 16s3 10 9 16l59 59c5.33301 5.33301 10.666 8 15.999 8c4 0 7.66699 -1.66699 11 -5l145 -145l141 141c6 6 11.667 9 17 9c4.66699 0 9.66699 -2.66699 15 -8l60 -60c4.66699 -4.66699 7 -9.66699 7 -15
c0 -4.66699 -1.66699 -8.66699 -5 -12l-145 -145z" />
    <glyph glyph-name="Oslash" unicode="&#xd8;" horiz-adv-x="775" 
d="M769 679c0 -4 -1.99805 -8 -5.99805 -12l-77 -77c35.333 -62.667 53 -136.334 53 -221.001c0 -76.667 -14.333 -143.5 -43 -200.5s-69.334 -101 -122.001 -132s-114.334 -46.5 -185.001 -46.5c-91.333 0 -167.666 25 -228.999 75l-59 -59
c-7.33301 -7.33301 -14 -11 -20 -11c-6.66699 0 -13.334 3.33301 -20.001 10l-36 37c-7.33301 8.66699 -11 15.334 -11 20.001c0 3.33301 2.33301 8 7 14l70 70c-36 62 -54 136.333 -54 223c0 77.333 14.5 144.833 43.5 202.5s70 102.167 123 133.5s114.833 47 185.5 47
c90.667 0 167 -26.667 229 -80l67 66c6 6 12 9 18 9c4 0 7.33301 -1.33301 10 -4l50 -51c4 -4 6 -8.33301 6 -13zM255.002 306l239.999 245c-21.333 41.333 -56.666 62 -105.999 62s-85 -19.5 -107 -58.5s-33 -101.833 -33 -188.5c0 -22 2 -42 6 -60zM521.001 428
l-239 -243.001c21.333 -36.667 57 -55 107 -55c49.333 0 84.5 18.167 105.5 54.5s31.5 96.833 31.5 181.5c0 26.667 -1.66699 47.334 -5 62.001z" />
    <glyph glyph-name="Ugrave" unicode="&#xd9;" horiz-adv-x="724" 
d="M592 58c-53.333 -45.333 -130 -68.002 -230 -68.002c-111.333 0 -190.833 25.833 -238.5 77.5s-71.5 130.5 -71.5 236.5v417c0 14 6 21 18 21h167c11.333 0 17 -6.33301 17 -19v-443c0 -51.333 10.5 -88.666 31.5 -111.999s51.5 -35 91.5 -35c85.333 0 128 50 128 150
v438c0 14 6 21 18 21h133c10.667 0 16 -6.33301 16 -19v-439c0 -105.333 -26.667 -180.666 -80 -225.999zM264 962.998c3.33301 2 7 2 11 0l237 -100c6.66699 -3.33301 10 -8 10 -14l-2 -8l-14 -39c-4 -9.33301 -9.33301 -14 -16 -14c-2 0 -5.66699 0.666992 -11 2l-232 59
c-12.667 2.66699 -19 9 -19 19c0 4 0.666992 7.33301 2 10l26 74c2 5.33301 4.66699 9 8 11z" />
    <glyph glyph-name="Uacute" unicode="&#xda;" horiz-adv-x="724" 
d="M592 58c-53.333 -45.333 -130 -68.002 -230 -68.002c-111.333 0 -190.833 25.833 -238.5 77.5s-71.5 130.5 -71.5 236.5v417c0 14 6 21 18 21h167c11.333 0 17 -6.33301 17 -19v-443c0 -51.333 10.5 -88.666 31.5 -111.999s51.5 -35 91.5 -35c85.333 0 128 50 128 150
v438c0 14 6 21 18 21h133c10.667 0 16 -6.33301 16 -19v-439c0 -105.333 -26.667 -180.666 -80 -225.999zM522 877.998c1.33301 -5.33301 1.99707 -8.66699 1.99707 -10c0 -10 -6.66699 -16.333 -20 -19l-232 -59c-5.33301 -1.33301 -8.66602 -2 -9.99902 -2
c-7.33301 0 -13 4.66699 -17 14l-13 39c-1.33301 2 -2 5 -2 9c0 6 3 10.333 9 13l237 100c1.33301 0.666992 3.33301 1 6 1s5.33398 -1 8.00098 -3s4.33398 -5 5.00098 -9z" />
    <glyph glyph-name="Ucircumflex" unicode="&#xdb;" horiz-adv-x="724" 
d="M592 58c-53.333 -45.333 -130 -68.002 -230 -68.002c-111.333 0 -190.833 25.833 -238.5 77.5s-71.5 130.5 -71.5 236.5v417c0 14 6 21 18 21h167c11.333 0 17 -6.33301 17 -19v-443c0 -51.333 10.5 -88.666 31.5 -111.999s51.5 -35 91.5 -35c85.333 0 128 50 128 150
v438c0 14 6 21 18 21h133c10.667 0 16 -6.33301 16 -19v-439c0 -105.333 -26.667 -180.666 -80 -225.999zM392 875.998c-3.33301 4 -6.33594 7.33301 -9.00293 10s-5 4 -7 4c-3.33301 0 -8.66602 -4.66699 -15.999 -14l-49 -54c-3.33301 -4 -6.33301 -6.33301 -9 -7
s-7.66699 -1 -15 -1h-91c-6 0 -9 1.66699 -9 5c0 2 2.33301 6 7 12l110 118c4 5.33301 8.5 9 13.5 11s11.833 3 20.5 3h85c10.667 0 19.334 -4 26.001 -12l109 -120c5.33301 -6.66699 8 -11 8 -13c0 -2.66699 -3 -4 -9 -4h-97c-6.66699 0 -11.667 0.5 -15 1.5
s-6.66602 3.16699 -9.99902 6.5z" />
    <glyph glyph-name="Udieresis" unicode="&#xdc;" horiz-adv-x="724" 
d="M592 58c-53.333 -45.333 -130 -68.002 -230 -68.002c-111.333 0 -190.833 25.833 -238.5 77.5s-71.5 130.5 -71.5 236.5v417c0 14 6 21 18 21h167c11.333 0 17 -6.33301 17 -19v-443c0 -51.333 10.5 -88.666 31.5 -111.999s51.5 -35 91.5 -35c85.333 0 128 50 128 150
v438c0 14 6 21 18 21h133c10.667 0 16 -6.33301 16 -19v-439c0 -105.333 -26.667 -180.666 -80 -225.999zM342 839.998c0 -15.333 -8.66699 -22.999 -26 -22.999h-108c-7.33301 0 -12.5 1.66699 -15.5 5s-4.5 8.66602 -4.5 15.999v97c0 12.667 5 19 15 19h124
c10 0 15 -5.66699 15 -17v-97zM565 839.999c0 -8 -2.16797 -13.832 -6.50098 -17.499s-11.166 -5.5 -20.499 -5.5h-107c-8 0 -13.5 1.66699 -16.5 5s-4.5 8.66602 -4.5 15.999v97c0 12.667 5 19 15 19h125c10 0 15 -5.66699 15 -17v-97z" />
    <glyph glyph-name="Yacute" unicode="&#xdd;" horiz-adv-x="755" 
d="M729 731c0 -3.33301 -1.33008 -6.66699 -3.99707 -10l-235 -382c-4 -6.66699 -6.5 -13.5 -7.5 -20.5s-1.5 -20.167 -1.5 -39.5v-252c0 -10 -2.33301 -17 -7 -21s-12.334 -6 -23.001 -6h-148c-8.66699 -0 -14.834 1.83301 -18.501 5.5s-5.5 9.5 -5.5 17.5v266
c0 8.66699 -1 15.667 -3 21s-5.33301 12 -10 20l-235 386c-2.66699 4.66699 -4 8.66699 -4 12c0 9.33301 7 14 21 14h176c8.66699 0 15 -1.16699 19 -3.5s8.33301 -7.5 13 -15.5l135 -241c3.33301 -6.66699 6.33301 -10 9 -10c2 0 5 3 9 9l133 242
c3.33301 7.33301 7.16602 12.333 11.499 15s10.833 4 19.5 4h139c11.333 0 17 -3.66699 17 -11zM536.003 877.999c1.33301 -5.33301 1.99707 -8.66699 1.99707 -10c0 -10 -6.66699 -16.333 -20 -19l-232 -59c-5.33301 -1.33301 -8.66602 -2 -9.99902 -2
c-7.33301 0 -13 4.66699 -17 14l-13 39c-1.33301 2 -2 5 -2 9c0 6 3 10.333 9 13l237 100c1.33301 0.666992 3.33301 1 6 1s5.33398 -1 8.00098 -3s4.33398 -5 5.00098 -9z" />
    <glyph glyph-name="Thorn" unicode="&#xde;" horiz-adv-x="734" 
d="M667.5 252c-23 -34 -54.999 -59.835 -95.999 -77.502s-88.5 -26.5 -142.5 -26.5h-155c-7.33301 0 -11 -3.66699 -11 -11v-111c0 -9.33301 -2.33301 -16 -7 -20s-12.334 -6 -23.001 -6h-149c-8.66699 0 -14.667 1.83301 -18 5.5s-5 9.5 -5 17.5v698
c0 6.66699 1.5 11.834 4.5 15.501s7.16699 5.5 12.5 5.5h168c11.333 0 17 -6.33301 17 -19v-108c0 -7.33301 3 -11 9 -11h133c56 0 106.333 -8.66699 151 -26s80.167 -43.166 106.5 -77.499s39.5 -76.5 39.5 -126.5c0 -47.333 -11.5 -88 -34.5 -122zM466.501 438.498
c-19 15 -43.499 22.5 -73.499 22.5h-109c-8 0 -13.5 -1.5 -16.5 -4.5s-4.5 -8.16699 -4.5 -15.5v-130c0 -7.33301 1 -12.5 3 -15.5s6 -4.5 12 -4.5h121c29.333 0 52.666 7.83301 69.999 23.5s26 36.5 26 62.5s-9.5 46.5 -28.5 61.5z" />
    <glyph glyph-name="germandbls" unicode="&#xdf;" horiz-adv-x="663" 
d="M507.5 701c39 -27.333 58.501 -66.0039 58.501 -116.004c0 -35.333 -10.833 -64.5 -32.5 -87.5s-57.167 -44.833 -106.5 -65.5c-6 -2.66699 -10.167 -5.16699 -12.5 -7.5s-3.5 -5.5 -3.5 -9.5c0 -3.33301 1.16699 -6.16602 3.5 -8.49902s6.83301 -4.5 13.5 -6.5
c48 -20.667 85.667 -39.167 113 -55.5s50.666 -38.166 69.999 -65.499s29 -61.666 29 -102.999c0 -60 -20.167 -106 -60.5 -138s-95.166 -48 -164.499 -48c-49.333 0 -90.333 9 -123 27c-4 2.66699 -6.5 5.83398 -7.5 9.50098s-0.833008 7.16699 0.5 10.5l38 80
c3.33301 5.33301 7 8 11 8c2.66699 0 5.33398 -1 8.00098 -3c11.333 -6.66699 22.166 -11.834 32.499 -15.501s22.166 -5.5 35.499 -5.5c20.667 0 37.667 4.83301 51 14.5s20 23.834 20 42.501c0 16.667 -6.16699 29.667 -18.5 39s-35.166 20.666 -68.499 33.999
c-34 15.333 -60.833 34.166 -80.5 56.499s-29.5 50.5 -29.5 84.5c0 24.667 5.16699 45.834 15.5 63.501s24.833 34.5 43.5 50.5l15 14c16 14.667 27.833 27.167 35.5 37.5s11.5 22.5 11.5 36.5c0 16 -6.16699 29.167 -18.5 39.5s-29.5 15.5 -51.5 15.5
c-28.667 0 -50.834 -8.66699 -66.501 -26s-23.5 -40 -23.5 -68v-515c0.666992 -2 1 -4.33301 1 -7c0 -8.66699 -5 -13 -15 -13h-144c-10.667 0 -16 6 -16 18v351c0 6.66699 -2.66699 10 -8 10h-31c-13.333 0 -20 6 -20 18v84c0 13.333 7 20 21 20h25
c5.33301 0 8.83301 1.33301 10.5 4s2.5 6.66699 2.5 12c2 64.667 24.5 118.334 67.5 161.001s110.833 64 203.5 64c71.333 0 126.5 -13.667 165.5 -41z" />
    <glyph glyph-name="agrave" unicode="&#xe0;" horiz-adv-x="568" 
d="M184 -10c-49.333 0 -88.668 13.667 -118.001 41s-44 62.333 -44 105c0 38 12 71.5 36 100.5s58.5 51.5 103.5 67.5s98.167 24.333 159.5 25l20 1c10.667 0 16 4.66699 16 14v19c0 22 -6.16699 39 -18.5 51s-30.166 18 -53.499 18
c-18.667 0 -35.834 -4.16699 -51.501 -12.5s-28.5 -21.833 -38.5 -40.5c-2 -4 -4 -6.83301 -6 -8.5s-5 -2.5 -9 -2.5s-7.33301 0.333008 -10 1l-116 24c-6.66699 1.33301 -10 5.33301 -10 12c0 4 1.33301 9.66699 4 17c30.667 78.667 112.334 118 245.001 118
c83.333 0 143 -14.5 179 -43.5s54 -69.833 54 -122.5v-349c0 -10 -1.33301 -16.667 -4 -20s-8.33398 -5 -17.001 -5h-121c-7.33301 0 -12.666 2.66699 -15.999 8s-6 13 -8 23l-1 15c-0.666992 6 -3 9 -7 9s-9.66699 -3 -17 -9c-44 -37.333 -94.333 -56 -151 -56z
M353.498 243c-2.33301 2.66699 -6.16797 4 -11.501 4l-16 -1c-18 -0.666992 -37.167 -4.16699 -57.5 -10.5s-37.666 -16 -51.999 -29s-21.5 -28.5 -21.5 -46.5c0 -17.333 6.16699 -31 18.5 -41s28.833 -15 49.5 -15c24.667 0 46.667 7.66699 66 23
c18.667 16 28 30.667 28 44v59c0 6 -1.16699 10.333 -3.5 13zM179.996 751c3.33301 2 7 2 11 0l237 -100c6.66699 -3.33301 10 -8 10 -14l-2 -8l-14 -39c-4 -9.33301 -9.33301 -14 -16 -14c-2 0 -5.66699 0.666992 -11 2l-232 59c-12.667 2.66699 -19 9 -19 19
c0 4 0.666992 7.33301 2 10l26 74c2 5.33301 4.66699 9 8 11z" />
    <glyph glyph-name="aacute" unicode="&#xe1;" horiz-adv-x="568" 
d="M184 -10c-49.333 0 -88.668 13.667 -118.001 41s-44 62.333 -44 105c0 38 12 71.5 36 100.5s58.5 51.5 103.5 67.5s98.167 24.333 159.5 25l20 1c10.667 0 16 4.66699 16 14v19c0 22 -6.16699 39 -18.5 51s-30.166 18 -53.499 18
c-18.667 0 -35.834 -4.16699 -51.501 -12.5s-28.5 -21.833 -38.5 -40.5c-2 -4 -4 -6.83301 -6 -8.5s-5 -2.5 -9 -2.5s-7.33301 0.333008 -10 1l-116 24c-6.66699 1.33301 -10 5.33301 -10 12c0 4 1.33301 9.66699 4 17c30.667 78.667 112.334 118 245.001 118
c83.333 0 143 -14.5 179 -43.5s54 -69.833 54 -122.5v-349c0 -10 -1.33301 -16.667 -4 -20s-8.33398 -5 -17.001 -5h-121c-7.33301 0 -12.666 2.66699 -15.999 8s-6 13 -8 23l-1 15c-0.666992 6 -3 9 -7 9s-9.66699 -3 -17 -9c-44 -37.333 -94.333 -56 -151 -56z
M353.498 243c-2.33301 2.66699 -6.16797 4 -11.501 4l-16 -1c-18 -0.666992 -37.167 -4.16699 -57.5 -10.5s-37.666 -16 -51.999 -29s-21.5 -28.5 -21.5 -46.5c0 -17.333 6.16699 -31 18.5 -41s28.833 -15 49.5 -15c24.667 0 46.667 7.66699 66 23
c18.667 16 28 30.667 28 44v59c0 6 -1.16699 10.333 -3.5 13zM437.996 666c1.33301 -5.33301 1.99707 -8.66699 1.99707 -10c0 -10 -6.66699 -16.333 -20 -19l-232 -59c-5.33301 -1.33301 -8.66602 -2 -9.99902 -2c-7.33301 0 -13 4.66699 -17 14l-13 39
c-1.33301 2 -2 5 -2 9c0 6 3 10.333 9 13l237 100c1.33301 0.666992 3.33301 1 6 1s5.33398 -1 8.00098 -3s4.33398 -5 5.00098 -9z" />
    <glyph glyph-name="acircumflex" unicode="&#xe2;" horiz-adv-x="568" 
d="M184 -10c-49.333 0 -88.668 13.667 -118.001 41s-44 62.333 -44 105c0 38 12 71.5 36 100.5s58.5 51.5 103.5 67.5s98.167 24.333 159.5 25l20 1c10.667 0 16 4.66699 16 14v19c0 22 -6.16699 39 -18.5 51s-30.166 18 -53.499 18
c-18.667 0 -35.834 -4.16699 -51.501 -12.5s-28.5 -21.833 -38.5 -40.5c-2 -4 -4 -6.83301 -6 -8.5s-5 -2.5 -9 -2.5s-7.33301 0.333008 -10 1l-116 24c-6.66699 1.33301 -10 5.33301 -10 12c0 4 1.33301 9.66699 4 17c30.667 78.667 112.334 118 245.001 118
c83.333 0 143 -14.5 179 -43.5s54 -69.833 54 -122.5v-349c0 -10 -1.33301 -16.667 -4 -20s-8.33398 -5 -17.001 -5h-121c-7.33301 0 -12.666 2.66699 -15.999 8s-6 13 -8 23l-1 15c-0.666992 6 -3 9 -7 9s-9.66699 -3 -17 -9c-44 -37.333 -94.333 -56 -151 -56z
M353.498 243c-2.33301 2.66699 -6.16797 4 -11.501 4l-16 -1c-18 -0.666992 -37.167 -4.16699 -57.5 -10.5s-37.666 -16 -51.999 -29s-21.5 -28.5 -21.5 -46.5c0 -17.333 6.16699 -31 18.5 -41s28.833 -15 49.5 -15c24.667 0 46.667 7.66699 66 23
c18.667 16 28 30.667 28 44v59c0 6 -1.16699 10.333 -3.5 13zM307.996 664c-3.33301 4 -6.33594 7.33301 -9.00293 10s-5 4 -7 4c-3.33301 0 -8.66602 -4.66699 -15.999 -14l-49 -54c-3.33301 -4 -6.33301 -6.33301 -9 -7s-7.66699 -1 -15 -1h-91c-6 0 -9 1.66699 -9 5
c0 2 2.33301 6 7 12l110 118c4 5.33301 8.5 9 13.5 11s11.833 3 20.5 3h85c10.667 0 19.334 -4 26.001 -12l109 -120c5.33301 -6.66699 8 -11 8 -13c0 -2.66699 -3 -4 -9 -4h-97c-6.66699 0 -11.667 0.5 -15 1.5s-6.66602 3.16699 -9.99902 6.5z" />
    <glyph glyph-name="atilde" unicode="&#xe3;" horiz-adv-x="568" 
d="M184 -10c-49.333 0 -88.668 13.667 -118.001 41s-44 62.333 -44 105c0 38 12 71.5 36 100.5s58.5 51.5 103.5 67.5s98.167 24.333 159.5 25l20 1c10.667 0 16 4.66699 16 14v19c0 22 -6.16699 39 -18.5 51s-30.166 18 -53.499 18
c-18.667 0 -35.834 -4.16699 -51.501 -12.5s-28.5 -21.833 -38.5 -40.5c-2 -4 -4 -6.83301 -6 -8.5s-5 -2.5 -9 -2.5s-7.33301 0.333008 -10 1l-116 24c-6.66699 1.33301 -10 5.33301 -10 12c0 4 1.33301 9.66699 4 17c30.667 78.667 112.334 118 245.001 118
c83.333 0 143 -14.5 179 -43.5s54 -69.833 54 -122.5v-349c0 -10 -1.33301 -16.667 -4 -20s-8.33398 -5 -17.001 -5h-121c-7.33301 0 -12.666 2.66699 -15.999 8s-6 13 -8 23l-1 15c-0.666992 6 -3 9 -7 9s-9.66699 -3 -17 -9c-44 -37.333 -94.333 -56 -151 -56z
M353.498 243c-2.33301 2.66699 -6.16797 4 -11.501 4l-16 -1c-18 -0.666992 -37.167 -4.16699 -57.5 -10.5s-37.666 -16 -51.999 -29s-21.5 -28.5 -21.5 -46.5c0 -17.333 6.16699 -31 18.5 -41s28.833 -15 49.5 -15c24.667 0 46.667 7.66699 66 23
c18.667 16 28 30.667 28 44v59c0 6 -1.16699 10.333 -3.5 13zM426.996 626c-16.667 -5.33301 -34.665 -7.99902 -53.998 -7.99902c-12.667 0 -26 1.5 -40 4.5s-27.333 6.5 -40 10.5c-30 10 -55 15 -75 15c-13.333 0 -25 -1.83301 -35 -5.5s-21.333 -9.83398 -34 -18.501
c-4.66699 -3.33301 -8.33398 -5 -11.001 -5c-4.66699 0 -8 4 -10 12l-16 49c-1.33301 5.33301 -2 8.66602 -2 9.99902c0 5.33301 3 11.333 9 18c15.333 12.667 29.833 22.334 43.5 29.001s30.5 10 50.5 10c22.667 0 52.667 -6 90 -18c31.333 -10 54.666 -15 69.999 -15
c22.667 0 47 8.66699 73 26c3.33301 2.66699 7 4 11 4c5.33301 0 9 -4 11 -12l14 -59l1 -6c0 -7.33301 -4.66699 -14.333 -14 -21c-11.333 -8 -25.333 -14.667 -42 -20z" />
    <glyph glyph-name="adieresis" unicode="&#xe4;" horiz-adv-x="568" 
d="M184 -10c-49.333 0 -88.668 13.667 -118.001 41s-44 62.333 -44 105c0 38 12 71.5 36 100.5s58.5 51.5 103.5 67.5s98.167 24.333 159.5 25l20 1c10.667 0 16 4.66699 16 14v19c0 22 -6.16699 39 -18.5 51s-30.166 18 -53.499 18
c-18.667 0 -35.834 -4.16699 -51.501 -12.5s-28.5 -21.833 -38.5 -40.5c-2 -4 -4 -6.83301 -6 -8.5s-5 -2.5 -9 -2.5s-7.33301 0.333008 -10 1l-116 24c-6.66699 1.33301 -10 5.33301 -10 12c0 4 1.33301 9.66699 4 17c30.667 78.667 112.334 118 245.001 118
c83.333 0 143 -14.5 179 -43.5s54 -69.833 54 -122.5v-349c0 -10 -1.33301 -16.667 -4 -20s-8.33398 -5 -17.001 -5h-121c-7.33301 0 -12.666 2.66699 -15.999 8s-6 13 -8 23l-1 15c-0.666992 6 -3 9 -7 9s-9.66699 -3 -17 -9c-44 -37.333 -94.333 -56 -151 -56z
M353.498 243c-2.33301 2.66699 -6.16797 4 -11.501 4l-16 -1c-18 -0.666992 -37.167 -4.16699 -57.5 -10.5s-37.666 -16 -51.999 -29s-21.5 -28.5 -21.5 -46.5c0 -17.333 6.16699 -31 18.5 -41s28.833 -15 49.5 -15c24.667 0 46.667 7.66699 66 23
c18.667 16 28 30.667 28 44v59c0 6 -1.16699 10.333 -3.5 13zM257.996 628c0 -15.333 -8.66699 -22.999 -26 -22.999h-108c-7.33301 0 -12.5 1.66699 -15.5 5s-4.5 8.66602 -4.5 15.999v97c0 12.667 5 19 15 19h124c10 0 15 -5.66699 15 -17v-97zM480.996 628.001
c0 -8 -2.16797 -13.832 -6.50098 -17.499s-11.166 -5.5 -20.499 -5.5h-107c-8 0 -13.5 1.66699 -16.5 5s-4.5 8.66602 -4.5 15.999v97c0 12.667 5 19 15 19h125c10 0 15 -5.66699 15 -17v-97z" />
    <glyph glyph-name="aring" unicode="&#xe5;" horiz-adv-x="568" 
d="M184 -10c-49.333 0 -88.668 13.667 -118.001 41s-44 62.333 -44 105c0 38 12 71.5 36 100.5s58.5 51.5 103.5 67.5s98.167 24.333 159.5 25l20 1c10.667 0 16 4.66699 16 14v19c0 22 -6.16699 39 -18.5 51s-30.166 18 -53.499 18
c-18.667 0 -35.834 -4.16699 -51.501 -12.5s-28.5 -21.833 -38.5 -40.5c-2 -4 -4 -6.83301 -6 -8.5s-5 -2.5 -9 -2.5s-7.33301 0.333008 -10 1l-116 24c-6.66699 1.33301 -10 5.33301 -10 12c0 4 1.33301 9.66699 4 17c30.667 78.667 112.334 118 245.001 118
c83.333 0 143 -14.5 179 -43.5s54 -69.833 54 -122.5v-349c0 -10 -1.33301 -16.667 -4 -20s-8.33398 -5 -17.001 -5h-121c-7.33301 0 -12.666 2.66699 -15.999 8s-6 13 -8 23l-1 15c-0.666992 6 -3 9 -7 9s-9.66699 -3 -17 -9c-44 -37.333 -94.333 -56 -151 -56z
M353.498 243c-2.33301 2.66699 -6.16797 4 -11.501 4l-16 -1c-18 -0.666992 -37.167 -4.16699 -57.5 -10.5s-37.666 -16 -51.999 -29s-21.5 -28.5 -21.5 -46.5c0 -17.333 6.16699 -31 18.5 -41s28.833 -15 49.5 -15c24.667 0 46.667 7.66699 66 23
c18.667 16 28 30.667 28 44v59c0 6 -1.16699 10.333 -3.5 13zM373.496 609.5c-22.333 -22.333 -49.166 -33.502 -80.499 -33.502c-32 0 -59.167 11.333 -81.5 34s-33.5 50.334 -33.5 83.001c0 30.667 11.333 56.834 34 78.501s49.667 32.5 81 32.5s58.166 -11 80.499 -33
s33.5 -48.667 33.5 -80c0 -32 -11.167 -59.167 -33.5 -81.5zM326.496 724.998c-9.66699 9.33301 -21.166 14 -34.499 14c-14 0 -26 -4.66699 -36 -14s-15 -21 -15 -35c0 -13.333 5.16699 -25 15.5 -35s22.166 -15 35.499 -15s24.833 5 34.5 15s14.5 21.667 14.5 35
c0 14 -4.83301 25.667 -14.5 35z" />
    <glyph glyph-name="ae" unicode="&#xe6;" horiz-adv-x="917" 
d="M538 214c0 -32 11.0059 -57.5 33.0059 -76.5s49.667 -28.5 83 -28.5c21.333 0 41.166 4.83301 59.499 14.5s38.166 25.167 59.499 46.5c2.66699 2.66699 5.33398 4 8.00098 4c4 0 7.66699 -0.666992 11 -2l82 -34c5.33301 -2 8 -5.66699 8 -11
c0 -4 -1.66699 -7.66699 -5 -11c-32 -46.667 -66.833 -79.334 -104.5 -98.001s-84.834 -28 -141.501 -28c-42.667 0 -81.834 7.83301 -117.501 23.5s-65.834 36.5 -90.501 62.5c-2.66699 4 -6 4 -10 0c-29.333 -29.333 -61.166 -51 -95.499 -65s-75.5 -21 -123.5 -21
c-54.667 0 -97 13.667 -127 41s-45 64.333 -45 111c0 54 23.833 97.333 71.5 130s117.5 51.334 209.5 56.001l36 2c12 0 18 4.66699 18 14v19c0 22 -6 39 -18 51s-30 18 -54 18c-18.667 0 -35.834 -4.16699 -51.501 -12.5s-28.5 -21.833 -38.5 -40.5
c-2 -4 -4 -6.83301 -6 -8.5s-4.66699 -2.5 -8 -2.5c-4 0 -7.66699 0.333008 -11 1l-116 24c-2.66699 0.666992 -4.66699 2.66699 -6 6s-2 7 -2 11c0 6 0.666992 10 2 12c20.667 40.667 49 70.5 85 89.5s88.333 28.5 157 28.5c87.333 -0.666992 148.666 -17.667 183.999 -51
c44 34 95.333 51 154 51c51.333 0 97.166 -11.167 137.499 -33.5s71.833 -54.833 94.5 -97.5s34 -93.334 34 -152.001c0 -9.33301 -1 -15.666 -3 -18.999s-7 -5.33301 -15 -6h-322c-10.667 0 -16 -6 -16 -18zM567.506 406c-18.333 -18.667 -27.167 -44.999 -26.5 -78.999
l163 -1c6.66699 0 11.167 1 13.5 3s3.5 6 3.5 12c0 13.333 -3.33301 27.166 -10 41.499s-16.5 26.5 -29.5 36.5s-28.5 15 -46.5 15c-26.667 0 -49.167 -9.33301 -67.5 -28zM339.005 240.001l-25 -2c-30 -2 -57.333 -10.5 -82 -25.5s-37 -34.5 -37 -58.5
c0 -18 6.16699 -32 18.5 -42s29.5 -15 51.5 -15c25.333 0.666992 47 7 65 19s27 27.333 27 46v61c0 11.333 -6 17 -18 17z" />
    <glyph glyph-name="ccedilla" unicode="&#xe7;" horiz-adv-x="553" 
d="M533 161c0 -2 -0.665039 -5.66895 -1.99805 -11.002c-5.33301 -20 -15.833 -41.167 -31.5 -63.5s-37.5 -42.5 -65.5 -60.5s-61.333 -29.333 -100 -34l-15 -38l-1 -4c0 -2.66699 2.33301 -4 7 -4c34.667 -0.666992 60.167 -9.16699 76.5 -25.5s24.5 -35.166 24.5 -56.499
c0 -26 -12.333 -46.833 -37 -62.5s-55 -23.5 -91 -23.5c-48.667 0 -88.667 8 -120 24c-6 4.66699 -7.66699 9.66699 -5 15l16 38c2 5.33301 5.66699 7 11 5c28 -15.333 53.333 -23 76 -23c15.333 0 27.333 2.66699 36 8s13 12.333 13 21c0 13.333 -6.83301 23.333 -20.5 30
s-36.5 10.334 -68.5 11.001c-5.33301 0 -8.83301 0.666992 -10.5 2s-1.5 4.33301 0.5 9l32 74c-45.333 5.33301 -85.5 20.166 -120.5 44.499s-62.333 56 -82 95s-29.5 82.833 -29.5 131.5c0 54 11.833 102 35.5 144s56.167 74.667 97.5 98s87.666 35 138.999 35
c42.667 0 80.167 -7.83301 112.5 -23.5s58.5 -35.834 78.5 -60.501s33.667 -50.334 41 -77.001c1.33301 -5.33301 2 -8.66602 2 -9.99902c0 -8 -6 -12.667 -18 -14l-121 -8c-0.666992 0 -1.33398 -0.166992 -2.00098 -0.5s-1.66699 -0.166016 -3 0.500977
c-5.33301 0 -9 4 -11 12c-7.33301 21.333 -16 37.833 -26 49.5s-26 17.5 -48 17.5c-30.667 0 -54.5 -13.333 -71.5 -40s-25.5 -67 -25.5 -121c0 -108.667 35.333 -163 106 -163c26 0 46.5 6.66699 61.5 20s30.5 34 46.5 62c1.33301 2.66699 3.33301 4.33398 6 5.00098
s7 0.666992 13 0l84 -18c6.66699 -0.666992 10 -4 10 -10z" />
    <glyph glyph-name="egrave" unicode="&#xe8;" horiz-adv-x="588" 
d="M242 137.5c22 -19 50 -28.498 84 -28.498c20.667 0 40.167 4.66699 58.5 14s38.166 25 59.499 47c2.66699 2.66699 5.66699 4 9 4s6.66602 -0.666992 9.99902 -2l82 -34c6 -2.66699 9 -6.33398 9 -11.001c0 -2.66699 -1.66699 -6.33398 -5 -11.001
c-33.333 -48 -68.666 -81 -105.999 -99s-84.333 -27 -141 -27c-52 0 -99 11.333 -141 34s-75 54.167 -99 94.5s-36 86.5 -36 138.5c0 55.333 12.333 104.5 37 147.5s57.834 76.333 99.501 100s87.167 35.5 136.5 35.5c52 0 98 -11.167 138 -33.5s71.333 -54.833 94 -97.5
s34 -93.334 34 -152.001c0 -9.33301 -0.833008 -15.666 -2.5 -18.999s-6.5 -5.33301 -14.5 -6h-325c-9.33301 0 -14 -5.33301 -14 -16c0 -33.333 11 -59.5 33 -78.5zM375 326.002c6.66699 0 11.167 0.833008 13.5 2.5s3.5 5.5 3.5 11.5c0 22.667 -7.5 44 -22.5 64
s-35.833 30 -62.5 30c-28 0 -51 -9.66699 -69 -29s-26.667 -45.333 -26 -78zM187 751.002c3.33301 2 7 2 11 0l237 -100c6.66699 -3.33301 10 -8 10 -14l-2 -8l-14 -39c-4 -9.33301 -9.33301 -14 -16 -14c-2 0 -5.66699 0.666992 -11 2l-232 59
c-12.667 2.66699 -19 9 -19 19c0 4 0.666992 7.33301 2 10l26 74c2 5.33301 4.66699 9 8 11z" />
    <glyph glyph-name="eacute" unicode="&#xe9;" horiz-adv-x="588" 
d="M242 137.5c22 -19 50 -28.498 84 -28.498c20.667 0 40.167 4.66699 58.5 14s38.166 25 59.499 47c2.66699 2.66699 5.66699 4 9 4s6.66602 -0.666992 9.99902 -2l82 -34c6 -2.66699 9 -6.33398 9 -11.001c0 -2.66699 -1.66699 -6.33398 -5 -11.001
c-33.333 -48 -68.666 -81 -105.999 -99s-84.333 -27 -141 -27c-52 0 -99 11.333 -141 34s-75 54.167 -99 94.5s-36 86.5 -36 138.5c0 55.333 12.333 104.5 37 147.5s57.834 76.333 99.501 100s87.167 35.5 136.5 35.5c52 0 98 -11.167 138 -33.5s71.333 -54.833 94 -97.5
s34 -93.334 34 -152.001c0 -9.33301 -0.833008 -15.666 -2.5 -18.999s-6.5 -5.33301 -14.5 -6h-325c-9.33301 0 -14 -5.33301 -14 -16c0 -33.333 11 -59.5 33 -78.5zM375 326.002c6.66699 0 11.167 0.833008 13.5 2.5s3.5 5.5 3.5 11.5c0 22.667 -7.5 44 -22.5 64
s-35.833 30 -62.5 30c-28 0 -51 -9.66699 -69 -29s-26.667 -45.333 -26 -78zM445 666.002c1.33301 -5.33301 1.99707 -8.66699 1.99707 -10c0 -10 -6.66699 -16.333 -20 -19l-232 -59c-5.33301 -1.33301 -8.66602 -2 -9.99902 -2c-7.33301 0 -13 4.66699 -17 14l-13 39
c-1.33301 2 -2 5 -2 9c0 6 3 10.333 9 13l237 100c1.33301 0.666992 3.33301 1 6 1s5.33398 -1 8.00098 -3s4.33398 -5 5.00098 -9z" />
    <glyph glyph-name="ecircumflex" unicode="&#xea;" horiz-adv-x="588" 
d="M242 137.5c22 -19 50 -28.498 84 -28.498c20.667 0 40.167 4.66699 58.5 14s38.166 25 59.499 47c2.66699 2.66699 5.66699 4 9 4s6.66602 -0.666992 9.99902 -2l82 -34c6 -2.66699 9 -6.33398 9 -11.001c0 -2.66699 -1.66699 -6.33398 -5 -11.001
c-33.333 -48 -68.666 -81 -105.999 -99s-84.333 -27 -141 -27c-52 0 -99 11.333 -141 34s-75 54.167 -99 94.5s-36 86.5 -36 138.5c0 55.333 12.333 104.5 37 147.5s57.834 76.333 99.501 100s87.167 35.5 136.5 35.5c52 0 98 -11.167 138 -33.5s71.333 -54.833 94 -97.5
s34 -93.334 34 -152.001c0 -9.33301 -0.833008 -15.666 -2.5 -18.999s-6.5 -5.33301 -14.5 -6h-325c-9.33301 0 -14 -5.33301 -14 -16c0 -33.333 11 -59.5 33 -78.5zM375 326.002c6.66699 0 11.167 0.833008 13.5 2.5s3.5 5.5 3.5 11.5c0 22.667 -7.5 44 -22.5 64
s-35.833 30 -62.5 30c-28 0 -51 -9.66699 -69 -29s-26.667 -45.333 -26 -78zM315 664.002c-3.33301 4 -6.33594 7.33301 -9.00293 10s-5 4 -7 4c-3.33301 0 -8.66602 -4.66699 -15.999 -14l-49 -54c-3.33301 -4 -6.33301 -6.33301 -9 -7s-7.66699 -1 -15 -1h-91
c-6 0 -9 1.66699 -9 5c0 2 2.33301 6 7 12l110 118c4 5.33301 8.5 9 13.5 11s11.833 3 20.5 3h85c10.667 0 19.334 -4 26.001 -12l109 -120c5.33301 -6.66699 8 -11 8 -13c0 -2.66699 -3 -4 -9 -4h-97c-6.66699 0 -11.667 0.5 -15 1.5s-6.66602 3.16699 -9.99902 6.5z" />
    <glyph glyph-name="edieresis" unicode="&#xeb;" horiz-adv-x="588" 
d="M242 137.5c22 -19 50 -28.498 84 -28.498c20.667 0 40.167 4.66699 58.5 14s38.166 25 59.499 47c2.66699 2.66699 5.66699 4 9 4s6.66602 -0.666992 9.99902 -2l82 -34c6 -2.66699 9 -6.33398 9 -11.001c0 -2.66699 -1.66699 -6.33398 -5 -11.001
c-33.333 -48 -68.666 -81 -105.999 -99s-84.333 -27 -141 -27c-52 0 -99 11.333 -141 34s-75 54.167 -99 94.5s-36 86.5 -36 138.5c0 55.333 12.333 104.5 37 147.5s57.834 76.333 99.501 100s87.167 35.5 136.5 35.5c52 0 98 -11.167 138 -33.5s71.333 -54.833 94 -97.5
s34 -93.334 34 -152.001c0 -9.33301 -0.833008 -15.666 -2.5 -18.999s-6.5 -5.33301 -14.5 -6h-325c-9.33301 0 -14 -5.33301 -14 -16c0 -33.333 11 -59.5 33 -78.5zM375 326.002c6.66699 0 11.167 0.833008 13.5 2.5s3.5 5.5 3.5 11.5c0 22.667 -7.5 44 -22.5 64
s-35.833 30 -62.5 30c-28 0 -51 -9.66699 -69 -29s-26.667 -45.333 -26 -78zM265 628.002c0 -15.333 -8.66699 -22.999 -26 -22.999h-108c-7.33301 0 -12.5 1.66699 -15.5 5s-4.5 8.66602 -4.5 15.999v97c0 12.667 5 19 15 19h124c10 0 15 -5.66699 15 -17v-97zM488 628.003
c0 -8 -2.16797 -13.832 -6.50098 -17.499s-11.166 -5.5 -20.499 -5.5h-107c-8 0 -13.5 1.66699 -16.5 5s-4.5 8.66602 -4.5 15.999v97c0 12.667 5 19 15 19h125c10 0 15 -5.66699 15 -17v-97z" />
    <glyph glyph-name="igrave" unicode="&#xec;" horiz-adv-x="274" 
d="M226 27c0 -10 -2.33301 -17 -7 -21s-12.334 -6 -23.001 -6h-124c-9.33301 -0 -15.666 1.83301 -18.999 5.5s-5 9.5 -5 17.5v486c0 14 6 21 18 21h143c11.333 0 17 -6.33301 17 -19v-484zM27 751c3.33301 2 7 2 11 0l237 -100c6.66699 -3.33301 10 -8 10 -14l-2 -8
l-14 -39c-4 -9.33301 -9.33301 -14 -16 -14c-2 0 -5.66699 0.666992 -11 2l-232 59c-12.667 2.66699 -19 9 -19 19c0 4 0.666992 7.33301 2 10l26 74c2 5.33301 4.66699 9 8 11z" />
    <glyph glyph-name="iacute" unicode="&#xed;" horiz-adv-x="274" 
d="M226 27c0 -10 -2.33301 -17 -7 -21s-12.334 -6 -23.001 -6h-124c-9.33301 -0 -15.666 1.83301 -18.999 5.5s-5 9.5 -5 17.5v486c0 14 6 21 18 21h143c11.333 0 17 -6.33301 17 -19v-484zM285 666c1.33301 -5.33301 1.99707 -8.66699 1.99707 -10
c0 -10 -6.66699 -16.333 -20 -19l-232 -59c-5.33301 -1.33301 -8.66602 -2 -9.99902 -2c-7.33301 0 -13 4.66699 -17 14l-13 39c-1.33301 2 -2 5 -2 9c0 6 3 10.333 9 13l237 100c1.33301 0.666992 3.33301 1 6 1s5.33398 -1 8.00098 -3s4.33398 -5 5.00098 -9z" />
    <glyph glyph-name="icircumflex" unicode="&#xee;" horiz-adv-x="274" 
d="M226 27c0 -10 -2.33301 -17 -7 -21s-12.334 -6 -23.001 -6h-124c-9.33301 -0 -15.666 1.83301 -18.999 5.5s-5 9.5 -5 17.5v486c0 14 6 21 18 21h143c11.333 0 17 -6.33301 17 -19v-484zM155 664c-3.33301 4 -6.33594 7.33301 -9.00293 10s-5 4 -7 4
c-3.33301 0 -8.66602 -4.66699 -15.999 -14l-49 -54c-3.33301 -4 -6.33301 -6.33301 -9 -7s-7.66699 -1 -15 -1h-91c-6 0 -9 1.66699 -9 5c0 2 2.33301 6 7 12l110 118c4 5.33301 8.5 9 13.5 11s11.833 3 20.5 3h85c10.667 0 19.334 -4 26.001 -12l109 -120
c5.33301 -6.66699 8 -11 8 -13c0 -2.66699 -3 -4 -9 -4h-97c-6.66699 0 -11.667 0.5 -15 1.5s-6.66602 3.16699 -9.99902 6.5z" />
    <glyph glyph-name="idieresis" unicode="&#xef;" horiz-adv-x="274" 
d="M226 27c0 -10 -2.33301 -17 -7 -21s-12.334 -6 -23.001 -6h-124c-9.33301 -0 -15.666 1.83301 -18.999 5.5s-5 9.5 -5 17.5v486c0 14 6 21 18 21h143c11.333 0 17 -6.33301 17 -19v-484zM105 628c0 -15.333 -8.66699 -22.999 -26 -22.999h-108
c-7.33301 0 -12.5 1.66699 -15.5 5s-4.5 8.66602 -4.5 15.999v97c0 12.667 5 19 15 19h124c10 0 15 -5.66699 15 -17v-97zM328 628.001c0 -8 -2.16797 -13.832 -6.50098 -17.499s-11.166 -5.5 -20.499 -5.5h-107c-8 0 -13.5 1.66699 -16.5 5s-4.5 8.66602 -4.5 15.999v97
c0 12.667 5 19 15 19h125c10 0 15 -5.66699 15 -17v-97z" />
    <glyph glyph-name="eth" unicode="&#xf0;" 
d="M540 126c-22.667 -43.333 -54.832 -76.832 -96.499 -100.499s-89.834 -35.5 -144.501 -35.5c-53.333 0 -100.666 11.333 -141.999 34s-73.5 54 -96.5 94s-34.5 84.667 -34.5 134c0 51.333 11.833 97.333 35.5 138s56.334 72.5 98.001 95.5s88.167 34.5 139.5 34.5
c12 0 20.333 -1.66699 25 -5c-20.667 32 -47.334 59.667 -80.001 83l-106 -60c-2.66699 -2 -5.66699 -3 -9 -3c-4.66699 0 -9.33398 3.33301 -14.001 10l-14 23c-2.66699 3.33301 -4 7 -4 11s2 7 6 9l83 46c-27.333 14 -56.333 26.333 -87 37
c-3.33301 1.33301 -5 3.66602 -5 6.99902c0 2 1.33301 4.33301 4 7l74 61c4 4 7.66699 6 11 6c1.33301 0 4.66602 -0.666992 9.99902 -2c44.667 -11.333 84.667 -26.333 120 -45l79 44c3.33301 2 6 3 8 3c4 0 7 -1.66699 9 -5l20 -36c1.33301 -1.33301 2 -3 2 -5
s-2 -4.66699 -6 -8l-52 -29c64.667 -44.667 114.334 -101 149.001 -169s52 -142 52 -222c0 -58 -11.333 -108.667 -34 -152zM394.002 256.001c0 49.333 -8 86.999 -24 112.999s-39.333 39 -70 39s-54 -13 -70 -39s-24 -63.667 -24 -113s7.83301 -86.666 23.5 -111.999
s39.167 -38 70.5 -38c62.667 0 94 50 94 150z" />
    <glyph glyph-name="ntilde" unicode="&#xf1;" 
d="M53.5 5c-3.66699 3.33301 -5.49902 9.33301 -5.49902 18v486c0 14 5.66699 21 17 21h142c11.333 0 17 -6 17 -18v-48c0 -5.33301 1.66699 -8 5 -8c2 0 4.33301 1.33301 7 4c52 53.333 106.667 80 164 80c47.333 0 85.5 -14.5 114.5 -43.5s43.5 -67.833 43.5 -116.5v-353
c0 -18 -9.33301 -27 -28 -27h-129c-8 0 -13.5 1.66699 -16.5 5s-4.5 9.33301 -4.5 18v332c0 18 -5.66699 32.167 -17 42.5s-26.666 15.5 -45.999 15.5c-18 0 -34.167 -4.5 -48.5 -13.5s-28.5 -23.167 -42.5 -42.5v-331c0 -9.33301 -2.33301 -16 -7 -20
s-12.334 -6 -23.001 -6h-124c-8.66699 0 -14.834 1.66699 -18.501 5zM438.001 626c-16.667 -5.33301 -34.665 -7.99902 -53.998 -7.99902c-12.667 0 -26 1.5 -40 4.5s-27.333 6.5 -40 10.5c-30 10 -55 15 -75 15c-13.333 0 -25 -1.83301 -35 -5.5
s-21.333 -9.83398 -34 -18.501c-4.66699 -3.33301 -8.33398 -5 -11.001 -5c-4.66699 0 -8 4 -10 12l-16 49c-1.33301 5.33301 -2 8.66602 -2 9.99902c0 5.33301 3 11.333 9 18c15.333 12.667 29.833 22.334 43.5 29.001s30.5 10 50.5 10c22.667 0 52.667 -6 90 -18
c31.333 -10 54.666 -15 69.999 -15c22.667 0 47 8.66699 73 26c3.33301 2.66699 7 4 11 4c5.33301 0 9 -4 11 -12l14 -59l1 -6c0 -7.33301 -4.66699 -14.333 -14 -21c-11.333 -8 -25.333 -14.667 -42 -20z" />
    <glyph glyph-name="ograve" unicode="&#xf2;" 
d="M157 24.5c-41.333 23 -73.502 55.166 -96.502 96.499s-34.5 88.333 -34.5 141c0 54 11.833 102.167 35.5 144.5s56.334 75.166 98.001 98.499s88.5 35 140.5 35c54 0 101.667 -11.833 143 -35.5s73.5 -56.667 96.5 -99s34.5 -90.166 34.5 -143.499
c0 -52 -11.667 -98.667 -35 -140s-55.833 -73.666 -97.5 -96.999s-89.167 -35 -142.5 -35s-100.666 11.5 -141.999 34.5zM370.998 144.999c15.333 26 23 66.333 23 121s-7.83301 95.334 -23.5 122.001s-39.167 40 -70.5 40s-54.833 -13.333 -70.5 -40
s-23.5 -67.334 -23.5 -122.001c0 -54 7.83301 -94.167 23.5 -120.5s39.167 -39.5 70.5 -39.5c32 0 55.667 13 71 39zM186.998 750.999c3.33301 2 7 2 11 0l237 -100c6.66699 -3.33301 10 -8 10 -14l-2 -8l-14 -39c-4 -9.33301 -9.33301 -14 -16 -14
c-2 0 -5.66699 0.666992 -11 2l-232 59c-12.667 2.66699 -19 9 -19 19c0 4 0.666992 7.33301 2 10l26 74c2 5.33301 4.66699 9 8 11z" />
    <glyph glyph-name="oacute" unicode="&#xf3;" 
d="M157 24.5c-41.333 23 -73.502 55.166 -96.502 96.499s-34.5 88.333 -34.5 141c0 54 11.833 102.167 35.5 144.5s56.334 75.166 98.001 98.499s88.5 35 140.5 35c54 0 101.667 -11.833 143 -35.5s73.5 -56.667 96.5 -99s34.5 -90.166 34.5 -143.499
c0 -52 -11.667 -98.667 -35 -140s-55.833 -73.666 -97.5 -96.999s-89.167 -35 -142.5 -35s-100.666 11.5 -141.999 34.5zM370.998 144.999c15.333 26 23 66.333 23 121s-7.83301 95.334 -23.5 122.001s-39.167 40 -70.5 40s-54.833 -13.333 -70.5 -40
s-23.5 -67.334 -23.5 -122.001c0 -54 7.83301 -94.167 23.5 -120.5s39.167 -39.5 70.5 -39.5c32 0 55.667 13 71 39zM444.998 665.999c1.33301 -5.33301 1.99707 -8.66699 1.99707 -10c0 -10 -6.66699 -16.333 -20 -19l-232 -59c-5.33301 -1.33301 -8.66602 -2 -9.99902 -2
c-7.33301 0 -13 4.66699 -17 14l-13 39c-1.33301 2 -2 5 -2 9c0 6 3 10.333 9 13l237 100c1.33301 0.666992 3.33301 1 6 1s5.33398 -1 8.00098 -3s4.33398 -5 5.00098 -9z" />
    <glyph glyph-name="ocircumflex" unicode="&#xf4;" 
d="M157 24.5c-41.333 23 -73.502 55.166 -96.502 96.499s-34.5 88.333 -34.5 141c0 54 11.833 102.167 35.5 144.5s56.334 75.166 98.001 98.499s88.5 35 140.5 35c54 0 101.667 -11.833 143 -35.5s73.5 -56.667 96.5 -99s34.5 -90.166 34.5 -143.499
c0 -52 -11.667 -98.667 -35 -140s-55.833 -73.666 -97.5 -96.999s-89.167 -35 -142.5 -35s-100.666 11.5 -141.999 34.5zM370.998 144.999c15.333 26 23 66.333 23 121s-7.83301 95.334 -23.5 122.001s-39.167 40 -70.5 40s-54.833 -13.333 -70.5 -40
s-23.5 -67.334 -23.5 -122.001c0 -54 7.83301 -94.167 23.5 -120.5s39.167 -39.5 70.5 -39.5c32 0 55.667 13 71 39zM314.998 663.999c-3.33301 4 -6.33594 7.33301 -9.00293 10s-5 4 -7 4c-3.33301 0 -8.66602 -4.66699 -15.999 -14l-49 -54
c-3.33301 -4 -6.33301 -6.33301 -9 -7s-7.66699 -1 -15 -1h-91c-6 0 -9 1.66699 -9 5c0 2 2.33301 6 7 12l110 118c4 5.33301 8.5 9 13.5 11s11.833 3 20.5 3h85c10.667 0 19.334 -4 26.001 -12l109 -120c5.33301 -6.66699 8 -11 8 -13c0 -2.66699 -3 -4 -9 -4h-97
c-6.66699 0 -11.667 0.5 -15 1.5s-6.66602 3.16699 -9.99902 6.5z" />
    <glyph glyph-name="otilde" unicode="&#xf5;" 
d="M157 24.5c-41.333 23 -73.502 55.166 -96.502 96.499s-34.5 88.333 -34.5 141c0 54 11.833 102.167 35.5 144.5s56.334 75.166 98.001 98.499s88.5 35 140.5 35c54 0 101.667 -11.833 143 -35.5s73.5 -56.667 96.5 -99s34.5 -90.166 34.5 -143.499
c0 -52 -11.667 -98.667 -35 -140s-55.833 -73.666 -97.5 -96.999s-89.167 -35 -142.5 -35s-100.666 11.5 -141.999 34.5zM370.998 144.999c15.333 26 23 66.333 23 121s-7.83301 95.334 -23.5 122.001s-39.167 40 -70.5 40s-54.833 -13.333 -70.5 -40
s-23.5 -67.334 -23.5 -122.001c0 -54 7.83301 -94.167 23.5 -120.5s39.167 -39.5 70.5 -39.5c32 0 55.667 13 71 39zM433.998 625.999c-16.667 -5.33301 -34.665 -7.99902 -53.998 -7.99902c-12.667 0 -26 1.5 -40 4.5s-27.333 6.5 -40 10.5c-30 10 -55 15 -75 15
c-13.333 0 -25 -1.83301 -35 -5.5s-21.333 -9.83398 -34 -18.501c-4.66699 -3.33301 -8.33398 -5 -11.001 -5c-4.66699 0 -8 4 -10 12l-16 49c-1.33301 5.33301 -2 8.66602 -2 9.99902c0 5.33301 3 11.333 9 18c15.333 12.667 29.833 22.334 43.5 29.001s30.5 10 50.5 10
c22.667 0 52.667 -6 90 -18c31.333 -10 54.666 -15 69.999 -15c22.667 0 47 8.66699 73 26c3.33301 2.66699 7 4 11 4c5.33301 0 9 -4 11 -12l14 -59l1 -6c0 -7.33301 -4.66699 -14.333 -14 -21c-11.333 -8 -25.333 -14.667 -42 -20z" />
    <glyph glyph-name="odieresis" unicode="&#xf6;" 
d="M157 24.5c-41.333 23 -73.502 55.166 -96.502 96.499s-34.5 88.333 -34.5 141c0 54 11.833 102.167 35.5 144.5s56.334 75.166 98.001 98.499s88.5 35 140.5 35c54 0 101.667 -11.833 143 -35.5s73.5 -56.667 96.5 -99s34.5 -90.166 34.5 -143.499
c0 -52 -11.667 -98.667 -35 -140s-55.833 -73.666 -97.5 -96.999s-89.167 -35 -142.5 -35s-100.666 11.5 -141.999 34.5zM370.998 144.999c15.333 26 23 66.333 23 121s-7.83301 95.334 -23.5 122.001s-39.167 40 -70.5 40s-54.833 -13.333 -70.5 -40
s-23.5 -67.334 -23.5 -122.001c0 -54 7.83301 -94.167 23.5 -120.5s39.167 -39.5 70.5 -39.5c32 0 55.667 13 71 39zM264.998 627.999c0 -15.333 -8.66699 -22.999 -26 -22.999h-108c-7.33301 0 -12.5 1.66699 -15.5 5s-4.5 8.66602 -4.5 15.999v97c0 12.667 5 19 15 19h124
c10 0 15 -5.66699 15 -17v-97zM487.998 628c0 -8 -2.16797 -13.832 -6.50098 -17.499s-11.166 -5.5 -20.499 -5.5h-107c-8 0 -13.5 1.66699 -16.5 5s-4.5 8.66602 -4.5 15.999v97c0 12.667 5 19 15 19h125c10 0 15 -5.66699 15 -17v-97z" />
    <glyph glyph-name="divide" unicode="&#xf7;" horiz-adv-x="594" 
d="M385 526c0 -8.66699 -2 -14.833 -6 -18.5s-11 -5.5 -21 -5.5h-126c-8 0 -13.667 1.83301 -17 5.5s-5 9.16699 -5 16.5v128c0 12 5.33301 18 16 18h145c9.33301 0 14 -5.33301 14 -16v-128zM549 335.001c0 -8.66699 -2.33203 -15.001 -6.99902 -19.001s-12 -6 -22 -6h-452
c-8.66699 0 -14.834 1.66699 -18.501 5s-5.5 9 -5.5 17v84c0 14 5.66699 21 17 21h472c4.66699 0 8.5 -1.66699 11.5 -5s4.5 -7.66602 4.5 -12.999v-84zM385.001 100c0 -8.66699 -2 -14.667 -6 -18s-11 -5 -21 -5h-126c-8 0 -13.667 1.5 -17 4.5s-5 8.16699 -5 15.5v129
c0 12 5.33301 18 16 18h145c9.33301 0 14 -5.33301 14 -16v-128z" />
    <glyph glyph-name="oslash" unicode="&#xf8;" 
d="M580 479c0 -4 -2.00098 -8.00098 -6.00098 -12.001l-46 -43c30.667 -46 46 -100 46 -162c0 -52 -11.667 -98.667 -35 -140s-55.833 -73.666 -97.5 -96.999s-89.167 -35 -142.5 -35c-68 0 -126 18.667 -174 56l-37 -35c-7.33301 -7.33301 -14 -11 -20 -11
c-6.66699 0 -13 3.66699 -19 11l-18 19c-7.33301 8.66699 -11 15.334 -11 20.001c0 4 2.66699 8.66699 8 14l43 40c-30 45.333 -45 98 -45 158c0 54 11.833 102.167 35.5 144.5s56.334 75.166 98.001 98.499s88.5 35 140.5 35c67.333 0 125.333 -19 174 -57l40 38
c6 6 12 9 18 9c4 0 7.66699 -1.66699 11 -5l31 -33c4 -4 6 -8.33301 6 -13zM206.999 231.999l164.001 155c-14.667 27.333 -38.334 41 -71.001 41c-31.333 0 -54.833 -13.333 -70.5 -40s-23.5 -67.334 -23.5 -122.001c0 -15.333 0.333008 -26.666 1 -33.999zM393 296.999
l-162.999 -153c15.333 -25.333 38.666 -38 69.999 -38c32 0 55.667 13 71 39s23 66.333 23 121c0 14 -0.333008 24.333 -1 31z" />
    <glyph glyph-name="ugrave" unicode="&#xf9;" horiz-adv-x="597" 
d="M328.5 129.5c15.667 9 29.8291 21.168 42.4961 36.501v338c0 9.33301 2.33301 16 7 20s12.334 6 23.001 6h126c8.66699 0 14.834 -1.83301 18.501 -5.5s5.5 -9.83398 5.5 -18.501l-4 -486c0 -13.333 -5.66699 -20 -17 -20h-139c-11.333 0 -17 6 -17 18v47
c0 4 -1.16699 6.5 -3.5 7.5s-4.83301 -0.166992 -7.5 -3.5c-25.333 -27.333 -51.666 -47.333 -78.999 -60s-57.333 -19 -90 -19c-45.333 0 -82 14.667 -110 44s-42 69.333 -42 120v349c0 18 9.33301 27 28 27h129c8 0 13.5 -1.66699 16.5 -5s4.5 -9.66602 4.5 -18.999v-330
c0 -18.667 5.5 -33.334 16.5 -44.001s25.5 -16 43.5 -16c16.667 0 32.834 4.5 48.501 13.5zM181.995 751.001c3.33301 2 7 2 11 0l237 -100c6.66699 -3.33301 10 -8 10 -14l-2 -8l-14 -39c-4 -9.33301 -9.33301 -14 -16 -14c-2 0 -5.66699 0.666992 -11 2l-232 59
c-12.667 2.66699 -19 9 -19 19c0 4 0.666992 7.33301 2 10l26 74c2 5.33301 4.66699 9 8 11z" />
    <glyph glyph-name="uacute" unicode="&#xfa;" horiz-adv-x="597" 
d="M328.5 129.5c15.667 9 29.8291 21.168 42.4961 36.501v338c0 9.33301 2.33301 16 7 20s12.334 6 23.001 6h126c8.66699 0 14.834 -1.83301 18.501 -5.5s5.5 -9.83398 5.5 -18.501l-4 -486c0 -13.333 -5.66699 -20 -17 -20h-139c-11.333 0 -17 6 -17 18v47
c0 4 -1.16699 6.5 -3.5 7.5s-4.83301 -0.166992 -7.5 -3.5c-25.333 -27.333 -51.666 -47.333 -78.999 -60s-57.333 -19 -90 -19c-45.333 0 -82 14.667 -110 44s-42 69.333 -42 120v349c0 18 9.33301 27 28 27h129c8 0 13.5 -1.66699 16.5 -5s4.5 -9.66602 4.5 -18.999v-330
c0 -18.667 5.5 -33.334 16.5 -44.001s25.5 -16 43.5 -16c16.667 0 32.834 4.5 48.501 13.5zM439.995 666.001c1.33301 -5.33301 1.99707 -8.66699 1.99707 -10c0 -10 -6.66699 -16.333 -20 -19l-232 -59c-5.33301 -1.33301 -8.66602 -2 -9.99902 -2
c-7.33301 0 -13 4.66699 -17 14l-13 39c-1.33301 2 -2 5 -2 9c0 6 3 10.333 9 13l237 100c1.33301 0.666992 3.33301 1 6 1s5.33398 -1 8.00098 -3s4.33398 -5 5.00098 -9z" />
    <glyph glyph-name="ucircumflex" unicode="&#xfb;" horiz-adv-x="597" 
d="M328.5 129.5c15.667 9 29.8291 21.168 42.4961 36.501v338c0 9.33301 2.33301 16 7 20s12.334 6 23.001 6h126c8.66699 0 14.834 -1.83301 18.501 -5.5s5.5 -9.83398 5.5 -18.501l-4 -486c0 -13.333 -5.66699 -20 -17 -20h-139c-11.333 0 -17 6 -17 18v47
c0 4 -1.16699 6.5 -3.5 7.5s-4.83301 -0.166992 -7.5 -3.5c-25.333 -27.333 -51.666 -47.333 -78.999 -60s-57.333 -19 -90 -19c-45.333 0 -82 14.667 -110 44s-42 69.333 -42 120v349c0 18 9.33301 27 28 27h129c8 0 13.5 -1.66699 16.5 -5s4.5 -9.66602 4.5 -18.999v-330
c0 -18.667 5.5 -33.334 16.5 -44.001s25.5 -16 43.5 -16c16.667 0 32.834 4.5 48.501 13.5zM309.995 664.001c-3.33301 4 -6.33594 7.33301 -9.00293 10s-5 4 -7 4c-3.33301 0 -8.66602 -4.66699 -15.999 -14l-49 -54c-3.33301 -4 -6.33301 -6.33301 -9 -7
s-7.66699 -1 -15 -1h-91c-6 0 -9 1.66699 -9 5c0 2 2.33301 6 7 12l110 118c4 5.33301 8.5 9 13.5 11s11.833 3 20.5 3h85c10.667 0 19.334 -4 26.001 -12l109 -120c5.33301 -6.66699 8 -11 8 -13c0 -2.66699 -3 -4 -9 -4h-97c-6.66699 0 -11.667 0.5 -15 1.5
s-6.66602 3.16699 -9.99902 6.5z" />
    <glyph glyph-name="udieresis" unicode="&#xfc;" horiz-adv-x="597" 
d="M328.5 129.5c15.667 9 29.8291 21.168 42.4961 36.501v338c0 9.33301 2.33301 16 7 20s12.334 6 23.001 6h126c8.66699 0 14.834 -1.83301 18.501 -5.5s5.5 -9.83398 5.5 -18.501l-4 -486c0 -13.333 -5.66699 -20 -17 -20h-139c-11.333 0 -17 6 -17 18v47
c0 4 -1.16699 6.5 -3.5 7.5s-4.83301 -0.166992 -7.5 -3.5c-25.333 -27.333 -51.666 -47.333 -78.999 -60s-57.333 -19 -90 -19c-45.333 0 -82 14.667 -110 44s-42 69.333 -42 120v349c0 18 9.33301 27 28 27h129c8 0 13.5 -1.66699 16.5 -5s4.5 -9.66602 4.5 -18.999v-330
c0 -18.667 5.5 -33.334 16.5 -44.001s25.5 -16 43.5 -16c16.667 0 32.834 4.5 48.501 13.5zM259.995 628.001c0 -15.333 -8.66699 -22.999 -26 -22.999h-108c-7.33301 0 -12.5 1.66699 -15.5 5s-4.5 8.66602 -4.5 15.999v97c0 12.667 5 19 15 19h124
c10 0 15 -5.66699 15 -17v-97zM482.995 628.002c0 -8 -2.16797 -13.832 -6.50098 -17.499s-11.166 -5.5 -20.499 -5.5h-107c-8 0 -13.5 1.66699 -16.5 5s-4.5 8.66602 -4.5 15.999v97c0 12.667 5 19 15 19h125c10 0 15 -5.66699 15 -17v-97z" />
    <glyph glyph-name="yacute" unicode="&#xfd;" horiz-adv-x="578" 
d="M57.5 -161.5c-7.66699 2.33301 -11.499 7.83203 -11.499 16.499v90c0 12 9.33301 18 28 18h69c20 0 36.833 6 50.5 18s20.5 25 20.5 39c0 2.66699 -0.666992 6.66699 -2 12l-194 471c-0.666992 2 -1 4.66699 -1 8c0 5.33301 1.66699 9.83301 5 13.5s8 5.5 14 5.5h148
c6 0 11.167 -1.66699 15.5 -5s7.5 -7.66602 9.5 -12.999l97 -268c2 -6.66699 4.66699 -10 8 -10s6.33301 3.33301 9 10l97 268c6 12 14 18 24 18h100c6 0 10.5 -1.66699 13.5 -5s4.5 -7.66602 4.5 -12.999l-2 -8l-200 -488c-20.667 -50.667 -42 -88.834 -64 -114.501
s-47.667 -43.167 -77 -52.5s-68 -14 -116 -14c-22.667 0 -37.834 1.16699 -45.501 3.5zM461.001 665.999c1.33301 -5.33301 1.99707 -8.66699 1.99707 -10c0 -10 -6.66699 -16.333 -20 -19l-232 -59c-5.33301 -1.33301 -8.66602 -2 -9.99902 -2
c-7.33301 0 -13 4.66699 -17 14l-13 39c-1.33301 2 -2 5 -2 9c0 6 3 10.333 9 13l237 100c1.33301 0.666992 3.33301 1 6 1s5.33398 -1 8.00098 -3s4.33398 -5 5.00098 -9z" />
    <glyph glyph-name="thorn" unicode="&#xfe;" horiz-adv-x="610" 
d="M221 737c3.33301 -3.33301 4.99707 -9 4.99707 -17v-237c0 -4.66699 2 -7 6 -7c3.33301 0 6.33301 1.33301 9 4c20.667 19.333 41.834 34.166 63.501 44.499s48.167 15.5 79.5 15.5c60 0 108.5 -23 145.5 -69s55.5 -113.667 55.5 -203c0 -93.333 -19.167 -163 -57.5 -209
s-88.5 -69 -150.5 -69c-25.333 0 -48.666 4 -69.999 12s-41.666 21 -60.999 39c-8 6.66699 -13 10 -15 10c-3.33301 0 -5 -5 -5 -15v-182c0 -12.667 -5.66699 -19 -17 -19h-144c-11.333 0 -17 6.66699 -17 20v863c0 8.66699 1.83301 14.834 5.5 18.501s10.167 5.5 19.5 5.5
h130c8.66699 0 14.667 -1.66699 18 -5zM307.997 100c31.333 0 55.332 13.167 71.999 39.5s25 70.833 25 133.5c0 58 -8.16699 98.667 -24.5 122s-40.166 35 -71.499 35c-23.333 0 -43 -6.66699 -59 -20s-24 -29 -24 -47v-218c22.667 -30 50 -45 82 -45z" />
    <glyph glyph-name="ydieresis" unicode="&#xff;" horiz-adv-x="578" 
d="M57.5 -161.5c-7.66699 2.33301 -11.499 7.83203 -11.499 16.499v90c0 12 9.33301 18 28 18h69c20 0 36.833 6 50.5 18s20.5 25 20.5 39c0 2.66699 -0.666992 6.66699 -2 12l-194 471c-0.666992 2 -1 4.66699 -1 8c0 5.33301 1.66699 9.83301 5 13.5s8 5.5 14 5.5h148
c6 0 11.167 -1.66699 15.5 -5s7.5 -7.66602 9.5 -12.999l97 -268c2 -6.66699 4.66699 -10 8 -10s6.33301 3.33301 9 10l97 268c6 12 14 18 24 18h100c6 0 10.5 -1.66699 13.5 -5s4.5 -7.66602 4.5 -12.999l-2 -8l-200 -488c-20.667 -50.667 -42 -88.834 -64 -114.501
s-47.667 -43.167 -77 -52.5s-68 -14 -116 -14c-22.667 0 -37.834 1.16699 -45.501 3.5zM281.001 627.999c0 -15.333 -8.66699 -22.999 -26 -22.999h-108c-7.33301 0 -12.5 1.66699 -15.5 5s-4.5 8.66602 -4.5 15.999v97c0 12.667 5 19 15 19h124c10 0 15 -5.66699 15 -17
v-97zM504.001 628c0 -8 -2.16797 -13.832 -6.50098 -17.499s-11.166 -5.5 -20.499 -5.5h-107c-8 0 -13.5 1.66699 -16.5 5s-4.5 8.66602 -4.5 15.999v97c0 12.667 5 19 15 19h125c10 0 15 -5.66699 15 -17v-97z" />
    <glyph glyph-name="Amacron" unicode="&#x100;" horiz-adv-x="785" 
d="M32.5 5c-3 3.33301 -4.5 7.99902 -4.5 13.999c0 4.66699 1 9.33398 3 14.001l246 688c2.66699 8 6 13.5 10 16.5s10 4.5 18 4.5h174c16 0 27.333 -8.33301 34 -25l243 -686c0.666992 -2 1 -5.33301 1 -10c0 -6 -1.16699 -11 -3.5 -15s-5.83301 -6 -10.5 -6h-173
c-10.667 -0 -17.667 5.33301 -21 16l-44 130c-2 4 -3.83301 6.83301 -5.5 8.5s-4.83398 2.5 -9.50098 2.5h-227c-7.33301 0 -12 -3.66699 -14 -11l-47 -132c-3.33301 -9.33301 -10.666 -14 -21.999 -14h-135c-5.33301 0 -9.5 1.66699 -12.5 5zM445 308.999
c6.66699 0 10 3.33301 10 10c0 4 -0.333008 7 -1 9l-72 201c-0.666992 4 -2.66699 6 -6 6c-2.66699 0 -4.66699 -2 -6 -6l-73 -201c-1.33301 -2.66699 -2 -6 -2 -10c0 -6 4 -9 12 -9h138zM583 861.999c0 -8 -2 -13.667 -6 -17s-10.667 -5 -20 -5h-343
c-8 0 -13.333 1.5 -16 4.5s-4 8.16699 -4 15.5v73c0 12 4.66699 18 14 18h361c9.33301 0 14 -5.33301 14 -16v-73z" />
    <glyph glyph-name="amacron" unicode="&#x101;" horiz-adv-x="568" 
d="M184 -10c-49.333 0 -88.668 13.667 -118.001 41s-44 62.333 -44 105c0 38 12 71.5 36 100.5s58.5 51.5 103.5 67.5s98.167 24.333 159.5 25l20 1c10.667 0 16 4.66699 16 14v19c0 22 -6.16699 39 -18.5 51s-30.166 18 -53.499 18
c-18.667 0 -35.834 -4.16699 -51.501 -12.5s-28.5 -21.833 -38.5 -40.5c-2 -4 -4 -6.83301 -6 -8.5s-5 -2.5 -9 -2.5s-7.33301 0.333008 -10 1l-116 24c-6.66699 1.33301 -10 5.33301 -10 12c0 4 1.33301 9.66699 4 17c30.667 78.667 112.334 118 245.001 118
c83.333 0 143 -14.5 179 -43.5s54 -69.833 54 -122.5v-349c0 -10 -1.33301 -16.667 -4 -20s-8.33398 -5 -17.001 -5h-121c-7.33301 0 -12.666 2.66699 -15.999 8s-6 13 -8 23l-1 15c-0.666992 6 -3 9 -7 9s-9.66699 -3 -17 -9c-44 -37.333 -94.333 -56 -151 -56z
M353.498 243c-2.33301 2.66699 -6.16797 4 -11.501 4l-16 -1c-18 -0.666992 -37.167 -4.16699 -57.5 -10.5s-37.666 -16 -51.999 -29s-21.5 -28.5 -21.5 -46.5c0 -17.333 6.16699 -31 18.5 -41s28.833 -15 49.5 -15c24.667 0 46.667 7.66699 66 23
c18.667 16 28 30.667 28 44v59c0 6 -1.16699 10.333 -3.5 13zM486.996 650c0 -8 -2 -13.667 -6 -17s-10.667 -5 -20 -5h-343c-8 0 -13.333 1.5 -16 4.5s-4 8.16699 -4 15.5v73c0 12 4.66699 18 14 18h361c9.33301 0 14 -5.33301 14 -16v-73z" />
    <glyph glyph-name="Abreve" unicode="&#x102;" horiz-adv-x="785" 
d="M32.5 5c-3 3.33301 -4.5 7.99902 -4.5 13.999c0 4.66699 1 9.33398 3 14.001l246 688c2.66699 8 6 13.5 10 16.5s10 4.5 18 4.5h174c16 0 27.333 -8.33301 34 -25l243 -686c0.666992 -2 1 -5.33301 1 -10c0 -6 -1.16699 -11 -3.5 -15s-5.83301 -6 -10.5 -6h-173
c-10.667 -0 -17.667 5.33301 -21 16l-44 130c-2 4 -3.83301 6.83301 -5.5 8.5s-4.83398 2.5 -9.50098 2.5h-227c-7.33301 0 -12 -3.66699 -14 -11l-47 -132c-3.33301 -9.33301 -10.666 -14 -21.999 -14h-135c-5.33301 0 -9.5 1.66699 -12.5 5zM445 308.999
c6.66699 0 10 3.33301 10 10c0 4 -0.333008 7 -1 9l-72 201c-0.666992 4 -2.66699 6 -6 6c-2.66699 0 -4.66699 -2 -6 -6l-73 -201c-1.33301 -2.66699 -2 -6 -2 -10c0 -6 4 -9 12 -9h138zM576.5 949.999c1.66699 -2.66699 1.83496 -6.99805 0.501953 -12.998
c-12.667 -39.333 -35.834 -69.833 -69.501 -91.5s-72.834 -32.5 -117.501 -32.5s-84 10.667 -118 32s-57.333 52.666 -70 93.999l-1 5c0 6.66699 3.66699 10 11 10h71c5.33301 0 9.5 -0.833008 12.5 -2.5s6.16699 -5.16699 9.5 -10.5c8.66699 -13.333 20.667 -24.333 36 -33
s31.666 -13 48.999 -13c16 0 32 4.5 48 13.5s28 20.167 36 33.5c2.66699 5.33301 5.33398 8.66602 8.00098 9.99902s6 2 10 2h73c6 0 9.83301 -1.33301 11.5 -4z" />
    <glyph glyph-name="abreve" unicode="&#x103;" horiz-adv-x="568" 
d="M184 -10c-49.333 0 -88.668 13.667 -118.001 41s-44 62.333 -44 105c0 38 12 71.5 36 100.5s58.5 51.5 103.5 67.5s98.167 24.333 159.5 25l20 1c10.667 0 16 4.66699 16 14v19c0 22 -6.16699 39 -18.5 51s-30.166 18 -53.499 18
c-18.667 0 -35.834 -4.16699 -51.501 -12.5s-28.5 -21.833 -38.5 -40.5c-2 -4 -4 -6.83301 -6 -8.5s-5 -2.5 -9 -2.5s-7.33301 0.333008 -10 1l-116 24c-6.66699 1.33301 -10 5.33301 -10 12c0 4 1.33301 9.66699 4 17c30.667 78.667 112.334 118 245.001 118
c83.333 0 143 -14.5 179 -43.5s54 -69.833 54 -122.5v-349c0 -10 -1.33301 -16.667 -4 -20s-8.33398 -5 -17.001 -5h-121c-7.33301 0 -12.666 2.66699 -15.999 8s-6 13 -8 23l-1 15c-0.666992 6 -3 9 -7 9s-9.66699 -3 -17 -9c-44 -37.333 -94.333 -56 -151 -56z
M353.498 243c-2.33301 2.66699 -6.16797 4 -11.501 4l-16 -1c-18 -0.666992 -37.167 -4.16699 -57.5 -10.5s-37.666 -16 -51.999 -29s-21.5 -28.5 -21.5 -46.5c0 -17.333 6.16699 -31 18.5 -41s28.833 -15 49.5 -15c24.667 0 46.667 7.66699 66 23
c18.667 16 28 30.667 28 44v59c0 6 -1.16699 10.333 -3.5 13zM480.496 738c1.66699 -2.66699 1.83496 -6.99805 0.501953 -12.998c-12.667 -39.333 -35.834 -69.833 -69.501 -91.5s-72.834 -32.5 -117.501 -32.5s-84 10.667 -118 32s-57.333 52.666 -70 93.999l-1 5
c0 6.66699 3.66699 10 11 10h71c5.33301 0 9.5 -0.833008 12.5 -2.5s6.16699 -5.16699 9.5 -10.5c8.66699 -13.333 20.667 -24.333 36 -33s31.666 -13 48.999 -13c16 0 32 4.5 48 13.5s28 20.167 36 33.5c2.66699 5.33301 5.33398 8.66602 8.00098 9.99902s6 2 10 2h73
c6 0 9.83301 -1.33301 11.5 -4z" />
    <glyph glyph-name="Aogonek" unicode="&#x104;" horiz-adv-x="785" 
d="M756 -77c4.66699 0 7.00195 -4.33203 7.00195 -12.999v-47c0 -7.33301 -3 -13 -9 -17c-10 -5.33301 -24.5 -10 -43.5 -14s-39.5 -6 -61.5 -6c-36.667 0 -65.334 7.33301 -86.001 22s-31 36 -31 64c0 18 5.83301 34.167 17.5 48.5s32.5 27.5 62.5 39.5h-42
c-10.667 0 -17.667 5.33301 -21 16l-44 130c-2 4 -3.83301 6.83301 -5.5 8.5s-4.83398 2.5 -9.50098 2.5h-227c-7.33301 0 -12 -3.66699 -14 -11l-47 -132c-3.33301 -9.33301 -10.666 -14 -21.999 -14h-135c-5.33301 0 -9.5 1.66699 -12.5 5s-4.5 8 -4.5 14
c0 4.66699 1 9.33398 3 14.001l246 688c2.66699 8 6 13.5 10 16.5s10 4.5 18 4.5h174c16 0 27.333 -8.33301 34 -25l243 -686c0.666992 -2 1 -5.33301 1 -10c0 -6 -1.16699 -11 -3.5 -15s-5.83301 -6 -10.5 -6h-5c-30.667 -11.333 -51.834 -21.833 -63.501 -31.5
s-17.5 -20.834 -17.5 -33.501c0 -10.667 2.5 -18.334 7.5 -23.001s13.167 -7 24.5 -7c18 0 37 5 57 15c4 2 7.33301 3 10 3zM455.002 319.001c0 4 -0.333008 7 -1 9l-72 201c-0.666992 4 -2.66699 6 -6 6c-2.66699 0 -4.66699 -2 -6 -6l-73 -201
c-1.33301 -2.66699 -2 -6 -2 -10c0 -6 4 -9 12 -9h138c6.66699 0 10 3.33301 10 10z" />
    <glyph glyph-name="aogonek" unicode="&#x105;" horiz-adv-x="568" 
d="M526 -75c4.66699 0 7 -4.33105 7 -12.998v-47c0 -7.33301 -3 -13 -9 -17c-10 -5.33301 -24.5 -10 -43.5 -14s-39.5 -6 -61.5 -6c-36.667 0 -65.334 7.33301 -86.001 22s-31 36 -31 64c0 18 5.5 34 16.5 48s31.167 27 60.5 39c-5.33301 0.666992 -9.33301 3.66699 -12 9
s-5 12.333 -7 21l-1 15c-0.666992 6 -3 9 -7 9s-9.66699 -3 -17 -9c-44 -37.333 -94.333 -56 -151 -56c-49.333 0 -88.666 13.667 -117.999 41s-44 62.333 -44 105c0 38 12 71.5 36 100.5s58.5 51.5 103.5 67.5s98.167 24.333 159.5 25l20 1c10.667 0 16 4.66699 16 14v19
c0 22 -6.16699 39 -18.5 51s-30.166 18 -53.499 18c-18.667 0 -35.834 -4.16699 -51.501 -12.5s-28.5 -21.833 -38.5 -40.5c-2 -4 -4 -6.83301 -6 -8.5s-5 -2.5 -9 -2.5s-7.33301 0.333008 -10 1l-116 24c-6.66699 1.33301 -10 5.33301 -10 12c0 4 1.33301 9.66699 4 17
c30.667 78.667 112.334 118 245.001 118c83.333 0 143 -14.5 179 -43.5s54 -69.833 54 -122.5v-349c0 -10 -1.33301 -16.667 -4 -20s-8.33398 -5 -17.001 -5h-2c-28.667 -10.667 -48.5 -20.834 -59.5 -30.501s-16.5 -20.5 -16.5 -32.5c0 -10.667 2.5 -18.334 7.5 -23.001
s13.167 -7 24.5 -7c18 0 37 5 57 15c4 2 7.33301 3 10 3zM357 230.002c0 6 -1.16895 10.333 -3.50195 13s-6.16602 4 -11.499 4l-16 -1c-18 -0.666992 -37.167 -4.16699 -57.5 -10.5s-37.666 -16 -51.999 -29s-21.5 -28.5 -21.5 -46.5c0 -17.333 6.16699 -31 18.5 -41
s28.833 -15 49.5 -15c24.667 0 46.667 7.66699 66 23c18.667 16 28 30.667 28 44v59z" />
    <glyph glyph-name="Cacute" unicode="&#x106;" horiz-adv-x="731" 
d="M529 723c44 -19.333 80 -46.1602 108 -80.4932s46 -72.833 54 -115.5l2 -17c0 -5.33301 -1 -8.83301 -3 -10.5s-5.66699 -2.83398 -11 -3.50098l-156 -11c-6 0 -9.83301 1.16699 -11.5 3.5s-3.5 7.16602 -5.5 14.499c-15.333 73.333 -54.333 110 -117 110
c-94 0 -141 -79 -141 -237c0 -84 11.667 -144.833 35 -182.5s58.666 -56.5 105.999 -56.5c37.333 0 69.166 9.5 95.499 28.5s48.166 50.167 65.499 93.5c2 5.33301 7 8 15 8c4 0 7.33301 -0.333008 10 -1l113 -22c4 -1.33301 7.16699 -3.33301 9.5 -6
s3.5 -7.33398 3.5 -14.001c0 -4 -0.333008 -7.33301 -1 -10c-5.33301 -26.667 -20.166 -57.334 -44.499 -92.001s-59.333 -65.334 -105 -92.001s-101.5 -40 -167.5 -40c-69.333 0 -130.166 16.5 -182.499 49.5s-92.666 78.833 -120.999 137.5s-42.5 126 -42.5 202
c0 75.333 14.167 141.166 42.5 197.499s68.5 99.666 120.5 129.999s113.333 45.5 184 45.5c52.667 0 101 -9.66699 145 -29zM529 878.006c1.33301 -5.33301 1.99707 -8.66699 1.99707 -10c0 -10 -6.66699 -16.333 -20 -19l-232 -59
c-5.33301 -1.33301 -8.66602 -2 -9.99902 -2c-7.33301 0 -13 4.66699 -17 14l-13 39c-1.33301 2 -2 5 -2 9c0 6 3 10.333 9 13l237 100c1.33301 0.666992 3.33301 1 6 1s5.33398 -1 8.00098 -3s4.33398 -5 5.00098 -9z" />
    <glyph glyph-name="cacute" unicode="&#x107;" horiz-adv-x="553" 
d="M410.5 516.5c32.333 -15.667 58.501 -35.833 78.501 -60.5s33.667 -50.334 41 -77.001c1.33301 -5.33301 2 -8.66602 2 -9.99902c0 -8 -6 -12.667 -18 -14l-121 -8c-0.666992 0 -1.33398 -0.166992 -2.00098 -0.5s-1.66699 -0.166016 -3 0.500977c-5.33301 0 -9 4 -11 12
c-7.33301 21.333 -16 37.833 -26 49.5s-26 17.5 -48 17.5c-30.667 0 -54.5 -13.333 -71.5 -40s-25.5 -67 -25.5 -121c0 -108.667 35.333 -163 106 -163c26 0 46.5 6.66699 61.5 20s30.5 34 46.5 62c1.33301 2.66699 3.33301 4.33398 6 5.00098s7 0.666992 13 0l84 -18
c6.66699 -0.666992 10 -4 10 -10c0 -2 -0.666992 -5.66699 -2 -11c-6 -22 -18.167 -45.333 -36.5 -70s-44 -45.834 -77 -63.501s-72.833 -26.5 -119.5 -26.5c-52 0 -98.667 11.5 -140 34.5s-73.666 55.167 -96.999 96.5s-35 88.666 -35 141.999c0 54 11.833 102 35.5 144
s56.167 74.667 97.5 98s87.666 35 138.999 35c42.667 0 80.167 -7.83301 112.5 -23.5zM443.001 666.001c1.33301 -5.33301 1.99707 -8.66699 1.99707 -10c0 -10 -6.66699 -16.333 -20 -19l-232 -59c-5.33301 -1.33301 -8.66602 -2 -9.99902 -2
c-7.33301 0 -13 4.66699 -17 14l-13 39c-1.33301 2 -2 5 -2 9c0 6 3 10.333 9 13l237 100c1.33301 0.666992 3.33301 1 6 1s5.33398 -1 8.00098 -3s4.33398 -5 5.00098 -9z" />
    <glyph glyph-name="Ccircumflex" unicode="&#x108;" horiz-adv-x="731" 
d="M529 723c44 -19.333 80 -46.1602 108 -80.4932s46 -72.833 54 -115.5l2 -17c0 -5.33301 -1 -8.83301 -3 -10.5s-5.66699 -2.83398 -11 -3.50098l-156 -11c-6 0 -9.83301 1.16699 -11.5 3.5s-3.5 7.16602 -5.5 14.499c-15.333 73.333 -54.333 110 -117 110
c-94 0 -141 -79 -141 -237c0 -84 11.667 -144.833 35 -182.5s58.666 -56.5 105.999 -56.5c37.333 0 69.166 9.5 95.499 28.5s48.166 50.167 65.499 93.5c2 5.33301 7 8 15 8c4 0 7.33301 -0.333008 10 -1l113 -22c4 -1.33301 7.16699 -3.33301 9.5 -6
s3.5 -7.33398 3.5 -14.001c0 -4 -0.333008 -7.33301 -1 -10c-5.33301 -26.667 -20.166 -57.334 -44.499 -92.001s-59.333 -65.334 -105 -92.001s-101.5 -40 -167.5 -40c-69.333 0 -130.166 16.5 -182.499 49.5s-92.666 78.833 -120.999 137.5s-42.5 126 -42.5 202
c0 75.333 14.167 141.166 42.5 197.499s68.5 99.666 120.5 129.999s113.333 45.5 184 45.5c52.667 0 101 -9.66699 145 -29zM399 876.006c-3.33301 4 -6.33594 7.33301 -9.00293 10s-5 4 -7 4c-3.33301 0 -8.66602 -4.66699 -15.999 -14l-49 -54
c-3.33301 -4 -6.33301 -6.33301 -9 -7s-7.66699 -1 -15 -1h-91c-6 0 -9 1.66699 -9 5c0 2 2.33301 6 7 12l110 118c4 5.33301 8.5 9 13.5 11s11.833 3 20.5 3h85c10.667 0 19.334 -4 26.001 -12l109 -120c5.33301 -6.66699 8 -11 8 -13c0 -2.66699 -3 -4 -9 -4h-97
c-6.66699 0 -11.667 0.5 -15 1.5s-6.66602 3.16699 -9.99902 6.5z" />
    <glyph glyph-name="ccircumflex" unicode="&#x109;" horiz-adv-x="553" 
d="M410.5 516.5c32.333 -15.667 58.501 -35.833 78.501 -60.5s33.667 -50.334 41 -77.001c1.33301 -5.33301 2 -8.66602 2 -9.99902c0 -8 -6 -12.667 -18 -14l-121 -8c-0.666992 0 -1.33398 -0.166992 -2.00098 -0.5s-1.66699 -0.166016 -3 0.500977c-5.33301 0 -9 4 -11 12
c-7.33301 21.333 -16 37.833 -26 49.5s-26 17.5 -48 17.5c-30.667 0 -54.5 -13.333 -71.5 -40s-25.5 -67 -25.5 -121c0 -108.667 35.333 -163 106 -163c26 0 46.5 6.66699 61.5 20s30.5 34 46.5 62c1.33301 2.66699 3.33301 4.33398 6 5.00098s7 0.666992 13 0l84 -18
c6.66699 -0.666992 10 -4 10 -10c0 -2 -0.666992 -5.66699 -2 -11c-6 -22 -18.167 -45.333 -36.5 -70s-44 -45.834 -77 -63.501s-72.833 -26.5 -119.5 -26.5c-52 0 -98.667 11.5 -140 34.5s-73.666 55.167 -96.999 96.5s-35 88.666 -35 141.999c0 54 11.833 102 35.5 144
s56.167 74.667 97.5 98s87.666 35 138.999 35c42.667 0 80.167 -7.83301 112.5 -23.5zM313.001 664.001c-3.33301 4 -6.33594 7.33301 -9.00293 10s-5 4 -7 4c-3.33301 0 -8.66602 -4.66699 -15.999 -14l-49 -54c-3.33301 -4 -6.33301 -6.33301 -9 -7s-7.66699 -1 -15 -1
h-91c-6 0 -9 1.66699 -9 5c0 2 2.33301 6 7 12l110 118c4 5.33301 8.5 9 13.5 11s11.833 3 20.5 3h85c10.667 0 19.334 -4 26.001 -12l109 -120c5.33301 -6.66699 8 -11 8 -13c0 -2.66699 -3 -4 -9 -4h-97c-6.66699 0 -11.667 0.5 -15 1.5s-6.66602 3.16699 -9.99902 6.5z
" />
    <glyph glyph-name="Cdotaccent" unicode="&#x10a;" horiz-adv-x="731" 
d="M529 723c44 -19.333 80 -46.1602 108 -80.4932s46 -72.833 54 -115.5l2 -17c0 -5.33301 -1 -8.83301 -3 -10.5s-5.66699 -2.83398 -11 -3.50098l-156 -11c-6 0 -9.83301 1.16699 -11.5 3.5s-3.5 7.16602 -5.5 14.499c-15.333 73.333 -54.333 110 -117 110
c-94 0 -141 -79 -141 -237c0 -84 11.667 -144.833 35 -182.5s58.666 -56.5 105.999 -56.5c37.333 0 69.166 9.5 95.499 28.5s48.166 50.167 65.499 93.5c2 5.33301 7 8 15 8c4 0 7.33301 -0.333008 10 -1l113 -22c4 -1.33301 7.16699 -3.33301 9.5 -6
s3.5 -7.33398 3.5 -14.001c0 -4 -0.333008 -7.33301 -1 -10c-5.33301 -26.667 -20.166 -57.334 -44.499 -92.001s-59.333 -65.334 -105 -92.001s-101.5 -40 -167.5 -40c-69.333 0 -130.166 16.5 -182.499 49.5s-92.666 78.833 -120.999 137.5s-42.5 126 -42.5 202
c0 75.333 14.167 141.166 42.5 197.499s68.5 99.666 120.5 129.999s113.333 45.5 184 45.5c52.667 0 101 -9.66699 145 -29zM473 822.006c0 -9.33301 -2.33301 -16 -7 -20s-12.334 -6 -23.001 -6h-125c-9.33301 0 -15.666 1.83301 -18.999 5.5s-5 9.5 -5 17.5v114
c0 14 6 21 18 21h145c10.667 0 16 -6.33301 16 -19v-113z" />
    <glyph glyph-name="cdotaccent" unicode="&#x10b;" horiz-adv-x="553" 
d="M410.5 516.5c32.333 -15.667 58.501 -35.833 78.501 -60.5s33.667 -50.334 41 -77.001c1.33301 -5.33301 2 -8.66602 2 -9.99902c0 -8 -6 -12.667 -18 -14l-121 -8c-0.666992 0 -1.33398 -0.166992 -2.00098 -0.5s-1.66699 -0.166016 -3 0.500977c-5.33301 0 -9 4 -11 12
c-7.33301 21.333 -16 37.833 -26 49.5s-26 17.5 -48 17.5c-30.667 0 -54.5 -13.333 -71.5 -40s-25.5 -67 -25.5 -121c0 -108.667 35.333 -163 106 -163c26 0 46.5 6.66699 61.5 20s30.5 34 46.5 62c1.33301 2.66699 3.33301 4.33398 6 5.00098s7 0.666992 13 0l84 -18
c6.66699 -0.666992 10 -4 10 -10c0 -2 -0.666992 -5.66699 -2 -11c-6 -22 -18.167 -45.333 -36.5 -70s-44 -45.834 -77 -63.501s-72.833 -26.5 -119.5 -26.5c-52 0 -98.667 11.5 -140 34.5s-73.666 55.167 -96.999 96.5s-35 88.666 -35 141.999c0 54 11.833 102 35.5 144
s56.167 74.667 97.5 98s87.666 35 138.999 35c42.667 0 80.167 -7.83301 112.5 -23.5zM387.001 610.001c0 -9.33301 -2.33301 -16 -7 -20s-12.334 -6 -23.001 -6h-125c-9.33301 0 -15.666 1.83301 -18.999 5.5s-5 9.5 -5 17.5v114c0 14 6 21 18 21h145
c10.667 0 16 -6.33301 16 -19v-113z" />
    <glyph glyph-name="Ccaron" unicode="&#x10c;" horiz-adv-x="731" 
d="M529 723c44 -19.333 80 -46.1602 108 -80.4932s46 -72.833 54 -115.5l2 -17c0 -5.33301 -1 -8.83301 -3 -10.5s-5.66699 -2.83398 -11 -3.50098l-156 -11c-6 0 -9.83301 1.16699 -11.5 3.5s-3.5 7.16602 -5.5 14.499c-15.333 73.333 -54.333 110 -117 110
c-94 0 -141 -79 -141 -237c0 -84 11.667 -144.833 35 -182.5s58.666 -56.5 105.999 -56.5c37.333 0 69.166 9.5 95.499 28.5s48.166 50.167 65.499 93.5c2 5.33301 7 8 15 8c4 0 7.33301 -0.333008 10 -1l113 -22c4 -1.33301 7.16699 -3.33301 9.5 -6
s3.5 -7.33398 3.5 -14.001c0 -4 -0.333008 -7.33301 -1 -10c-5.33301 -26.667 -20.166 -57.334 -44.499 -92.001s-59.333 -65.334 -105 -92.001s-101.5 -40 -167.5 -40c-69.333 0 -130.166 16.5 -182.499 49.5s-92.666 78.833 -120.999 137.5s-42.5 126 -42.5 202
c0 75.333 14.167 141.166 42.5 197.499s68.5 99.666 120.5 129.999s113.333 45.5 184 45.5c52.667 0 101 -9.66699 145 -29zM452 953.506c3.33301 1 8.33203 1.5 14.999 1.5h97c6 0 9 -1.33301 9 -4c0 -2 -2.66699 -6.33301 -8 -13l-109 -121c-8 -8 -16.667 -12 -26 -12h-85
c-14.667 0 -26 4.66699 -34 14l-110 119c-4.66699 6 -7 10 -7 12c0 3.33301 3 5 9 5h91h5c4.66699 0 8.33398 -0.5 11.001 -1.5s5.33398 -3.5 8.00098 -7.5l49 -54c6.66699 -8.66699 12 -13 16 -13c2 0 4.33301 1.16699 7 3.5s5.66699 5.5 9 9.5l43 54
c3.33301 4 6.66602 6.5 9.99902 7.5z" />
    <glyph glyph-name="ccaron" unicode="&#x10d;" horiz-adv-x="553" 
d="M410.5 516.5c32.333 -15.667 58.501 -35.833 78.501 -60.5s33.667 -50.334 41 -77.001c1.33301 -5.33301 2 -8.66602 2 -9.99902c0 -8 -6 -12.667 -18 -14l-121 -8c-0.666992 0 -1.33398 -0.166992 -2.00098 -0.5s-1.66699 -0.166016 -3 0.500977c-5.33301 0 -9 4 -11 12
c-7.33301 21.333 -16 37.833 -26 49.5s-26 17.5 -48 17.5c-30.667 0 -54.5 -13.333 -71.5 -40s-25.5 -67 -25.5 -121c0 -108.667 35.333 -163 106 -163c26 0 46.5 6.66699 61.5 20s30.5 34 46.5 62c1.33301 2.66699 3.33301 4.33398 6 5.00098s7 0.666992 13 0l84 -18
c6.66699 -0.666992 10 -4 10 -10c0 -2 -0.666992 -5.66699 -2 -11c-6 -22 -18.167 -45.333 -36.5 -70s-44 -45.834 -77 -63.501s-72.833 -26.5 -119.5 -26.5c-52 0 -98.667 11.5 -140 34.5s-73.666 55.167 -96.999 96.5s-35 88.666 -35 141.999c0 54 11.833 102 35.5 144
s56.167 74.667 97.5 98s87.666 35 138.999 35c42.667 0 80.167 -7.83301 112.5 -23.5zM366.001 741.501c3.33301 1 8.33203 1.5 14.999 1.5h97c6 0 9 -1.33301 9 -4c0 -2 -2.66699 -6.33301 -8 -13l-109 -121c-8 -8 -16.667 -12 -26 -12h-85c-14.667 0 -26 4.66699 -34 14
l-110 119c-4.66699 6 -7 10 -7 12c0 3.33301 3 5 9 5h91h5c4.66699 0 8.33398 -0.5 11.001 -1.5s5.33398 -3.5 8.00098 -7.5l49 -54c6.66699 -8.66699 12 -13 16 -13c2 0 4.33301 1.16699 7 3.5s5.66699 5.5 9 9.5l43 54c3.33301 4 6.66602 6.5 9.99902 7.5z" />
    <glyph glyph-name="Dcaron" unicode="&#x10e;" horiz-adv-x="762" 
d="M192 742c72.667 0 118.668 -0.333008 138.001 -1c131.333 -4.66699 229.833 -39.167 295.5 -103.5s98.5 -152.5 98.5 -264.5c0 -74.667 -14.833 -140 -44.5 -196s-74.167 -99.5 -133.5 -130.5s-132 -46.5 -218 -46.5h-241c-9.33301 0 -16 2 -20 6s-6 11 -6 21v692
c0 8.66699 1.66699 14.667 5 18s9.66602 5 18.999 5h107zM263.001 587v-432.001c0 -5.33301 0.833008 -9 2.5 -11s5.16699 -3 10.5 -3h13c74.667 0 130.5 18.167 167.5 54.5s55.5 96.166 55.5 179.499c0 74.667 -14.833 129.334 -44.5 164.001s-74.5 54.334 -134.5 59.001
l-61 3c-6 0 -9 -4.66699 -9 -14zM451.001 953.499c3.33301 1 8.33203 1.5 14.999 1.5h97c6 0 9 -1.33301 9 -4c0 -2 -2.66699 -6.33301 -8 -13l-109 -121c-8 -8 -16.667 -12 -26 -12h-85c-14.667 0 -26 4.66699 -34 14l-110 119c-4.66699 6 -7 10 -7 12c0 3.33301 3 5 9 5
h91h5c4.66699 0 8.33398 -0.5 11.001 -1.5s5.33398 -3.5 8.00098 -7.5l49 -54c6.66699 -8.66699 12 -13 16 -13c2 0 4.33301 1.16699 7 3.5s5.66699 5.5 9 9.5l43 54c3.33301 4 6.66602 6.5 9.99902 7.5z" />
    <glyph glyph-name="dcaron" unicode="&#x10f;" horiz-adv-x="768" 
d="M390 21l-0.00292969 24c0 2.66699 -0.666992 4.66699 -2 6s-2.66602 2 -3.99902 2c-2 0 -5 -1.33301 -9 -4c-20 -19.333 -41 -34 -63 -44s-48.667 -15 -80 -15c-61.333 0 -110.666 23.333 -147.999 70s-56 114 -56 202c0 54.667 9.66699 103 29 145s45.333 74.667 78 98
s68.334 35 107.001 35c25.333 0 48 -4 68 -12s39.667 -21.333 59 -40c4 -4 8 -6 12 -6c4.66699 0 7 4.66699 7 14v227c0 12.667 5.33301 19 16 19h143c12 0 18 -7 18 -21v-698c0 -8 -1.83301 -13.833 -5.5 -17.5s-10.167 -5.5 -19.5 -5.5h-127c-15.333 0 -23 7 -23 21z
M348.497 417.5c-12.333 7 -27.167 10.499 -44.5 10.499c-30 0 -53.5 -13.167 -70.5 -39.5s-25.5 -68.166 -25.5 -125.499c0 -58 8.16699 -99.833 24.5 -125.5s39.833 -38.5 70.5 -38.5c23.333 0 43.166 7.33301 59.499 22s24.5 32.667 24.5 54v210
c-13.333 14.667 -26.166 25.5 -38.499 32.5zM625.496 509.999c-1.66699 3.33301 -1.83203 6.66504 -0.499023 9.99805l31 76c1.33301 3.33301 2 7 2 11c0 4.66699 -3 7.33398 -9 8.00098l-11 2c-6 0.666992 -10.167 2.16699 -12.5 4.5s-3.5 6.16602 -3.5 11.499v94
c0 10 4.33301 15 13 15h89c3.33301 0 6.16602 -1.16699 8.49902 -3.5s3.5 -5.16602 3.5 -8.49902v-113c0 -2 -1 -5 -3 -9l-37 -88c-2 -5.33301 -5 -9.16602 -9 -11.499s-10.333 -3.5 -19 -3.5h-34c-4 0 -6.83301 1.66699 -8.5 5z" />
    <glyph glyph-name="Dcroat" unicode="&#x110;" horiz-adv-x="779" 
d="M642.5 637.5c65.667 -64.333 98.501 -152.5 98.501 -264.5c0 -74.667 -14.833 -140 -44.5 -196s-74.167 -99.5 -133.5 -130.5s-132 -46.5 -218 -46.5h-241c-9.33301 0 -16 2 -20 6s-6 11 -6 21v274h-29c-8.66699 0 -14.667 1.83301 -18 5.5s-5 9.5 -5 17.5v84
c0 14 5.66699 21 17 21h35v290c0 8.66699 1.66699 14.667 5 18s9.66602 5 18.999 5h107c72.667 0 118.667 -0.333008 138 -1c131.333 -4.66699 229.833 -39.167 295.5 -103.5zM473.501 195.5c37 36.333 55.5 96.165 55.5 179.498c0 74.667 -14.833 129.334 -44.5 164.001
s-74.5 54.334 -134.5 59.001l-61 3c-6 0 -9 -4.66699 -9 -14v-158h123c4.66699 0 8.66699 -1.83301 12 -5.5s5 -8.16699 5 -13.5v-83c0 -17.333 -10.333 -26 -31 -26h-109v-146c0 -5.33301 0.833008 -9 2.5 -11s5.16699 -3 10.5 -3h13c74.667 0 130.5 18.167 167.5 54.5z
" />
    <glyph glyph-name="dcroat" unicode="&#x111;" horiz-adv-x="623" 
d="M604.5 679.5c2.33301 -3 3.49609 -7.16602 3.49609 -12.499v-59c0 -14.667 -8.66699 -22 -26 -22h-17v-563c0 -8 -1.83301 -13.833 -5.5 -17.5s-10.167 -5.5 -19.5 -5.5h-127c-15.333 0 -23 7 -23 21v24c0 2.66699 -0.666992 4.66699 -2 6s-2.66602 2 -3.99902 2
c-2 0 -5 -1.33301 -9 -4c-20 -19.333 -41 -34 -63 -44s-48.667 -15 -80 -15c-61.333 0 -110.666 23.333 -147.999 70s-56 114 -56 202c0 54.667 9.66699 103 29 145s45.333 74.667 78 98s68.334 35 107.001 35c25.333 0 48 -4 68 -12s39.667 -21.333 59 -40c4 -4 8 -6 12 -6
c4.66699 0 7 4.66699 7 14v90h-120c-7.33301 0 -12.5 1.66699 -15.5 5s-4.5 8.66602 -4.5 15.999v58c0 6 1.33301 10.667 4 14s6.33398 5 11.001 5h125v39c0 12.667 5.33301 19 16 19h143c12 0 18 -7 18 -21v-37h29c4.66699 0 8.16699 -1.5 10.5 -4.5zM386.996 385.001
c-13.333 14.667 -26.167 25.499 -38.5 32.499s-27.166 10.5 -44.499 10.5c-30 0 -53.5 -13.167 -70.5 -39.5s-25.5 -68.166 -25.5 -125.499c0 -58 8.16699 -99.833 24.5 -125.5s39.833 -38.5 70.5 -38.5c23.333 0 43.166 7.33301 59.499 22s24.5 32.667 24.5 54v210z" />
    <glyph glyph-name="Emacron" unicode="&#x112;" horiz-adv-x="663" 
d="M78 742l523.001 -0.000976562c10.667 0 16 -6.33301 16 -19v-104c0 -7.33301 -2 -13.166 -6 -17.499s-10 -6.5 -18 -6.5h-309c-14 0 -21 -6 -21 -18v-113c0 -6 1.5 -10.667 4.5 -14s6.83301 -5 11.5 -5h195c12.667 0 19 -6 19 -18v-111c0 -10 -5.33301 -15 -16 -15h-199
c-10 0 -15 -4.66699 -15 -14v-127c0 -4.66699 0.833008 -8 2.5 -10s4.5 -3 8.5 -3h333c6.66699 0 11.667 -1.33301 15 -4s5 -7 5 -13v-110c0 -13.333 -7 -20 -21 -20h-521c-8.66699 -0 -14.834 1.83301 -18.501 5.5s-5.5 9.5 -5.5 17.5v698c0 14 5.66699 21 17 21z
M531.001 861.999c0 -8 -2 -13.667 -6 -17s-10.667 -5 -20 -5h-343c-8 0 -13.333 1.5 -16 4.5s-4 8.16699 -4 15.5v73c0 12 4.66699 18 14 18h361c9.33301 0 14 -5.33301 14 -16v-73z" />
    <glyph glyph-name="emacron" unicode="&#x113;" horiz-adv-x="588" 
d="M242 137.5c22 -19 50 -28.498 84 -28.498c20.667 0 40.167 4.66699 58.5 14s38.166 25 59.499 47c2.66699 2.66699 5.66699 4 9 4s6.66602 -0.666992 9.99902 -2l82 -34c6 -2.66699 9 -6.33398 9 -11.001c0 -2.66699 -1.66699 -6.33398 -5 -11.001
c-33.333 -48 -68.666 -81 -105.999 -99s-84.333 -27 -141 -27c-52 0 -99 11.333 -141 34s-75 54.167 -99 94.5s-36 86.5 -36 138.5c0 55.333 12.333 104.5 37 147.5s57.834 76.333 99.501 100s87.167 35.5 136.5 35.5c52 0 98 -11.167 138 -33.5s71.333 -54.833 94 -97.5
s34 -93.334 34 -152.001c0 -9.33301 -0.833008 -15.666 -2.5 -18.999s-6.5 -5.33301 -14.5 -6h-325c-9.33301 0 -14 -5.33301 -14 -16c0 -33.333 11 -59.5 33 -78.5zM375 326.002c6.66699 0 11.167 0.833008 13.5 2.5s3.5 5.5 3.5 11.5c0 22.667 -7.5 44 -22.5 64
s-35.833 30 -62.5 30c-28 0 -51 -9.66699 -69 -29s-26.667 -45.333 -26 -78zM494 650.002c0 -8 -2 -13.667 -6 -17s-10.667 -5 -20 -5h-343c-8 0 -13.333 1.5 -16 4.5s-4 8.16699 -4 15.5v73c0 12 4.66699 18 14 18h361c9.33301 0 14 -5.33301 14 -16v-73z" />
    <glyph glyph-name="Ebreve" unicode="&#x114;" horiz-adv-x="663" 
d="M78 742l523.001 -0.000976562c10.667 0 16 -6.33301 16 -19v-104c0 -7.33301 -2 -13.166 -6 -17.499s-10 -6.5 -18 -6.5h-309c-14 0 -21 -6 -21 -18v-113c0 -6 1.5 -10.667 4.5 -14s6.83301 -5 11.5 -5h195c12.667 0 19 -6 19 -18v-111c0 -10 -5.33301 -15 -16 -15h-199
c-10 0 -15 -4.66699 -15 -14v-127c0 -4.66699 0.833008 -8 2.5 -10s4.5 -3 8.5 -3h333c6.66699 0 11.667 -1.33301 15 -4s5 -7 5 -13v-110c0 -13.333 -7 -20 -21 -20h-521c-8.66699 -0 -14.834 1.83301 -18.501 5.5s-5.5 9.5 -5.5 17.5v698c0 14 5.66699 21 17 21z
M524.501 949.999c1.66699 -2.66699 1.83496 -6.99805 0.501953 -12.998c-12.667 -39.333 -35.834 -69.833 -69.501 -91.5s-72.834 -32.5 -117.501 -32.5s-84 10.667 -118 32s-57.333 52.666 -70 93.999l-1 5c0 6.66699 3.66699 10 11 10h71
c5.33301 0 9.5 -0.833008 12.5 -2.5s6.16699 -5.16699 9.5 -10.5c8.66699 -13.333 20.667 -24.333 36 -33s31.666 -13 48.999 -13c16 0 32 4.5 48 13.5s28 20.167 36 33.5c2.66699 5.33301 5.33398 8.66602 8.00098 9.99902s6 2 10 2h73c6 0 9.83301 -1.33301 11.5 -4z" />
    <glyph glyph-name="ebreve" unicode="&#x115;" horiz-adv-x="588" 
d="M242 137.5c22 -19 50 -28.498 84 -28.498c20.667 0 40.167 4.66699 58.5 14s38.166 25 59.499 47c2.66699 2.66699 5.66699 4 9 4s6.66602 -0.666992 9.99902 -2l82 -34c6 -2.66699 9 -6.33398 9 -11.001c0 -2.66699 -1.66699 -6.33398 -5 -11.001
c-33.333 -48 -68.666 -81 -105.999 -99s-84.333 -27 -141 -27c-52 0 -99 11.333 -141 34s-75 54.167 -99 94.5s-36 86.5 -36 138.5c0 55.333 12.333 104.5 37 147.5s57.834 76.333 99.501 100s87.167 35.5 136.5 35.5c52 0 98 -11.167 138 -33.5s71.333 -54.833 94 -97.5
s34 -93.334 34 -152.001c0 -9.33301 -0.833008 -15.666 -2.5 -18.999s-6.5 -5.33301 -14.5 -6h-325c-9.33301 0 -14 -5.33301 -14 -16c0 -33.333 11 -59.5 33 -78.5zM375 326.002c6.66699 0 11.167 0.833008 13.5 2.5s3.5 5.5 3.5 11.5c0 22.667 -7.5 44 -22.5 64
s-35.833 30 -62.5 30c-28 0 -51 -9.66699 -69 -29s-26.667 -45.333 -26 -78zM487.5 738.002c1.66699 -2.66699 1.83496 -6.99805 0.501953 -12.998c-12.667 -39.333 -35.834 -69.833 -69.501 -91.5s-72.834 -32.5 -117.501 -32.5s-84 10.667 -118 32
s-57.333 52.666 -70 93.999l-1 5c0 6.66699 3.66699 10 11 10h71c5.33301 0 9.5 -0.833008 12.5 -2.5s6.16699 -5.16699 9.5 -10.5c8.66699 -13.333 20.667 -24.333 36 -33s31.666 -13 48.999 -13c16 0 32 4.5 48 13.5s28 20.167 36 33.5
c2.66699 5.33301 5.33398 8.66602 8.00098 9.99902s6 2 10 2h73c6 0 9.83301 -1.33301 11.5 -4z" />
    <glyph glyph-name="Edotaccent" unicode="&#x116;" horiz-adv-x="663" 
d="M78 742l523.001 -0.000976562c10.667 0 16 -6.33301 16 -19v-104c0 -7.33301 -2 -13.166 -6 -17.499s-10 -6.5 -18 -6.5h-309c-14 0 -21 -6 -21 -18v-113c0 -6 1.5 -10.667 4.5 -14s6.83301 -5 11.5 -5h195c12.667 0 19 -6 19 -18v-111c0 -10 -5.33301 -15 -16 -15h-199
c-10 0 -15 -4.66699 -15 -14v-127c0 -4.66699 0.833008 -8 2.5 -10s4.5 -3 8.5 -3h333c6.66699 0 11.667 -1.33301 15 -4s5 -7 5 -13v-110c0 -13.333 -7 -20 -21 -20h-521c-8.66699 -0 -14.834 1.83301 -18.501 5.5s-5.5 9.5 -5.5 17.5v698c0 14 5.66699 21 17 21z
M426.001 821.999c0 -9.33301 -2.33301 -16 -7 -20s-12.334 -6 -23.001 -6h-125c-9.33301 0 -15.666 1.83301 -18.999 5.5s-5 9.5 -5 17.5v114c0 14 6 21 18 21h145c10.667 0 16 -6.33301 16 -19v-113z" />
    <glyph glyph-name="edotaccent" unicode="&#x117;" horiz-adv-x="588" 
d="M242 137.5c22 -19 50 -28.498 84 -28.498c20.667 0 40.167 4.66699 58.5 14s38.166 25 59.499 47c2.66699 2.66699 5.66699 4 9 4s6.66602 -0.666992 9.99902 -2l82 -34c6 -2.66699 9 -6.33398 9 -11.001c0 -2.66699 -1.66699 -6.33398 -5 -11.001
c-33.333 -48 -68.666 -81 -105.999 -99s-84.333 -27 -141 -27c-52 0 -99 11.333 -141 34s-75 54.167 -99 94.5s-36 86.5 -36 138.5c0 55.333 12.333 104.5 37 147.5s57.834 76.333 99.501 100s87.167 35.5 136.5 35.5c52 0 98 -11.167 138 -33.5s71.333 -54.833 94 -97.5
s34 -93.334 34 -152.001c0 -9.33301 -0.833008 -15.666 -2.5 -18.999s-6.5 -5.33301 -14.5 -6h-325c-9.33301 0 -14 -5.33301 -14 -16c0 -33.333 11 -59.5 33 -78.5zM375 326.002c6.66699 0 11.167 0.833008 13.5 2.5s3.5 5.5 3.5 11.5c0 22.667 -7.5 44 -22.5 64
s-35.833 30 -62.5 30c-28 0 -51 -9.66699 -69 -29s-26.667 -45.333 -26 -78zM394 610.002c0 -9.33301 -2.33301 -16 -7 -20s-12.334 -6 -23.001 -6h-125c-9.33301 0 -15.666 1.83301 -18.999 5.5s-5 9.5 -5 17.5v114c0 14 6 21 18 21h145c10.667 0 16 -6.33301 16 -19v-113z
" />
    <glyph glyph-name="Eogonek" unicode="&#x118;" horiz-adv-x="663" 
d="M627 -76c4.66699 0 7.00293 -4.33301 7.00293 -13v-47c0 -7.33301 -3 -13 -9 -17c-10 -5.33301 -24.5 -10 -43.5 -14s-39.5 -6 -61.5 -6c-36.667 0 -65.334 7.33301 -86.001 22s-31 36 -31 64c0 18 5.66699 34 17 48s31.666 27 60.999 39h-396
c-8.66699 -0 -14.834 1.83301 -18.501 5.5s-5.5 9.5 -5.5 17.5v698c0 14 5.66699 21 17 21h523c10.667 0 16 -6.33301 16 -19v-104c0 -7.33301 -2 -13.166 -6 -17.499s-10 -6.5 -18 -6.5h-309c-14 0 -21 -6 -21 -18v-113c0 -6 1.5 -10.667 4.5 -14s6.83301 -5 11.5 -5h195
c12.667 0 19 -6 19 -18v-111c0 -10 -5.33301 -15 -16 -15h-199c-10 0 -15 -4.66699 -15 -14v-127c0 -4.66699 0.833008 -8 2.5 -10s4.5 -3 8.5 -3h333c6.66699 0 11.667 -1.33301 15 -4s5 -7 5 -13v-110c0 -6 -1.66699 -10.833 -5 -14.5s-8.33301 -5.5 -15 -5.5
c-30 -11.333 -50.667 -21.833 -62 -31.5s-17 -20.5 -17 -32.5c0 -10.667 2.5 -18.334 7.5 -23.001s13.167 -7 24.5 -7c18 0 37 5 57 15c4 2 7.33301 3 10 3z" />
    <glyph glyph-name="eogonek" unicode="&#x119;" horiz-adv-x="588" 
d="M209 216c0 -33.333 11.002 -59.4951 33.002 -78.4951s50 -28.5 84 -28.5c20.667 0 40.167 4.66699 58.5 14s38.166 25 59.499 47c2.66699 2.66699 5.66699 4 9 4s6.66602 -0.666992 9.99902 -2l82 -34c6 -2.66699 9 -6.33398 9 -11.001
c0 -2.66699 -1.66699 -6.33398 -5 -11.001c-23.333 -32.667 -47 -58.167 -71 -76.5s-51 -31.5 -81 -39.5c-16 -8 -27.167 -15.833 -33.5 -23.5s-9.5 -16.167 -9.5 -25.5c0 -10.667 2.5 -18.334 7.5 -23.001s13.167 -7 24.5 -7c18 0 37 5 57 15c4 2 7.33301 3 10 3
c4.66699 0 7 -4.33301 7 -13v-47c0 -7.33301 -3 -13 -9 -17c-10 -5.33301 -24.5 -10 -43.5 -14s-39.5 -6 -61.5 -6c-36.667 0 -65.334 7.33301 -86.001 22s-31 36 -31 64c0 25.333 11.667 46.666 35 63.999c-46 5.33301 -87 19.833 -123 43.5s-64.167 54.667 -84.5 93
s-30.5 81.166 -30.5 128.499c0 55.333 12.333 104.5 37 147.5s57.834 76.333 99.501 100s87.167 35.5 136.5 35.5c52 0 98 -11.167 138 -33.5s71.333 -54.833 94 -97.5s34 -93.334 34 -152.001c0 -9.33301 -0.833008 -15.666 -2.5 -18.999s-6.5 -5.33301 -14.5 -6h-325
c-9.33301 0 -14 -5.33301 -14 -16zM238.002 405.005c-18 -19.333 -26.667 -45.333 -26 -78l163 -1c6.66699 0 11.167 0.833008 13.5 2.5s3.5 5.5 3.5 11.5c0 22.667 -7.5 44 -22.5 64s-35.833 30 -62.5 30c-28 0 -51 -9.66699 -69 -29z" />
    <glyph glyph-name="Ecaron" unicode="&#x11a;" horiz-adv-x="663" 
d="M78 742l523.001 -0.000976562c10.667 0 16 -6.33301 16 -19v-104c0 -7.33301 -2 -13.166 -6 -17.499s-10 -6.5 -18 -6.5h-309c-14 0 -21 -6 -21 -18v-113c0 -6 1.5 -10.667 4.5 -14s6.83301 -5 11.5 -5h195c12.667 0 19 -6 19 -18v-111c0 -10 -5.33301 -15 -16 -15h-199
c-10 0 -15 -4.66699 -15 -14v-127c0 -4.66699 0.833008 -8 2.5 -10s4.5 -3 8.5 -3h333c6.66699 0 11.667 -1.33301 15 -4s5 -7 5 -13v-110c0 -13.333 -7 -20 -21 -20h-521c-8.66699 -0 -14.834 1.83301 -18.501 5.5s-5.5 9.5 -5.5 17.5v698c0 14 5.66699 21 17 21z
M405.001 953.499c3.33301 1 8.33203 1.5 14.999 1.5h97c6 0 9 -1.33301 9 -4c0 -2 -2.66699 -6.33301 -8 -13l-109 -121c-8 -8 -16.667 -12 -26 -12h-85c-14.667 0 -26 4.66699 -34 14l-110 119c-4.66699 6 -7 10 -7 12c0 3.33301 3 5 9 5h91h5
c4.66699 0 8.33398 -0.5 11.001 -1.5s5.33398 -3.5 8.00098 -7.5l49 -54c6.66699 -8.66699 12 -13 16 -13c2 0 4.33301 1.16699 7 3.5s5.66699 5.5 9 9.5l43 54c3.33301 4 6.66602 6.5 9.99902 7.5z" />
    <glyph glyph-name="ecaron" unicode="&#x11b;" horiz-adv-x="588" 
d="M242 137.5c22 -19 50 -28.498 84 -28.498c20.667 0 40.167 4.66699 58.5 14s38.166 25 59.499 47c2.66699 2.66699 5.66699 4 9 4s6.66602 -0.666992 9.99902 -2l82 -34c6 -2.66699 9 -6.33398 9 -11.001c0 -2.66699 -1.66699 -6.33398 -5 -11.001
c-33.333 -48 -68.666 -81 -105.999 -99s-84.333 -27 -141 -27c-52 0 -99 11.333 -141 34s-75 54.167 -99 94.5s-36 86.5 -36 138.5c0 55.333 12.333 104.5 37 147.5s57.834 76.333 99.501 100s87.167 35.5 136.5 35.5c52 0 98 -11.167 138 -33.5s71.333 -54.833 94 -97.5
s34 -93.334 34 -152.001c0 -9.33301 -0.833008 -15.666 -2.5 -18.999s-6.5 -5.33301 -14.5 -6h-325c-9.33301 0 -14 -5.33301 -14 -16c0 -33.333 11 -59.5 33 -78.5zM375 326.002c6.66699 0 11.167 0.833008 13.5 2.5s3.5 5.5 3.5 11.5c0 22.667 -7.5 44 -22.5 64
s-35.833 30 -62.5 30c-28 0 -51 -9.66699 -69 -29s-26.667 -45.333 -26 -78zM368 741.502c3.33301 1 8.33203 1.5 14.999 1.5h97c6 0 9 -1.33301 9 -4c0 -2 -2.66699 -6.33301 -8 -13l-109 -121c-8 -8 -16.667 -12 -26 -12h-85c-14.667 0 -26 4.66699 -34 14l-110 119
c-4.66699 6 -7 10 -7 12c0 3.33301 3 5 9 5h91h5c4.66699 0 8.33398 -0.5 11.001 -1.5s5.33398 -3.5 8.00098 -7.5l49 -54c6.66699 -8.66699 12 -13 16 -13c2 0 4.33301 1.16699 7 3.5s5.66699 5.5 9 9.5l43 54c3.33301 4 6.66602 6.5 9.99902 7.5z" />
    <glyph glyph-name="Gcircumflex" unicode="&#x11c;" horiz-adv-x="757" 
d="M199.5 37.5c-51.667 31.667 -91.668 76 -120.001 133s-42.5 122.833 -42.5 197.5c0 76.667 14.833 144 44.5 202s71.167 102.833 124.5 134.5s114.666 47.5 183.999 47.5c55.333 0 105 -10.167 149 -30.5s79.667 -47 107 -80s45 -67.833 53 -104.5l2 -16
c0 -6 -1.16699 -10 -3.5 -12s-6.16602 -3.33301 -11.499 -4l-152 -23c-6.66699 0 -11 1.16699 -13 3.5s-4 7.16602 -6 14.499c-5.33301 32.667 -19 59.667 -41 81s-51.333 32 -88 32c-45.333 0 -79.666 -18.667 -102.999 -56s-35 -98.333 -35 -183
c0 -88.667 12.333 -151.5 37 -188.5s60.667 -55.5 108 -55.5c33.333 0 60.333 8.16699 81 24.5s35.334 38.5 44.001 66.5l2 19c1.33301 4 2 6.66699 2 8c0 5.33301 -3.66699 8 -11 8h-107c-6.66699 0 -11.334 1.33301 -14.001 4s-4 8 -4 16v86c0 10 6.33301 15 19 15l274 -2
c10.667 0 18.834 -2.5 24.501 -7.5s8.5 -11.5 8.5 -19.5v-332c0 -4.66699 -1.5 -8.5 -4.5 -11.5s-6.83301 -4.5 -11.5 -4.5h-35c-12.667 0 -22.334 6 -29.001 18l-35 64c-1.33301 2.66699 -2.83301 3.83398 -4.5 3.50098s-3.5 -1.83301 -5.5 -4.5
c-25.333 -27.333 -53.333 -49.333 -84 -66s-72 -25 -124 -25c-68 0 -127.833 15.833 -179.5 47.5zM395.999 876c-3.33301 4 -6.33594 7.33301 -9.00293 10s-5 4 -7 4c-3.33301 0 -8.66602 -4.66699 -15.999 -14l-49 -54c-3.33301 -4 -6.33301 -6.33301 -9 -7
s-7.66699 -1 -15 -1h-91c-6 0 -9 1.66699 -9 5c0 2 2.33301 6 7 12l110 118c4 5.33301 8.5 9 13.5 11s11.833 3 20.5 3h85c10.667 0 19.334 -4 26.001 -12l109 -120c5.33301 -6.66699 8 -11 8 -13c0 -2.66699 -3 -4 -9 -4h-97c-6.66699 0 -11.667 0.5 -15 1.5
s-6.66602 3.16699 -9.99902 6.5z" />
    <glyph glyph-name="gcircumflex" unicode="&#x11d;" horiz-adv-x="643" 
d="M618.5 552c3.66699 -4 5.50195 -10 5.50195 -18v-79c0 -10 -2.16699 -17.167 -6.5 -21.5s-10.5 -5.5 -18.5 -3.5c-12 3.33301 -23.667 5 -35 5c-5.33301 0 -9 -0.333008 -11 -1c-18 -0.666992 -24.667 -8.33398 -20 -23.001c5.33301 -14.667 8 -27.334 8 -38.001
c0 -30.667 -9.66699 -58.334 -29 -83.001s-47.833 -44.334 -85.5 -59.001s-82.834 -22 -135.501 -22c-34.667 0 -60 -2.66699 -76 -8s-24 -12.666 -24 -21.999c0 -8 4 -13.5 12 -16.5s21.333 -5.16699 40 -6.5l148 -9c69.333 -4.66699 121 -19.834 155 -45.501
s51 -59.5 51 -101.5c0 -34.667 -11.167 -65.167 -33.5 -91.5s-55.5 -46.833 -99.5 -61.5s-97.667 -22 -161 -22c-101.333 0 -177 10.333 -227 31s-75 52.334 -75 95.001c0 20.667 8.5 37.834 25.5 51.501s40.833 25.5 71.5 35.5c4 1.33301 6 3 6 5s-2 4 -6 6
c-41.333 19.333 -62 45.333 -62 78c0 37.333 34.333 70 103 98c4 2 6.5 3.83301 7.5 5.5s-0.833008 3.83398 -5.5 6.50098c-32.667 14 -57.5 32.5 -74.5 55.5s-25.5 49.5 -25.5 79.5c0 50.667 22.5 91 67.5 121s109.5 45 193.5 45c36 0 68 -4 96 -12s50.667 -19 68 -33
c4 -3.33301 8.66699 -5 14 -5c6 0 11 2.33301 15 7c12.667 16.667 30.167 31.334 52.5 44.001s41.166 19 56.499 19c6 0 10.833 -2 14.5 -6zM356.502 315c15 14.667 22.5 33 22.5 55c0 24.667 -7.5 44.667 -22.5 60s-37.5 23 -67.5 23c-28 0 -49.833 -7.83301 -65.5 -23.5
s-23.5 -35.5 -23.5 -59.5c0 -22 8 -40.333 24 -55s37.667 -22 65 -22c30 0 52.5 7.33301 67.5 22zM220.002 19c-20.667 1.33301 -38.167 -2.50098 -52.5 -11.501s-21.5 -20.167 -21.5 -33.5c0 -22 12.667 -38.667 38 -50s68 -17 128 -17c42 0 74.167 5.33301 96.5 16
s33.5 25.334 33.5 44.001c0 12.667 -6.33301 23.167 -19 31.5s-30.667 12.833 -54 13.5zM318.002 663.999c-3.33301 4 -6.33594 7.33301 -9.00293 10s-5 4 -7 4c-3.33301 0 -8.66602 -4.66699 -15.999 -14l-49 -54c-3.33301 -4 -6.33301 -6.33301 -9 -7s-7.66699 -1 -15 -1
h-91c-6 0 -9 1.66699 -9 5c0 2 2.33301 6 7 12l110 118c4 5.33301 8.5 9 13.5 11s11.833 3 20.5 3h85c10.667 0 19.334 -4 26.001 -12l109 -120c5.33301 -6.66699 8 -11 8 -13c0 -2.66699 -3 -4 -9 -4h-97c-6.66699 0 -11.667 0.5 -15 1.5s-6.66602 3.16699 -9.99902 6.5z
" />
    <glyph glyph-name="Gbreve" unicode="&#x11e;" horiz-adv-x="757" 
d="M199.5 37.5c-51.667 31.667 -91.668 76 -120.001 133s-42.5 122.833 -42.5 197.5c0 76.667 14.833 144 44.5 202s71.167 102.833 124.5 134.5s114.666 47.5 183.999 47.5c55.333 0 105 -10.167 149 -30.5s79.667 -47 107 -80s45 -67.833 53 -104.5l2 -16
c0 -6 -1.16699 -10 -3.5 -12s-6.16602 -3.33301 -11.499 -4l-152 -23c-6.66699 0 -11 1.16699 -13 3.5s-4 7.16602 -6 14.499c-5.33301 32.667 -19 59.667 -41 81s-51.333 32 -88 32c-45.333 0 -79.666 -18.667 -102.999 -56s-35 -98.333 -35 -183
c0 -88.667 12.333 -151.5 37 -188.5s60.667 -55.5 108 -55.5c33.333 0 60.333 8.16699 81 24.5s35.334 38.5 44.001 66.5l2 19c1.33301 4 2 6.66699 2 8c0 5.33301 -3.66699 8 -11 8h-107c-6.66699 0 -11.334 1.33301 -14.001 4s-4 8 -4 16v86c0 10 6.33301 15 19 15l274 -2
c10.667 0 18.834 -2.5 24.501 -7.5s8.5 -11.5 8.5 -19.5v-332c0 -4.66699 -1.5 -8.5 -4.5 -11.5s-6.83301 -4.5 -11.5 -4.5h-35c-12.667 0 -22.334 6 -29.001 18l-35 64c-1.33301 2.66699 -2.83301 3.83398 -4.5 3.50098s-3.5 -1.83301 -5.5 -4.5
c-25.333 -27.333 -53.333 -49.333 -84 -66s-72 -25 -124 -25c-68 0 -127.833 15.833 -179.5 47.5zM568.499 950c1.66699 -2.66699 1.83496 -6.99805 0.501953 -12.998c-12.667 -39.333 -35.834 -69.833 -69.501 -91.5s-72.834 -32.5 -117.501 -32.5s-84 10.667 -118 32
s-57.333 52.666 -70 93.999l-1 5c0 6.66699 3.66699 10 11 10h71c5.33301 0 9.5 -0.833008 12.5 -2.5s6.16699 -5.16699 9.5 -10.5c8.66699 -13.333 20.667 -24.333 36 -33s31.666 -13 48.999 -13c16 0 32 4.5 48 13.5s28 20.167 36 33.5
c2.66699 5.33301 5.33398 8.66602 8.00098 9.99902s6 2 10 2h73c6 0 9.83301 -1.33301 11.5 -4z" />
    </font>
</defs>
</svg>
