<?xml version="1.0" standalone="no"?>
<!DOCTYPE svg PUBLIC "-//W3C//DTD SVG 1.1//EN" "http://www.w3.org/Graphics/SVG/1.1/DTD/svg11.dtd" >
<svg>
<metadata>
Created by FontForge 20090914 at Wed Jun 28 20:15:28 2017
 By www-data
Copyright (c) 2015, Impallari Type (www.impallari.com)
</metadata>
<defs>
<font id="LibreFranklin-ExtraLight" horiz-adv-x="578" >
  <font-face 
    font-family="Libre Franklin ExtraLight"
    font-weight="275"
    font-stretch="normal"
    units-per-em="1000"
    panose-1="0 0 3 0 0 0 0 0 0 0"
    ascent="800"
    descent="-200"
    x-height="530"
    cap-height="742"
    bbox="-331.57 -237.002 1240 964.003"
    underline-thickness="50"
    underline-position="-50"
    unicode-range="U+000D-U+FB02"
  />
<missing-glyph horiz-adv-x="728" 
d="M613 841.5c3.33301 -3.66699 5 -8.83301 5 -15.5v-962c0 -10.667 -2.66699 -18.167 -8 -22.5s-13.666 -6.5 -24.999 -6.5h-448c-10 0 -17 2 -21 6s-6 10.333 -6 19v964c0 7.33301 1.66699 13 5 17s8 6 14 6h471c5.33301 0 9.66602 -1.83301 12.999 -5.5zM562 792.001
c-2.66699 3.33301 -6.33301 5.00098 -11 5.00098h-353l368 -855v837c0 5.33301 -1.33301 9.66602 -4 12.999zM167.001 -109.998c3.33301 -3.33301 9.33301 -5.00098 18 -5.00098h344l-367 849v-828c0 -7.33301 1.66699 -12.666 5 -15.999z" />
    <glyph glyph-name="fi" unicode="fi" horiz-adv-x="593" 
d="M342 523l-0.000976562 -27c0 -4.66699 -2.33301 -7 -7 -7h-129c-4.66699 0 -7 -2.66699 -7 -8v-469c0 -8 -3.33301 -12 -10 -12h-31c-3.33301 -0 -5.66602 0.833008 -6.99902 2.5s-2 4.5 -2 8.5v471c0 4.66699 -2 7 -6 7h-110c-4.66699 0 -7 2.33301 -7 7v27
c0 4.66699 2.33301 7 7 7h109c4.66699 0 7 2.66699 7 8v79c0 42 9.33301 73.333 28 94s48 31 88 31h74c5.33301 0 8 -2.66699 8 -8v-25c0 -5.33301 -3 -8 -9 -8h-77c-23.333 0 -39.5 -6.5 -48.5 -19.5s-13.5 -32.5 -13.5 -58.5v-86c0 -4.66699 2.33301 -7 7 -7h130
c4 0 6 -2.33301 6 -7zM509.999 656c0 -10.667 -4.66699 -16 -14 -16h-34c-8 0 -12 4.66699 -12 14v74c0 9.33301 4.33301 14 13 14h34c3.33301 0 6.33301 -1.16699 9 -3.5s4 -5.5 4 -9.5v-73zM504.999 13c0 -5.33301 -0.832031 -8.83301 -2.49902 -10.5
s-5.16699 -2.5 -10.5 -2.5h-25c-4.66699 0 -7.83398 0.666992 -9.50098 2s-2.5 4.33301 -2.5 9v508c0 4.66699 0.666992 7.66699 2 9s4 2 8 2h30c4 0 6.66699 -0.666992 8 -2s2 -4.33301 2 -9v-506z" />
    <glyph glyph-name="fl" unicode="fl" horiz-adv-x="593" 
d="M342 523l-0.000976562 -27c0 -4.66699 -2.33301 -7 -7 -7h-129c-4.66699 0 -7 -2.66699 -7 -8v-469c0 -8 -3.33301 -12 -10 -12h-31c-3.33301 -0 -5.66602 0.833008 -6.99902 2.5s-2 4.5 -2 8.5v471c0 4.66699 -2 7 -6 7h-110c-4.66699 0 -7 2.33301 -7 7v27
c0 4.66699 2.33301 7 7 7h109c4.66699 0 7 2.66699 7 8v79c0 42 9.33301 73.333 28 94s48 31 88 31h74c5.33301 0 8 -2.66699 8 -8v-25c0 -5.33301 -3 -8 -9 -8h-77c-23.333 0 -39.5 -6.5 -48.5 -19.5s-13.5 -32.5 -13.5 -58.5v-86c0 -4.66699 2.33301 -7 7 -7h130
c4 0 6 -2.33301 6 -7zM504.999 13c0 -5.33301 -0.832031 -8.83301 -2.49902 -10.5s-5.16699 -2.5 -10.5 -2.5h-25c-4.66699 0 -7.83398 0.666992 -9.50098 2s-2.5 4.33301 -2.5 9v720c0 4.66699 0.666992 7.66699 2 9s4 2 8 2h30c4 0 6.66699 -0.666992 8 -2
s2 -4.33301 2 -9v-718z" />
    <glyph glyph-name=".notdef" horiz-adv-x="728" 
d="M613 841.5c3.33301 -3.66699 5 -8.83301 5 -15.5v-962c0 -10.667 -2.66699 -18.167 -8 -22.5s-13.666 -6.5 -24.999 -6.5h-448c-10 0 -17 2 -21 6s-6 10.333 -6 19v964c0 7.33301 1.66699 13 5 17s8 6 14 6h471c5.33301 0 9.66602 -1.83301 12.999 -5.5zM562 792.001
c-2.66699 3.33301 -6.33301 5.00098 -11 5.00098h-353l368 -855v837c0 5.33301 -1.33301 9.66602 -4 12.999zM167.001 -109.998c3.33301 -3.33301 9.33301 -5.00098 18 -5.00098h344l-367 849v-828c0 -7.33301 1.66699 -12.666 5 -15.999z" />
    <glyph glyph-name="uni0000" horiz-adv-x="0" 
 />
    <glyph glyph-name="uni0000" horiz-adv-x="0" 
 />
    <glyph glyph-name="nonmarkingreturn" unicode="&#xd;" horiz-adv-x="215" 
 />
    <glyph glyph-name="space" unicode=" " horiz-adv-x="219" 
 />
    <glyph glyph-name="exclam" unicode="!" horiz-adv-x="235" 
d="M136 165c0 -6.66699 -3.66797 -10 -11.001 -10h-17c-5.33301 0 -8.66602 3 -9.99902 9l-12 570c0 5.33301 2 8 6 8h51c4.66699 0 7 -2.33301 7 -7zM152.999 12c0 -4.66699 -1 -7.83301 -3 -9.5s-5.66699 -2.5 -11 -2.5h-46c-4.66699 -0 -7.66699 0.833008 -9 2.5
s-2 4.5 -2 8.5v66c0 6 2.33301 9 7 9h56c5.33301 0 8 -2.66699 8 -8v-66z" />
    <glyph glyph-name="quotedbl" unicode="&#x22;" horiz-adv-x="380" 
d="M282 552c-0.666992 -4 -1.83301 -6.83301 -3.5 -8.5s-4.5 -2.5 -8.5 -2.5h-19c-3.33301 0 -5.5 0.666992 -6.5 2s-1.83301 3.33301 -2.5 6l-21 186c0 4.66699 2.33301 7 7 7h68c4.66699 0 7 -2.33301 7 -7zM138.001 552c-0.666992 -4 -1.83301 -6.83301 -3.5 -8.5
s-4.5 -2.5 -8.5 -2.5h-19c-3.33301 0 -5.5 0.666992 -6.5 2s-1.83301 3.33301 -2.5 6l-21 186c0 4.66699 2.33301 7 7 7h68c4.66699 0 7 -2.33301 7 -7z" />
    <glyph glyph-name="numbersign" unicode="#" horiz-adv-x="603" 
d="M561 493l0.000976562 -24.999c0 -6.66699 -4 -10 -12 -10h-104l-26 -168h101c5.33301 0 8 -2.33301 8 -7v-25c0 -6.66699 -4 -10 -12 -10h-104l-37 -239c-0.666992 -7.33301 -4 -10.333 -10 -9l-25 4c-4.66699 0.666992 -7 3 -7 7l36 237h-162l-37 -239
c-0.666992 -7.33301 -3.66699 -10.333 -9 -9l-25 4c-5.33301 0.666992 -7.66602 3 -6.99902 7l36 237h-113c-6 0 -9 2.66699 -9 8v26c0 5.33301 1.66699 8 5 8h124l26 168h-113c-6 0 -9 2.66699 -9 8v26c0 5.33301 1.66699 8 5 8h123l36 235c1.33301 6 4 8.33301 8 7l26 -4
c6 -1.33301 8.66699 -5.33301 8 -12l-35 -226h161l36 235c1.33301 6 4 8.33301 8 7l26 -4c3.33301 -0.666992 5.66602 -1.83398 6.99902 -3.50098s1.66602 -4.5 0.999023 -8.5l-35 -226h102c5.33301 0 8 -2.33301 8 -7zM402.001 458.001h-162l-26 -168h162z" />
    <glyph glyph-name="dollar" unicode="$" horiz-adv-x="581" 
d="M516 78.5c-17.333 -27 -41.668 -48.3311 -73.001 -63.998s-66.666 -23.5 -105.999 -23.5c-6 -0.666992 -9 -3 -9 -7v-66c0 -6.66699 -2.66699 -10 -8 -10h-27c-5.33301 0 -8 2.33301 -8 7v69c0 4.66699 -2 7 -6 7c-56.667 0 -103.667 9.83301 -141 29.5
s-69.333 49.834 -96 90.501c-2.66699 4 -4 7 -4 9c0 2.66699 1.66699 5 5 7l20 15c2 2 4.66699 3 8 3c4 0 7 -1.33301 9 -4c26.667 -34.667 54.834 -60.167 84.501 -76.5s67.167 -24.5 112.5 -24.5h3c3.33301 0 5 2.33301 5 7v280c0 10.667 -7.66699 19.667 -23 27
c-50.667 22 -90 42.167 -118 60.5s-48.167 38.5 -60.5 60.5s-18.5 49 -18.5 81c0 54 19.5 98.667 58.5 134s89.833 55.666 152.5 60.999c2 0 3.83301 0.666992 5.5 2s2.5 3.33301 2.5 6v54c0 5.33301 2 8 6 8h28c3.33301 0 5.66602 -0.833008 6.99902 -2.5s2 -4.5 2 -8.5
v-53c0 -4.66699 2.66699 -7 8 -7c38.667 -4 73.167 -13.667 103.5 -29s58.833 -36.666 85.5 -63.999c2.66699 -2.66699 4 -5.33398 4 -8.00098s-1.33301 -5 -4 -7l-25 -22c-2.66699 -1.33301 -4.66699 -2 -6 -2c-2 0 -5 2.33301 -9 7c-16 19.333 -37 35.666 -63 48.999
s-54.333 22 -85 26h-2c-4.66699 0 -7 -2.66699 -7 -8v-290c0 -4.66699 0.666992 -7.83398 2 -9.50098s4.33301 -3.5 9 -5.5l30 -12c58 -24 101.5 -52.667 130.5 -86s43.5 -73.333 43.5 -120c0 -33.333 -8.66699 -63.5 -26 -90.5zM283.998 694.002
c0 2.66699 -1 4.66895 -3 6.00195s-4.33301 1.66602 -7 0.999023c-46 -4 -83 -19.167 -111 -45.5s-42 -59.166 -42 -98.499c0 -28.667 10.333 -53.834 31 -75.501s58 -44.834 112 -69.501l8 -2c8 0 12 4.66699 12 14v270zM334.998 40.0039c45.333 0 81.667 12.333 109 37
s41 56 41 94c0 34.667 -10.667 63.5 -32 86.5s-57.333 44.833 -108 65.5c-4 1.33301 -7 2 -9 2c-5.33301 0 -8 -3.33301 -8 -10v-269c0 -4.66699 2.33301 -6.66699 7 -6z" />
    <glyph glyph-name="percent" unicode="%" horiz-adv-x="902" 
d="M348 697c30 -37.333 45 -89.333 45 -156c0 -68 -15 -120.667 -45 -158s-69.667 -56 -119 -56c-50 0 -90.167 18.667 -120.5 56s-45.5 90 -45.5 158c0 66.667 15.167 118.667 45.5 156s70.5 56 120.5 56c49.333 0 89 -18.667 119 -56zM232 4
c-2 -3.33301 -4.00098 -5.50098 -6.00098 -6.50098s-5.33301 -1.5 -10 -1.5h-18c-6 0 -9 2 -9 6c0 2.66699 1 5.33398 3 8.00098l488 735c2.66699 3.33301 7 5 13 5h23c6.66699 0 8.33398 -3 5.00098 -9zM317.499 411.499c22.333 33 33.5 75.833 33.5 128.5
s-11.167 95.667 -33.5 129s-52.166 50 -89.499 50s-67.166 -16.667 -89.499 -50s-33.5 -76.333 -33.5 -129s11.167 -95.5 33.5 -128.5s52.166 -49.5 89.499 -49.5s67.166 16.5 89.499 49.5zM793.999 359.999c30 -37.333 45 -89.333 45 -156c0 -68 -15 -120.667 -45 -158
s-69.667 -56 -119 -56c-50 0 -90.167 18.667 -120.5 56s-45.5 90 -45.5 158c0 66.667 15.167 118.667 45.5 156s70.5 56 120.5 56c49.333 0 89 -18.667 119 -56zM737.999 47.499c18.667 15.667 33.167 37.167 43.5 64.5s15.5 57.666 15.5 90.999
c0 51.333 -11.5 93.833 -34.5 127.5s-52.5 50.5 -88.5 50.5c-24 0 -45.333 -7.83301 -64 -23.5s-33.167 -37 -43.5 -64s-15.5 -57.167 -15.5 -90.5s5.16699 -63.666 15.5 -90.999s24.833 -48.833 43.5 -64.5s40 -23.5 64 -23.5s45.333 7.83301 64 23.5z" />
    <glyph glyph-name="ampersand" unicode="&#x26;" horiz-adv-x="749" 
d="M442 713.5c32.667 -26.333 49.0029 -61.8389 49.0029 -106.506c0 -83.333 -63 -152 -189 -206c-5.33301 -2 -8 -4.33301 -8 -7c0 -1.33301 1.66699 -4.33301 5 -9l181 -215c3.33301 -3.33301 5.33301 -5 6 -5c1.33301 0 4.33301 2 9 6c26.667 24.667 56 60 88 106
s52.333 81.667 61 107c2 6 6.66699 7.66699 14 5l22 -8c2.66699 -1.33301 4.66699 -3 6 -5s1.66602 -4.33301 0.999023 -7c-9.33301 -30 -29.833 -67.667 -61.5 -113s-64.834 -85.666 -99.501 -120.999c-2.66699 -2.66699 -4 -5 -4 -7c0 -2.66699 2 -5.66699 6 -9
c20 -19.333 48.167 -36.166 84.5 -50.499s70.5 -21.5 102.5 -21.5c4.66699 0 7.83398 -0.833008 9.50098 -2.5s2.5 -4.5 2.5 -8.5v-21c0 -5.33301 -1 -9.16602 -3 -11.499s-6.33301 -3.5 -13 -3.5c-34 0 -73.667 8.83301 -119 26.5s-81 37.5 -107 59.5c-2.66699 2 -5 3 -7 3
c-2.66699 0 -5.33398 -1.33301 -8.00098 -4c-65.333 -60 -138.333 -90 -219 -90c-64 0 -115.167 17.667 -153.5 53s-57.5 82 -57.5 140c0 40.667 11.333 77.334 34 110.001s60.334 65.334 113.001 98.001c6.66699 4 10 7.66699 10 11c0 2.66699 -3 7.33398 -9 14.001
c-45.333 46 -68 95 -68 147c0 34.667 8.66699 66 26 94s41.166 50.167 71.499 66.5s64.166 24.5 101.499 24.5c49.333 0 90.333 -13.167 123 -39.5zM215.503 667.994c-25.667 -27.333 -38.501 -60.665 -38.501 -99.998c0 -19.333 3.5 -37.5 10.5 -54.5
s19.167 -34.833 36.5 -53.5l24 -26c2.66699 -2.66699 5.66699 -4 9 -4l8 2c62 29.333 106.167 57.666 132.5 84.999s39.5 57.666 39.5 90.999c0 32.667 -11.167 57.667 -33.5 75s-50.166 26 -83.499 26c-44 0 -78.833 -13.667 -104.5 -41zM236.002 365.995
c-2 0 -6.33203 -1.33105 -12.999 -3.99805c-39.333 -19.333 -70.333 -44.5 -93 -75.5s-34 -64.833 -34 -101.5c0 -43.333 15.333 -78.333 46 -105s69.334 -40 116.001 -40c32 0 63.667 6.66699 95 20s58.666 31 81.999 53c5.33301 5.33301 8 9.66602 8 12.999
s-1.66699 6.66602 -5 9.99902l-188 221c-4.66699 6 -9.33398 9 -14.001 9z" />
    <glyph glyph-name="quotesingle" unicode="'" horiz-adv-x="236" 
d="M138 552c-0.666992 -4 -1.83301 -6.83301 -3.5 -8.5s-4.5 -2.5 -8.5 -2.5h-19c-3.33301 0 -5.5 0.666992 -6.5 2s-1.83301 3.33301 -2.5 6l-21 186c0 4.66699 2.33301 7 7 7h68c4.66699 0 7 -2.33301 7 -7z" />
    <glyph glyph-name="parenleft" unicode="(" horiz-adv-x="272" 
d="M251.5 739.5c1 -1.66699 0.833008 -3.16699 -0.5 -4.5c-35.333 -70.667 -63.666 -144.667 -84.999 -222s-32 -153.666 -32 -228.999c0 -74 8.83301 -146.833 26.5 -218.5s44.5 -145.834 80.5 -222.501c1.33301 -2 1.5 -3.83301 0.5 -5.5s-2.83301 -2.5 -5.5 -2.5h-17
c-3.33301 0 -6.33301 1.66699 -9 5c-44 76 -77.167 149 -99.5 219s-33.5 145.333 -33.5 226c0 79.333 12.833 157.833 38.5 235.5s60.5 149.5 104.5 215.5c3.33301 4 7.66602 6 12.999 6h13c2.66699 0 4.5 -0.833008 5.5 -2.5z" />
    <glyph glyph-name="parenright" unicode=")" horiz-adv-x="272" 
d="M39 742c6 0 10.332 -2 12.999 -6c44 -66 78.833 -137.833 104.5 -215.5s38.5 -156.167 38.5 -235.5c0 -80.667 -11.167 -156 -33.5 -226s-55.5 -143 -99.5 -219c-2.66699 -3.33301 -5.66699 -5 -9 -5h-17c-2.66699 0 -4.5 0.833008 -5.5 2.5s-0.833008 3.5 0.5 5.5
c36 76.667 62.833 150.834 80.5 222.501s26.5 144.5 26.5 218.5c0 75.333 -10.667 151.666 -32 228.999s-49.666 151.333 -84.999 222c-1.33301 1.33301 -1.5 2.83301 -0.5 4.5s2.83301 2.5 5.5 2.5h13z" />
    <glyph glyph-name="asterisk" unicode="*" horiz-adv-x="339" 
d="M177 563c-0.666992 0.666992 -1.99805 0.668945 -3.99805 0.00195312l-74 -118c-2.66699 -2.66699 -6 -2.66699 -10 0l-25 17c-2.66699 2 -2.66699 5 0 9l82 106c1.33301 3.33301 0.333008 5.33301 -3 6l-111 32c-2.66699 0.666992 -3.33398 3.33398 -2.00098 8.00098
l9 25c0.666992 4 3.33398 5 8.00098 3l105 -39c4 -2 6 -0.666992 6 4l-8 120c0 1.33301 0.666992 2.66602 2 3.99902s3.33301 2 6 2h34c3.33301 0 5 -2 5 -6l-5 -120c0 -4.66699 1.33301 -6.33398 4 -5.00098l109 46c3.33301 2 5.66602 1.33301 6.99902 -2l8 -25
c1.33301 -5.33301 0.333008 -8.33301 -3 -9l-109 -37c-4 -2 -4.66699 -4.33301 -2 -7l78 -99c3.33301 -4 2.66602 -8 -2.00098 -12l-23 -16c-2.66699 -2 -5 -2.83301 -7 -2.5s-3.33301 1.16602 -4 2.49902z" />
    <glyph glyph-name="plus" unicode="+" horiz-adv-x="545" 
d="M477 388l-0.000976562 -27.999c0 -6 -4 -9 -12 -9h-170v-175c0 -5.33301 -2.33301 -8 -7 -8h-28c-6 0 -9 4 -9 12v170h-174c-3.33301 0 -5.66602 0.5 -6.99902 1.5s-2 3.16699 -2 6.5v28c0 5.33301 2 8 6 8h176v174c0 3.33301 0.5 5.66602 1.5 6.99902s3.16699 2 6.5 2
h28c5.33301 0 8 -2 8 -6v-176h175c5.33301 0 8 -2.33301 8 -7z" />
    <glyph glyph-name="comma" unicode="," horiz-adv-x="193" 
d="M45.5 -133c-1 2 -0.499023 4.66699 1.50098 8l43 114c0.666992 1.33301 1 3 1 5c0 4 -3 6 -9 6h-10c-6 0 -9 2.66699 -9 8v71c0 4.66699 2.33301 7 7 7h57c4.66699 0 7 -2 7 -6v-63c0 -4 -0.666992 -8 -2 -12l-60 -134c-2.66699 -4.66699 -7.33398 -7 -14.001 -7h-8
c-2 0 -3.5 1 -4.5 3z" />
    <glyph glyph-name="hyphen" unicode="-" horiz-adv-x="381" 
d="M313 252c0 -6 -4.00098 -9 -12.001 -9l-224 -1c-3.33301 0 -5.66602 0.5 -6.99902 1.5s-2 3.16699 -2 6.5v30c0 5.33301 2 8 6 8l231 1c5.33301 0 8 -2.33301 8 -7v-30z" />
    <glyph glyph-name="period" unicode="." horiz-adv-x="188" 
d="M130 12c0 -4.66699 -1.16797 -7.83301 -3.50098 -9.5s-6.16602 -2.5 -11.499 -2.5h-46c-7.33301 0 -11 3.66699 -11 11v66c0 6.66699 2.66699 10 8 10h56c5.33301 0 8 -3 8 -9v-66z" />
    <glyph glyph-name="slash" unicode="/" horiz-adv-x="331" 
d="M16 -50l251 785c0.666992 4.66699 3.66699 7 9 7h32c6.66699 0 8.66699 -3.66699 6 -11l-247 -778c-2.66699 -6 -7 -9 -13 -9h-32c-4.66699 0 -6.66699 2 -6 6z" />
    <glyph glyph-name="zero" unicode="0" horiz-adv-x="678" 
d="M474.5 709c39.667 -28.667 70.8359 -71.667 93.5029 -129s34 -127.666 34 -210.999c0 -82.667 -11.333 -152.334 -34 -209.001s-53.834 -99.167 -93.501 -127.5s-84.834 -42.5 -135.501 -42.5s-95.834 14 -135.501 42s-70.834 70.333 -93.501 127s-34 126 -34 208
c0 83.333 11.5 153.833 34.5 211.5s54.333 101 94 130s84.834 43.5 135.501 43.5c50 0 94.833 -14.333 134.5 -43zM488.502 120.5c36.333 54.333 54.501 137.168 54.501 248.501c0 112.667 -18.333 196.5 -55 251.5s-86.334 82.5 -149.001 82.5
c-62 0 -111.5 -27.667 -148.5 -83s-55.5 -139 -55.5 -251c0 -110.667 18.5 -193.334 55.5 -248.001s86.833 -82 149.5 -82s112.167 27.167 148.5 81.5z" />
    <glyph glyph-name="one" unicode="1" horiz-adv-x="444" 
d="M398 43v-36c0 -4.66699 -2.66699 -7 -8 -7h-328c-4.66699 -0 -7 2.33301 -7 7v36c0 4.66699 2.33301 7 7 7h137c4.66699 0 7 1.33301 7 4v613c0 3.33301 -0.5 5.5 -1.5 6.5s-2.83301 1.16699 -5.5 0.5l-136 -54l-3 -1c-4 0 -6 3 -6 9v28c0 3.33301 0.5 5.5 1.5 6.5
s2.5 2.16699 4.5 3.5l140 70c8 4 16 6 24 6h31c5.33301 0 8 -3.33301 8 -10v-676c0 -4 2 -6 6 -6h121c5.33301 0 8 -2.33301 8 -7z" />
    <glyph glyph-name="two" unicode="2" horiz-adv-x="577" 
d="M299 306c54 53.333 92.501 98.668 115.501 136.001s34.5 75.666 34.5 114.999c0 31.333 -8 58 -24 80s-36.833 38.5 -62.5 49.5s-52.167 16.5 -79.5 16.5c-33.333 0 -66.833 -8 -100.5 -24s-61.167 -40 -82.5 -72c-2 -3.33301 -5 -5 -9 -5c-2 0 -4.66699 1 -8 3l-21 16
c-4.66699 4 -7 7 -7 9c0 1.33301 1.66699 4.33301 5 9c26.667 37.333 60.667 65.5 102 84.5s84 28.5 128 28.5c38 0 73.5 -7.16699 106.5 -21.5s59.5 -36.5 79.5 -66.5s30 -67.333 30 -112c0 -30 -5.66699 -58.333 -17 -85s-28.833 -54.834 -52.5 -84.501
s-57.167 -66.167 -100.5 -109.5l-210 -210c-2.66699 -2.66699 -4 -5 -4 -7c0 -3.33301 3.33301 -5 10 -5h372c3.33301 0 5.66602 -0.666992 6.99902 -2s2 -3.66602 2 -6.99902v-33c0 -6 -3 -9 -9 -9h-436c-4.66699 0 -8 1 -10 3s-3 5.33301 -3 10v25
c0 7.33301 1.16699 13.5 3.5 18.5s6.83301 10.5 13.5 16.5z" />
    <glyph glyph-name="three" unicode="3" horiz-adv-x="628" 
d="M82 656c32.667 33.333 66.5 57.666 101.5 72.999s73.833 23 116.5 23c46.667 0 88 -8.16699 124 -24.5s63.667 -38.5 83 -66.5s29 -59.333 29 -94c0 -38 -11.667 -71.667 -35 -101s-55.333 -51 -96 -65c-7.33301 -2 -11 -4 -11 -6s3.66699 -4 11 -6
c44 -12 80.667 -34.5 110 -67.5s44 -73.5 44 -121.5c0 -39.333 -10.333 -74.833 -31 -106.5s-51.667 -56.834 -93 -75.501s-91 -28 -149 -28c-48 0 -90.833 7.66699 -128.5 23s-73.167 40.333 -106.5 75c-2.66699 2.66699 -4 4.33398 -4 5.00098s1.66699 2.66699 5 6l26 23
c4.66699 4.66699 8.66699 4.66699 12 0c29.333 -30 60 -51.333 92 -64s68.667 -19 110 -19c65.333 0 116.666 14.667 153.999 44s56 67.333 56 114c0 35.333 -10.167 65.833 -30.5 91.5s-46.666 44.834 -78.999 57.501s-66.833 19.334 -103.5 20.001h-90
c-6.66699 0 -10 2.33301 -10 7v32c0 2.66699 1 4.66699 3 6s4.33301 2 7 2h73c38 0 72.833 6.66699 104.5 20s56.667 31.666 75 54.999s27.5 49.333 27.5 78c0 25.333 -7.5 48.5 -22.5 69.5s-36 37.5 -63 49.5s-57.5 18 -91.5 18c-70 0 -132 -26 -186 -78
c-3.33301 -3.33301 -6 -5 -8 -5s-4.66699 1.66699 -8 5l-18 18c-4 4.66699 -4 9 0 13z" />
    <glyph glyph-name="four" unicode="4" horiz-adv-x="629" 
d="M414 742h39.001c6.66699 0 10 -3.33301 10 -10v-464c0 -6 2.33301 -9 7 -9h100c7.33301 0 11 -2.33301 11 -7v-31c0 -6.66699 -3.66699 -10 -11 -10h-99c-5.33301 0 -8 -3.33301 -8 -10v-191c0 -6.66699 -3.66699 -10 -11 -10h-37c-6.66699 -0 -10 3.33301 -10 10v194
c0 4.66699 -2.66699 7 -8 7h-335c-7.33301 0 -11 3.33301 -11 10v36c0 6.66699 3.33301 14.667 10 24l337 455c3.33301 4 8.66602 6 15.999 6zM393.001 259c2.66699 0 4.83301 0.666992 6.5 2s2.5 3 2.5 5v375c0 8 -1.33301 12 -4 12s-6 -2.66699 -10 -8l-276 -373
c-2 -2.66699 -3 -5 -3 -7c0 -4 3.33301 -6 10 -6h274z" />
    <glyph glyph-name="five" unicode="5" horiz-adv-x="644" 
d="M536 742c4.66699 0 7.66406 -0.668945 8.99707 -2.00195s1.66602 -4 0.999023 -8l-3 -33c0 -1.33301 -0.166992 -2.83301 -0.5 -4.5s-1.16602 -2.66699 -2.49902 -3s-3.66602 -0.5 -6.99902 -0.5h-352c-6.66699 0 -10 -2.66699 -10 -8l-20 -262v-2c0 -3.33301 1 -6 3 -8
s4.33301 -2 7 0c32.667 18 61.5 31.5 86.5 40.5s55.167 13.5 90.5 13.5c44 0 84.167 -7.83301 120.5 -23.5s65.666 -40 87.999 -73s33.5 -74.833 33.5 -125.5c0 -52 -12 -97.167 -36 -135.5s-57 -67.5 -99 -87.5s-89.333 -30 -142 -30c-46 0 -89.667 8 -131 24
s-78 40 -110 72c-2.66699 4 -4 6.33301 -4 7c0 1.33301 1.66699 3.66602 5 6.99902l25 24c0.666992 0.666992 2 1 4 1c2.66699 0 5 -1.33301 7 -4c34 -29.333 64.833 -50.666 92.5 -63.999s61.834 -20 102.501 -20c70.667 0 126.334 18.833 167.001 56.5s61 87.167 61 148.5
c0 58 -17.667 101.833 -53 131.5s-79.666 44.5 -132.999 44.5c-36.667 0 -69.5 -6 -98.5 -18s-60.5 -28.667 -94.5 -50l-8 -4c-0.666992 0 -1.66699 0.5 -3 1.5s-2.66602 2.16699 -3.99902 3.5l-28 17c-2 1.33301 -3.83301 2.5 -5.5 3.5s-2.5 1.83301 -2.5 2.5
s0.333008 1.83398 1 3.50098s1 4.16699 1 7.5l27 348c0 4.66699 0.666992 7.33398 2 8.00098s5.66602 1 12.999 1h400z" />
    <glyph glyph-name="six" unicode="6" horiz-adv-x="649" 
d="M468.5 731c27.667 -14 52.168 -33.334 73.501 -58.001c2 -2.66699 3.16699 -4.83398 3.5 -6.50098s-0.833984 -3.5 -3.50098 -5.5l-32 -19c-0.666992 -0.666992 -2 -1 -4 -1c-3.33301 0 -6.33301 2 -9 6c-16.667 18.667 -35.167 32.667 -55.5 42s-44.5 14 -72.5 14
c-79.333 0 -138.5 -27.667 -177.5 -83s-58.5 -128.333 -58.5 -219c0 -8.66699 0.333008 -14.834 1 -18.501s2.33398 -5.5 5.00098 -5.5c1.33301 0 4.66602 1.33301 9.99902 4c38 18.667 71.667 32.834 101 42.501s63 14.5 101 14.5c50 0 92.833 -9.33301 128.5 -28
s62.667 -44.5 81 -77.5s27.5 -70.167 27.5 -111.5c0 -45.333 -10.833 -85.5 -32.5 -120.5s-51.167 -62.167 -88.5 -81.5s-78.333 -29 -123 -29c-55.333 0 -103 14.5 -143 43.5s-70.833 71.333 -92.5 127s-32.5 122.834 -32.5 201.501c0 80.667 11.5 150.334 34.5 209.001
s56.333 103.5 100 134.5s96.167 46.5 157.5 46.5c39.333 0 72.833 -7 100.5 -21zM249.501 374.499c-37.667 -9.66699 -68.168 -21.833 -91.501 -36.5c-9.33301 -6.66699 -15.5 -13 -18.5 -19s-4.5 -15.667 -4.5 -29c0 -36 7.83301 -73.5 23.5 -112.5
s39.5 -71.833 71.5 -98.5s71 -40 117 -40c34.667 0 66 8 94 24s50 37.833 66 65.5s24 58.167 24 91.5c0 31.333 -7.16699 59.833 -21.5 85.5s-35.166 46 -62.499 61s-59.333 22.5 -96 22.5c-30 0 -63.833 -4.83301 -101.5 -14.5z" />
    <glyph glyph-name="seven" unicode="7" horiz-adv-x="590" 
d="M532 742c5.33301 0 7.99902 -2.33301 7.99902 -7v-27c0 -8.66699 -3 -17.667 -9 -27c-44 -64.667 -86.833 -140 -128.5 -226s-77.167 -169.167 -106.5 -249.5s-48.333 -143.833 -57 -190.5c-0.666992 -10 -4.66699 -15 -12 -15h-40c-8.66699 0 -12 4.66699 -10 14
c20.667 86.667 56.5 190.834 107.5 312.501s112.833 239.167 185.5 352.5c2 3.33301 3 5.66602 3 6.99902c0 3.33301 -3 5 -9 5h-412c-4 0 -6 3 -6 9l3 34c0.666992 3.33301 1.83398 5.5 3.50098 6.5s4.5 1.5 8.5 1.5h471z" />
    <glyph glyph-name="eight" unicode="8" horiz-adv-x="661" 
d="M452.5 726.5c35 -17 62.001 -40.832 81.001 -71.499s28.5 -66 28.5 -106c0 -32.667 -8 -61.834 -24 -87.501s-42.667 -52.5 -80 -80.5c-5.33301 -3.33301 -8 -6 -8 -8c0 -2.66699 2.33301 -4.66699 7 -6c44 -14.667 78 -37.334 102 -68.001s36 -67 36 -109
c0 -40 -11 -75 -33 -105s-53.167 -53.333 -93.5 -70s-86.833 -25 -139.5 -25c-80.667 0 -144 17.333 -190 52s-69 82.334 -69 143.001c0 36 9.16699 68.5 27.5 97.5s47.166 56.833 86.499 83.5c9.33301 6 14 10.667 14 14s-4.66699 7 -14 11
c-30.667 15.333 -54 35.833 -70 61.5s-24 56.167 -24 91.5c0 39.333 10.5 74.833 31.5 106.5s49.833 56.5 86.5 74.5s78 27 124 27c45.333 0 85.5 -8.5 120.5 -25.5zM238.001 683.501c-28 -13.667 -50.167 -32.667 -66.5 -57s-24.5 -51.166 -24.5 -80.499
c0 -35.333 10 -64 30 -86s49.667 -37 89 -45l113 -25c13.333 -2.66699 30.333 3.83301 51 19.5s38.667 36.667 54 63s23 53.166 23 80.499c0 45.333 -16 81.833 -48 109.5s-74.333 41.5 -127 41.5c-34.667 0 -66 -6.83301 -94 -20.5zM482.001 80.001
c37.333 28 56.001 65.3311 56.001 111.998c0 35.333 -9.5 63.833 -28.5 85.5s-48.833 36.834 -89.5 45.501l-147 34c-14 3.33301 -33 -2.5 -57 -17.5s-45.167 -36 -63.5 -63s-27.5 -56.5 -27.5 -88.5c0 -47.333 18 -84.166 54 -110.499s86.667 -39.5 152 -39.5
c63.333 0 113.666 14 150.999 42z" />
    <glyph glyph-name="nine" unicode="9" horiz-adv-x="645" 
d="M176.5 11c-29 14 -54.8359 33.6689 -77.5029 59.002c-4.66699 4.66699 -4.66699 8.66699 0 12l32 18c0.666992 0.666992 2 1 4 1c2.66699 0 5.66699 -1.66699 9 -5c16 -18.667 35 -32.834 57 -42.501s49 -14.5 81 -14.5c76.667 0 134.167 27.833 172.5 83.5
s57.5 128.834 57.5 219.501c0 8.66699 -0.5 14.667 -1.5 18s-2.83301 5 -5.5 5c-2 0 -5 -1 -9 -3c-35.333 -18.667 -67.666 -33 -96.999 -43s-63 -15 -101 -15c-49.333 0 -91.666 9.33301 -126.999 28s-62.166 44.5 -80.499 77.5s-27.5 70.167 -27.5 111.5
c0 45.333 10.833 85.5 32.5 120.5s51 62.167 88 81.5s77.833 29 122.5 29c54 0 100.833 -14.5 140.5 -43.5s70 -71.333 91 -127s31.5 -122.834 31.5 -201.501c0 -80.667 -11.333 -150.334 -34 -209.001s-55.5 -103.5 -98.5 -134.5s-94.5 -46.5 -154.5 -46.5
c-41.333 0 -76.5 7 -105.5 21zM398.497 369.502c36.333 11 66.166 24.834 89.499 41.501c9.33301 6 15.5 12 18.5 18s4.5 15.667 4.5 29c0 35.333 -7.66699 72.166 -23 110.499s-38.666 70.5 -69.999 96.5s-69.333 39 -114 39c-34.667 0 -66 -8 -94 -24
s-50 -37.833 -66 -65.5s-24 -58.167 -24 -91.5c0 -30.667 7.16699 -59 21.5 -85s34.833 -46.667 61.5 -62s57.667 -23 93 -23c32 0 66.167 5.5 102.5 16.5z" />
    <glyph glyph-name="colon" unicode=":" horiz-adv-x="188" 
d="M130 427c0 -8 -5 -12 -15 -12h-46c-7.33301 0 -11 3.66699 -11 11v66c0 6.66699 2.66699 10 8 10h56c5.33301 0 8 -3 8 -9v-66zM130 15c0 -4.66699 -1.16797 -7.83301 -3.50098 -9.5s-6.16602 -2.5 -11.499 -2.5h-46c-7.33301 0 -11 3.66699 -11 11v66c0 6 2.66699 9 8 9
h56c5.33301 0 8 -2.66699 8 -8v-66z" />
    <glyph glyph-name="semicolon" unicode=";" horiz-adv-x="214" 
d="M58 426l-0.000976562 66.001c0 6 2.66699 9 8 9h56c5.33301 0 8 -2.66699 8 -8v-66c0 -4.66699 -1.16699 -7.83398 -3.5 -9.50098s-6.16602 -2.5 -11.499 -2.5h-46c-7.33301 0 -11 3.66699 -11 11zM45.499 -133.499c-1 1.66699 -0.499023 4.5 1.50098 8.5l43 114
c0.666992 1.33301 1 3 1 5c0 4 -3 6 -9 6h-10c-6 0 -9 2.66699 -9 8v71c0 4.66699 2.33301 7 7 7h57c4.66699 0 7 -2 7 -6v-63c0 -4 -0.666992 -8 -2 -12l-60 -134c-2.66699 -4.66699 -7.33398 -7 -14.001 -7h-8c-2 0 -3.5 0.833008 -4.5 2.5z" />
    <glyph glyph-name="less" unicode="&#x3c;" horiz-adv-x="528" 
d="M458 190c0 -6 -1.66699 -10.001 -5 -12.001s-7.66602 -2 -12.999 0l-372 148c-6.66699 2 -10 5.66699 -10 11v40c0 5.33301 3.33301 9 10 11l372 150c4 1.33301 7 2 9 2c6.66699 0 10 -4 10 -12v-30c0 -5.33301 -5 -10.666 -15 -15.999l-315 -125l314 -125
c5.33301 -2.66699 9.16602 -5 11.499 -7s3.5 -5 3.5 -9v-26z" />
    <glyph glyph-name="equal" unicode="=" horiz-adv-x="545" 
d="M477 460c0 -6 -4.00098 -9 -12.001 -9l-388 -1c-3.33301 0 -5.66602 0.5 -6.99902 1.5s-2 3.16699 -2 6.5v28c0 5.33301 2 8 6 8l395 1c5.33301 0 8 -2.33301 8 -7v-28zM476.999 239c0 -6.66699 -4 -10 -12 -10l-388 -1c-6 0 -9 2.66699 -9 8v29c0 5.33301 2 8 6 8l395 1
c2 0 3.83301 -0.666992 5.5 -2s2.5 -3 2.5 -5v-28z" />
    <glyph glyph-name="greater" unicode="&#x3e;" horiz-adv-x="528" 
d="M73.5 225c2.33301 2 6.16797 4.33203 11.501 6.99902l314 125l-315 125c-10 5.33301 -15 10.666 -15 15.999v30c0 8 3.33301 12 10 12l8 -2l373 -150c3.33301 -1.33301 5.66602 -2.66602 6.99902 -3.99902s2 -3.66602 2 -6.99902v-40c0 -5.33301 -3 -9 -9 -11l-373 -148
c-1.33301 -0.666992 -3.33301 -1 -6 -1c-7.33301 0 -11 4.33301 -11 13v26c0 4 1.16699 7 3.5 9z" />
    <glyph glyph-name="question" unicode="?" horiz-adv-x="516" 
d="M37 621c-0.666992 2 -0.332031 3.66602 1.00098 4.99902c21.333 38.667 52.333 69.334 93 92.001s85.334 34 134.001 34c65.333 0 117.333 -16.5 156 -49.5s58 -76.833 58 -131.5c0 -27.333 -4.66699 -52.5 -14 -75.5s-20.833 -43.167 -34.5 -60.5s-32.167 -39 -55.5 -65
c-23.333 -25.333 -42 -47 -56 -65s-25.833 -38.667 -35.5 -62s-14.5 -49 -14.5 -77c0 -2 -0.666992 -4 -2 -6s-3.33301 -3 -6 -3h-32c-6 0 -9 3.66699 -9 11c0 31.333 5.16699 60.166 15.5 86.499s22.666 49.166 36.999 68.499s33.5 42.333 57.5 69
c22 24.667 39 44.834 51 60.501s22.167 33.334 30.5 53.001s12.5 41.167 12.5 64.5c0 41.333 -14.5 74.166 -43.5 98.499s-67.5 36.5 -115.5 36.5c-37.333 0 -73.5 -9.66699 -108.5 -29s-58.167 -42.666 -69.5 -69.999c-2 -4 -5 -5.33301 -9 -4l-36 15
c-2.66699 0.666992 -4.33398 2 -5.00098 4zM280.002 11.999c0 -4.66699 -1 -7.83301 -3 -9.5s-5.66699 -2.5 -11 -2.5h-46c-7.33301 0 -11 3.66699 -11 11v66c0 6 2.66699 9 8 9h55c5.33301 0 8 -2.66699 8 -8v-66z" />
    <glyph glyph-name="at" unicode="@" horiz-adv-x="834" 
d="M436 -113c-78 0 -146.002 16.6631 -204.002 49.9961s-102.5 78.333 -133.5 135s-46.5 119.667 -46.5 189c0 72 16.833 138.5 50.5 199.5s80.834 109.667 141.501 146s129 54.5 205 54.5c59.333 0 115.666 -11.667 168.999 -35s96.666 -59.166 129.999 -107.499
s50 -107.833 50 -178.5c0 -50 -8.33301 -94.667 -25 -134s-39.5 -70 -68.5 -92s-61.5 -33 -97.5 -33c-25.333 0 -44.833 4.16699 -58.5 12.5s-22.834 22.833 -27.501 43.5c-2 5.33301 -3.66699 8 -5 8c-0.666992 0 -2.66699 -2 -6 -6c-35.333 -48 -83 -72 -143 -72
c-24 0 -46.333 7.33301 -67 22s-37.167 35.334 -49.5 62.001s-18.5 57.334 -18.5 92.001c0 42.667 8.16699 81.667 24.5 117s39 63.333 68 84s61.167 31 96.5 31c26.667 0 50.167 -6.33301 70.5 -19s36.5 -29.667 48.5 -51c0.666992 -1.33301 1.66699 -1.66602 3 -0.999023
s2.33301 2 3 4l10 36c0.666992 3.33301 3 5 7 5h33c5.33301 0 7.33301 -2 6 -6l-38 -228c-2 -12.667 -3 -24.334 -3 -35.001c0 -18.667 3.83301 -32 11.5 -40s19.834 -12 36.501 -12c24.667 0 47.334 8.5 68.001 25.5s37.167 41.167 49.5 72.5s18.5 67.333 18.5 108
c0 62.667 -14.5 115.167 -43.5 157.5s-66.167 73.333 -111.5 93s-92.666 29.5 -141.999 29.5c-68.667 0 -129 -16 -181 -48s-92 -75 -120 -129s-42 -113.667 -42 -179c0 -59.333 13 -113.5 39 -162.5s64.833 -88.167 116.5 -117.5s114.5 -44 188.5 -44
c38.667 0 69.834 4.66699 93.501 14s51.167 24.333 82.5 45c4 2 7.66699 3 11 3c4 0 7 -1.33301 9 -4l13 -18c2 -3.33301 3 -5.66602 3 -6.99902c0 -4 -3.33301 -8.33301 -10 -13c-64 -44.667 -135.667 -67 -215 -67zM309.998 149.496c15.333 -23 36.667 -34.498 64 -34.498
c35.333 0 66.833 14.667 94.5 44s44.834 65.333 51.501 108c2 13.333 3 25.666 3 36.999c0 39.333 -9.83301 69.666 -29.5 90.999s-42.834 32 -69.501 32c-40.667 0 -73.667 -17.5 -99 -52.5s-38 -78.167 -38 -129.5c0 -40.667 7.66699 -72.5 23 -95.5z" />
    <glyph glyph-name="A" unicode="A" horiz-adv-x="706" 
d="M51 11l263.999 718.999c1.33301 4.66699 3.33301 7.83398 6 9.50098s6.33398 2.5 11.001 2.5h43c10.667 0 17 -3.66699 19 -11l261 -719l1 -4c0 -5.33301 -3 -8 -9 -8h-35c-7.33301 0 -12 3 -14 9l-78 216c-2 4.66699 -5.33301 7 -10 7h-316
c-4.66699 0 -8 -2.33301 -10 -7l-80 -217c-0.666992 -5.33301 -4.66699 -8 -12 -8h-33c-7.33301 0 -10 3.66699 -8 11zM489.999 279.999c7.33301 0 10 3.66699 8 11l-138 376c-2 6.66699 -4.33301 10 -7 10c-2 0 -4.66699 -3.66699 -8 -11l-140 -377
c-0.666992 -1.33301 -1 -3 -1 -5c0 -2.66699 2.33301 -4 7 -4h279z" />
    <glyph glyph-name="B" unicode="B" horiz-adv-x="687" 
d="M110 9v722c0 7.33301 3.33301 11 10 11h211c84.667 0 150.167 -16.333 196.5 -49s69.5 -80 69.5 -142c0 -85.333 -43.667 -141.666 -131 -168.999c-2.66699 -0.666992 -4 -2.16699 -4 -4.5s1.33301 -3.83301 4 -4.5c47.333 -9.33301 84 -28.833 110 -58.5
s39 -68.834 39 -117.501c0 -65.333 -24.167 -114.5 -72.5 -147.5s-117.5 -49.5 -207.5 -49.5h-216c-6 0 -9 3 -9 9zM343 399c54 0 100.001 11 138.001 33s57 59.333 57 112c0 50.667 -18.333 88.5 -55 113.5s-88.334 37.5 -155.001 37.5h-151c-6.66699 0 -10 -3 -10 -9v-277
c0 -6.66699 2.66699 -10 8 -10h168zM330.001 47c77.333 0 134.334 11.5 171.001 34.5s55 60.167 55 111.5c0 54.667 -19.333 94.667 -58 120s-90.334 38 -155.001 38h-164c-8 0 -12 -3 -12 -9v-284c0 -7.33301 2.66699 -11 8 -11h155z" />
    <glyph glyph-name="C" unicode="C" horiz-adv-x="698" 
d="M494.5 724.5c38.333 -18.333 70.1689 -42.666 95.502 -72.999s40 -62.833 44 -97.5v-4c0 -2 -0.5 -3.33301 -1.5 -4s-2.5 -1 -4.5 -1l-45 -4h-2c-2.66699 0 -4.33398 2.33301 -5.00098 7c-11.333 46.667 -34.833 84.167 -70.5 112.5s-78.167 42.5 -127.5 42.5
c-79.333 0 -139.666 -28.333 -180.999 -85s-62 -139.667 -62 -249c0 -106.667 21 -188.167 63 -244.5s104.333 -84.5 187 -84.5c51.333 0 93.666 12.167 126.999 36.5s60 62.5 80 114.5c0.666992 2.66699 3 3.66699 7 3l40 -11c2.66699 -1.33301 3.66699 -4.33301 3 -9
c-17.333 -54 -49.5 -98.167 -96.5 -132.5s-101.833 -51.5 -164.5 -51.5c-96.667 0 -171.834 33.167 -225.501 99.5s-80.5 159.5 -80.5 279.5c0 80 12 148.667 36 206s58.5 101.166 103.5 131.499s98.833 45.5 161.5 45.5c40.667 0 80.167 -9.16699 118.5 -27.5z" />
    <glyph glyph-name="D" unicode="D" horiz-adv-x="707" 
d="M246 741c135.333 -0.666992 233.667 -30.5 295 -89.5s92 -150.833 92 -275.5c0 -128.667 -32.667 -223.5 -98 -284.5s-166.333 -91.5 -303 -91.5h-112c-6.66699 0 -10 3.66699 -10 11v722c0 6 3.33301 9 10 9zM167.001 680l-0.000976562 -622.998
c0 -6.66699 4 -10 12 -10h47c84.667 0 152.167 10.667 202.5 32s87 55.666 110 102.999s34.5 110.666 34.5 189.999c0 82 -11.667 146 -35 192s-59.166 78.667 -107.499 98s-112.833 30 -193.5 32h-62c-5.33301 0 -8 -4.66699 -8 -14z" />
    <glyph glyph-name="E" unicode="E" horiz-adv-x="616" 
d="M112 740c1.33301 1.33301 3.99902 1.99902 7.99902 1.99902h423c4.66699 0 7 -2.66699 7 -8v-31c0 -3.33301 -0.666992 -5.66602 -2 -6.99902s-3.66602 -2 -6.99902 -2h-364c-4 0 -6.66699 -0.5 -8 -1.5s-2 -3.5 -2 -7.5v-278c0 -3.33301 0.666992 -5.5 2 -6.5
s4 -1.5 8 -1.5h282c5.33301 0 8 -2.66699 8 -8v-32c0 -3.33301 -0.666992 -5.5 -2 -6.5s-3.66602 -1.5 -6.99902 -1.5h-281c-4 0 -6.66699 -0.5 -8 -1.5s-2 -3.5 -2 -7.5v-285c0 -4 0.666992 -6.5 2 -7.5s4 -1.5 8 -1.5h379c3.33301 0 5.66602 -0.5 6.99902 -1.5
s2 -3.16699 2 -6.5v-32c0 -5.33301 -2.66699 -8 -8 -8h-437c-4 0 -6.66699 0.666992 -8 2s-2 4.33301 -2 9v720c0 4.66699 0.666992 7.66699 2 9z" />
    <glyph glyph-name="F" unicode="F" horiz-adv-x="587" 
d="M112.5 740c1.66699 1.33301 4.16504 1.99902 7.49805 1.99902h413c4.66699 0 7 -2.66699 7 -8v-31c0 -3.33301 -0.666992 -5.66602 -2 -6.99902s-3.66602 -2 -6.99902 -2h-354c-4 0 -6.66699 -0.5 -8 -1.5s-2 -3.5 -2 -7.5v-291c0 -3.33301 0.666992 -5.5 2 -6.5
s4 -1.5 8 -1.5h292c5.33301 0 8 -2.66699 8 -8v-32c0 -2.66699 -0.666992 -4.5 -2 -5.5s-3.66602 -1.5 -6.99902 -1.5h-291c-3.33301 0 -5.83301 -0.666992 -7.5 -2s-2.5 -4 -2.5 -8v-321c0 -5.33301 -2.66699 -8 -8 -8h-39c-4 0 -6.66699 0.666992 -8 2s-2 4.33301 -2 9
v720c0 4.66699 0.833008 7.66699 2.5 9z" />
    <glyph glyph-name="G" unicode="G" horiz-adv-x="732" 
d="M213 35c-44.667 30 -78.833 73.333 -102.5 130s-35.5 124.334 -35.5 203.001c0 80.667 12.167 149.834 36.5 207.501s59 101.5 104 131.5s98.167 45 159.5 45c41.333 0 81.166 -9 119.499 -27s70 -41.833 95 -71.5s39.5 -61.834 43.5 -96.501
c1.33301 -5.33301 -0.333984 -8.33301 -5.00098 -9l-44 -8c-4.66699 0 -7.33398 2.33301 -8.00098 7c-4.66699 28.667 -16.5 55 -35.5 79s-42.833 42.833 -71.5 56.5s-60 20.5 -94 20.5c-77.333 0 -136.666 -28.667 -177.999 -86s-62 -138.333 -62 -243
c0 -109.333 20.333 -192.5 61 -249.5s100.334 -85.5 179.001 -85.5c47.333 0 87.833 11 121.5 33s58.834 49.5 75.501 82.5s25.334 65.833 26.001 98.5v74c0 6 -3.66699 9 -11 9h-183c-5.33301 0 -8 2.33301 -8 7v27c0 4.66699 2 7 6 7h239c5.33301 0 8 -2.66699 8 -8v-358
c0 -4 -0.666992 -6.83301 -2 -8.5s-4 -2.5 -8 -2.5h-19c-4.66699 0 -8 0.5 -10 1.5s-3.33301 3.83301 -4 8.5l-2 103c-0.666992 3.33301 -1.83398 5 -3.50098 5s-3.5 -1.66699 -5.5 -5c-20.667 -36.667 -49.667 -66.334 -87 -89.001s-82.333 -34 -135 -34
c-62 0 -115.333 15 -160 45z" />
    <glyph glyph-name="H" unicode="H" horiz-adv-x="727" 
d="M174 362c-2 0 -3.66406 -0.832031 -4.99707 -2.49902s-2 -3.16699 -2 -4.5v-345c0 -6.66699 -3.66699 -10 -11 -10h-36c-4 0 -6.66699 0.833008 -8 2.5s-2 4.5 -2 8.5v720c0 4.66699 0.833008 7.66699 2.5 9s4.16699 2 7.5 2h38c3.33301 0 5.66602 -0.666992 6.99902 -2
s2 -4.33301 2 -9v-311c0 -4 0.666992 -6.66699 2 -8s4 -2 8 -2h374c3.33301 0 5.66602 0.666992 6.99902 2s2 3.66602 2 6.99902v313c0 6.66699 3 10 9 10h39c3.33301 0 5.66602 -0.666992 6.99902 -2s2 -4.33301 2 -9v-720c0 -7.33301 -3.33301 -11 -10 -11h-36
c-4 0 -6.83301 0.666992 -8.5 2s-2.5 4 -2.5 8v344c0 5.33301 -2.66699 8 -8 8h-378z" />
    <glyph glyph-name="I" unicode="I" horiz-adv-x="278" 
d="M158 742c3.33301 0 5.66797 -0.666992 7.00098 -2s2 -4.33301 2 -9v-718c0 -5.33301 -0.833008 -8.83301 -2.5 -10.5s-5.16699 -2.5 -10.5 -2.5h-32c-4.66699 0 -7.83398 0.666992 -9.50098 2s-2.5 4.33301 -2.5 9v720c0 4.66699 0.833008 7.66699 2.5 9s4.16699 2 7.5 2
h38z" />
    <glyph glyph-name="J" unicode="J" horiz-adv-x="403" 
d="M264.5 30.5c-21.667 -27 -56.5 -40.498 -104.5 -40.498c-23.333 0 -44.833 2.66699 -64.5 8s-34.5 10.666 -44.5 15.999c-4.66699 2 -6.33398 5.66699 -5.00098 11l9 37c1.33301 5.33301 4.33301 7 9 5c16.667 -8.66699 30.5 -14.834 41.5 -18.501s26.833 -5.5 47.5 -5.5
c32.667 0 55.334 8.5 68.001 25.5s19 47.833 19 92.5v571c0 6.66699 3 10 9 10h40c5.33301 0 8 -3.66699 8 -11v-583c0 -51.333 -10.833 -90.5 -32.5 -117.5z" />
    <glyph glyph-name="K" unicode="K" horiz-adv-x="680" 
d="M632 2.5c-0.666992 -1.66699 -2.33105 -2.49902 -4.99805 -2.49902h-49c-6 0 -10 2 -12 6l-250 396c-2 2.66699 -3.83301 4 -5.5 4s-3.83398 -1.33301 -6.50098 -4l-129 -143c-2.66699 -2.66699 -4.66699 -5.16699 -6 -7.5s-2 -5.5 -2 -9.5v-232
c0 -6.66699 -3.66699 -10 -11 -10h-35c-4 0 -6.83301 0.666992 -8.5 2s-2.5 4 -2.5 8v723c0 6 3 9 9 9h40c5.33301 0 8 -3 8 -9v-401c0 -6 2.66699 -6.33301 8 -1l371 406c1.33301 2 3 3.33301 5 4s4.66699 1 8 1h45c3.33301 0 5.33301 -1 6 -3s0 -4 -2 -6l-253 -278
c-1.33301 -1.33301 -2 -2.5 -2 -3.5s0.666992 -2.5 2 -4.5l276 -438c1.33301 -2.66699 1.66602 -4.83398 0.999023 -6.50098z" />
    <glyph glyph-name="L" unicode="L" horiz-adv-x="591" 
d="M112.5 740c1.66699 1.33301 4.16895 2 7.50195 2h38c3.33301 0 5.66602 -0.666992 6.99902 -2s2 -4.33301 2 -9v-674c0 -4 0.666992 -6.5 2 -7.5s4 -1.5 8 -1.5h359c3.33301 0 5.66602 -0.5 6.99902 -1.5s2 -3.16699 2 -6.5v-32c0 -5.33301 -2.66699 -8 -8 -8h-417
c-4 -0 -6.66699 0.833008 -8 2.5s-2 4.5 -2 8.5v720c0 4.66699 0.833008 7.66699 2.5 9z" />
    <glyph glyph-name="M" unicode="M" horiz-adv-x="885" 
d="M110 11l0.000976562 720c0 4.66699 0.666992 7.66699 2 9s4 2 8 2h42c7.33301 0 12 -3 14 -9l257 -648c2 -6 4.33301 -9 7 -9s5.33398 3.33301 8.00098 10l260 648c2 5.33301 6 8 12 8h45c4 0 6.66699 -0.666992 8 -2s2 -4.33301 2 -9v-720
c0 -7.33301 -3.33301 -11 -10 -11h-36c-4 0 -6.83301 0.666992 -8.5 2s-2.5 4 -2.5 8v607c0 2.66699 -0.5 3.83398 -1.5 3.50098s-1.83301 -1.5 -2.5 -3.5l-242 -606c-2.66699 -7.33301 -8.33398 -11 -17.001 -11h-32c-10 0 -16.333 3.66699 -19 11l-238 601
c-0.666992 2 -1.33398 3.16699 -2.00098 3.5s-1 -0.833984 -1 -3.50098v-602c0 -6.66699 -3.66699 -10 -11 -10h-32c-6.66699 0 -10 3.66699 -10 11z" />
    <glyph glyph-name="N" unicode="N" horiz-adv-x="755" 
d="M636 742c3.33301 0 5.66602 -0.667969 6.99902 -2.00098s2 -4 2 -8v-721c0 -7.33301 -3.33301 -11 -10 -11h-22h-5c-6 0 -11 2.33301 -15 7l-418 614c-3.33301 4.66699 -6.16602 6.83398 -8.49902 6.50098s-3.5 -2.5 -3.5 -6.5v-611c0 -6.66699 -3.66699 -10 -11 -10h-32
c-6.66699 0 -10 3.66699 -10 11v720c0 4.66699 0.666992 7.66699 2 9s4 2 8 2h27c4.66699 0 8 -0.5 10 -1.5s4 -3.16699 6 -6.5l416 -611c3.33301 -4 6 -6 8 -6c4 0 6 2.66699 6 8v607c0 6.66699 3 10 9 10h34z" />
    <glyph glyph-name="O" unicode="O" horiz-adv-x="759" 
d="M155 87.5c-53.333 65 -79.999 158.167 -79.999 279.5c0 123.333 27 218.333 81 285s129 100 225 100c95.333 0 169.666 -33.167 222.999 -99.5s80 -160.833 80 -283.5c0 -122 -26.667 -215.667 -80 -281s-128 -98 -224 -98c-96.667 0 -171.667 32.5 -225 97.5z
M624.001 369c0 112 -20.499 195.667 -61.499 251s-101.5 83 -181.5 83c-80.667 0 -141.834 -27.833 -183.501 -83.5s-62.5 -139.167 -62.5 -250.5c0 -220 82.333 -330 247 -330c161.333 0 242 110 242 330z" />
    <glyph glyph-name="P" unicode="P" horiz-adv-x="678" 
d="M546.5 375c-47 -34.667 -110.5 -51.999 -190.5 -51.999h-180c-6 0 -9 -3 -9 -9v-304c0 -6.66699 -3 -10 -9 -10h-39c-6 0 -9 3 -9 9v722c0 4.66699 0.666992 7.66699 2 9s4 2 8 2h229c82.667 0 148 -17 196 -51s72 -86.667 72 -158
c0 -70.667 -23.5 -123.334 -70.5 -158.001zM503 658.001c-36 24.667 -88 36.998 -156 36.998h-170c-6.66699 0 -10 -3 -10 -9v-305c0 -6.66699 2.66699 -10 8 -10h179c64.667 0 114.667 13.333 150 40s53 68.334 53 125.001s-18 97.334 -54 122.001z" />
    <glyph glyph-name="Q" unicode="Q" horiz-adv-x="760" 
d="M155.5 653c53.667 66 128.501 99.002 224.501 99.002s170.667 -32.833 224 -98.5s80 -160.5 80 -284.5c0 -86 -12.667 -156.667 -38 -212s-62.666 -98 -111.999 -128c-3.33301 -2.66699 -5 -5.66699 -5 -9c0 -9.33301 6.66699 -20.833 20 -34.5s30.666 -26 51.999 -37
s43.333 -18.167 66 -21.5c5.33301 -0.666992 8 -3.33398 8 -8.00098v-27c0 -6 -1.5 -9.83301 -4.5 -11.5s-8.5 -2.5 -16.5 -2.5c-27.333 0 -56.5 9.16699 -87.5 27.5s-61.5 48.166 -91.5 89.499c-3.33301 4.66699 -8.33301 6 -15 4c-24.667 -6 -51.334 -9 -80.001 -9
c-95.333 0 -170 32.333 -224 97s-81 158.667 -81 282s26.833 218 80.5 284zM380.001 39.002c80.667 0 141.667 27.333 183 82s62 137.334 62 248.001c0 110 -20.667 193.167 -62 249.5s-102.333 84.5 -183 84.5s-141.667 -28.333 -183 -85s-62 -140.334 -62 -251.001
c0 -218.667 81.667 -328 245 -328z" />
    <glyph glyph-name="R" unicode="R" horiz-adv-x="683" 
d="M606 10c0 -2.66699 -0.833008 -4.99707 -2.5 -6.99707s-3.83398 -3 -6.50098 -3h-39c-3.33301 0 -6 0.833008 -8 2.5s-3.66699 4.16699 -5 7.5l-139 331c-1.33301 3.33301 -3.5 5.83301 -6.5 7.5s-7.83301 2.5 -14.5 2.5h-206c-8 0 -12 -3.66699 -12 -11v-328
c0 -4.66699 -0.666992 -7.83398 -2 -9.50098s-4.33301 -2.5 -9 -2.5h-35c-4 0 -6.83301 0.833008 -8.5 2.5s-2.5 4.16699 -2.5 7.5v721c0 4.66699 0.666992 7.66699 2 9s4 2 8 2h263c74 0 131.167 -15.833 171.5 -47.5s60.5 -77.834 60.5 -138.501
c0 -54.667 -14.667 -97.5 -44 -128.5s-64.666 -52.167 -105.999 -63.5c-4 -0.666992 -5.33301 -3.33398 -4 -8.00098l144 -341c0.666992 -1.33301 1 -3 1 -5zM505 434.003c34 24 51 62.333 51 115c0 97.333 -58.333 146 -175 146h-202c-8 0 -12 -2.66699 -12 -8v-279
c0 -6.66699 2.66699 -10 8 -10h174c70 0 122 12 156 36z" />
    <glyph glyph-name="S" unicode="S" horiz-adv-x="623" 
d="M318 703c-54.667 0 -97.9971 -12.8301 -129.997 -38.4971s-48 -61.834 -48 -108.501c0 -60 39.333 -104 118 -132l140 -50c58 -20.667 99.667 -46.334 125 -77.001s38 -68 38 -112c0 -61.333 -22.167 -109.166 -66.5 -143.499s-105.166 -51.5 -182.499 -51.5
c-56.667 0 -105.834 10.167 -147.501 30.5s-76.834 51.5 -105.501 93.5c-2 3.33301 -3 6 -3 8c0 4 3 8 9 12l17 12c4 3.33301 8 5 12 5c2.66699 0 5.66699 -1.66699 9 -5c29.333 -38 58.833 -65.333 88.5 -82s69.5 -25 119.5 -25c60.667 0 108 11.333 142 34
s51 58.667 51 108c0 30.667 -8.83301 56.5 -26.5 77.5s-51.5 40.833 -101.5 59.5l-151 57c-50.667 18.667 -86.834 43.667 -108.501 75s-32.5 65.666 -32.5 102.999c0 62 21.5 110.667 64.5 146s100.167 53 171.5 53c88 0 161.667 -32.333 221 -97
c2.66699 -2.66699 4 -5.33398 4 -8.00098c0 -2 -1.33301 -4.33301 -4 -7l-27 -23c-2 -2 -3.66699 -3 -5 -3c-2 0 -5 2.66699 -9 8c-46.667 54 -107.334 81 -182.001 81z" />
    <glyph glyph-name="T" unicode="T" horiz-adv-x="628" 
d="M46 734c0 5.33301 2.66504 8 7.99805 8h520c5.33301 0 8 -2.66699 8 -8v-32c0 -3.33301 -0.666992 -5.5 -2 -6.5s-3.66602 -1.5 -6.99902 -1.5h-210c-4 0 -6.66699 -0.5 -8 -1.5s-2 -3.5 -2 -7.5v-674c0 -4 -0.666992 -6.83301 -2 -8.5s-4 -2.5 -8 -2.5h-37
c-4 0 -6.83301 0.666992 -8.5 2s-2.5 4.33301 -2.5 9v674c0 4 -0.666992 6.5 -2 7.5s-4 1.5 -8 1.5h-230c-3.33301 0 -5.66602 0.5 -6.99902 1.5s-2 3.16699 -2 6.5v32z" />
    <glyph glyph-name="U" unicode="U" horiz-adv-x="704" 
d="M540.5 50.5c-41.667 -40.333 -104.5 -60.5 -188.5 -60.5c-86 0 -149.5 21.167 -190.5 63.5s-61.5 107.5 -61.5 195.5v481c0 8 3 12 9 12h38c4 0 6.83301 -0.666992 8.5 -2s2.5 -4.33301 2.5 -9v-501c0 -127.333 65.667 -191 197 -191c66.667 0 116.5 16 149.5 48
s49.5 80.667 49.5 146v499c0 6.66699 3 10 9 10h32c5.33301 0 8 -3.33301 8 -10v-498c0 -82 -20.833 -143.167 -62.5 -183.5z" />
    <glyph glyph-name="V" unicode="V" horiz-adv-x="694" 
d="M642.5 739c1.66699 -2 1.83398 -4.33301 0.500977 -7l-261 -720c-1.33301 -4.66699 -3.33301 -7.83398 -6 -9.50098s-6.33398 -2.5 -11.001 -2.5h-40c-11.333 0 -18 3.66699 -20 11l-254 720l-1 3c0 5.33301 3.33301 8 10 8h34c4 0 7 -0.666992 9 -2
s3.33301 -3.66602 4 -6.99902l231 -655c2 -6.66699 4.66699 -10 8 -10c2 0 4.66699 3.66699 8 11l236 655c2 5.33301 6 8 12 8h33c3.33301 0 5.83301 -1 7.5 -3z" />
    <glyph glyph-name="W" unicode="W" horiz-adv-x="1027" 
d="M973.5 739c1.66699 -2 1.83398 -4.66699 0.500977 -8l-207 -719c-1.33301 -4.66699 -3.16602 -7.83398 -5.49902 -9.50098s-6.16602 -2.5 -11.499 -2.5h-38c-10.667 0 -17.334 3.66699 -20.001 11l-176 629c-0.666992 2.66699 -1.33398 4 -2.00098 4
s-1.33398 -1.33301 -2.00098 -4l-180 -628c-1.33301 -4.66699 -3.33301 -7.83398 -6 -9.50098s-6.66699 -2.5 -12 -2.5h-39c-10 0 -16.333 3.66699 -19 11l-202 719l-1 4c0 5.33301 3.66699 8 11 8h33c4.66699 0 7.83398 -0.666992 9.50098 -2
s3.16699 -3.66602 4.5 -6.99902l180 -645c2 -6.66699 4 -10 6 -10s4 3.66699 6 11l183 645c2.66699 5.33301 7.66699 8 15 8h32c4.66699 0 7.66699 -0.666992 9 -2s2.66602 -3.66602 3.99902 -6.99902l180 -645c2 -6.66699 4 -10 6 -10s4 3.66699 6 11l184 645
c0.666992 5.33301 5 8 13 8h31c3.33301 0 5.83301 -1 7.5 -3z" />
    <glyph glyph-name="X" unicode="X" horiz-adv-x="668" 
d="M618 5c0 -3.33301 -3.00488 -5.00098 -9.00488 -5.00098h-45c-2 0 -3.66699 0.333008 -5 1s-2.66602 2 -3.99902 4l-213 315c-3.33301 5.33301 -6.33301 8 -9 8c-3.33301 0 -7.33301 -3.66699 -12 -11l-211 -312c-1.33301 -3.33301 -4.66602 -5 -9.99902 -5h-42
c-4.66699 0 -7 1.33301 -7 4c0 2 1 5 3 9l239 356c2.66699 3.33301 4 6.66602 4 9.99902s-1.66699 7.33301 -5 12l-230 341c-1.33301 2 -1.66602 4.16699 -0.999023 6.5s2.33398 3.5 5.00098 3.5h48c6 0 9.66699 -1.66699 11 -5l200 -299c2.66699 -4 5.33398 -6 8.00098 -6
c3.33301 0 6.33301 2.33301 9 7l200 298c2 3.33301 5.33301 5 10 5h48c4.66699 0 5.66699 -2.66699 3 -8l-231 -342c-2.66699 -3.33301 -4 -6.66602 -4 -9.99902c0 -1.33301 1 -3.66602 3 -6.99902l243 -362c2.66699 -3.33301 4 -6 4 -8z" />
    <glyph glyph-name="Y" unicode="Y" horiz-adv-x="647" 
d="M599 738.5c1.33301 -2.33301 0.999023 -5.16895 -1.00098 -8.50195l-239 -403c-2 -3.33301 -3.16699 -6.66602 -3.5 -9.99902s-0.5 -7.66602 -0.5 -12.999v-290c0 -5.33301 -1.16699 -9 -3.5 -11s-6.5 -3 -12.5 -3h-29c-8 0 -12 4 -12 12v283c0 7.33301 -2 14.333 -6 21
l-243 413c-1.33301 2 -2 4.33301 -2 7c0 4 3.33301 6 10 6h34c4.66699 0 8.16699 -0.666992 10.5 -2s4.83301 -4 7.5 -8l204 -348c4.66699 -8 9 -12 13 -12c2.66699 0 6.33398 3.33301 11.001 10l203 350c2.66699 4.66699 5 7.5 7 8.5s5.33301 1.5 10 1.5h34
c4 0 6.66699 -1.16699 8 -3.5z" />
    <glyph glyph-name="Z" unicode="Z" horiz-adv-x="607" 
d="M55 1.5c-1.33301 1 -2.00195 3.16895 -2.00195 6.50195v17c0 5.33301 2.66699 11.666 8 18.999l413 643c2.66699 4.66699 1.33398 7 -3.99902 7h-397c-5.33301 0 -8 2.66699 -8 8v33c0 4.66699 2 7 6 7h475c4.66699 0 7 -2.33301 7 -7v-19
c0 -3.33301 -0.833008 -6.33301 -2.5 -9s-2.83398 -4.33398 -3.50098 -5.00098l-418 -646c-1.33301 -2.66699 -1.66602 -4.66699 -0.999023 -6s2 -2 4 -2h413c4.66699 0 7 -2 7 -6v-34c0 -5.33301 -2.66699 -8 -8 -8h-482c-3.33301 0 -5.66602 0.5 -6.99902 1.5z" />
    <glyph glyph-name="bracketleft" unicode="[" horiz-adv-x="272" 
d="M111 742l138.999 -0.000976562c4.66699 0 7 -1.66699 7 -5v-30c0 -4 -2.33301 -6 -7 -6h-88c-6 0 -9 -3.33301 -9 -10v-808c0 -2.66699 0.333008 -4.5 1 -5.5s2.33398 -1.5 5.00098 -1.5h89c5.33301 0 8 -2.66699 8 -8v-24c0 -3.33301 -0.5 -5.66602 -1.5 -6.99902
s-3.16699 -2 -6.5 -2h-135c-6.66699 0 -10 3 -10 9l-1 891c0 4.66699 3 7 9 7z" />
    <glyph glyph-name="backslash" unicode="\" horiz-adv-x="331" 
d="M264 -47l-247.999 778c-0.666992 1.33301 -1 3.33301 -1 6c0 3.33301 2.33301 5 7 5h32c5.33301 0 8.33301 -2.33301 9 -7l251 -785c1.33301 -4 -0.333984 -6 -5.00098 -6h-33c-6 0 -10 3 -12 9z" />
    <glyph glyph-name="bracketright" unicode="]" horiz-adv-x="272" 
d="M169 -156c0 -6 -3.33398 -8.99902 -10.001 -8.99902h-135c-3.33301 0 -5.5 0.666992 -6.5 2s-1.5 3.66602 -1.5 6.99902v24c0 5.33301 2.66699 8 8 8h89c2.66699 0 4.33398 0.5 5.00098 1.5s1 2.83301 1 5.5v808c0 6.66699 -3 10 -9 10h-88c-4.66699 0 -7 2 -7 6v30
c0 3.33301 2.33301 5 7 5h139c6 0 9 -2.33301 9 -7z" />
    <glyph glyph-name="asciicircum" unicode="^" horiz-adv-x="476" 
d="M242 453c-1.33301 3.33301 -3 5.00098 -5 5.00098s-3.66699 -1.66699 -5 -5l-123 -308c-2 -4.66699 -5.66699 -7 -11 -7h-34c-2.66699 0 -4.5 1 -5.5 3s-0.833008 4.66699 0.5 8l143 355c4.66699 11.333 10 20.166 16 26.499s12.333 9.5 19 9.5c13.333 0 25 -12 35 -36
l145 -358l1 -4c0 -4 -2.66699 -6 -8 -6h-33c-6.66699 0 -11 2.66699 -13 8z" />
    <glyph glyph-name="underscore" unicode="_" horiz-adv-x="505" 
d="M437 -95c0 -6.66699 -4 -10 -12 -10l-348 -1c-6 0 -9 2.66699 -9 8v31c0 5.33301 2 8 6 8l355 1c2 0 3.83301 -0.666992 5.5 -2s2.5 -3 2.5 -5v-30z" />
    <glyph glyph-name="grave" unicode="`" horiz-adv-x="275" 
d="M25.5 751c1.66699 0.666992 3.49902 0.667969 5.49902 0.000976562l230 -94c4 -2.66699 5 -6.33398 3 -11.001l-6 -17c-0.666992 -3.33301 -2 -5.5 -4 -6.5s-4.66699 -0.833008 -8 0.5l-227 76c-7.33301 2.66699 -10 7 -8 13l11 35c0.666992 2 1.83398 3.33301 3.50098 4
z" />
    <glyph glyph-name="a" unicode="a" horiz-adv-x="540" 
d="M216 -10c-52.667 0 -94.1689 13.001 -124.502 39.001s-45.5 61.333 -45.5 106c0 50.667 21 90.667 63 120s104.667 47.666 188 54.999l99 8c11.333 1.33301 17 6.33301 17 15v30c0 40.667 -13.167 73.167 -39.5 97.5s-61.166 36.5 -104.499 36.5
c-64 0 -118 -29.667 -162 -89c-2 -3.33301 -3.66699 -5.33301 -5 -6s-3.33301 -0.333984 -6 0.999023l-31 16c-4 2.66699 -4 6.33398 0 11.001c22 34 50.333 60.833 85 80.5s75.334 29.5 122.001 29.5c58.667 0 105 -15.333 139 -46s51 -72.667 51 -126v-357
c0 -7.33301 -3.66699 -11 -11 -11h-25c-6.66699 0 -10 3.66699 -10 11l-2 57c-0.666992 4 -2 6.16699 -4 6.5s-4.33301 -1.16699 -7 -4.5c-54.667 -53.333 -117 -80 -187 -80zM398.998 278.001l-84 -7c-144.667 -10.667 -217 -54.334 -217 -131.001
c0 -33.333 11.667 -59.333 35 -78s54.666 -28 93.999 -28c23.333 0 46.333 4.16699 69 12.5s43.334 19.833 62.001 34.5c17.333 14 30.833 28.833 40.5 44.5s14.5 30.834 14.5 45.501v92c0 11.333 -4.66699 16.333 -14 15z" />
    <glyph glyph-name="b" unicode="b" horiz-adv-x="594" 
d="M100 0c-4.66699 0 -7.83301 1.00098 -9.5 3.00098s-2.5 5.66699 -2.5 11v717c0 7.33301 3.33301 11 10 11h31c3.33301 0 5.66602 -0.833008 6.99902 -2.5s2 -4.83398 2 -9.50098v-251c0 -6.66699 1.33301 -10 4 -10s5.66699 1.66699 9 5c48 44 104.333 66 169 66
c72 0 126.167 -25.5 162.5 -76.5s54.5 -116.5 54.5 -196.5c0 -86 -20.167 -153.667 -60.5 -203s-96.166 -74 -167.499 -74c-43.333 0 -78.333 8.33301 -105 25s-46.667 34 -60 52c-2 3.33301 -4 5 -6 5c-2.66699 0 -4 -2.66699 -4 -8l-3 -50c0 -5.33301 -1 -9 -3 -11
s-6 -3 -12 -3h-16zM138.001 178.001c0 -26 7.83398 -50.167 23.501 -72.5s36.167 -40 61.5 -53s51.666 -19.5 78.999 -19.5c53.333 0 97 19.833 131 59.5s51 97.834 51 174.501c0 71.333 -15.167 127.5 -45.5 168.5s-73.5 61.5 -129.5 61.5
c-33.333 0 -64.833 -7.83301 -94.5 -23.5s-55.167 -35.834 -76.5 -60.501v-235z" />
    <glyph glyph-name="c" unicode="c" horiz-adv-x="538" 
d="M495 429c2 -3.33301 2.83203 -5.66602 2.49902 -6.99902s-1.5 -2.66602 -3.5 -3.99902l-31 -15c-0.666992 -0.666992 -2 -1 -4 -1s-4.66699 1.66699 -8 5c-26 32.667 -50.5 55.834 -73.5 69.501s-48.5 20.5 -76.5 20.5c-38.667 0 -72.834 -9.66699 -102.501 -29
s-52.5 -46.5 -68.5 -81.5s-24 -75.5 -24 -121.5s8 -86.5 24 -121.5s38.833 -62.167 68.5 -81.5s63.834 -29 102.501 -29c33.333 0 63.166 8.16699 89.499 24.5s50.5 41.166 72.5 74.499c2 3.33301 3.66699 5.16602 5 5.49902s3 -0.166992 5 -1.5l28 -15
c3.33301 -2 4 -5.66699 2 -11c-22.667 -38.667 -51.667 -68.334 -87 -89.001s-75.333 -31 -120 -31c-47.333 0 -89.333 11.333 -126 34s-65.167 54.667 -85.5 96s-30.5 89 -30.5 143c0 53.333 10.333 101 31 143s49.334 74.833 86.001 98.5s78.334 35.5 125.001 35.5
c84 0 150.333 -37 199 -111z" />
    <glyph glyph-name="d" unicode="d" horiz-adv-x="594" 
d="M458 12v48.999c0 6 -1.33301 9 -4 9c-2 0 -4.66699 -1.66699 -8 -5c-13.333 -13.333 -25.666 -24.666 -36.999 -33.999s-28 -18.5 -50 -27.5s-47 -13.5 -75 -13.5c-43.333 0 -82.333 10 -117 30s-62 50 -82 90s-30 88.667 -30 146c0 56 10 105.5 30 148.5
s48.167 76.333 84.5 100s78.5 35.5 126.5 35.5c32 0 59.167 -5 81.5 -15s43.5 -23 63.5 -39c4.66699 -4 8 -6 10 -6c3.33301 0 5 4.33301 5 13v238c0 4 0.666992 6.83301 2 8.5s3.66602 2.5 6.99902 2.5h32c6 0 9 -3.33301 9 -10v-719c0 -4.66699 -1 -8 -3 -10
s-5.33301 -3 -10 -3h-24c-7.33301 0 -11 4 -11 12zM381 478.499c-24.667 12.333 -51.335 18.501 -80.002 18.501c-37.333 0 -70.666 -9.5 -99.999 -28.5s-52.333 -46.5 -69 -82.5s-25 -78.333 -25 -127c0 -50 8.5 -92 25.5 -126s39.667 -59.167 68 -75.5
s59.5 -24.5 93.5 -24.5c29.333 0 56.333 7.16699 81 21.5s44.334 32.166 59.001 53.499s22 42 22 62v253c-25.333 24.667 -50.333 43.167 -75 55.5z" />
    <glyph glyph-name="e" unicode="e" 
d="M132 137c17.333 -31.333 41.001 -56.3311 71.001 -74.998s62.667 -28 98 -28c76 0 133 30.333 171 91c4 5.33301 7.66699 6.33301 11 3l28 -16c3.33301 -2.66699 3.66602 -6.33398 0.999023 -11.001c-47.333 -74 -118.333 -111 -213 -111c-48 0 -90.5 11.333 -127.5 34
s-65.833 54.5 -86.5 95.5s-31 88.167 -31 141.5c0 56.667 10.5 106.167 31.5 148.5s50 74.666 87 96.999s79.167 33.5 126.5 33.5c71.333 0 127.833 -23.5 169.5 -70.5s62.5 -112.5 62.5 -196.5v-6c0 -4.66699 -0.833008 -8.16699 -2.5 -10.5s-5.5 -3.83301 -11.5 -4.5h-404
c-4.66699 0 -7 -4.66699 -7 -14c0 -36 8.66699 -69.667 26 -101zM462.001 293.002c6.66699 0 11.167 0.999023 13.5 2.99902s3.5 5.66699 3.5 11c0 34.667 -7.33301 66.5 -22 95.5s-35.667 52 -63 69s-59 25.5 -95 25.5c-40 0 -74.667 -10 -104 -30s-51.5 -45.667 -66.5 -77
s-22.167 -63.666 -21.5 -96.999h355z" />
    <glyph glyph-name="f" unicode="f" horiz-adv-x="367" 
d="M342 523l-0.000976562 -27c0 -4.66699 -2.33301 -7 -7 -7h-129c-4.66699 0 -7 -2.66699 -7 -8v-469c0 -8 -3.33301 -12 -10 -12h-31c-3.33301 -0 -5.66602 0.833008 -6.99902 2.5s-2 4.5 -2 8.5v471c0 4.66699 -2 7 -6 7h-110c-4.66699 0 -7 2.33301 -7 7v27
c0 4.66699 2.33301 7 7 7h109c4.66699 0 7 2.66699 7 8v79c0 42 9.33301 73.333 28 94s48 31 88 31h74c5.33301 0 8 -2.66699 8 -8v-25c0 -5.33301 -3 -8 -9 -8h-77c-23.333 0 -39.5 -6.5 -48.5 -19.5s-13.5 -32.5 -13.5 -58.5v-86c0 -4.66699 2.33301 -7 7 -7h130
c4 0 6 -2.33301 6 -7z" />
    <glyph glyph-name="g" unicode="g" horiz-adv-x="586" 
d="M553 529c2.66699 -2 4 -5.66602 4 -10.999v-18c0 -10.667 -5.66699 -16 -17 -16c-13.333 -0.666992 -23.833 -1.83398 -31.5 -3.50098s-15.5 -4.83398 -23.5 -9.50098c-8.66699 -4.66699 -14.5 -8.66699 -17.5 -12s-3.83301 -7 -2.5 -11c0.666992 -2 3 -7.16699 7 -15.5
s7.16699 -18 9.5 -29s3.5 -22.5 3.5 -34.5c0 -47.333 -17.167 -85.833 -51.5 -115.5s-85.5 -44.5 -153.5 -44.5c-51.333 0 -88.333 -4.5 -111 -13.5s-34 -20.5 -34 -34.5c0 -11.333 8 -19.666 24 -24.999s43 -9 81 -11l122 -7c105.333 -6 158 -51.333 158 -136
c0 -50 -21.167 -88.667 -63.5 -116s-102.166 -41 -179.499 -41c-78 0 -138.167 12.833 -180.5 38.5s-63.5 61.5 -63.5 107.5c0 48.667 30.667 89.667 92 123c7.33301 4 7.33301 7.66699 0 11c-26.667 11.333 -40 28.666 -40 51.999c0 12.667 5.83301 25 17.5 37
s29.167 21.667 52.5 29c3.33301 0.666992 5 2.33398 5 5.00098s-2 5 -6 7c-28 15.333 -48.5 33.833 -61.5 55.5s-19.5 47.834 -19.5 78.501c0 53.333 18.833 94.833 56.5 124.5s90.167 44.5 157.5 44.5c32.667 0 60.667 -3.83301 84 -11.5s43.666 -18.834 60.999 -33.501
c4.66699 -3.33301 8 -5 10 -5s5 1.33301 9 4c31.333 26.667 60.333 40 87 40c7.33301 0 12.333 -1 15 -3zM398 280.501c26 20.333 39.001 50.498 39.001 90.498c0 40.667 -13.167 71.834 -39.5 93.501s-65.166 32.5 -116.499 32.5c-50.667 0 -89.834 -11.167 -117.501 -33.5
s-41.5 -53.166 -41.5 -92.499c0 -38.667 13.667 -68.5 41 -89.5s66.666 -31.5 117.999 -31.5c52 0 91 10.167 117 30.5zM186.001 80.999c-12 0.666992 -26.332 -3.50195 -42.999 -12.502s-31 -21.667 -43 -38s-18 -34.166 -18 -53.499c0 -35.333 17.667 -62.666 53 -81.999
s85.666 -29 150.999 -29c122.667 0 184 38 184 114c0 28 -8.5 49.5 -25.5 64.5s-45.167 23.5 -84.5 25.5z" />
    <glyph glyph-name="h" unicode="h" 
d="M88 10l0.00195312 721.998c0 6.66699 3 10 9 10h29c3.33301 0 5.66602 -0.666992 6.99902 -2s2 -3.66602 2 -6.99902v-272c0 -3.33301 0.666992 -5.33301 2 -6s3.33301 0.333008 6 3c42 30.667 76.167 52 102.5 64s56.166 18 89.499 18c52 0 92 -13.333 120 -40
s42 -62.667 42 -108v-381c0 -7.33301 -3.66699 -11 -11 -11h-29c-6.66699 0 -10 3.33301 -10 10v365c0 80.667 -39.667 121 -119 121c-32 0 -61.167 -6.66699 -87.5 -20s-60.5 -36.666 -102.5 -69.999v-396c0 -6.66699 -3.66699 -10 -11 -10h-29
c-6.66699 -0 -10 3.33301 -10 10z" />
    <glyph glyph-name="i" unicode="i" horiz-adv-x="226" 
d="M143 656c0 -10.667 -4.66699 -16 -14 -16h-34c-8 0 -12 4.66699 -12 14v74c0 9.33301 4.33301 14 13 14h34c3.33301 0 6.33301 -1.16699 9 -3.5s4 -5.5 4 -9.5v-73zM138 13c0 -5.33301 -0.832031 -8.83301 -2.49902 -10.5s-5.16699 -2.5 -10.5 -2.5h-25
c-4.66699 0 -7.83398 0.666992 -9.50098 2s-2.5 4.33301 -2.5 9v508c0 4.66699 0.666992 7.66699 2 9s4 2 8 2h30c4 0 6.66699 -0.666992 8 -2s2 -4.33301 2 -9v-506z" />
    <glyph glyph-name="j" unicode="j" horiz-adv-x="226" 
d="M143 656c0 -10.667 -4.66699 -16 -14 -16h-34c-8 0 -12 4.66699 -12 14v74c0 9.33301 4.33301 14 13 14h34c8.66699 0 13 -4.33301 13 -13v-73zM112.5 -141c-17 -19.333 -48.1641 -28.998 -93.4971 -28.998c-16.667 0 -30.334 0.166992 -41.001 0.5
s-17.334 1.16602 -20.001 2.49902s-4 3.66602 -4 6.99902v26c0 4.66699 2 7 6 7l57 2c26 0.666992 44.333 7.16699 55 19.5s16 33.833 16 64.5v560c0 7.33301 3.66699 11 11 11h30c3.33301 0 5.66602 -0.833008 6.99902 -2.5s2 -4.5 2 -8.5v-565
c0 -44 -8.5 -75.667 -25.5 -95z" />
    <glyph glyph-name="k" unicode="k" horiz-adv-x="544" 
d="M514 5c0 -3.33301 -2.99805 -4.99805 -8.99805 -4.99805h-40c-5.33301 0 -9.66602 2.66699 -12.999 8l-175 285c-2.66699 3.33301 -5.66699 3.33301 -9 0l-123 -125c-4.66699 -4.66699 -7 -10.334 -7 -17.001v-138c0 -5.33301 -0.833008 -8.83301 -2.5 -10.5
s-5.16699 -2.5 -10.5 -2.5h-25c-4.66699 0 -7.83398 0.666992 -9.50098 2s-2.5 4.33301 -2.5 9v720c0 4.66699 0.666992 7.66699 2 9s4 2 8 2h30c4 0 6.66699 -0.666992 8 -2s2 -4.33301 2 -9v-490c0 -6.66699 1 -10 3 -10c1.33301 0 3.66602 1.66699 6.99902 5l276 284
c3.33301 4 6.16602 6.66699 8.49902 8s5.5 2 9.5 2h38c6 0 9 -2 9 -6c0 -2.66699 -2 -6 -6 -10l-167 -170c-2.66699 -4 -3 -8.33301 -1 -13l196 -318c2 -2.66699 3 -5.33398 3 -8.00098z" />
    <glyph glyph-name="l" unicode="l" horiz-adv-x="226" 
d="M138 13c0 -5.33301 -0.832031 -8.83301 -2.49902 -10.5s-5.16699 -2.5 -10.5 -2.5h-25c-4.66699 0 -7.83398 0.666992 -9.50098 2s-2.5 4.33301 -2.5 9v720c0 4.66699 0.666992 7.66699 2 9s4 2 8 2h30c4 0 6.66699 -0.666992 8 -2s2 -4.33301 2 -9v-718z" />
    <glyph glyph-name="m" unicode="m" horiz-adv-x="899" 
d="M88 10l0.00195312 509.997c0 6.66699 3 10 9 10h29c3.33301 0 5.66602 -0.666992 6.99902 -2s2 -3.66602 2 -6.99902v-61c0 -3.33301 0.666992 -5.33301 2 -6s3.33301 0.333008 6 3c39.333 30.667 71.666 52.167 96.999 64.5s54 18.5 86 18.5c38.667 0 70 -8.5 94 -25.5
s40 -37.5 48 -61.5c1.33301 -2 2.66602 -3 3.99902 -3c2 0 5.66699 2 11 6c38.667 30.667 70.834 52.334 96.501 65.001s54.5 19 86.5 19c48.667 0 86.167 -13.333 112.5 -40s39.5 -62.667 39.5 -108v-381c0 -7.33301 -3.33301 -11 -10 -11h-30
c-6.66699 0 -10 3.33301 -10 10v365c0 80.667 -36.333 121 -109 121c-30.667 0 -58.834 -7.16699 -84.501 -21.5s-52.5 -32.833 -80.5 -55.5c-6 -5.33301 -10.167 -10 -12.5 -14s-3.5 -9.33301 -3.5 -16v-378c0 -7.33301 -3.33301 -11 -10 -11h-30
c-6.66699 0 -10 3.33301 -10 10v365c0 80.667 -36.333 121 -109 121c-30.667 0 -58.667 -6.66699 -84 -20s-57.666 -36.666 -96.999 -69.999v-396c0 -6.66699 -3.66699 -10 -11 -10h-29c-6.66699 -0 -10 3.33301 -10 10z" />
    <glyph glyph-name="n" unicode="n" 
d="M88 10l0.00195312 509.998c0 6.66699 3 10 9 10h29c3.33301 0 5.66602 -0.666992 6.99902 -2s2 -3.66602 2 -6.99902v-61c0 -3.33301 0.666992 -5.33301 2 -6s3.33301 0.333008 6 3c42 30.667 76.167 52.167 102.5 64.5s56.166 18.5 89.499 18.5c52 0 92 -13.333 120 -40
s42 -62.667 42 -108v-381c0 -7.33301 -3.66699 -11 -11 -11h-29c-6.66699 0 -10 3.33301 -10 10v365c0 80.667 -39.667 121 -119 121c-32 0 -61.167 -6.66699 -87.5 -20s-60.5 -36.666 -102.5 -69.999v-396c0 -6.66699 -3.66699 -10 -11 -10h-29
c-6.66699 -0 -10 3.33301 -10 10z" />
    <glyph glyph-name="o" unicode="o" horiz-adv-x="598" 
d="M170.5 24.5c-37 23 -65.667 55 -86 96s-30.5 88.167 -30.5 141.5c0 54 10.333 102 31 144s49.667 74.833 87 98.5s80 35.5 128 35.5s90.5 -11.667 127.5 -35s65.667 -56 86 -98s30.5 -89.667 30.5 -143s-10.167 -100.833 -30.5 -142.5s-49 -74 -86 -97
s-79.833 -34.5 -128.5 -34.5s-91.5 11.5 -128.5 34.5zM441 96.5c34 41.667 51 97.499 51 167.499c0 70.667 -17.333 127.167 -52 169.5s-81.334 63.5 -140.001 63.5c-39.333 0 -73.666 -9.66699 -102.999 -29s-51.833 -46.666 -67.5 -81.999s-23.5 -76 -23.5 -122
c0 -70 17.5 -125.833 52.5 -167.5s82.5 -62.5 142.5 -62.5c59.333 0 106 20.833 140 62.5z" />
    <glyph glyph-name="p" unicode="p" horiz-adv-x="592" 
d="M136 518l0.000976562 -49c0 -6 1.33301 -9 4 -9c2 0 9.83301 7.33301 23.5 22s32.5 28 56.5 40s54 18 90 18c43.333 0 82 -10 116 -30s60.833 -49.833 80.5 -89.5s29.5 -88.167 29.5 -145.5c0 -56.667 -9.83301 -106.5 -29.5 -149.5s-47.334 -76.333 -83.001 -100
s-77.5 -35.5 -125.5 -35.5c-30.667 0 -58.334 4.83301 -83.001 14.5s-45.667 21.5 -63 35.5c-3.33301 3.33301 -6.66602 5 -9.99902 5c-2.66699 0 -4 -4 -4 -12v-187c0 -4 -0.666992 -6.83301 -2 -8.5s-4 -2.5 -8 -2.5h-31c-6 0 -9 3.33301 -9 10v672
c0 5.33301 1 8.83301 3 10.5s5.33301 2.5 10 2.5h24c7.33301 0 11 -4 11 -12zM212.501 52c25 -12.667 51.501 -18.999 79.501 -18.999c37.333 0 70.5 9.5 99.5 28.5s51.667 46.5 68 82.5s24.5 78.333 24.5 127c0 50 -8.33301 92 -25 126s-39 59.167 -67 75.5
s-58.667 24.5 -92 24.5c-30.667 0 -58.334 -6.83301 -83.001 -20.5s-44 -30.834 -58 -51.501s-21 -41 -21 -61v-257c24.667 -24 49.5 -42.333 74.5 -55z" />
    <glyph glyph-name="q" unicode="q" horiz-adv-x="594" 
d="M495 530c4 0 7.00195 -1 9.00195 -3s3 -5.66699 3 -11v-670c0 -7.33301 -3.33301 -11 -10 -11h-32c-2.66699 0 -4.66699 0.833008 -6 2.5s-2 4.83398 -2 9.50098v187c0 8.66699 -1.33301 13 -4 13c-2 0 -5.66699 -2 -11 -6c-19.333 -14.667 -42.333 -26.834 -69 -36.501
s-55.334 -14.5 -86.001 -14.5c-47.333 0 -88.333 11.5 -123 34.5s-61.334 55.5 -80.001 97.5s-28 90.667 -28 146c0 82.667 20.333 148.667 61 198s97 74 169 74c32.667 0 60.167 -4.16699 82.5 -12.5s37.166 -15.333 44.499 -21s20 -17.167 38 -34.5
c2.66699 -2.66699 4.66699 -4 6 -4c2.66699 0 4.33398 2.33301 5.00098 7l4 41c1.33301 6 2.83301 9.83301 4.5 11.5s5.5 2.5 11.5 2.5h13zM457.002 352c0 24.667 -7.16797 48.168 -21.501 70.501s-34 40.333 -59 54s-52.5 20.5 -82.5 20.5
c-34.667 0 -66.167 -8.5 -94.5 -25.5s-50.666 -42.667 -66.999 -77s-24.5 -76.166 -24.5 -125.499c0 -48.667 8 -90.834 24 -126.501s38.167 -62.834 66.5 -81.501s60.833 -28 97.5 -28c30 0 59.333 6.66699 88 20s53 31.333 73 54v245z" />
    <glyph glyph-name="r" unicode="r" horiz-adv-x="362" 
d="M88 10v510c0 6.66699 3 10 9 10h29c6 0 9 -3 9 -9v-67c0 -3.33301 0.666992 -5.33301 2 -6s3.33301 0.333008 6 3c28.667 31.333 55.5 54 80.5 68s50.833 21 77.5 21c12.667 0 21.667 -0.833008 27 -2.5s8 -4.5 8 -8.5v-33c0 -4 -1.66699 -6 -5 -6l-34 1
c-21.333 0 -44.5 -6.5 -69.5 -19.5s-46.167 -29.5 -63.5 -49.5s-26 -40.333 -26 -61v-351c0 -6.66699 -3.66699 -10 -11 -10h-29c-6.66699 -0 -10 3.33301 -10 10z" />
    <glyph glyph-name="s" unicode="s" horiz-adv-x="504" 
d="M339 477.5c-26.667 13 -57.334 19.502 -92.001 19.502c-42 0 -76.333 -9 -103 -27s-40 -42.333 -40 -73c0 -17.333 6.83301 -33.333 20.5 -48s37.834 -27.334 72.501 -38.001l134 -43c40 -12 69.833 -29.167 89.5 -51.5s29.5 -48.166 29.5 -77.499
c0 -28.667 -9 -54.334 -27 -77.001s-42.5 -40.334 -73.5 -53.001s-65.833 -19 -104.5 -19c-49.333 0 -93.5 10.167 -132.5 30.5s-66.833 47.166 -83.5 80.499c-2 4.66699 -1.33301 8.33398 2 11.001l27 16c1.33301 1.33301 3.16602 1.83301 5.49902 1.5
s3.83301 -1.16602 4.5 -2.49902c17.333 -30 41 -53.167 71 -69.5s65.333 -24.5 106 -24.5c44 0 80.667 9.33301 110 28s44 42.667 44 72c0 22 -8.83301 40.667 -26.5 56s-46.5 29 -86.5 41l-103 31c-47.333 14 -80.666 31.5 -99.999 52.5s-29 45.833 -29 74.5
c0 45.333 18.167 82 54.5 110s82.833 42 139.5 42c42 0 79.833 -8 113.5 -24s60.167 -38.667 79.5 -68c2 -4 1.66699 -7.33301 -1 -10l-28 -16c-1.33301 -1.33301 -3 -1.83301 -5 -1.5s-3.66699 1.16602 -5 2.49902c-15.333 23.333 -36.333 41.5 -63 54.5z" />
    <glyph glyph-name="t" unicode="t" horiz-adv-x="365" 
d="M188 489c-5.33301 0 -8 -2.66602 -8 -7.99902v-353c0 -34 5 -57 15 -69s26 -18 48 -18h77c5.33301 0 8 -2.33301 8 -7v-21c0 -5.33301 -2.33301 -8.33301 -7 -9c-13.333 -2.66699 -40.666 -4 -81.999 -4c-40 0 -68.167 9.16699 -84.5 27.5s-24.5 49.166 -24.5 92.499v361
c0 5.33301 -2.33301 8 -7 8h-90c-4.66699 0 -7 2.33301 -7 7v27c0 4.66699 2.33301 7 7 7h91c4.66699 0 7 2.33301 7 7l9 162c0 4 0.666992 6.83301 2 8.5s3.66602 2.5 6.99902 2.5h22c6.66699 0 10 -4 10 -12v-161c0 -4.66699 2.33301 -7 7 -7h136
c4.66699 0 7 -2.33301 7 -7v-27c0 -2.66699 -0.5 -4.5 -1.5 -5.5s-2.83301 -1.5 -5.5 -1.5h-136z" />
    <glyph glyph-name="u" unicode="u" horiz-adv-x="573" 
d="M340 59.5c30 17 61.666 42.168 94.999 75.501v385c0 6.66699 3.66699 10 11 10h29c6.66699 0 10 -3.33301 10 -10v-510c0 -6.66699 -3 -10 -9 -10h-29c-3.33301 0 -5.66602 0.666992 -6.99902 2s-2 3.66602 -2 6.99902v63c0 3.33301 -0.666992 5.33301 -2 6
s-3.33301 -0.333008 -6 -3c-39.333 -32 -73.333 -54.167 -102 -66.5s-57 -18.5 -85 -18.5c-46.667 0 -85.5 13.833 -116.5 41.5s-46.5 63.167 -46.5 106.5v381c0 7.33301 3.33301 11 10 11h30c6.66699 0 10 -3.33301 10 -10v-360c0 -38 10.5 -68.5 31.5 -91.5
s49.833 -34.5 86.5 -34.5c31.333 0 62 8.5 92 25.5z" />
    <glyph glyph-name="v" unicode="v" horiz-adv-x="534" 
d="M501.5 527c1.66699 -2 1.83301 -4.33301 0.5 -7l-205 -508c-3.33301 -8 -10 -12 -20 -12h-19c-10 0 -17 3.66699 -21 11l-205 508l-1 3c0 5.33301 3.33301 8 10 8h31c6.66699 0 11 -3 13 -9l177 -440c2 -6.66699 4.33301 -10 7 -10s5.66699 3.66699 9 11l177 440
c2 5.33301 6 8 12 8h27c3.33301 0 5.83301 -1 7.5 -3z" />
    <glyph glyph-name="w" unicode="w" horiz-adv-x="786" 
d="M749.5 527c1.66699 -2 1.83301 -4.33301 0.5 -7l-148 -509c-2 -7.33301 -7.66699 -11 -17 -11h-32c-10.667 0 -17 3.66699 -19 11l-135 422c-2 5.33301 -4 8 -6 8c-1.33301 0 -3 -2.66699 -5 -8l-126 -422c-2 -7.33301 -7.33301 -11 -16 -11h-35
c-10.667 0 -17 3.66699 -19 11l-156 508l-1 4c0 4.66699 3 7 9 7h32c6.66699 0 11 -3 13 -9l134 -440c2 -6.66699 4.33301 -10 7 -10s5 3.66699 7 11l134 441c1.33301 4.66699 5 7 11 7h28c6.66699 0 11 -3 13 -9l141 -440c2 -6.66699 4 -10 6 -10c2.66699 0 5 3.66699 7 11
l129 440c2 5.33301 6.66699 8 14 8h22c3.33301 0 5.83301 -1 7.5 -3z" />
    <glyph glyph-name="x" unicode="x" horiz-adv-x="522" 
d="M490 4c0 -2.66699 -2.33398 -3.99902 -7.00098 -3.99902h-42c-7.33301 0 -12 2 -14 6l-160 217c-2 4 -4.33301 6 -7 6c-2 0 -4.66699 -2 -8 -6l-167 -217c-2 -4 -6.66699 -6 -14 -6h-30c-6.66699 0 -10 2 -10 6c0 3.33301 1.66699 6.66602 5 9.99902l191 242
c2 3.33301 3 6.33301 3 9s-1 6 -3 10l-180 242c-1.33301 2.66699 -2 4.33398 -2 5.00098c0 1.33301 0.666992 2.66602 2 3.99902s3.33301 2 6 2h39c2.66699 0 5 -0.333008 7 -1s4 -2.33398 6 -5.00098l155 -208c3.33301 -3.33301 6 -5 8 -5c2.66699 0 5 1.66699 7 5l152 208
c1.33301 2.66699 2.83301 4.33398 4.5 5.00098s4.5 1 8.5 1h33c3.33301 0 5.33301 -1 6 -3s0.333984 -4 -0.999023 -6l-180 -238c-2 -2.66699 -3 -5.33398 -3 -8.00098c0 -4 1.33301 -7.33301 4 -10l186 -251c3.33301 -3.33301 5 -6.66602 5 -9.99902z" />
    <glyph glyph-name="y" unicode="y" horiz-adv-x="513" 
d="M57 -163.5c-8.66699 1 -13.001 4.16699 -13.001 9.5v20c0 4.66699 1.83301 7.83398 5.5 9.50098s11.5 2.5 23.5 2.5h61c16.667 0 32 6.66699 46 20s25.167 30.166 33.5 50.499s12.5 39.833 12.5 58.5c0 12.667 -1.66699 22.667 -5 30l-189 480
c-0.666992 1.33301 -1 3 -1 5c0 5.33301 3.33301 8 10 8h30c6.66699 0 11 -3 13 -9l168 -431c2 -6 4.66699 -9 8 -9c4 0 7.33301 4.33301 10 13l165 428c2 5.33301 5.66699 8 11 8h28c2.66699 0 4.83398 -1.16699 6.50098 -3.5s1.83398 -4.5 0.500977 -6.5l-227 -590
c-13.333 -35.333 -31.833 -60 -55.5 -74s-53.834 -21 -90.501 -21c-25.333 0 -42.333 0.5 -51 1.5z" />
    <glyph glyph-name="z" unicode="z" horiz-adv-x="463" 
d="M36.5 1.5c-1 1 -1.49902 3.16602 -1.49902 6.49902v25c0 6 3 13 9 21l314 427c2 2.66699 2.66699 4.83398 2 6.50098s-2.33398 2.5 -5.00098 2.5h-290c-3.33301 0 -5.5 0.5 -6.5 1.5s-1.5 3.16699 -1.5 6.5v24c0 5.33301 2.33301 8 7 8h350c4 0 6 -2.33301 6 -7v-26
c0 -8 -2.66699 -15.667 -8 -23l-315 -426c-4 -4.66699 -3 -7 3 -7h319c4.66699 0 7 -2.33301 7 -7v-25c0 -6 -3 -9 -9 -9h-375c-2.66699 0 -4.5 0.5 -5.5 1.5z" />
    <glyph glyph-name="braceleft" unicode="{" horiz-adv-x="276" 
d="M145 717c19.333 16.667 47.332 25.001 83.999 25.001h24c5.33301 0 8 -1.66699 8 -5v-30c0 -4 -2.66699 -6 -8 -6h-22c-23.333 0 -39.833 -4.16699 -49.5 -12.5s-14.5 -21.833 -14.5 -40.5v-231c0 -38 -8.83301 -67.667 -26.5 -89s-40.5 -33.333 -68.5 -36
c-4 -0.666992 -6.16699 -1.83398 -6.5 -3.50098s1.83398 -2.83398 6.50098 -3.50098c28 -2 50.833 -13 68.5 -33s26.5 -49.333 26.5 -88v-233c0 -19.333 4.66699 -33.333 14 -42s26.333 -13 51 -13h20c6 0 9 -2.66699 9 -8v-24c0 -3.33301 -0.666992 -5.66602 -2 -6.99902
s-3.66602 -2 -6.99902 -2h-22c-38 0 -66.5 8.66699 -85.5 26s-28.5 40.333 -28.5 69v232c0 16.667 -4.33301 33.167 -13 49.5s-21.334 29.833 -38.001 40.5s-36.667 16 -60 16c-3.33301 0 -5 2.33301 -5 7v28c0 4.66699 1.66699 7 5 7c36 0.666992 63.5 11.167 82.5 31.5
s28.5 46.166 28.5 77.499v230c0 28.667 9.66699 51.334 29 68.001z" />
    <glyph glyph-name="bar" unicode="|" horiz-adv-x="266" 
d="M119 -165c-5.33301 0 -8 2.33301 -8 7l-1 997c0 5.33301 2.33301 8 7 8h30c6 0 9 -3.66699 9 -11v-992c0 -6 -2.66699 -9 -8 -9h-29z" />
    <glyph glyph-name="braceright" unicode="}" horiz-adv-x="276" 
d="M160 419c0 -31.333 9.49902 -57.167 28.499 -77.5s46.5 -30.833 82.5 -31.5c3.33301 0 5 -2.33301 5 -7v-28c0 -4.66699 -1.66699 -7 -5 -7c-23.333 0 -43.333 -5.33301 -60 -16s-29.334 -24.167 -38.001 -40.5s-13 -32.833 -13 -49.5v-232
c0 -28.667 -9.5 -51.667 -28.5 -69s-47.5 -26 -85.5 -26h-22c-3.33301 0 -5.66602 0.666992 -6.99902 2s-2 3.66602 -2 6.99902v24c0 5.33301 3 8 9 8h20c24.667 0 41.667 4.33301 51 13s14 22.667 14 42v233c0 38.667 8.83301 68 26.5 88s40.5 31 68.5 33
c4.66699 0.666992 6.83398 1.83398 6.50098 3.50098s-2.5 2.83398 -6.5 3.50098c-28 2.66699 -50.833 14.667 -68.5 36s-26.5 51 -26.5 89v231c0 18.667 -4.83301 32.167 -14.5 40.5s-26.167 12.5 -49.5 12.5h-22c-5.33301 0 -8 2 -8 6v30c0 3.33301 2.66699 5 8 5h24
c36.667 0 64.667 -8.33301 84 -25s29 -39.334 29 -68.001v-230z" />
    <glyph glyph-name="asciitilde" unicode="~" horiz-adv-x="548" 
d="M438 343.5c-18.667 -8.33301 -41.002 -12.4951 -67.002 -12.4951c-18.667 0 -35.5 2 -50.5 6s-31.5 10 -49.5 18c-18.667 8 -34 13.667 -46 17s-25.333 5 -40 5c-39.333 0 -73 -13.333 -101 -40c-2.66699 -2.66699 -4.66699 -3.83398 -6 -3.50098
s-2.66602 2.16602 -3.99902 5.49902l-9 22c-2 5.33301 -1.33301 8.66602 2 9.99902c18 15.333 35.333 27.166 52 35.499s37.334 12.5 62.001 12.5c16 0 30.667 -1.83301 44 -5.5s31 -9.5 53 -17.5c18 -7.33301 34 -13 48 -17s29 -6 45 -6c22.667 0 40.667 3.33301 54 10
s25.333 15.667 36 27c2 2 4 3 6 3s4 -2 6 -6l10 -23c0.666992 -0.666992 1 -2 1 -4c0 -2.66699 -1.33301 -5.33398 -4 -8.00098c-9.33301 -10.667 -23.333 -20.167 -42 -28.5z" />
    <glyph glyph-name="uni00A0" unicode="&#xa0;" horiz-adv-x="215" 
 />
    <glyph glyph-name="exclamdown" unicode="&#xa1;" horiz-adv-x="235" 
d="M145 444l-55 0.000976562c-5.33301 0 -8 3 -8 9v66c0 4 0.666992 6.83301 2 8.5s4.33301 2.5 9 2.5h46c5.33301 0 9 -0.833008 11 -2.5s3 -4.83398 3 -9.50098v-66c0 -5.33301 -2.66699 -8 -8 -8zM143 -164.999h-51c-4 0 -6 2.66699 -6 8l13 524c0 5.33301 3 8 9 8h17
c7.33301 0 11.333 -3.33301 12 -10l13 -523c0 -4.66699 -2.33301 -7 -7 -7z" />
    <glyph glyph-name="cent" unicode="&#xa2;" horiz-adv-x="558" 
d="M503 221c-22 -36.667 -49.499 -65.333 -82.499 -86s-70.167 -32 -111.5 -34v-87c0 -9.33301 -4.66699 -14 -14 -14h-19c-4.66699 0 -8 1 -10 3s-3 5.33301 -3 10v90c-42 5.33301 -78.667 20 -110 44s-55.666 55.5 -72.999 94.5s-26 83.167 -26 132.5
s8.83301 93.666 26.5 132.999s42.167 71.5 73.5 96.5s67.666 40.167 108.999 45.5v83c0 6.66699 3.33301 10 10 10h27c6 0 9 -3 9 -9v-82c78 -3.33301 140 -40.333 186 -111c2 -3.33301 2.83301 -5.66602 2.5 -6.99902s-1.5 -2.66602 -3.5 -3.99902l-31 -15
c-0.666992 -0.666992 -2 -1 -4 -1s-4.66699 1.66699 -8 5c-26 32.667 -50.5 55.834 -73.5 69.501s-48.5 20.5 -76.5 20.5c-38.667 0 -72.834 -9.66699 -102.501 -29s-52.5 -46.5 -68.5 -81.5s-24 -75.5 -24 -121.5s8 -86.5 24 -121.5s38.833 -62.167 68.5 -81.5
s63.834 -29 102.501 -29c33.333 0 63.166 8.16699 89.499 24.5s50.5 41.166 72.5 74.499c2 3.33301 3.66699 5.16602 5 5.49902s3 -0.166992 5 -1.5l28 -15c3.33301 -2 4 -5.66699 2 -11z" />
    <glyph glyph-name="sterling" unicode="&#xa3;" horiz-adv-x="601" 
d="M12 9l-0.000976562 29.9971c0 5.33301 2.66699 8 8 8h33c28 -0.666992 51.167 13.333 69.5 42s27.5 70.667 27.5 126c0 35.333 -4 81 -12 137c-0.666992 3.33301 -2.66699 5 -6 5h-92c-3.33301 0 -5 2.33301 -5 7v29c0 4 1.66699 6 5 6h82
c5.33301 0 7.66602 2.33301 6.99902 7l-17 72c-6 25.333 -9 49 -9 71c0 40.667 9 76.334 27 107.001s42.333 54.334 73 71.001s64.334 25 101.001 25c40.667 0 78.667 -9.66699 114 -29s58.333 -42 69 -68l1 -2c0 -2 -1.16699 -3.5 -3.5 -4.5s-3.83301 -1.83301 -4.5 -2.5
l-30 -12c-1.33301 -0.666992 -3 -1 -5 -1c-2.66699 0 -5 1.33301 -7 4c-24 43.333 -67.333 65 -130 65c-43.333 0 -79.5 -12.333 -108.5 -37s-43.5 -58 -43.5 -100c0 -25.333 2.83301 -53.166 8.5 -83.499s11.834 -55.5 18.501 -75.5c1.33301 -4 3.33301 -6 6 -6h168
c4 0 6 -1.66699 6 -5v-31c0 -4 -2 -6 -6 -6h-157c-5.33301 0 -8 -2.33301 -8 -7c8 -38 12 -77.333 12 -118c-0.666992 -46.667 -6.5 -84.5 -17.5 -113.5s-22.833 -50.5 -35.5 -64.5c-4.66699 -4.66699 -4 -7 2 -7h203c36 0 65.667 5.83301 89 17.5s41 31.167 53 58.5
c1.33301 2 3 3.5 5 4.5s4 1.16699 6 0.5l28 -10c5.33301 -2 7.33301 -5 6 -9c-14.667 -36.667 -38 -64.167 -70 -82.5s-70.667 -27.5 -116 -27.5h-336c-6 0 -9 3 -9 9z" />
    <glyph glyph-name="currency" unicode="&#xa4;" horiz-adv-x="518" 
d="M158 230c-4.66699 3.33301 -8.66895 3 -12.002 -1l-41 -42c-2.66699 -2.66699 -5.66699 -4 -9 -4s-6.66602 1.33301 -9.99902 4l-14 15c-2.66699 2.66699 -4 5.66699 -4 9c0 2.66699 1.33301 5.33398 4 8.00098l41 41c2 3.33301 3 6 3 8c0 3.33301 -1 6.33301 -3 9
c-18.667 28 -28 60 -28 96c0 36.667 10.333 69.667 31 99c2.66699 5.33301 2.33398 9.66602 -0.999023 12.999l-41 41c-2.66699 3.33301 -4 6.66602 -4 9.99902s1.33301 6.33301 4 9l14 14c3.33301 3.33301 6.33301 5 9 5c2 0 4.66699 -1.66699 8 -5l42 -42
c3.33301 -3.33301 7.33301 -3.66602 12 -0.999023c29.333 20 62.333 30 99 30s69.334 -10.333 98.001 -31c5.33301 -2.66699 9.66602 -2.33398 12.999 0.999023l46 46c4.66699 4.66699 9 4.66699 13 0l20 -20c3.33301 -4 3.33301 -8 0 -12l-47 -47
c-3.33301 -3.33301 -3.66602 -7 -0.999023 -11c20.667 -30.667 31 -63.667 31 -99c0 -36.667 -10.333 -69 -31 -97c-2 -6 -1.66699 -10.333 1 -13l47 -46c4 -4.66699 4 -9 0 -13l-20 -20c-4 -4 -7.66699 -4 -11 0l-46 45c-2 2 -4 3.33301 -6 4s-4 0.333984 -6 -0.999023
c-30.667 -22 -64.334 -33 -101.001 -33s-70 10.333 -100 31zM323.498 265.5c19 11.667 34 27 45 46s16.5 39.5 16.5 61.5s-5.5 42.5 -16.5 61.5s-26 34.333 -45 46s-40.167 17.5 -63.5 17.5s-44.5 -5.83301 -63.5 -17.5s-34 -27 -45 -46s-16.5 -39.5 -16.5 -61.5
s5.5 -42.5 16.5 -61.5s26 -34.333 45 -46s40.167 -17.5 63.5 -17.5s44.5 5.83301 63.5 17.5z" />
    <glyph glyph-name="yen" unicode="&#xa5;" horiz-adv-x="585" 
d="M567 738.5c1.33301 -2.33301 0.995117 -5.16699 -1.00488 -8.5l-234 -391h144c5.33301 0 8 -2.33301 8 -7v-26c0 -6 -4 -9 -12 -9h-148v-100h152c5.33301 0 8 -2.33301 8 -7v-26c0 -6 -4 -9 -12 -9h-148v-141c0 -5.33301 -1.16699 -9 -3.5 -11s-6.5 -3 -12.5 -3h-28
c-8.66699 0 -13 4 -13 12v142h-150c-3.33301 0 -5.66602 0.5 -6.99902 1.5s-2 3.16699 -2 6.5v26c0 5.33301 2 8 6 8h153v100h-150c-3.33301 0 -5.66602 0.5 -6.99902 1.5s-2 3.16699 -2 6.5v26c0 5.33301 2 8 6 8h137l-231 391c-1.33301 2.66699 -2 5 -2 7
c0 4 3.66699 6 11 6h38c4.66699 0 8 -0.666992 10 -2s4.33301 -4 7 -8l203 -349c0.666992 -0.666992 1.83398 -2.5 3.50098 -5.5s3.5 -4.5 5.5 -4.5c2.66699 0 5.33398 3 8.00098 9l208 350c2.66699 4.66699 4.83398 7.5 6.50098 8.5s5.16699 1.5 10.5 1.5h30
c4 0 6.66699 -1.16699 8 -3.5z" />
    <glyph glyph-name="brokenbar" unicode="&#xa6;" horiz-adv-x="266" 
d="M119 442c-5.33301 0 -8 2.33301 -8 7l-1 390c0 5.33301 2.33301 8 7 8h30c6 0 9 -3.66699 9 -11v-386c0 -5.33301 -2.66699 -8 -8 -8h-29zM119 -165c-5.33301 0 -8 2.33301 -8 7l-1 390c0 5.33301 2.33301 8 7 8h30c6 0 9 -3.33301 9 -10v-386c0 -6 -2.66699 -9 -8 -9
h-29z" />
    <glyph glyph-name="section" unicode="&#xa7;" horiz-adv-x="480" 
d="M411 137.5c16.667 -21 25.002 -44.833 25.002 -71.5c0 -25.333 -7.83301 -48.333 -23.5 -69s-37.5 -36.834 -65.5 -48.501s-60 -17.5 -96 -17.5c-42.667 0 -83 10 -121 30s-66 47 -84 81c-1.33301 2 -2 3.83301 -2 5.5s0.666992 2.83398 2 3.50098l28 17
c4.66699 2.66699 8 2 10 -2c17.333 -27.333 40.666 -49.166 69.999 -65.499s62.333 -24.5 99 -24.5c38.667 0 70.167 7.66699 94.5 23s36.5 37 36.5 65c0 21.333 -8.5 41 -25.5 59s-46.5 35.333 -88.5 52l-97 37c-40.667 16 -70.334 35.5 -89.001 58.5s-28 49.833 -28 80.5
s10 57.5 30 80.5s46.333 40.167 79 51.5c-42 21.333 -70.667 42.833 -86 64.5s-23 45.834 -23 72.501c0 24.667 7.66699 47.167 23 67.5s36.666 36.166 63.999 47.499s58.666 17 93.999 17c38.667 0 73.667 -8.66699 105 -26s56 -39.333 74 -66
c3.33301 -4.66699 3.33301 -8 0 -10l-25 -15c-2.66699 -1.33301 -5.16699 -1.83301 -7.5 -1.5s-4.16602 1.16602 -5.49902 2.49902c-17.333 22 -37.5 39.333 -60.5 52s-48.167 19 -75.5 19c-42 0 -74.833 -7.5 -98.5 -22.5s-35.5 -35.167 -35.5 -60.5
c0 -19.333 7 -37.333 21 -54s39.667 -32.334 77 -47.001l89 -37c50 -20.667 86 -44 108 -70s33 -56 33 -90c0 -32 -9 -58.167 -27 -78.5s-42 -37.166 -72 -50.499c32.667 -18.667 57.334 -38.5 74.001 -59.5zM327.002 236c17.333 8 31.166 19.3311 41.499 33.998
s15.5 30.667 15.5 48c0 26.667 -6.66699 48.834 -20 66.501s-38.666 34.167 -75.999 49.5l-63 25c-31.333 -3.33301 -58.833 -15.166 -82.5 -35.499s-35.5 -42.833 -35.5 -67.5c0 -22 6.66699 -40.333 20 -55s39 -30 77 -46l69 -29c18.667 -1.33301 36.667 2 54 10z" />
    <glyph glyph-name="dieresis" unicode="&#xa8;" horiz-adv-x="197" 
d="M68 654c0 -4.66699 -0.998047 -8 -2.99805 -10s-5.33301 -3 -10 -3h-33c-4.66699 0 -7.83398 0.833008 -9.50098 2.5s-2.5 4.5 -2.5 8.5v79c0 4.66699 0.666992 7.66699 2 9s3.66602 2 6.99902 2h39c3.33301 0 5.83301 -0.666992 7.5 -2s2.5 -4 2.5 -8v-78zM187.002 654
c0 -4.66699 -0.999023 -8 -2.99902 -10s-5.33301 -3 -10 -3h-33c-4.66699 0 -7.83398 0.833008 -9.50098 2.5s-2.5 4.5 -2.5 8.5v79c0 4.66699 0.666992 7.66699 2 9s4 2 8 2h38c3.33301 0 5.83301 -0.666992 7.5 -2s2.5 -4 2.5 -8v-78z" />
    <glyph glyph-name="copyright" unicode="&#xa9;" horiz-adv-x="830" 
d="M223.5 41c-58.333 34 -104.5 80.167 -138.5 138.5s-51 122.166 -51 191.499c0 68.667 17 132.167 51 190.5s80.167 104.666 138.5 138.999s122.166 51.5 191.499 51.5c68.667 0 132.167 -17.167 190.5 -51.5s104.666 -80.666 138.999 -138.999s51.5 -121.833 51.5 -190.5
c0 -69.333 -17.167 -133.166 -51.5 -191.499s-80.666 -104.5 -138.999 -138.5s-121.833 -51 -190.5 -51c-69.333 0 -133.166 17 -191.499 51zM580 79.5c50.667 27.667 91.167 66.832 121.5 117.499s45.5 108.667 45.5 174c0 64.667 -15.167 122.334 -45.5 173.001
s-71 90.167 -122 118.5s-105.833 42.5 -164.5 42.5c-60 0 -115.333 -14 -166 -42s-91 -67.5 -121 -118.5s-45 -108.833 -45 -173.5c0 -66 15 -124.167 45 -174.5s70.333 -89.333 121 -117s106 -41.5 166 -41.5c59.333 0 114.333 13.833 165 41.5zM506 564.998
c25.333 -16.667 48.3359 -39.665 69.0029 -68.998c2 -2.66699 1.66699 -5.33398 -1 -8.00098l-33 -16h-1c-2.66699 0 -5 1.66699 -7 5c-30.667 46.667 -68 70 -112 70c-42 0 -76.167 -15.833 -102.5 -47.5s-39.5 -73.167 -39.5 -124.5c0 -52 13.167 -93.833 39.5 -125.5
s60.5 -47.5 102.5 -47.5c26 0 49.667 7 71 21s38.666 33 51.999 57c1.33301 3.33301 4.66602 3.66602 9.99902 0.999023l23 -12c3.33301 -2 4 -5 2 -9c-18.667 -31.333 -41.834 -56 -69.501 -74s-58.5 -27 -92.5 -27c-37.333 0 -70.333 9 -99 27
s-50.834 43.167 -66.501 75.5s-23.5 69.5 -23.5 111.5s8 79.5 24 112.5s38.333 58.667 67 77s61.334 27.5 98.001 27.5c34 0 63.667 -8.33301 89 -25z" />
    <glyph glyph-name="ordfeminine" unicode="&#xaa;" horiz-adv-x="405" 
d="M284 719c22 -20 33.002 -48.001 33.002 -84.001v-163c0 -11.333 0.5 -20.166 1.5 -26.499s3.5 -14.833 7.5 -25.5l1 -3c0 -4 -2.66699 -6 -8 -6h-28c-6 0 -9.33301 2.33301 -10 7l-5 36c-0.666992 2.66699 -1.5 4 -2.5 4s-3.16699 -1 -6.5 -3
c-18 -17.333 -35.5 -30 -52.5 -38s-36.167 -12 -57.5 -12c-34.667 0 -61.834 8.16699 -81.501 24.5s-29.5 38.833 -29.5 67.5c0 62.667 53.667 99 161 109l58 6c7.33301 1.33301 11 4.33301 11 9v17c0 50 -29.667 75 -89 75c-20.667 0 -38.334 -3.66699 -53.001 -11
s-28 -20 -40 -38c-2 -2.66699 -5 -3.33398 -9 -2.00098l-27 10c-0.666992 0.666992 -1 1.83398 -1 3.50098s0.333008 3.16699 1 4.5c11.333 22 28.5 39 51.5 51s50.167 18 81.5 18c40 0 71 -10 93 -30zM111.502 455.999c14.333 -10.667 33.5 -15.999 57.5 -15.999
c29.333 0 55.333 10.333 78 31c19.333 17.333 29 34 29 50v48c0 4 -0.833008 6.66699 -2.5 8s-4.5 1.66602 -8.5 0.999023l-47 -4c-85.333 -6.66699 -128 -32 -128 -76c0 -17.333 7.16699 -31.333 21.5 -42z" />
    <glyph glyph-name="guillemotleft" unicode="&#xab;" horiz-adv-x="427" 
d="M206 82l0.999023 -2c0 -2 -2.66699 -3 -8 -3h-16c-4.66699 0 -7.66699 1.33301 -9 4l-135 168c-3.33301 5.33301 -3.66602 10.333 -0.999023 15l137 178c2 2.66699 4.66699 4 8 4h18c2 0 3.66699 -0.833008 5 -2.5s1.33301 -3.5 0 -5.5l-110 -175
c-2.66699 -4.66699 -2.66699 -8.66699 0 -12zM375.999 82l1 -2c0 -2 -3 -3 -9 -3h-16c-4 0 -6.66699 1.33301 -8 4l-135 168c-4 4.66699 -4.33301 9.66699 -1 15l137 178c2 2.66699 4.33301 4 7 4h18c2.66699 0 4.66699 -0.666992 6 -2s1.33301 -3.33301 0 -6l-111 -175
c-2.66699 -4.66699 -2.66699 -8.66699 0 -12z" />
    <glyph glyph-name="logicalnot" unicode="&#xac;" horiz-adv-x="545" 
d="M477 388l-0.000976562 -169c0 -6.66699 -3 -10 -9 -10h-28c-5.33301 0 -8 2.33301 -8 7l-1 135l-354 -1c-3.33301 0 -5.66602 0.5 -6.99902 1.5s-2 3.16699 -2 6.5v28c0 5.33301 2 8 6 8l395 1c5.33301 0 8 -2.33301 8 -7z" />
    <glyph glyph-name="uni00AD" unicode="&#xad;" horiz-adv-x="381" 
d="M313 252c0 -6 -4.00098 -9 -12.001 -9l-224 -1c-3.33301 0 -5.66602 0.5 -6.99902 1.5s-2 3.16699 -2 6.5v30c0 5.33301 2 8 6 8l231 1c5.33301 0 8 -2.33301 8 -7v-30z" />
    <glyph glyph-name="registered" unicode="&#xae;" horiz-adv-x="545" 
d="M153 307c-36.667 21.333 -65.6699 50.166 -87.0029 86.499s-32 76.166 -32 119.499s10.667 83.333 32 120s50.333 65.667 87 87s76.667 32 120 32c42.667 0 82.334 -10.667 119.001 -32s65.667 -50.333 87 -87s32 -76.667 32 -120s-10.667 -83.166 -32 -119.499
s-50.166 -65.166 -86.499 -86.499s-76.166 -32 -119.499 -32s-83.333 10.667 -120 32zM376.497 336.5c30.333 16.333 53.832 39.666 70.499 69.999s25 65.833 25 106.5c0 40 -8.33301 75.333 -25 106s-40.167 54.334 -70.5 71.001s-64.833 25 -103.5 25
c-39.333 0 -74.166 -8.33301 -104.499 -25s-53.833 -40.334 -70.5 -71.001s-25 -66 -25 -106c0 -61.333 18.333 -110.166 55 -146.499s85 -54.5 145 -54.5c38.667 0 73.167 8.16699 103.5 24.5zM352.996 393h-27.002c-1.33301 0 -2.66602 1 -3.99902 3l-40 107
c0 0.666992 -0.166992 1.33398 -0.5 2.00098s-2.83301 1 -7.5 1h-53c-2.66699 0 -4 -1.33301 -4 -4v-105c0 -1.33301 -0.333008 -2.33301 -1 -3s-1.66699 -1 -3 -1h-25c-2 0 -3 1 -3 3v230c0 2.66699 0.666992 4 2 4h101c24 0 42.5 -5 55.5 -15s19.5 -24.333 19.5 -43
c0 -31.333 -16 -52 -48 -62c-0.666992 0 -1.16699 -0.333008 -1.5 -1s-0.166016 -1.33398 0.500977 -2.00098l42 -109c1.33301 -3.33301 0.333008 -5 -3 -5zM329.994 568c0 22 -17.333 32.999 -52 32.999h-57c-0.666992 0 -1.5 0.333008 -2.5 1
s-1.5 -0.666016 -1.5 -3.99902v-59c0 -2.66699 1 -4 3 -4h61c32.667 0 49 11 49 33z" />
    <glyph glyph-name="macron" unicode="&#xaf;" horiz-adv-x="282" 
d="M272 689c0 -3.33301 -0.833008 -5.66602 -2.5 -6.99902s-4.5 -2 -8.5 -2h-243c-3.33301 0 -5.5 0.666992 -6.5 2s-1.5 3.66602 -1.5 6.99902v26c0 5.33301 2 8 6 8h250c4 0 6 -2 6 -6v-28z" />
    <glyph glyph-name="degree" unicode="&#xb0;" horiz-adv-x="464" 
d="M341 597c-28.667 -28.667 -65 -43 -109 -43s-80.333 14.167 -109 42.5s-43 64.833 -43 109.5s14.333 81.167 43 109.5s65 42.5 109 42.5s80.333 -14.333 109 -43s43 -65 43 -109s-14.333 -80.333 -43 -109zM308 784.5c-19.333 20.333 -45.333 30.501 -78 30.501
c-32 0 -57.667 -10 -77 -30s-29 -46 -29 -78c0 -34 9.5 -61.333 28.5 -82s45.167 -31 78.5 -31c32 0 57.667 10.167 77 30.5s29 47.166 29 80.499c0 32.667 -9.66699 59.167 -29 79.5z" />
    <glyph glyph-name="plusminus" unicode="&#xb1;" horiz-adv-x="545" 
d="M474.5 465c1.66699 -1.33301 2.49902 -2.99902 2.49902 -4.99902v-28c0 -6.66699 -4 -10 -12 -10h-171v-174c0 -5.33301 -2.33301 -8 -7 -8h-27c-3.33301 0 -5.66602 0.833008 -6.99902 2.5s-2 4.5 -2 8.5v170h-174c-6 0 -9 3 -9 9v28c0 5.33301 2 8 6 8h176v173
c0 3.33301 0.5 5.66602 1.5 6.99902s3.16699 2 6.5 2h28c5.33301 0 8 -1.66699 8 -5v-176h175c2 0 3.83301 -0.666992 5.5 -2zM476.999 117.001l-0.000976562 -28c0 -6 -4 -9 -12 -9l-388 -1c-3.33301 0 -5.66602 0.5 -6.99902 1.5s-2 3.16699 -2 6.5v28c0 5.33301 2 8 6 8
l395 1c5.33301 0 8 -2.33301 8 -7z" />
    <glyph glyph-name="uni00B2" unicode="&#xb2;" horiz-adv-x="452" 
d="M206 576c34 34 58.168 62.667 72.501 86s21.5 47.333 21.5 72c0 29.333 -10.5 52 -31.5 68s-45.167 24 -72.5 24c-21.333 0 -42.5 -5 -63.5 -15s-38.167 -25 -51.5 -45c-2.66699 -4 -6.33398 -4.33301 -11.001 -1l-13 10c-2.66699 2 -4 3.66699 -4 5s1 3.33301 3 6
c16.667 24 38 41.833 64 53.5s52.667 17.5 80 17.5c38 0 70.167 -10.5 96.5 -31.5s39.5 -52.5 39.5 -94.5c0 -27.333 -7.83301 -53.333 -23.5 -78s-43.5 -57 -83.5 -97l-132 -132c-2 -2.66699 -2.66699 -4.66699 -2 -6s2.66699 -2 6 -2h234c4 0 6 -2 6 -6v-20
c0 -4 -2 -6 -6 -6h-274c-5.33301 0 -8 2.66699 -8 8v16c0 4.66699 0.666992 8.5 2 11.5s4 6.5 8 10.5z" />
    <glyph glyph-name="uni00B3" unicode="&#xb3;" horiz-adv-x="467" 
d="M80 797c20 20.667 41.165 35.834 63.498 45.501s46.833 14.5 73.5 14.5c44 0 79.667 -11 107 -33s41 -49.667 41 -83c0 -24 -7.33301 -45.167 -22 -63.5s-34.667 -32.166 -60 -41.499c-4.66699 -0.666992 -7 -2 -7 -4c0 -1.33301 2.33301 -2.33301 7 -3
c27.333 -7.33301 50.333 -21.5 69 -42.5s28 -46.5 28 -76.5c0 -38 -15 -69.5 -45 -94.5s-72.333 -37.5 -127 -37.5c-30 0 -56.833 4.83301 -80.5 14.5s-46.167 25.167 -67.5 46.5c-1.33301 1.33301 -2 2.5 -2 3.5s1 2.16699 3 3.5l16 15
c2.66699 2.66699 5.33398 2.66699 8.00098 0c18 -18.667 37.167 -32 57.5 -40s43.5 -12 69.5 -12c40.667 0 72.834 9.16699 96.501 27.5s35.5 42.166 35.5 71.499c0 33.333 -13.333 59.333 -40 78s-58 28 -94 28h-57c-4 0 -6 1.66699 -6 5v20c0 3.33301 2 5 6 5h46
c36 0 66.667 9.16699 92 27.5s38 41.166 38 68.499c0 24 -10.5 44.333 -31.5 61s-47.5 25 -79.5 25c-44 0 -83 -16.333 -117 -49c-2 -2 -3.66699 -3 -5 -3s-3 1 -5 3l-11 11c-2.66699 3.33301 -2.66699 6.33301 0 9z" />
    <glyph glyph-name="acute" unicode="&#xb4;" horiz-adv-x="275" 
d="M264 712l0.999023 -3.99902c0 -4 -3 -7 -9 -9l-227 -76c-1.33301 -0.666992 -3 -1 -5 -1c-4 0 -6.33301 2.33301 -7 7l-6 17c-0.666992 0.666992 -1 2 -1 4c0 3.33301 1.33301 5.66602 4 6.99902l230 94c2 0.666992 3.83301 0.666992 5.5 0s2.83398 -2 3.50098 -4z" />
    <glyph glyph-name="paragraph" unicode="&#xb6;" horiz-adv-x="540" 
d="M403 705c-2.66699 0 -3.99902 -1.66895 -3.99902 -5.00195v-779c0 -4 -1.66699 -6 -5 -6h-29c-4 0 -6 2 -6 6v780c0 2.66699 -1.66699 4 -5 4h-35c-3.33301 0 -5 -1.66699 -5 -5v-779c0 -4 -2 -6 -6 -6h-28c-4 0 -6 2 -6 6v380c0 2 -1.33301 3 -4 3
c-44.667 0 -83.334 9.83301 -116.001 29.5s-57.5 45.667 -74.5 78s-25.5 66.833 -25.5 103.5c0 38.667 8.83301 75.334 26.5 110.001s44 62.834 79 84.501s77.167 32.5 126.5 32.5h168c3.33301 0 5 -1.66699 5 -5v-28c0 -1.33301 -0.5 -2.33301 -1.5 -3s-2.16699 -1 -3.5 -1
h-51z" />
    <glyph glyph-name="periodcentered" unicode="&#xb7;" horiz-adv-x="179" 
d="M133 343c0 -4.66699 -1 -7.83301 -3 -9.5s-5.66699 -2.5 -11 -2.5h-63c-4.66699 0 -7.66699 0.833008 -9 2.5s-2 4.5 -2 8.5v64c0 6.66699 2.66699 10 8 10h73c4.66699 0 7 -2.66699 7 -8v-65z" />
    <glyph glyph-name="cedilla" unicode="&#xb8;" horiz-adv-x="202" 
d="M163 -185.5c-19.333 -13 -43.6631 -19.4961 -72.9961 -19.4961s-55 7 -77 21c-2.66699 1.33301 -3.66699 3.66602 -3 6.99902l10 21c1.33301 2.66699 3.66602 3 6.99902 1c8 -6 16.167 -10.5 24.5 -13.5s19.166 -4.5 32.499 -4.5c40 0 60 14 60 42
c0 15.333 -6.33301 26.666 -19 33.999s-32.334 11.666 -59.001 12.999c-4.66699 0 -6.33398 1.66699 -5.00098 5l36 84h37l-23 -59c-0.666992 -2.66699 0.333008 -4 3 -4c28 -2 48 -9.83301 60 -23.5s18 -29.834 18 -48.501c0 -24 -9.66699 -42.5 -29 -55.5z" />
    <glyph glyph-name="uni00B9" unicode="&#xb9;" horiz-adv-x="367" 
d="M256 407v-22.999c0 -2.66699 -1.66699 -4 -5 -4h-206c-2.66699 0 -4 1.33301 -4 4v23c0 2.66699 1.33301 4 4 4h86c3.33301 0 5 1 5 3v386c0 3.33301 -1.66699 4.66602 -5 3.99902l-85 -34c-4 -0.666992 -6 1 -6 5v18c0 2 0.5 3.5 1.5 4.5s1.83301 1.5 2.5 1.5l88 44
c5.33301 2.66699 10.333 4 15 4h19c3.33301 0 5 -2.33301 5 -7v-425c0 -2.66699 1.33301 -4 4 -4h76c3.33301 0 5 -1.33301 5 -4z" />
    <glyph glyph-name="ordmasculine" unicode="&#xba;" horiz-adv-x="417" 
d="M321.5 703.5c27.667 -31.667 41.5 -73.833 41.5 -126.5c0 -50.667 -13.667 -91.667 -41 -123s-65.333 -47 -114 -47s-86.5 15.667 -113.5 47s-40.5 72.333 -40.5 123c0 52 14 94 42 126s65.333 48 112 48c48 0 85.833 -15.833 113.5 -47.5zM128 677.001
c-18.667 -24 -28 -56.333 -28 -97c0 -42.667 9.33301 -76.167 28 -100.5s45.334 -36.5 80.001 -36.5c35.333 0 62.333 12.167 81 36.5s28 57.833 28 100.5c0 40.667 -9.33301 73 -28 97s-45.667 36 -81 36c-34.667 0 -61.334 -12 -80.001 -36z" />
    <glyph glyph-name="guillemotright" unicode="&#xbb;" horiz-adv-x="426" 
d="M161 263l-110.999 175c-0.666992 0.666992 -1 1.66699 -1 3c0 3.33301 2.33301 5 7 5h17c3.33301 0 6 -1.33301 8 -4l137 -178c1.33301 -2.66699 2 -5 2 -7s-1 -4.66699 -3 -8l-135 -168c-1.33301 -2.66699 -4.33301 -4 -9 -4h-15
c-6.66699 0 -9.33398 1.66699 -8.00098 5l111 169c2.66699 4 2.66699 8 0 12zM330.001 263l-110.001 175.001c-1.33301 2 -1.33301 3.83301 0 5.5s3 2.5 5 2.5h18c2.66699 0 5.33398 -1.33301 8.00098 -4l137 -178c2 -2 3 -4.33301 3 -7s-1.33301 -5.33398 -4 -8.00098
l-135 -168c-2.66699 -2.66699 -5.66699 -4 -9 -4h-16c-6 0 -8.33301 1.66699 -7 5l110 169c3.33301 4 3.33301 8 0 12z" />
    <glyph glyph-name="onequarter" unicode="&#xbc;" horiz-adv-x="867" 
d="M222 303v-22.999c0 -2.66699 -1.66699 -4 -5 -4h-206c-2.66699 0 -4 1.33301 -4 4v23c0 2.66699 1.33301 4 4 4h86c3.33301 0 5 1 5 3v386c0 3.33301 -1.66699 4.66602 -5 3.99902l-85 -34c-4 -0.666992 -6 1 -6 5v18c0 2 0.5 3.5 1.5 4.5s1.83301 1.5 2.5 1.5l88 44
c5.33301 2.66699 10.333 4 15 4h19c3.33301 0 5 -2.33301 5 -7v-425c0 -2.66699 1.33301 -4 4 -4h76c3.33301 0 5 -1.33301 5 -4zM198 4.00098c-2 -3.33301 -4.00098 -5.50098 -6.00098 -6.50098s-5.33301 -1.5 -10 -1.5h-18c-6 0 -9 2 -9 6c0 2.66699 1 5.33398 3 8.00098
l488 735c2.66699 3.33301 7 5 13 5h23c6.66699 0 8.33398 -3 5.00098 -9zM739.999 467h25c4 0 6 -2.33301 6 -7v-291c0 -4 1.66699 -6 5 -6h63c4 0 6 -1.33301 6 -4v-20c0 -4 -2 -6 -6 -6h-63c-3.33301 0 -5 -2.33301 -5 -7v-120c0 -4 -2.33301 -6 -7 -6h-23c-4 0 -6 2 -6 6
v122c0 3.33301 -1.66699 5 -5 5h-211c-4.66699 0 -7 2 -7 6v23c0 4.66699 2 9.66699 6 15l212 286c2.66699 2.66699 6 4 10 4zM726.999 163c1.33301 0 2.66602 0.333008 3.99902 1s2 1.66699 2 3v236c0 5.33301 -1 8 -3 8c-0.666992 0 -2.66699 -1.66699 -6 -5l-174 -235
c-3.33301 -5.33301 -1.66602 -8 5.00098 -8h172z" />
    <glyph glyph-name="onehalf" unicode="&#xbd;" horiz-adv-x="929" 
d="M222 303v-22.999c0 -2.66699 -1.66699 -4 -5 -4h-206c-2.66699 0 -4 1.33301 -4 4v23c0 2.66699 1.33301 4 4 4h86c3.33301 0 5 1 5 3v386c0 3.33301 -1.66699 4.66602 -5 3.99902l-85 -34c-4 -0.666992 -6 1 -6 5v18c0 2 0.5 3.5 1.5 4.5s1.83301 1.5 2.5 1.5l88 44
c5.33301 2.66699 10.333 4 15 4h19c3.33301 0 5 -2.33301 5 -7v-425c0 -2.66699 1.33301 -4 4 -4h76c3.33301 0 5 -1.33301 5 -4zM249 4.00098c-2 -3.33301 -4.00098 -5.50098 -6.00098 -6.50098s-5.33301 -1.5 -10 -1.5h-18c-6 0 -9 2 -9 6c0 2.66699 1 5.33398 3 8.00098
l488 735c2.66699 3.33301 7 5 13 5h23c6.66699 0 8.33398 -3 5.00098 -9zM741.999 192c34 34 58.168 62.667 72.501 86s21.5 47.333 21.5 72c0 29.333 -10.5 52 -31.5 68s-45.167 24 -72.5 24c-21.333 0 -42.5 -5 -63.5 -15s-38.167 -25 -51.5 -45
c-2.66699 -4 -6.33398 -4.33301 -11.001 -1l-13 10c-2.66699 2 -4 3.66699 -4 5s1 3.33301 3 6c16.667 24 38 41.833 64 53.5s52.667 17.5 80 17.5c38 0 70.167 -10.5 96.5 -31.5s39.5 -52.5 39.5 -94.5c0 -27.333 -7.83301 -53.333 -23.5 -78s-43.5 -57 -83.5 -97
l-132 -132c-2 -2.66699 -2.66699 -4.66699 -2 -6s2.66699 -2 6 -2h234c4 0 6 -2 6 -6v-20c0 -4 -2 -6 -6 -6h-274c-5.33301 0 -8 2.66699 -8 8v16c0 4.66699 0.666992 8.5 2 11.5s4 6.5 8 10.5z" />
    <glyph glyph-name="threequarters" unicode="&#xbe;" horiz-adv-x="893" 
d="M46 692c20 20.667 41.165 35.834 63.498 45.501s46.833 14.5 73.5 14.5c44 0 79.667 -11 107 -33s41 -49.667 41 -83c0 -24 -7.33301 -45.167 -22 -63.5s-34.667 -32.166 -60 -41.499c-4.66699 -0.666992 -7 -2 -7 -4c0 -1.33301 2.33301 -2.33301 7 -3
c27.333 -7.33301 50.333 -21.5 69 -42.5s28 -46.5 28 -76.5c0 -38 -15 -69.5 -45 -94.5s-72.333 -37.5 -127 -37.5c-30 0 -56.833 4.83301 -80.5 14.5s-46.167 25.167 -67.5 46.5c-1.33301 1.33301 -2 2.5 -2 3.5s1 2.16699 3 3.5l16 15
c2.66699 2.66699 5.33398 2.66699 8.00098 0c18 -18.667 37.167 -32 57.5 -40s43.5 -12 69.5 -12c40.667 0 72.834 9.16699 96.501 27.5s35.5 42.166 35.5 71.499c0 33.333 -13.333 59.333 -40 78s-58 28 -94 28h-57c-4 0 -6 1.66699 -6 5v20c0 3.33301 2 5 6 5h46
c36 0 66.667 9.16699 92 27.5s38 41.166 38 68.499c0 24 -10.5 44.333 -31.5 61s-47.5 25 -79.5 25c-44 0 -83 -16.333 -117 -49c-2 -2 -3.66699 -3 -5 -3s-3 1 -5 3l-11 11c-2.66699 3.33301 -2.66699 6.33301 0 9zM297.998 4
c-2 -3.33301 -4.00098 -5.50098 -6.00098 -6.50098s-5.33301 -1.5 -10 -1.5h-18c-6 0 -9 2 -9 6c0 2.66699 1 5.33398 3 8.00098l488 735c2.66699 3.33301 7 5 13 5h23c6.66699 0 8.33398 -3 5.00098 -9zM765.997 466.999h25c4 0 6 -2.33301 6 -7v-291c0 -4 1.66699 -6 5 -6
h63c4 0 6 -1.33301 6 -4v-20c0 -4 -2 -6 -6 -6h-63c-3.33301 0 -5 -2.33301 -5 -7v-120c0 -4 -2.33301 -6 -7 -6h-23c-4 0 -6 2 -6 6v122c0 3.33301 -1.66699 5 -5 5h-211c-4.66699 0 -7 2 -7 6v23c0 4.66699 2 9.66699 6 15l212 286c2.66699 2.66699 6 4 10 4z
M752.997 162.999c1.33301 0 2.66602 0.333008 3.99902 1s2 1.66699 2 3v236c0 5.33301 -1 8 -3 8c-0.666992 0 -2.66699 -1.66699 -6 -5l-174 -235c-3.33301 -5.33301 -1.66602 -8 5.00098 -8h172z" />
    <glyph glyph-name="questiondown" unicode="&#xbf;" horiz-adv-x="508" 
d="M228 518c0 4.66699 1.16797 7.83301 3.50098 9.5s6.16602 2.5 11.499 2.5h46c7.33301 0 11 -3.66699 11 -11v-66c0 -6 -2.66699 -9 -8 -9h-56c-5.33301 0 -8 2.66699 -8 8v66zM471.001 -44.001c0.666992 -2 0.333984 -3.66602 -0.999023 -4.99902
c-21.333 -38.667 -52.333 -69.334 -93 -92.001s-85.334 -34 -134.001 -34c-65.333 0 -117.166 16.5 -155.499 49.5s-57.5 76.833 -57.5 131.5c0 25.333 4.5 47.833 13.5 67.5s20.167 36.5 33.5 50.5s31 30.667 53 50c24 20 43.167 38 57.5 54s26.5 35.167 36.5 57.5
s15 48.5 15 78.5c0 2.66699 0.833008 4.83398 2.5 6.50098s3.5 2.5 5.5 2.5h32c6 0 9 -3.33301 9 -10c0 -34 -5.33301 -63.5 -16 -88.5s-23.5 -46 -38.5 -63s-34.833 -36.167 -59.5 -57.5c-30 -26.667 -52.333 -50.334 -67 -71.001s-22 -46 -22 -76
c0 -40.667 14.5 -73.167 43.5 -97.5s67.5 -36.5 115.5 -36.5c36.667 0 72.667 9.66699 108 29s58.666 42.333 69.999 69c0.666992 2 1.66699 3.33301 3 4s3.33301 0.666992 6 0l36 -15c2 -0.666992 3.33301 -2 4 -4z" />
    <glyph glyph-name="Agrave" unicode="&#xc0;" horiz-adv-x="706" 
d="M51 11l263.999 718.999c1.33301 4.66699 3.33301 7.83398 6 9.50098s6.33398 2.5 11.001 2.5h43c10.667 0 17 -3.66699 19 -11l261 -719l1 -4c0 -5.33301 -3 -8 -9 -8h-35c-7.33301 0 -12 3 -14 9l-78 216c-2 4.66699 -5.33301 7 -10 7h-316
c-4.66699 0 -8 -2.33301 -10 -7l-80 -217c-0.666992 -5.33301 -4.66699 -8 -12 -8h-33c-7.33301 0 -10 3.66699 -8 11zM489.999 279.999c7.33301 0 10 3.66699 8 11l-138 376c-2 6.66699 -4.33301 10 -7 10c-2 0 -4.66699 -3.66699 -8 -11l-140 -377
c-0.666992 -1.33301 -1 -3 -1 -5c0 -2.66699 2.33301 -4 7 -4h279zM224.499 962.999c1.66699 0.666992 3.49902 0.667969 5.49902 0.000976562l230 -94c4 -2.66699 5 -6.33398 3 -11.001l-6 -17c-0.666992 -3.33301 -2 -5.5 -4 -6.5s-4.66699 -0.833008 -8 0.5l-227 76
c-7.33301 2.66699 -10 7 -8 13l11 35c0.666992 2 1.83398 3.33301 3.50098 4z" />
    <glyph glyph-name="Aacute" unicode="&#xc1;" horiz-adv-x="706" 
d="M51 11l263.999 718.999c1.33301 4.66699 3.33301 7.83398 6 9.50098s6.33398 2.5 11.001 2.5h43c10.667 0 17 -3.66699 19 -11l261 -719l1 -4c0 -5.33301 -3 -8 -9 -8h-35c-7.33301 0 -12 3 -14 9l-78 216c-2 4.66699 -5.33301 7 -10 7h-316
c-4.66699 0 -8 -2.33301 -10 -7l-80 -217c-0.666992 -5.33301 -4.66699 -8 -12 -8h-33c-7.33301 0 -10 3.66699 -8 11zM489.999 279.999c7.33301 0 10 3.66699 8 11l-138 376c-2 6.66699 -4.33301 10 -7 10c-2 0 -4.66699 -3.66699 -8 -11l-140 -377
c-0.666992 -1.33301 -1 -3 -1 -5c0 -2.66699 2.33301 -4 7 -4h279zM478.999 923.999l0.999023 -3.99902c0 -4 -3 -7 -9 -9l-227 -76c-1.33301 -0.666992 -3 -1 -5 -1c-4 0 -6.33301 2.33301 -7 7l-6 17c-0.666992 0.666992 -1 2 -1 4c0 3.33301 1.33301 5.66602 4 6.99902
l230 94c2 0.666992 3.83301 0.666992 5.5 0s2.83398 -2 3.50098 -4z" />
    <glyph glyph-name="Acircumflex" unicode="&#xc2;" horiz-adv-x="706" 
d="M51 11l263.999 718.999c1.33301 4.66699 3.33301 7.83398 6 9.50098s6.33398 2.5 11.001 2.5h43c10.667 0 17 -3.66699 19 -11l261 -719l1 -4c0 -5.33301 -3 -8 -9 -8h-35c-7.33301 0 -12 3 -14 9l-78 216c-2 4.66699 -5.33301 7 -10 7h-316
c-4.66699 0 -8 -2.33301 -10 -7l-80 -217c-0.666992 -5.33301 -4.66699 -8 -12 -8h-33c-7.33301 0 -10 3.66699 -8 11zM489.999 279.999c7.33301 0 10 3.66699 8 11l-138 376c-2 6.66699 -4.33301 10 -7 10c-2 0 -4.66699 -3.66699 -8 -11l-140 -377
c-0.666992 -1.33301 -1 -3 -1 -5c0 -2.66699 2.33301 -4 7 -4h279zM362.999 907.999c-5.33301 4 -8.66699 6.00098 -10 6.00098c-2 0 -5.33301 -2 -10 -6l-61 -49c-2.66699 -2 -5.16699 -3.5 -7.5 -4.5s-5.16602 -1.5 -8.49902 -1.5h-41c-3.33301 0 -5.33301 1 -6 3
s0.666016 4.33301 3.99902 7l100 82c6.66699 6.66699 13.667 10 21 10h23c4.66699 0 8.5 -1.33301 11.5 -4s4.83301 -4.33398 5.5 -5.00098l98 -83c4 -3.33301 6 -5.83301 6 -7.5s-2.33301 -2.5 -7 -2.5h-45c-5.33301 0 -10.333 2 -15 6z" />
    <glyph glyph-name="Atilde" unicode="&#xc3;" horiz-adv-x="706" 
d="M51 11l263.999 718.999c1.33301 4.66699 3.33301 7.83398 6 9.50098s6.33398 2.5 11.001 2.5h43c10.667 0 17 -3.66699 19 -11l261 -719l1 -4c0 -5.33301 -3 -8 -9 -8h-35c-7.33301 0 -12 3 -14 9l-78 216c-2 4.66699 -5.33301 7 -10 7h-316
c-4.66699 0 -8 -2.33301 -10 -7l-80 -217c-0.666992 -5.33301 -4.66699 -8 -12 -8h-33c-7.33301 0 -10 3.66699 -8 11zM489.999 279.999c7.33301 0 10 3.66699 8 11l-138 376c-2 6.66699 -4.33301 10 -7 10c-2 0 -4.66699 -3.66699 -8 -11l-140 -377
c-0.666992 -1.33301 -1 -3 -1 -5c0 -2.66699 2.33301 -4 7 -4h279zM411.999 880.999c-12 0 -22.666 1.16602 -31.999 3.49902s-20.333 5.5 -33 9.5c-19.333 7.33301 -36.666 11 -51.999 11c-11.333 0 -20.5 -1.33301 -27.5 -4s-13 -5.66699 -18 -9
s-8.83301 -5.66602 -11.5 -6.99902s-4.66699 -2 -6 -2c-2 0 -4 2 -6 6l-7 19c-0.666992 2 -0.833984 3.66699 -0.500977 5s1.16602 2.66602 2.49902 3.99902c12 8.66699 23.167 15.334 33.5 20.001s22.5 7 36.5 7c16.667 0 37.334 -4.33301 62.001 -13
c25.333 -8 45.333 -12 60 -12c10.667 0 19.5 1.16699 26.5 3.5s15.5 6.5 25.5 12.5c3.33301 2 5.66602 3 6.99902 3c2 0 4 -2 6 -6l9 -21c0.666992 -0.666992 1 -1.66699 1 -3c0 -2.66699 -2.33301 -5 -7 -7c-19.333 -13.333 -42.333 -20 -69 -20z" />
    <glyph glyph-name="Adieresis" unicode="&#xc4;" horiz-adv-x="706" 
d="M51 11l263.999 718.999c1.33301 4.66699 3.33301 7.83398 6 9.50098s6.33398 2.5 11.001 2.5h43c10.667 0 17 -3.66699 19 -11l261 -719l1 -4c0 -5.33301 -3 -8 -9 -8h-35c-7.33301 0 -12 3 -14 9l-78 216c-2 4.66699 -5.33301 7 -10 7h-316
c-4.66699 0 -8 -2.33301 -10 -7l-80 -217c-0.666992 -5.33301 -4.66699 -8 -12 -8h-33c-7.33301 0 -10 3.66699 -8 11zM489.999 279.999c7.33301 0 10 3.66699 8 11l-138 376c-2 6.66699 -4.33301 10 -7 10c-2 0 -4.66699 -3.66699 -8 -11l-140 -377
c-0.666992 -1.33301 -1 -3 -1 -5c0 -2.66699 2.33301 -4 7 -4h279zM321.999 865.999c0 -4.66699 -0.998047 -8 -2.99805 -10s-5.33301 -3 -10 -3h-33c-4.66699 0 -7.83398 0.833008 -9.50098 2.5s-2.5 4.5 -2.5 8.5v79c0 4.66699 0.666992 7.66699 2 9s3.66602 2 6.99902 2
h39c3.33301 0 5.83301 -0.666992 7.5 -2s2.5 -4 2.5 -8v-78zM441.001 865.999c0 -4.66699 -0.999023 -8 -2.99902 -10s-5.33301 -3 -10 -3h-33c-4.66699 0 -7.83398 0.833008 -9.50098 2.5s-2.5 4.5 -2.5 8.5v79c0 4.66699 0.666992 7.66699 2 9s4 2 8 2h38
c3.33301 0 5.83301 -0.666992 7.5 -2s2.5 -4 2.5 -8v-78z" />
    <glyph glyph-name="Aring" unicode="&#xc5;" horiz-adv-x="706" 
d="M51 11l263.999 718.999c1.33301 4.66699 3.33301 7.83398 6 9.50098s6.33398 2.5 11.001 2.5h43c10.667 0 17 -3.66699 19 -11l261 -719l1 -4c0 -5.33301 -3 -8 -9 -8h-35c-7.33301 0 -12 3 -14 9l-78 216c-2 4.66699 -5.33301 7 -10 7h-316
c-4.66699 0 -8 -2.33301 -10 -7l-80 -217c-0.666992 -5.33301 -4.66699 -8 -12 -8h-33c-7.33301 0 -10 3.66699 -8 11zM489.999 279.999c7.33301 0 10 3.66699 8 11l-138 376c-2 6.66699 -4.33301 10 -7 10c-2 0 -4.66699 -3.66699 -8 -11l-140 -377
c-0.666992 -1.33301 -1 -3 -1 -5c0 -2.66699 2.33301 -4 7 -4h279zM424.999 792.999c-19.333 -19.333 -43.333 -29.001 -72 -29.001c-28 0 -51.833 9.83301 -71.5 29.5s-29.5 44.167 -29.5 73.5c0 26.667 10 49.5 30 68.5s43.667 28.5 71 28.5
c28.667 0 52.667 -9.66699 72 -29s29 -42.666 29 -69.999c0 -28.667 -9.66699 -52.667 -29 -72zM392.999 905.498c-10.667 11 -24.333 16.5 -41 16.5c-16 0 -29.667 -5.5 -41 -16.5s-17 -24.833 -17 -41.5c0 -15.333 5.83301 -29 17.5 -41s25.167 -18 40.5 -18
c16 0 29.5 5.83301 40.5 17.5s16.5 25.5 16.5 41.5c0 16.667 -5.33301 30.5 -16 41.5z" />
    <glyph glyph-name="AE" unicode="&#xc6;" horiz-adv-x="974" 
d="M921.5 46.5c1 -1 1.5 -3.16797 1.5 -6.50098v-32c0 -5.33301 -2.66699 -8 -8 -8h-408c-4 0 -6.66699 0.666992 -8 2s-2 4.33301 -2 9v216c0 3.33301 -2 5 -6 5h-250c-6 0 -10.333 -2.33301 -13 -7l-124 -217c-2.66699 -5.33301 -7 -8 -13 -8h-33
c-3.33301 0 -5.5 1 -6.5 3s-0.5 4.66699 1.5 8l409 719c2 4.66699 4.33301 7.83398 7 9.50098s6.66699 2.5 12 2.5h420c5.33301 0 8 -2.66699 8 -8v-31c0 -6 -3 -9 -9 -9h-336c-4 0 -6.66699 -0.5 -8 -1.5s-2 -3.5 -2 -7.5v-278c0 -3.33301 0.666992 -5.5 2 -6.5
s4 -1.5 8 -1.5h263c5.33301 0 8 -2.66699 8 -8v-32c0 -3.33301 -0.666992 -5.5 -2 -6.5s-3.66602 -1.5 -6.99902 -1.5h-262c-4 0 -6.66699 -0.5 -8 -1.5s-2 -3.5 -2 -7.5v-285c0 -4 0.666992 -6.5 2 -7.5s3.66602 -1.5 6.99902 -1.5h352c3.33301 0 5.5 -0.5 6.5 -1.5z
M497 289.999l0.000976562 378.999c0 6.66699 -1.66699 10 -5 10s-7.33301 -3.66699 -12 -11l-220 -379c-2 -3.33301 -2.83301 -5.66602 -2.5 -6.99902s2.16602 -2 5.49902 -2h225c6 0 9 3.33301 9 10z" />
    <glyph glyph-name="Ccedilla" unicode="&#xc7;" horiz-adv-x="698" 
d="M642 174c-16.667 -52 -47.3291 -94.9961 -91.9961 -128.996s-96.667 -52.333 -156 -55l-17 -44c-0.666992 -2.66699 0.333008 -4 3 -4c28 -2 48 -9.83301 60 -23.5s18 -29.834 18 -48.501c0 -24 -9.66699 -42.5 -29 -55.5s-43.666 -19.5 -72.999 -19.5s-55 7 -77 21
c-2.66699 1.33301 -3.66699 3.66602 -3 6.99902l10 21c1.33301 2.66699 3.66602 3 6.99902 1c8 -6 16.167 -10.5 24.5 -13.5s19.166 -4.5 32.499 -4.5c40 0 60 14 60 42c0 15.333 -6.33301 26.666 -19 33.999s-32.334 11.666 -59.001 12.999
c-4.66699 0 -6.33398 1.66699 -5.00098 5l30 70c-89.333 5.33301 -158.666 41 -207.999 107s-74 156.333 -74 271c0 80 12 148.667 36 206s58.5 101.166 103.5 131.499s98.833 45.5 161.5 45.5c40.667 0 80.167 -9.16699 118.5 -27.5s70.166 -42.666 95.499 -72.999
s40 -62.833 44 -97.5v-4c0 -2 -0.5 -3.33301 -1.5 -4s-2.5 -1 -4.5 -1l-45 -4h-2c-2.66699 0 -4.33398 2.33301 -5.00098 7c-11.333 46.667 -34.833 84.167 -70.5 112.5s-78.167 42.5 -127.5 42.5c-79.333 0 -139.666 -28.333 -180.999 -85s-62 -139.667 -62 -249
c0 -106.667 21 -188.167 63 -244.5s104.333 -84.5 187 -84.5c51.333 0 93.666 12.167 126.999 36.5s60 62.5 80 114.5c0.666992 2.66699 3 3.66699 7 3l40 -11c2.66699 -1.33301 3.66699 -4.33301 3 -9z" />
    <glyph glyph-name="Egrave" unicode="&#xc8;" horiz-adv-x="616" 
d="M112 740c1.33301 1.33301 3.99902 1.99902 7.99902 1.99902h423c4.66699 0 7 -2.66699 7 -8v-31c0 -3.33301 -0.666992 -5.66602 -2 -6.99902s-3.66602 -2 -6.99902 -2h-364c-4 0 -6.66699 -0.5 -8 -1.5s-2 -3.5 -2 -7.5v-278c0 -3.33301 0.666992 -5.5 2 -6.5
s4 -1.5 8 -1.5h282c5.33301 0 8 -2.66699 8 -8v-32c0 -3.33301 -0.666992 -5.5 -2 -6.5s-3.66602 -1.5 -6.99902 -1.5h-281c-4 0 -6.66699 -0.5 -8 -1.5s-2 -3.5 -2 -7.5v-285c0 -4 0.666992 -6.5 2 -7.5s4 -1.5 8 -1.5h379c3.33301 0 5.66602 -0.5 6.99902 -1.5
s2 -3.16699 2 -6.5v-32c0 -5.33301 -2.66699 -8 -8 -8h-437c-4 0 -6.66699 0.666992 -8 2s-2 4.33301 -2 9v720c0 4.66699 0.666992 7.66699 2 9zM215.499 962.999c1.66699 0.666992 3.49902 0.667969 5.49902 0.000976562l230 -94c4 -2.66699 5 -6.33398 3 -11.001l-6 -17
c-0.666992 -3.33301 -2 -5.5 -4 -6.5s-4.66699 -0.833008 -8 0.5l-227 76c-7.33301 2.66699 -10 7 -8 13l11 35c0.666992 2 1.83398 3.33301 3.50098 4z" />
    <glyph glyph-name="Eacute" unicode="&#xc9;" horiz-adv-x="616" 
d="M112 740c1.33301 1.33301 3.99902 1.99902 7.99902 1.99902h423c4.66699 0 7 -2.66699 7 -8v-31c0 -3.33301 -0.666992 -5.66602 -2 -6.99902s-3.66602 -2 -6.99902 -2h-364c-4 0 -6.66699 -0.5 -8 -1.5s-2 -3.5 -2 -7.5v-278c0 -3.33301 0.666992 -5.5 2 -6.5
s4 -1.5 8 -1.5h282c5.33301 0 8 -2.66699 8 -8v-32c0 -3.33301 -0.666992 -5.5 -2 -6.5s-3.66602 -1.5 -6.99902 -1.5h-281c-4 0 -6.66699 -0.5 -8 -1.5s-2 -3.5 -2 -7.5v-285c0 -4 0.666992 -6.5 2 -7.5s4 -1.5 8 -1.5h379c3.33301 0 5.66602 -0.5 6.99902 -1.5
s2 -3.16699 2 -6.5v-32c0 -5.33301 -2.66699 -8 -8 -8h-437c-4 0 -6.66699 0.666992 -8 2s-2 4.33301 -2 9v720c0 4.66699 0.666992 7.66699 2 9zM469.999 923.999l0.999023 -3.99902c0 -4 -3 -7 -9 -9l-227 -76c-1.33301 -0.666992 -3 -1 -5 -1c-4 0 -6.33301 2.33301 -7 7
l-6 17c-0.666992 0.666992 -1 2 -1 4c0 3.33301 1.33301 5.66602 4 6.99902l230 94c2 0.666992 3.83301 0.666992 5.5 0s2.83398 -2 3.50098 -4z" />
    <glyph glyph-name="Ecircumflex" unicode="&#xca;" horiz-adv-x="616" 
d="M112 740c1.33301 1.33301 3.99902 1.99902 7.99902 1.99902h423c4.66699 0 7 -2.66699 7 -8v-31c0 -3.33301 -0.666992 -5.66602 -2 -6.99902s-3.66602 -2 -6.99902 -2h-364c-4 0 -6.66699 -0.5 -8 -1.5s-2 -3.5 -2 -7.5v-278c0 -3.33301 0.666992 -5.5 2 -6.5
s4 -1.5 8 -1.5h282c5.33301 0 8 -2.66699 8 -8v-32c0 -3.33301 -0.666992 -5.5 -2 -6.5s-3.66602 -1.5 -6.99902 -1.5h-281c-4 0 -6.66699 -0.5 -8 -1.5s-2 -3.5 -2 -7.5v-285c0 -4 0.666992 -6.5 2 -7.5s4 -1.5 8 -1.5h379c3.33301 0 5.66602 -0.5 6.99902 -1.5
s2 -3.16699 2 -6.5v-32c0 -5.33301 -2.66699 -8 -8 -8h-437c-4 0 -6.66699 0.666992 -8 2s-2 4.33301 -2 9v720c0 4.66699 0.666992 7.66699 2 9zM353.999 907.999c-5.33301 4 -8.66699 6.00098 -10 6.00098c-2 0 -5.33301 -2 -10 -6l-61 -49
c-2.66699 -2 -5.16699 -3.5 -7.5 -4.5s-5.16602 -1.5 -8.49902 -1.5h-41c-3.33301 0 -5.33301 1 -6 3s0.666016 4.33301 3.99902 7l100 82c6.66699 6.66699 13.667 10 21 10h23c4.66699 0 8.5 -1.33301 11.5 -4s4.83301 -4.33398 5.5 -5.00098l98 -83
c4 -3.33301 6 -5.83301 6 -7.5s-2.33301 -2.5 -7 -2.5h-45c-5.33301 0 -10.333 2 -15 6z" />
    <glyph glyph-name="Edieresis" unicode="&#xcb;" horiz-adv-x="616" 
d="M112 740c1.33301 1.33301 3.99902 1.99902 7.99902 1.99902h423c4.66699 0 7 -2.66699 7 -8v-31c0 -3.33301 -0.666992 -5.66602 -2 -6.99902s-3.66602 -2 -6.99902 -2h-364c-4 0 -6.66699 -0.5 -8 -1.5s-2 -3.5 -2 -7.5v-278c0 -3.33301 0.666992 -5.5 2 -6.5
s4 -1.5 8 -1.5h282c5.33301 0 8 -2.66699 8 -8v-32c0 -3.33301 -0.666992 -5.5 -2 -6.5s-3.66602 -1.5 -6.99902 -1.5h-281c-4 0 -6.66699 -0.5 -8 -1.5s-2 -3.5 -2 -7.5v-285c0 -4 0.666992 -6.5 2 -7.5s4 -1.5 8 -1.5h379c3.33301 0 5.66602 -0.5 6.99902 -1.5
s2 -3.16699 2 -6.5v-32c0 -5.33301 -2.66699 -8 -8 -8h-437c-4 0 -6.66699 0.666992 -8 2s-2 4.33301 -2 9v720c0 4.66699 0.666992 7.66699 2 9zM312.999 865.999c0 -4.66699 -0.998047 -8 -2.99805 -10s-5.33301 -3 -10 -3h-33c-4.66699 0 -7.83398 0.833008 -9.50098 2.5
s-2.5 4.5 -2.5 8.5v79c0 4.66699 0.666992 7.66699 2 9s3.66602 2 6.99902 2h39c3.33301 0 5.83301 -0.666992 7.5 -2s2.5 -4 2.5 -8v-78zM432.001 865.999c0 -4.66699 -0.999023 -8 -2.99902 -10s-5.33301 -3 -10 -3h-33c-4.66699 0 -7.83398 0.833008 -9.50098 2.5
s-2.5 4.5 -2.5 8.5v79c0 4.66699 0.666992 7.66699 2 9s4 2 8 2h38c3.33301 0 5.83301 -0.666992 7.5 -2s2.5 -4 2.5 -8v-78z" />
    <glyph glyph-name="Igrave" unicode="&#xcc;" horiz-adv-x="278" 
d="M158 742c3.33301 0 5.66797 -0.666992 7.00098 -2s2 -4.33301 2 -9v-718c0 -5.33301 -0.833008 -8.83301 -2.5 -10.5s-5.16699 -2.5 -10.5 -2.5h-32c-4.66699 0 -7.83398 0.666992 -9.50098 2s-2.5 4.33301 -2.5 9v720c0 4.66699 0.833008 7.66699 2.5 9s4.16699 2 7.5 2
h38zM13.502 963c1.66699 0.666992 3.49902 0.667969 5.49902 0.000976562l230 -94c4 -2.66699 5 -6.33398 3 -11.001l-6 -17c-0.666992 -3.33301 -2 -5.5 -4 -6.5s-4.66699 -0.833008 -8 0.5l-227 76c-7.33301 2.66699 -10 7 -8 13l11 35
c0.666992 2 1.83398 3.33301 3.50098 4z" />
    <glyph glyph-name="Iacute" unicode="&#xcd;" horiz-adv-x="278" 
d="M158 742c3.33301 0 5.66797 -0.666992 7.00098 -2s2 -4.33301 2 -9v-718c0 -5.33301 -0.833008 -8.83301 -2.5 -10.5s-5.16699 -2.5 -10.5 -2.5h-32c-4.66699 0 -7.83398 0.666992 -9.50098 2s-2.5 4.33301 -2.5 9v720c0 4.66699 0.833008 7.66699 2.5 9s4.16699 2 7.5 2
h38zM268.002 924l0.999023 -3.99902c0 -4 -3 -7 -9 -9l-227 -76c-1.33301 -0.666992 -3 -1 -5 -1c-4 0 -6.33301 2.33301 -7 7l-6 17c-0.666992 0.666992 -1 2 -1 4c0 3.33301 1.33301 5.66602 4 6.99902l230 94c2 0.666992 3.83301 0.666992 5.5 0s2.83398 -2 3.50098 -4z
" />
    <glyph glyph-name="Icircumflex" unicode="&#xce;" horiz-adv-x="278" 
d="M158 742c3.33301 0 5.66797 -0.666992 7.00098 -2s2 -4.33301 2 -9v-718c0 -5.33301 -0.833008 -8.83301 -2.5 -10.5s-5.16699 -2.5 -10.5 -2.5h-32c-4.66699 0 -7.83398 0.666992 -9.50098 2s-2.5 4.33301 -2.5 9v720c0 4.66699 0.833008 7.66699 2.5 9s4.16699 2 7.5 2
h38zM152.002 908c-5.33301 4 -8.66699 6.00098 -10 6.00098c-2 0 -5.33301 -2 -10 -6l-61 -49c-2.66699 -2 -5.16699 -3.5 -7.5 -4.5s-5.16602 -1.5 -8.49902 -1.5h-41c-3.33301 0 -5.33301 1 -6 3s0.666016 4.33301 3.99902 7l100 82c6.66699 6.66699 13.667 10 21 10h23
c4.66699 0 8.5 -1.33301 11.5 -4s4.83301 -4.33398 5.5 -5.00098l98 -83c4 -3.33301 6 -5.83301 6 -7.5s-2.33301 -2.5 -7 -2.5h-45c-5.33301 0 -10.333 2 -15 6z" />
    <glyph glyph-name="Idieresis" unicode="&#xcf;" horiz-adv-x="278" 
d="M158 742c3.33301 0 5.66797 -0.666992 7.00098 -2s2 -4.33301 2 -9v-718c0 -5.33301 -0.833008 -8.83301 -2.5 -10.5s-5.16699 -2.5 -10.5 -2.5h-32c-4.66699 0 -7.83398 0.666992 -9.50098 2s-2.5 4.33301 -2.5 9v720c0 4.66699 0.833008 7.66699 2.5 9s4.16699 2 7.5 2
h38zM111.002 866c0 -4.66699 -0.998047 -8 -2.99805 -10s-5.33301 -3 -10 -3h-33c-4.66699 0 -7.83398 0.833008 -9.50098 2.5s-2.5 4.5 -2.5 8.5v79c0 4.66699 0.666992 7.66699 2 9s3.66602 2 6.99902 2h39c3.33301 0 5.83301 -0.666992 7.5 -2s2.5 -4 2.5 -8v-78z
M230.004 866c0 -4.66699 -0.999023 -8 -2.99902 -10s-5.33301 -3 -10 -3h-33c-4.66699 0 -7.83398 0.833008 -9.50098 2.5s-2.5 4.5 -2.5 8.5v79c0 4.66699 0.666992 7.66699 2 9s4 2 8 2h38c3.33301 0 5.83301 -0.666992 7.5 -2s2.5 -4 2.5 -8v-78z" />
    <glyph glyph-name="Eth" unicode="&#xd0;" horiz-adv-x="709" 
d="M542 651.5c61.333 -59 92.001 -150.833 92.001 -275.5c0 -128.667 -32.667 -223.5 -98 -284.5s-166.333 -91.5 -303 -91.5h-112c-6.66699 0 -10 3.66699 -10 11v338h-66c-7.33301 0 -11 3.66699 -11 11v28c0 6 2.66699 9 8 9h69v336c0 6 3.33301 9 10 9l126 -1
c135.333 -0.666992 233.666 -30.5 294.999 -89.5zM429.501 79c50.333 21.333 86.999 55.668 109.999 103.001s34.5 110.666 34.5 189.999c0 82 -11.667 146 -35 192s-59.166 78.667 -107.499 98s-112.833 30 -193.5 32h-62c-5.33301 0 -8 -4.66699 -8 -14v-283h172
c5.33301 0 8 -2.66699 8 -8v-28c0 -8 -5 -12 -15 -12h-165v-292c0 -6.66699 4 -10 12 -10h47c84.667 0 152.167 10.667 202.5 32z" />
    <glyph glyph-name="Ntilde" unicode="&#xd1;" horiz-adv-x="755" 
d="M636 742c3.33301 0 5.66602 -0.667969 6.99902 -2.00098s2 -4 2 -8v-721c0 -7.33301 -3.33301 -11 -10 -11h-22h-5c-6 0 -11 2.33301 -15 7l-418 614c-3.33301 4.66699 -6.16602 6.83398 -8.49902 6.50098s-3.5 -2.5 -3.5 -6.5v-611c0 -6.66699 -3.66699 -10 -11 -10h-32
c-6.66699 0 -10 3.66699 -10 11v720c0 4.66699 0.666992 7.66699 2 9s4 2 8 2h27c4.66699 0 8 -0.5 10 -1.5s4 -3.16699 6 -6.5l416 -611c3.33301 -4 6 -6 8 -6c4 0 6 2.66699 6 8v607c0 6.66699 3 10 9 10h34zM452 880.999c-12 0 -22.666 1.16602 -31.999 3.49902
s-20.333 5.5 -33 9.5c-19.333 7.33301 -36.666 11 -51.999 11c-11.333 0 -20.5 -1.33301 -27.5 -4s-13 -5.66699 -18 -9s-8.83301 -5.66602 -11.5 -6.99902s-4.66699 -2 -6 -2c-2 0 -4 2 -6 6l-7 19c-0.666992 2 -0.833984 3.66699 -0.500977 5
s1.16602 2.66602 2.49902 3.99902c12 8.66699 23.167 15.334 33.5 20.001s22.5 7 36.5 7c16.667 0 37.334 -4.33301 62.001 -13c25.333 -8 45.333 -12 60 -12c10.667 0 19.5 1.16699 26.5 3.5s15.5 6.5 25.5 12.5c3.33301 2 5.66602 3 6.99902 3c2 0 4 -2 6 -6l9 -21
c0.666992 -0.666992 1 -1.66699 1 -3c0 -2.66699 -2.33301 -5 -7 -7c-19.333 -13.333 -42.333 -20 -69 -20z" />
    <glyph glyph-name="Ograve" unicode="&#xd2;" horiz-adv-x="759" 
d="M155 87.5c-53.333 65 -79.999 158.167 -79.999 279.5c0 123.333 27 218.333 81 285s129 100 225 100c95.333 0 169.666 -33.167 222.999 -99.5s80 -160.833 80 -283.5c0 -122 -26.667 -215.667 -80 -281s-128 -98 -224 -98c-96.667 0 -171.667 32.5 -225 97.5z
M624.001 369c0 112 -20.499 195.667 -61.499 251s-101.5 83 -181.5 83c-80.667 0 -141.834 -27.833 -183.501 -83.5s-62.5 -139.167 -62.5 -250.5c0 -220 82.333 -330 247 -330c161.333 0 242 110 242 330zM253.502 963
c1.66699 0.666992 3.49902 0.667969 5.49902 0.000976562l230 -94c4 -2.66699 5 -6.33398 3 -11.001l-6 -17c-0.666992 -3.33301 -2 -5.5 -4 -6.5s-4.66699 -0.833008 -8 0.5l-227 76c-7.33301 2.66699 -10 7 -8 13l11 35c0.666992 2 1.83398 3.33301 3.50098 4z" />
    <glyph glyph-name="Oacute" unicode="&#xd3;" horiz-adv-x="759" 
d="M155 87.5c-53.333 65 -79.999 158.167 -79.999 279.5c0 123.333 27 218.333 81 285s129 100 225 100c95.333 0 169.666 -33.167 222.999 -99.5s80 -160.833 80 -283.5c0 -122 -26.667 -215.667 -80 -281s-128 -98 -224 -98c-96.667 0 -171.667 32.5 -225 97.5z
M624.001 369c0 112 -20.499 195.667 -61.499 251s-101.5 83 -181.5 83c-80.667 0 -141.834 -27.833 -183.501 -83.5s-62.5 -139.167 -62.5 -250.5c0 -220 82.333 -330 247 -330c161.333 0 242 110 242 330zM508.002 924l0.999023 -3.99902c0 -4 -3 -7 -9 -9l-227 -76
c-1.33301 -0.666992 -3 -1 -5 -1c-4 0 -6.33301 2.33301 -7 7l-6 17c-0.666992 0.666992 -1 2 -1 4c0 3.33301 1.33301 5.66602 4 6.99902l230 94c2 0.666992 3.83301 0.666992 5.5 0s2.83398 -2 3.50098 -4z" />
    <glyph glyph-name="Ocircumflex" unicode="&#xd4;" horiz-adv-x="759" 
d="M155 87.5c-53.333 65 -79.999 158.167 -79.999 279.5c0 123.333 27 218.333 81 285s129 100 225 100c95.333 0 169.666 -33.167 222.999 -99.5s80 -160.833 80 -283.5c0 -122 -26.667 -215.667 -80 -281s-128 -98 -224 -98c-96.667 0 -171.667 32.5 -225 97.5z
M624.001 369c0 112 -20.499 195.667 -61.499 251s-101.5 83 -181.5 83c-80.667 0 -141.834 -27.833 -183.501 -83.5s-62.5 -139.167 -62.5 -250.5c0 -220 82.333 -330 247 -330c161.333 0 242 110 242 330zM392.002 908c-5.33301 4 -8.66699 6.00098 -10 6.00098
c-2 0 -5.33301 -2 -10 -6l-61 -49c-2.66699 -2 -5.16699 -3.5 -7.5 -4.5s-5.16602 -1.5 -8.49902 -1.5h-41c-3.33301 0 -5.33301 1 -6 3s0.666016 4.33301 3.99902 7l100 82c6.66699 6.66699 13.667 10 21 10h23c4.66699 0 8.5 -1.33301 11.5 -4
s4.83301 -4.33398 5.5 -5.00098l98 -83c4 -3.33301 6 -5.83301 6 -7.5s-2.33301 -2.5 -7 -2.5h-45c-5.33301 0 -10.333 2 -15 6z" />
    <glyph glyph-name="Otilde" unicode="&#xd5;" horiz-adv-x="759" 
d="M155 87.5c-53.333 65 -79.999 158.167 -79.999 279.5c0 123.333 27 218.333 81 285s129 100 225 100c95.333 0 169.666 -33.167 222.999 -99.5s80 -160.833 80 -283.5c0 -122 -26.667 -215.667 -80 -281s-128 -98 -224 -98c-96.667 0 -171.667 32.5 -225 97.5z
M624.001 369c0 112 -20.499 195.667 -61.499 251s-101.5 83 -181.5 83c-80.667 0 -141.834 -27.833 -183.501 -83.5s-62.5 -139.167 -62.5 -250.5c0 -220 82.333 -330 247 -330c161.333 0 242 110 242 330zM441.002 881c-12 0 -22.666 1.16602 -31.999 3.49902
s-20.333 5.5 -33 9.5c-19.333 7.33301 -36.666 11 -51.999 11c-11.333 0 -20.5 -1.33301 -27.5 -4s-13 -5.66699 -18 -9s-8.83301 -5.66602 -11.5 -6.99902s-4.66699 -2 -6 -2c-2 0 -4 2 -6 6l-7 19c-0.666992 2 -0.833984 3.66699 -0.500977 5
s1.16602 2.66602 2.49902 3.99902c12 8.66699 23.167 15.334 33.5 20.001s22.5 7 36.5 7c16.667 0 37.334 -4.33301 62.001 -13c25.333 -8 45.333 -12 60 -12c10.667 0 19.5 1.16699 26.5 3.5s15.5 6.5 25.5 12.5c3.33301 2 5.66602 3 6.99902 3c2 0 4 -2 6 -6l9 -21
c0.666992 -0.666992 1 -1.66699 1 -3c0 -2.66699 -2.33301 -5 -7 -7c-19.333 -13.333 -42.333 -20 -69 -20z" />
    <glyph glyph-name="Odieresis" unicode="&#xd6;" horiz-adv-x="759" 
d="M155 87.5c-53.333 65 -79.999 158.167 -79.999 279.5c0 123.333 27 218.333 81 285s129 100 225 100c95.333 0 169.666 -33.167 222.999 -99.5s80 -160.833 80 -283.5c0 -122 -26.667 -215.667 -80 -281s-128 -98 -224 -98c-96.667 0 -171.667 32.5 -225 97.5z
M624.001 369c0 112 -20.499 195.667 -61.499 251s-101.5 83 -181.5 83c-80.667 0 -141.834 -27.833 -183.501 -83.5s-62.5 -139.167 -62.5 -250.5c0 -220 82.333 -330 247 -330c161.333 0 242 110 242 330zM351.002 866c0 -4.66699 -0.998047 -8 -2.99805 -10
s-5.33301 -3 -10 -3h-33c-4.66699 0 -7.83398 0.833008 -9.50098 2.5s-2.5 4.5 -2.5 8.5v79c0 4.66699 0.666992 7.66699 2 9s3.66602 2 6.99902 2h39c3.33301 0 5.83301 -0.666992 7.5 -2s2.5 -4 2.5 -8v-78zM470.004 866c0 -4.66699 -0.999023 -8 -2.99902 -10
s-5.33301 -3 -10 -3h-33c-4.66699 0 -7.83398 0.833008 -9.50098 2.5s-2.5 4.5 -2.5 8.5v79c0 4.66699 0.666992 7.66699 2 9s4 2 8 2h38c3.33301 0 5.83301 -0.666992 7.5 -2s2.5 -4 2.5 -8v-78z" />
    <glyph glyph-name="multiply" unicode="&#xd7;" horiz-adv-x="522" 
d="M451 205l-19.999 -20.001c-2.66699 -2.66699 -5 -4 -7 -4s-4.66699 1.66699 -8 5l-155 155l-157 -157c-4 -4 -7.33301 -4.33301 -10 -1l-20 20c-2.66699 2.66699 -4 4.66699 -4 6c0 2.66699 1.66699 5.66699 5 9l154 154l-157 157c-4 4 -4 8 0 12l20 20
c3.33301 3.33301 6.66602 4 9.99902 2l159 -159l156 157c4.66699 4.66699 9 4.66699 13 0l20 -20c2 -1.33301 3 -2.83301 3 -4.5s-0.666992 -3.16699 -2 -4.5l-159 -159l158 -158c4 -3.33301 4.33301 -6.66602 1 -9.99902z" />
    <glyph glyph-name="Oslash" unicode="&#xd8;" horiz-adv-x="713" 
d="M691 712l-84.998 -97.001c36.667 -63.333 55 -145.333 55 -246c0 -122 -26.833 -215.667 -80.5 -281s-128.167 -98 -223.5 -98c-93.333 0 -166 30 -218 90l-72 -82c-4 -4.66699 -7.33301 -7 -10 -7s-6.33398 1.66699 -11.001 5l-18 17c-4 4 -6.33301 7.16699 -7 9.5
s0.333008 4.83301 3 7.5l83 95c-36.667 62 -55 142.667 -55 242c0 82 12.167 151.833 36.5 209.5s59.333 101.334 105 131.001s100.167 44.5 163.5 44.5c91.333 0 163.666 -30.667 216.999 -92l75 85c4.66699 6.66699 9.33398 8 14.001 4l27 -25
c3.33301 -3.33301 3.66602 -7.33301 0.999023 -12zM149.002 171.999l389 448c-40.667 54.667 -101 82 -181 82c-161.333 0 -242 -111 -242 -333c0 -82 11.333 -147.667 34 -197zM564.002 568.999l-389.001 -447c42 -54.667 103 -82 183 -82c80.667 0 140.834 27 180.501 81
s59.5 136.667 59.5 248c0 83.333 -11.333 150 -34 200z" />
    <glyph glyph-name="Ugrave" unicode="&#xd9;" horiz-adv-x="704" 
d="M540.5 50.5c-41.667 -40.333 -104.5 -60.5 -188.5 -60.5c-86 0 -149.5 21.167 -190.5 63.5s-61.5 107.5 -61.5 195.5v481c0 8 3 12 9 12h38c4 0 6.83301 -0.666992 8.5 -2s2.5 -4.33301 2.5 -9v-501c0 -127.333 65.667 -191 197 -191c66.667 0 116.5 16 149.5 48
s49.5 80.667 49.5 146v499c0 6.66699 3 10 9 10h32c5.33301 0 8 -3.33301 8 -10v-498c0 -82 -20.833 -143.167 -62.5 -183.5zM228.5 963c1.66699 0.666992 3.49902 0.667969 5.49902 0.000976562l230 -94c4 -2.66699 5 -6.33398 3 -11.001l-6 -17
c-0.666992 -3.33301 -2 -5.5 -4 -6.5s-4.66699 -0.833008 -8 0.5l-227 76c-7.33301 2.66699 -10 7 -8 13l11 35c0.666992 2 1.83398 3.33301 3.50098 4z" />
    <glyph glyph-name="Uacute" unicode="&#xda;" horiz-adv-x="704" 
d="M540.5 50.5c-41.667 -40.333 -104.5 -60.5 -188.5 -60.5c-86 0 -149.5 21.167 -190.5 63.5s-61.5 107.5 -61.5 195.5v481c0 8 3 12 9 12h38c4 0 6.83301 -0.666992 8.5 -2s2.5 -4.33301 2.5 -9v-501c0 -127.333 65.667 -191 197 -191c66.667 0 116.5 16 149.5 48
s49.5 80.667 49.5 146v499c0 6.66699 3 10 9 10h32c5.33301 0 8 -3.33301 8 -10v-498c0 -82 -20.833 -143.167 -62.5 -183.5zM483 924l0.999023 -3.99902c0 -4 -3 -7 -9 -9l-227 -76c-1.33301 -0.666992 -3 -1 -5 -1c-4 0 -6.33301 2.33301 -7 7l-6 17
c-0.666992 0.666992 -1 2 -1 4c0 3.33301 1.33301 5.66602 4 6.99902l230 94c2 0.666992 3.83301 0.666992 5.5 0s2.83398 -2 3.50098 -4z" />
    <glyph glyph-name="Ucircumflex" unicode="&#xdb;" horiz-adv-x="704" 
d="M540.5 50.5c-41.667 -40.333 -104.5 -60.5 -188.5 -60.5c-86 0 -149.5 21.167 -190.5 63.5s-61.5 107.5 -61.5 195.5v481c0 8 3 12 9 12h38c4 0 6.83301 -0.666992 8.5 -2s2.5 -4.33301 2.5 -9v-501c0 -127.333 65.667 -191 197 -191c66.667 0 116.5 16 149.5 48
s49.5 80.667 49.5 146v499c0 6.66699 3 10 9 10h32c5.33301 0 8 -3.33301 8 -10v-498c0 -82 -20.833 -143.167 -62.5 -183.5zM367 908c-5.33301 4 -8.66699 6.00098 -10 6.00098c-2 0 -5.33301 -2 -10 -6l-61 -49c-2.66699 -2 -5.16699 -3.5 -7.5 -4.5
s-5.16602 -1.5 -8.49902 -1.5h-41c-3.33301 0 -5.33301 1 -6 3s0.666016 4.33301 3.99902 7l100 82c6.66699 6.66699 13.667 10 21 10h23c4.66699 0 8.5 -1.33301 11.5 -4s4.83301 -4.33398 5.5 -5.00098l98 -83c4 -3.33301 6 -5.83301 6 -7.5s-2.33301 -2.5 -7 -2.5h-45
c-5.33301 0 -10.333 2 -15 6z" />
    <glyph glyph-name="Udieresis" unicode="&#xdc;" horiz-adv-x="704" 
d="M540.5 50.5c-41.667 -40.333 -104.5 -60.5 -188.5 -60.5c-86 0 -149.5 21.167 -190.5 63.5s-61.5 107.5 -61.5 195.5v481c0 8 3 12 9 12h38c4 0 6.83301 -0.666992 8.5 -2s2.5 -4.33301 2.5 -9v-501c0 -127.333 65.667 -191 197 -191c66.667 0 116.5 16 149.5 48
s49.5 80.667 49.5 146v499c0 6.66699 3 10 9 10h32c5.33301 0 8 -3.33301 8 -10v-498c0 -82 -20.833 -143.167 -62.5 -183.5zM326 866c0 -4.66699 -0.998047 -8 -2.99805 -10s-5.33301 -3 -10 -3h-33c-4.66699 0 -7.83398 0.833008 -9.50098 2.5s-2.5 4.5 -2.5 8.5v79
c0 4.66699 0.666992 7.66699 2 9s3.66602 2 6.99902 2h39c3.33301 0 5.83301 -0.666992 7.5 -2s2.5 -4 2.5 -8v-78zM445.002 866c0 -4.66699 -0.999023 -8 -2.99902 -10s-5.33301 -3 -10 -3h-33c-4.66699 0 -7.83398 0.833008 -9.50098 2.5s-2.5 4.5 -2.5 8.5v79
c0 4.66699 0.666992 7.66699 2 9s4 2 8 2h38c3.33301 0 5.83301 -0.666992 7.5 -2s2.5 -4 2.5 -8v-78z" />
    <glyph glyph-name="Yacute" unicode="&#xdd;" horiz-adv-x="647" 
d="M599 738.5c1.33301 -2.33301 0.999023 -5.16895 -1.00098 -8.50195l-239 -403c-2 -3.33301 -3.16699 -6.66602 -3.5 -9.99902s-0.5 -7.66602 -0.5 -12.999v-290c0 -5.33301 -1.16699 -9 -3.5 -11s-6.5 -3 -12.5 -3h-29c-8 0 -12 4 -12 12v283c0 7.33301 -2 14.333 -6 21
l-243 413c-1.33301 2 -2 4.33301 -2 7c0 4 3.33301 6 10 6h34c4.66699 0 8.16699 -0.666992 10.5 -2s4.83301 -4 7.5 -8l204 -348c4.66699 -8 9 -12 13 -12c2.66699 0 6.33398 3.33301 11.001 10l203 350c2.66699 4.66699 5 7.5 7 8.5s5.33301 1.5 10 1.5h34
c4 0 6.66699 -1.16699 8 -3.5zM445.999 923.997l0.999023 -3.99902c0 -4 -3 -7 -9 -9l-227 -76c-1.33301 -0.666992 -3 -1 -5 -1c-4 0 -6.33301 2.33301 -7 7l-6 17c-0.666992 0.666992 -1 2 -1 4c0 3.33301 1.33301 5.66602 4 6.99902l230 94
c2 0.666992 3.83301 0.666992 5.5 0s2.83398 -2 3.50098 -4z" />
    <glyph glyph-name="Thorn" unicode="&#xde;" horiz-adv-x="678" 
d="M547.5 230.5c-47 -33.667 -110.499 -50.499 -190.499 -50.499h-181c-6 0 -9 -3.33301 -9 -10v-160c0 -6.66699 -3 -10 -9 -10h-39c-6 0 -9 3 -9 9v722c0 4.66699 0.833008 7.66699 2.5 9s4.16699 2 7.5 2h38c3.33301 0 5.66602 -0.666992 6.99902 -2s2 -4.33301 2 -9
v-145c0 -3.33301 2.33301 -5 7 -5h175c82.667 0 148.167 -15.833 196.5 -47.5s72.5 -79.834 72.5 -144.501c0 -72 -23.5 -124.833 -70.5 -158.5zM504.001 499.501c-36 22.333 -88 33.501 -156 33.501h-171c-6.66699 0 -10 -2.66699 -10 -8v-287
c0 -7.33301 2.66699 -11 8 -11h180c135.333 0 203 54 203 162c0 51.333 -18 88.166 -54 110.499z" />
    <glyph glyph-name="germandbls" unicode="&#xdf;" horiz-adv-x="588" 
d="M432.5 702.5c25 -26.333 37.5029 -58.167 37.5029 -95.5c0 -24.667 -5.16699 -45 -15.5 -61s-21.833 -28 -34.5 -36s-34.334 -20 -65.001 -36c-32 -17.333 -53 -30.333 -63 -39s-15 -20.667 -15 -36s4.83301 -26.166 14.5 -32.499s29.834 -14.5 60.501 -24.5
c36.667 -12 66.5 -23.5 89.5 -34.5s44.167 -28.667 63.5 -53s29 -56.166 29 -95.499c0 -53.333 -18 -94.833 -54 -124.5s-81 -44.5 -135 -44.5c-24 0 -48.5 2.83301 -73.5 8.5s-45.5 13.5 -61.5 23.5c-2.66699 1.33301 -4.33398 2.66602 -5.00098 3.99902
s-0.333984 3.33301 0.999023 6l18 28c1.33301 3.33301 4.66602 3.66602 9.99902 0.999023c16.667 -9.33301 32.667 -16.333 48 -21s33.666 -7 54.999 -7c46 0 82 10.833 108 32.5s39 51.5 39 89.5c0 27.333 -6.66699 49.666 -20 66.999s-30 30.833 -50 40.5
s-45.667 19.5 -77 29.5c-24.667 8 -43.667 15.167 -57 21.5s-25.166 16 -35.499 29s-15.5 30.5 -15.5 52.5c0 24 7.5 44.333 22.5 61s40.5 34 76.5 52c4.66699 2.66699 16.167 8.83398 34.5 18.501s32.333 21.334 42 35.001s14.5 29.5 14.5 47.5
c0 27.333 -10.167 49.166 -30.5 65.499s-48.5 24.5 -84.5 24.5c-46 0 -82.667 -13.833 -110 -41.5s-41 -68.5 -41 -122.5v-524v-3c0 -5.33301 -2.66699 -8 -8 -8h-33c-6 0 -9 3 -9 9v468c0 6.66699 -2.66699 10 -8 10h-59c-4.66699 0 -7 2 -7 6v28c0 4.66699 2.33301 7 7 7
h60c4.66699 0 7 3 7 9c0 62.667 19 112.5 57 149.5s88.667 55.5 152 55.5c55.333 0 95.5 -13.167 120.5 -39.5z" />
    <glyph glyph-name="agrave" unicode="&#xe0;" horiz-adv-x="540" 
d="M216 -10c-52.667 0 -94.1689 13.001 -124.502 39.001s-45.5 61.333 -45.5 106c0 50.667 21 90.667 63 120s104.667 47.666 188 54.999l99 8c11.333 1.33301 17 6.33301 17 15v30c0 40.667 -13.167 73.167 -39.5 97.5s-61.166 36.5 -104.499 36.5
c-64 0 -118 -29.667 -162 -89c-2 -3.33301 -3.66699 -5.33301 -5 -6s-3.33301 -0.333984 -6 0.999023l-31 16c-4 2.66699 -4 6.33398 0 11.001c22 34 50.333 60.833 85 80.5s75.334 29.5 122.001 29.5c58.667 0 105 -15.333 139 -46s51 -72.667 51 -126v-357
c0 -7.33301 -3.66699 -11 -11 -11h-25c-6.66699 0 -10 3.66699 -10 11l-2 57c-0.666992 4 -2 6.16699 -4 6.5s-4.33301 -1.16699 -7 -4.5c-54.667 -53.333 -117 -80 -187 -80zM398.998 278.001l-84 -7c-144.667 -10.667 -217 -54.334 -217 -131.001
c0 -33.333 11.667 -59.333 35 -78s54.666 -28 93.999 -28c23.333 0 46.333 4.16699 69 12.5s43.334 19.833 62.001 34.5c17.333 14 30.833 28.833 40.5 44.5s14.5 30.834 14.5 45.501v92c0 11.333 -4.66699 16.333 -14 15zM139.498 751.001
c1.66699 0.666992 3.49902 0.667969 5.49902 0.000976562l230 -94c4 -2.66699 5 -6.33398 3 -11.001l-6 -17c-0.666992 -3.33301 -2 -5.5 -4 -6.5s-4.66699 -0.833008 -8 0.5l-227 76c-7.33301 2.66699 -10 7 -8 13l11 35c0.666992 2 1.83398 3.33301 3.50098 4z" />
    <glyph glyph-name="aacute" unicode="&#xe1;" horiz-adv-x="540" 
d="M216 -10c-52.667 0 -94.1689 13.001 -124.502 39.001s-45.5 61.333 -45.5 106c0 50.667 21 90.667 63 120s104.667 47.666 188 54.999l99 8c11.333 1.33301 17 6.33301 17 15v30c0 40.667 -13.167 73.167 -39.5 97.5s-61.166 36.5 -104.499 36.5
c-64 0 -118 -29.667 -162 -89c-2 -3.33301 -3.66699 -5.33301 -5 -6s-3.33301 -0.333984 -6 0.999023l-31 16c-4 2.66699 -4 6.33398 0 11.001c22 34 50.333 60.833 85 80.5s75.334 29.5 122.001 29.5c58.667 0 105 -15.333 139 -46s51 -72.667 51 -126v-357
c0 -7.33301 -3.66699 -11 -11 -11h-25c-6.66699 0 -10 3.66699 -10 11l-2 57c-0.666992 4 -2 6.16699 -4 6.5s-4.33301 -1.16699 -7 -4.5c-54.667 -53.333 -117 -80 -187 -80zM398.998 278.001l-84 -7c-144.667 -10.667 -217 -54.334 -217 -131.001
c0 -33.333 11.667 -59.333 35 -78s54.666 -28 93.999 -28c23.333 0 46.333 4.16699 69 12.5s43.334 19.833 62.001 34.5c17.333 14 30.833 28.833 40.5 44.5s14.5 30.834 14.5 45.501v92c0 11.333 -4.66699 16.333 -14 15zM393.998 712.001l0.999023 -3.99902
c0 -4 -3 -7 -9 -9l-227 -76c-1.33301 -0.666992 -3 -1 -5 -1c-4 0 -6.33301 2.33301 -7 7l-6 17c-0.666992 0.666992 -1 2 -1 4c0 3.33301 1.33301 5.66602 4 6.99902l230 94c2 0.666992 3.83301 0.666992 5.5 0s2.83398 -2 3.50098 -4z" />
    <glyph glyph-name="acircumflex" unicode="&#xe2;" horiz-adv-x="540" 
d="M216 -10c-52.667 0 -94.1689 13.001 -124.502 39.001s-45.5 61.333 -45.5 106c0 50.667 21 90.667 63 120s104.667 47.666 188 54.999l99 8c11.333 1.33301 17 6.33301 17 15v30c0 40.667 -13.167 73.167 -39.5 97.5s-61.166 36.5 -104.499 36.5
c-64 0 -118 -29.667 -162 -89c-2 -3.33301 -3.66699 -5.33301 -5 -6s-3.33301 -0.333984 -6 0.999023l-31 16c-4 2.66699 -4 6.33398 0 11.001c22 34 50.333 60.833 85 80.5s75.334 29.5 122.001 29.5c58.667 0 105 -15.333 139 -46s51 -72.667 51 -126v-357
c0 -7.33301 -3.66699 -11 -11 -11h-25c-6.66699 0 -10 3.66699 -10 11l-2 57c-0.666992 4 -2 6.16699 -4 6.5s-4.33301 -1.16699 -7 -4.5c-54.667 -53.333 -117 -80 -187 -80zM398.998 278.001l-84 -7c-144.667 -10.667 -217 -54.334 -217 -131.001
c0 -33.333 11.667 -59.333 35 -78s54.666 -28 93.999 -28c23.333 0 46.333 4.16699 69 12.5s43.334 19.833 62.001 34.5c17.333 14 30.833 28.833 40.5 44.5s14.5 30.834 14.5 45.501v92c0 11.333 -4.66699 16.333 -14 15zM277.998 696.001
c-5.33301 4 -8.66699 6.00098 -10 6.00098c-2 0 -5.33301 -2 -10 -6l-61 -49c-2.66699 -2 -5.16699 -3.5 -7.5 -4.5s-5.16602 -1.5 -8.49902 -1.5h-41c-3.33301 0 -5.33301 1 -6 3s0.666016 4.33301 3.99902 7l100 82c6.66699 6.66699 13.667 10 21 10h23
c4.66699 0 8.5 -1.33301 11.5 -4s4.83301 -4.33398 5.5 -5.00098l98 -83c4 -3.33301 6 -5.83301 6 -7.5s-2.33301 -2.5 -7 -2.5h-45c-5.33301 0 -10.333 2 -15 6z" />
    <glyph glyph-name="atilde" unicode="&#xe3;" horiz-adv-x="540" 
d="M216 -10c-52.667 0 -94.1689 13.001 -124.502 39.001s-45.5 61.333 -45.5 106c0 50.667 21 90.667 63 120s104.667 47.666 188 54.999l99 8c11.333 1.33301 17 6.33301 17 15v30c0 40.667 -13.167 73.167 -39.5 97.5s-61.166 36.5 -104.499 36.5
c-64 0 -118 -29.667 -162 -89c-2 -3.33301 -3.66699 -5.33301 -5 -6s-3.33301 -0.333984 -6 0.999023l-31 16c-4 2.66699 -4 6.33398 0 11.001c22 34 50.333 60.833 85 80.5s75.334 29.5 122.001 29.5c58.667 0 105 -15.333 139 -46s51 -72.667 51 -126v-357
c0 -7.33301 -3.66699 -11 -11 -11h-25c-6.66699 0 -10 3.66699 -10 11l-2 57c-0.666992 4 -2 6.16699 -4 6.5s-4.33301 -1.16699 -7 -4.5c-54.667 -53.333 -117 -80 -187 -80zM398.998 278.001l-84 -7c-144.667 -10.667 -217 -54.334 -217 -131.001
c0 -33.333 11.667 -59.333 35 -78s54.666 -28 93.999 -28c23.333 0 46.333 4.16699 69 12.5s43.334 19.833 62.001 34.5c17.333 14 30.833 28.833 40.5 44.5s14.5 30.834 14.5 45.501v92c0 11.333 -4.66699 16.333 -14 15zM326.998 669.001
c-12 0 -22.666 1.16602 -31.999 3.49902s-20.333 5.5 -33 9.5c-19.333 7.33301 -36.666 11 -51.999 11c-11.333 0 -20.5 -1.33301 -27.5 -4s-13 -5.66699 -18 -9s-8.83301 -5.66602 -11.5 -6.99902s-4.66699 -2 -6 -2c-2 0 -4 2 -6 6l-7 19
c-0.666992 2 -0.833984 3.66699 -0.500977 5s1.16602 2.66602 2.49902 3.99902c12 8.66699 23.167 15.334 33.5 20.001s22.5 7 36.5 7c16.667 0 37.334 -4.33301 62.001 -13c25.333 -8 45.333 -12 60 -12c10.667 0 19.5 1.16699 26.5 3.5s15.5 6.5 25.5 12.5
c3.33301 2 5.66602 3 6.99902 3c2 0 4 -2 6 -6l9 -21c0.666992 -0.666992 1 -1.66699 1 -3c0 -2.66699 -2.33301 -5 -7 -7c-19.333 -13.333 -42.333 -20 -69 -20z" />
    <glyph glyph-name="adieresis" unicode="&#xe4;" horiz-adv-x="540" 
d="M216 -10c-52.667 0 -94.1689 13.001 -124.502 39.001s-45.5 61.333 -45.5 106c0 50.667 21 90.667 63 120s104.667 47.666 188 54.999l99 8c11.333 1.33301 17 6.33301 17 15v30c0 40.667 -13.167 73.167 -39.5 97.5s-61.166 36.5 -104.499 36.5
c-64 0 -118 -29.667 -162 -89c-2 -3.33301 -3.66699 -5.33301 -5 -6s-3.33301 -0.333984 -6 0.999023l-31 16c-4 2.66699 -4 6.33398 0 11.001c22 34 50.333 60.833 85 80.5s75.334 29.5 122.001 29.5c58.667 0 105 -15.333 139 -46s51 -72.667 51 -126v-357
c0 -7.33301 -3.66699 -11 -11 -11h-25c-6.66699 0 -10 3.66699 -10 11l-2 57c-0.666992 4 -2 6.16699 -4 6.5s-4.33301 -1.16699 -7 -4.5c-54.667 -53.333 -117 -80 -187 -80zM398.998 278.001l-84 -7c-144.667 -10.667 -217 -54.334 -217 -131.001
c0 -33.333 11.667 -59.333 35 -78s54.666 -28 93.999 -28c23.333 0 46.333 4.16699 69 12.5s43.334 19.833 62.001 34.5c17.333 14 30.833 28.833 40.5 44.5s14.5 30.834 14.5 45.501v92c0 11.333 -4.66699 16.333 -14 15zM236.998 654.001
c0 -4.66699 -0.998047 -8 -2.99805 -10s-5.33301 -3 -10 -3h-33c-4.66699 0 -7.83398 0.833008 -9.50098 2.5s-2.5 4.5 -2.5 8.5v79c0 4.66699 0.666992 7.66699 2 9s3.66602 2 6.99902 2h39c3.33301 0 5.83301 -0.666992 7.5 -2s2.5 -4 2.5 -8v-78zM356 654.001
c0 -4.66699 -0.999023 -8 -2.99902 -10s-5.33301 -3 -10 -3h-33c-4.66699 0 -7.83398 0.833008 -9.50098 2.5s-2.5 4.5 -2.5 8.5v79c0 4.66699 0.666992 7.66699 2 9s4 2 8 2h38c3.33301 0 5.83301 -0.666992 7.5 -2s2.5 -4 2.5 -8v-78z" />
    <glyph glyph-name="aring" unicode="&#xe5;" horiz-adv-x="540" 
d="M216 -10c-52.667 0 -94.1689 13.001 -124.502 39.001s-45.5 61.333 -45.5 106c0 50.667 21 90.667 63 120s104.667 47.666 188 54.999l99 8c11.333 1.33301 17 6.33301 17 15v30c0 40.667 -13.167 73.167 -39.5 97.5s-61.166 36.5 -104.499 36.5
c-64 0 -118 -29.667 -162 -89c-2 -3.33301 -3.66699 -5.33301 -5 -6s-3.33301 -0.333984 -6 0.999023l-31 16c-4 2.66699 -4 6.33398 0 11.001c22 34 50.333 60.833 85 80.5s75.334 29.5 122.001 29.5c58.667 0 105 -15.333 139 -46s51 -72.667 51 -126v-357
c0 -7.33301 -3.66699 -11 -11 -11h-25c-6.66699 0 -10 3.66699 -10 11l-2 57c-0.666992 4 -2 6.16699 -4 6.5s-4.33301 -1.16699 -7 -4.5c-54.667 -53.333 -117 -80 -187 -80zM398.998 278.001l-84 -7c-144.667 -10.667 -217 -54.334 -217 -131.001
c0 -33.333 11.667 -59.333 35 -78s54.666 -28 93.999 -28c23.333 0 46.333 4.16699 69 12.5s43.334 19.833 62.001 34.5c17.333 14 30.833 28.833 40.5 44.5s14.5 30.834 14.5 45.501v92c0 11.333 -4.66699 16.333 -14 15zM339.998 629.001
c-19.333 -19.333 -43.333 -29.001 -72 -29.001c-28 0 -51.833 9.83301 -71.5 29.5s-29.5 44.167 -29.5 73.5c0 26.667 10 49.5 30 68.5s43.667 28.5 71 28.5c28.667 0 52.667 -9.66699 72 -29s29 -42.666 29 -69.999c0 -28.667 -9.66699 -52.667 -29 -72zM307.998 741.5
c-10.667 11 -24.333 16.5 -41 16.5c-16 0 -29.667 -5.5 -41 -16.5s-17 -24.833 -17 -41.5c0 -15.333 5.83301 -29 17.5 -41s25.167 -18 40.5 -18c16 0 29.5 5.83301 40.5 17.5s16.5 25.5 16.5 41.5c0 16.667 -5.33301 30.5 -16 41.5z" />
    <glyph glyph-name="ae" unicode="&#xe6;" horiz-adv-x="929" 
d="M460.5 247c-2.33301 -3.33301 -3.50293 -9.99609 -3.50293 -19.9961c0 -30.667 8.83301 -61 26.5 -91s41.334 -54.5 71.001 -73.5s61.834 -28.5 96.501 -28.5c44.667 0 79.5 8.16699 104.5 24.5s47.5 38.5 67.5 66.5c2.66699 3.33301 4.66699 5.16602 6 5.49902
s3.33301 -0.5 6 -2.5l26 -16c4 -2.66699 4.33301 -6.33398 1 -11.001c-18.667 -33.333 -47 -60.166 -85 -80.499s-81 -30.5 -129 -30.5c-52.667 0 -94.5 11.167 -125.5 33.5s-57.5 49.833 -79.5 82.5c-1.33301 1.33301 -2.5 2 -3.5 2s-1.83301 -0.666992 -2.5 -2
c-26.667 -34 -56.667 -61.833 -90 -83.5s-78 -32.5 -134 -32.5c-52.667 0 -93.667 13 -123 39s-44 61.667 -44 107c0 50 20 89.667 60 119s100.667 47.333 182 54l107 9c12 1.33301 18 6.33301 18 15v30c0 41.333 -12.833 74 -38.5 98s-62.167 36 -109.5 36
c-60.667 0 -113.667 -29.667 -159 -89c-2.66699 -3.33301 -4.66699 -5.33301 -6 -6s-3.33301 -0.333984 -6 0.999023l-29 16c-3.33301 2 -3.33301 5.66699 0 11c20.667 34.667 49.167 61.667 85.5 81s76.833 29 121.5 29c49.333 0 88.333 -9.33301 117 -28
s48.334 -47.334 59.001 -86.001c20 37.333 47.167 65.666 81.5 84.999s74.5 29 120.5 29c46.667 0 87.334 -10.5 122.001 -31.5s61.667 -51.5 81 -91.5s29 -88 29 -144c0 -6.66699 -1.33301 -11.667 -4 -15s-7.33398 -5.33301 -14.001 -6h-387
c-8.66699 0 -14.167 -1.66699 -16.5 -5zM551.997 472.004c-28.667 -16.667 -51.3311 -40.5 -67.998 -71.5s-25 -66.5 -25 -106.5l354 -1c7.33301 0 12 1.16699 14 3.5s3 6.5 3 12.5c0 34 -7.83301 65.333 -23.5 94s-37.334 51.5 -65.001 68.5s-58.834 25.5 -93.501 25.5
c-35.333 0 -67.333 -8.33301 -96 -25zM409.5 273.504c-2.33301 2.33301 -6.5 3.16699 -12.5 2.5l-89 -6c-70.667 -6 -123.167 -19.833 -157.5 -41.5s-51.5 -51.5 -51.5 -89.5c0 -31.333 10.5 -56.666 31.5 -75.999s49.833 -29 86.5 -29c35.333 0 68 6.5 98 19.5
s53.833 30.333 71.5 52s26.5 45.167 26.5 70.5v86c0 5.33301 -1.16699 9.16602 -3.5 11.499z" />
    <glyph glyph-name="ccedilla" unicode="&#xe7;" horiz-adv-x="538" 
d="M503 110c-22 -36.667 -49.3311 -65.1641 -81.998 -85.4971s-69.667 -31.833 -111 -34.5l-17 -44c-0.666992 -2.66699 0.333008 -4 3 -4c28 -2 48 -9.83301 60 -23.5s18 -29.834 18 -48.501c0 -24 -9.66699 -42.5 -29 -55.5s-43.666 -19.5 -72.999 -19.5s-55 7 -77 21
c-2.66699 1.33301 -3.66699 3.66602 -3 6.99902l10 21c1.33301 2.66699 3.66602 3 6.99902 1c8 -6 16.167 -10.5 24.5 -13.5s19.166 -4.5 32.499 -4.5c40 0 60 14 60 42c0 15.333 -6.33301 26.666 -19 33.999s-32.334 11.666 -59.001 12.999
c-4.66699 0 -6.33398 1.66699 -5.00098 5l30 70c-43.333 3.33301 -81.5 16.833 -114.5 40.5s-58.667 55.5 -77 95.5s-27.5 85.333 -27.5 136c0 53.333 10.333 101 31 143s49.334 74.833 86.001 98.5s78.334 35.5 125.001 35.5c84 0 150.333 -37 199 -111
c2 -3.33301 2.83301 -5.66602 2.5 -6.99902s-1.5 -2.66602 -3.5 -3.99902l-31 -15c-0.666992 -0.666992 -2 -1 -4 -1s-4.66699 1.66699 -8 5c-26 32.667 -50.5 55.834 -73.5 69.501s-48.5 20.5 -76.5 20.5c-38.667 0 -72.834 -9.66699 -102.501 -29s-52.5 -46.5 -68.5 -81.5
s-24 -75.5 -24 -121.5s8 -86.5 24 -121.5s38.833 -62.167 68.5 -81.5s63.834 -29 102.501 -29c33.333 0 63.166 8.16699 89.499 24.5s50.5 41.166 72.5 74.499c2 3.33301 3.66699 5.16602 5 5.49902s3 -0.166992 5 -1.5l28 -15c3.33301 -2 4 -5.66699 2 -11z" />
    <glyph glyph-name="egrave" unicode="&#xe8;" 
d="M132 137c17.333 -31.333 41.001 -56.3311 71.001 -74.998s62.667 -28 98 -28c76 0 133 30.333 171 91c4 5.33301 7.66699 6.33301 11 3l28 -16c3.33301 -2.66699 3.66602 -6.33398 0.999023 -11.001c-47.333 -74 -118.333 -111 -213 -111c-48 0 -90.5 11.333 -127.5 34
s-65.833 54.5 -86.5 95.5s-31 88.167 -31 141.5c0 56.667 10.5 106.167 31.5 148.5s50 74.666 87 96.999s79.167 33.5 126.5 33.5c71.333 0 127.833 -23.5 169.5 -70.5s62.5 -112.5 62.5 -196.5v-6c0 -4.66699 -0.833008 -8.16699 -2.5 -10.5s-5.5 -3.83301 -11.5 -4.5h-404
c-4.66699 0 -7 -4.66699 -7 -14c0 -36 8.66699 -69.667 26 -101zM462.001 293.002c6.66699 0 11.167 0.999023 13.5 2.99902s3.5 5.66699 3.5 11c0 34.667 -7.33301 66.5 -22 95.5s-35.667 52 -63 69s-59 25.5 -95 25.5c-40 0 -74.667 -10 -104 -30s-51.5 -45.667 -66.5 -77
s-22.167 -63.666 -21.5 -96.999h355zM168.501 751.001c1.66699 0.666992 3.49902 0.667969 5.49902 0.000976562l230 -94c4 -2.66699 5 -6.33398 3 -11.001l-6 -17c-0.666992 -3.33301 -2 -5.5 -4 -6.5s-4.66699 -0.833008 -8 0.5l-227 76c-7.33301 2.66699 -10 7 -8 13
l11 35c0.666992 2 1.83398 3.33301 3.50098 4z" />
    <glyph glyph-name="eacute" unicode="&#xe9;" 
d="M132 137c17.333 -31.333 41.001 -56.3311 71.001 -74.998s62.667 -28 98 -28c76 0 133 30.333 171 91c4 5.33301 7.66699 6.33301 11 3l28 -16c3.33301 -2.66699 3.66602 -6.33398 0.999023 -11.001c-47.333 -74 -118.333 -111 -213 -111c-48 0 -90.5 11.333 -127.5 34
s-65.833 54.5 -86.5 95.5s-31 88.167 -31 141.5c0 56.667 10.5 106.167 31.5 148.5s50 74.666 87 96.999s79.167 33.5 126.5 33.5c71.333 0 127.833 -23.5 169.5 -70.5s62.5 -112.5 62.5 -196.5v-6c0 -4.66699 -0.833008 -8.16699 -2.5 -10.5s-5.5 -3.83301 -11.5 -4.5h-404
c-4.66699 0 -7 -4.66699 -7 -14c0 -36 8.66699 -69.667 26 -101zM462.001 293.002c6.66699 0 11.167 0.999023 13.5 2.99902s3.5 5.66699 3.5 11c0 34.667 -7.33301 66.5 -22 95.5s-35.667 52 -63 69s-59 25.5 -95 25.5c-40 0 -74.667 -10 -104 -30s-51.5 -45.667 -66.5 -77
s-22.167 -63.666 -21.5 -96.999h355zM423.001 712.001l0.999023 -3.99902c0 -4 -3 -7 -9 -9l-227 -76c-1.33301 -0.666992 -3 -1 -5 -1c-4 0 -6.33301 2.33301 -7 7l-6 17c-0.666992 0.666992 -1 2 -1 4c0 3.33301 1.33301 5.66602 4 6.99902l230 94
c2 0.666992 3.83301 0.666992 5.5 0s2.83398 -2 3.50098 -4z" />
    <glyph glyph-name="ecircumflex" unicode="&#xea;" 
d="M132 137c17.333 -31.333 41.001 -56.3311 71.001 -74.998s62.667 -28 98 -28c76 0 133 30.333 171 91c4 5.33301 7.66699 6.33301 11 3l28 -16c3.33301 -2.66699 3.66602 -6.33398 0.999023 -11.001c-47.333 -74 -118.333 -111 -213 -111c-48 0 -90.5 11.333 -127.5 34
s-65.833 54.5 -86.5 95.5s-31 88.167 -31 141.5c0 56.667 10.5 106.167 31.5 148.5s50 74.666 87 96.999s79.167 33.5 126.5 33.5c71.333 0 127.833 -23.5 169.5 -70.5s62.5 -112.5 62.5 -196.5v-6c0 -4.66699 -0.833008 -8.16699 -2.5 -10.5s-5.5 -3.83301 -11.5 -4.5h-404
c-4.66699 0 -7 -4.66699 -7 -14c0 -36 8.66699 -69.667 26 -101zM462.001 293.002c6.66699 0 11.167 0.999023 13.5 2.99902s3.5 5.66699 3.5 11c0 34.667 -7.33301 66.5 -22 95.5s-35.667 52 -63 69s-59 25.5 -95 25.5c-40 0 -74.667 -10 -104 -30s-51.5 -45.667 -66.5 -77
s-22.167 -63.666 -21.5 -96.999h355zM307.001 696.001c-5.33301 4 -8.66699 6.00098 -10 6.00098c-2 0 -5.33301 -2 -10 -6l-61 -49c-2.66699 -2 -5.16699 -3.5 -7.5 -4.5s-5.16602 -1.5 -8.49902 -1.5h-41c-3.33301 0 -5.33301 1 -6 3s0.666016 4.33301 3.99902 7l100 82
c6.66699 6.66699 13.667 10 21 10h23c4.66699 0 8.5 -1.33301 11.5 -4s4.83301 -4.33398 5.5 -5.00098l98 -83c4 -3.33301 6 -5.83301 6 -7.5s-2.33301 -2.5 -7 -2.5h-45c-5.33301 0 -10.333 2 -15 6z" />
    <glyph glyph-name="edieresis" unicode="&#xeb;" 
d="M132 137c17.333 -31.333 41.001 -56.3311 71.001 -74.998s62.667 -28 98 -28c76 0 133 30.333 171 91c4 5.33301 7.66699 6.33301 11 3l28 -16c3.33301 -2.66699 3.66602 -6.33398 0.999023 -11.001c-47.333 -74 -118.333 -111 -213 -111c-48 0 -90.5 11.333 -127.5 34
s-65.833 54.5 -86.5 95.5s-31 88.167 -31 141.5c0 56.667 10.5 106.167 31.5 148.5s50 74.666 87 96.999s79.167 33.5 126.5 33.5c71.333 0 127.833 -23.5 169.5 -70.5s62.5 -112.5 62.5 -196.5v-6c0 -4.66699 -0.833008 -8.16699 -2.5 -10.5s-5.5 -3.83301 -11.5 -4.5h-404
c-4.66699 0 -7 -4.66699 -7 -14c0 -36 8.66699 -69.667 26 -101zM462.001 293.002c6.66699 0 11.167 0.999023 13.5 2.99902s3.5 5.66699 3.5 11c0 34.667 -7.33301 66.5 -22 95.5s-35.667 52 -63 69s-59 25.5 -95 25.5c-40 0 -74.667 -10 -104 -30s-51.5 -45.667 -66.5 -77
s-22.167 -63.666 -21.5 -96.999h355zM266.001 654.001c0 -4.66699 -0.998047 -8 -2.99805 -10s-5.33301 -3 -10 -3h-33c-4.66699 0 -7.83398 0.833008 -9.50098 2.5s-2.5 4.5 -2.5 8.5v79c0 4.66699 0.666992 7.66699 2 9s3.66602 2 6.99902 2h39
c3.33301 0 5.83301 -0.666992 7.5 -2s2.5 -4 2.5 -8v-78zM385.003 654.001c0 -4.66699 -0.999023 -8 -2.99902 -10s-5.33301 -3 -10 -3h-33c-4.66699 0 -7.83398 0.833008 -9.50098 2.5s-2.5 4.5 -2.5 8.5v79c0 4.66699 0.666992 7.66699 2 9s4 2 8 2h38
c3.33301 0 5.83301 -0.666992 7.5 -2s2.5 -4 2.5 -8v-78z" />
    <glyph glyph-name="igrave" unicode="&#xec;" horiz-adv-x="226" 
d="M138 13c0 -5.33301 -0.832031 -8.83301 -2.49902 -10.5s-5.16699 -2.5 -10.5 -2.5h-25c-4.66699 0 -7.83398 0.666992 -9.50098 2s-2.5 4.33301 -2.5 9v508c0 4.66699 0.666992 7.66699 2 9s4 2 8 2h30c4 0 6.66699 -0.666992 8 -2s2 -4.33301 2 -9v-506zM-15.499 751
c1.66699 0.666992 3.49902 0.667969 5.49902 0.000976562l230 -94c4 -2.66699 5 -6.33398 3 -11.001l-6 -17c-0.666992 -3.33301 -2 -5.5 -4 -6.5s-4.66699 -0.833008 -8 0.5l-227 76c-7.33301 2.66699 -10 7 -8 13l11 35c0.666992 2 1.83398 3.33301 3.50098 4z" />
    <glyph glyph-name="iacute" unicode="&#xed;" horiz-adv-x="226" 
d="M138 13c0 -5.33301 -0.832031 -8.83301 -2.49902 -10.5s-5.16699 -2.5 -10.5 -2.5h-25c-4.66699 0 -7.83398 0.666992 -9.50098 2s-2.5 4.33301 -2.5 9v508c0 4.66699 0.666992 7.66699 2 9s4 2 8 2h30c4 0 6.66699 -0.666992 8 -2s2 -4.33301 2 -9v-506zM239.001 712
l0.999023 -3.99902c0 -4 -3 -7 -9 -9l-227 -76c-1.33301 -0.666992 -3 -1 -5 -1c-4 0 -6.33301 2.33301 -7 7l-6 17c-0.666992 0.666992 -1 2 -1 4c0 3.33301 1.33301 5.66602 4 6.99902l230 94c2 0.666992 3.83301 0.666992 5.5 0s2.83398 -2 3.50098 -4z" />
    <glyph glyph-name="icircumflex" unicode="&#xee;" horiz-adv-x="226" 
d="M138 13c0 -5.33301 -0.832031 -8.83301 -2.49902 -10.5s-5.16699 -2.5 -10.5 -2.5h-25c-4.66699 0 -7.83398 0.666992 -9.50098 2s-2.5 4.33301 -2.5 9v508c0 4.66699 0.666992 7.66699 2 9s4 2 8 2h30c4 0 6.66699 -0.666992 8 -2s2 -4.33301 2 -9v-506zM123.001 696
c-5.33301 4 -8.66699 6.00098 -10 6.00098c-2 0 -5.33301 -2 -10 -6l-61 -49c-2.66699 -2 -5.16699 -3.5 -7.5 -4.5s-5.16602 -1.5 -8.49902 -1.5h-41c-3.33301 0 -5.33301 1 -6 3s0.666016 4.33301 3.99902 7l100 82c6.66699 6.66699 13.667 10 21 10h23
c4.66699 0 8.5 -1.33301 11.5 -4s4.83301 -4.33398 5.5 -5.00098l98 -83c4 -3.33301 6 -5.83301 6 -7.5s-2.33301 -2.5 -7 -2.5h-45c-5.33301 0 -10.333 2 -15 6z" />
    <glyph glyph-name="idieresis" unicode="&#xef;" horiz-adv-x="226" 
d="M138 13c0 -5.33301 -0.832031 -8.83301 -2.49902 -10.5s-5.16699 -2.5 -10.5 -2.5h-25c-4.66699 0 -7.83398 0.666992 -9.50098 2s-2.5 4.33301 -2.5 9v508c0 4.66699 0.666992 7.66699 2 9s4 2 8 2h30c4 0 6.66699 -0.666992 8 -2s2 -4.33301 2 -9v-506zM82.001 654
c0 -4.66699 -0.998047 -8 -2.99805 -10s-5.33301 -3 -10 -3h-33c-4.66699 0 -7.83398 0.833008 -9.50098 2.5s-2.5 4.5 -2.5 8.5v79c0 4.66699 0.666992 7.66699 2 9s3.66602 2 6.99902 2h39c3.33301 0 5.83301 -0.666992 7.5 -2s2.5 -4 2.5 -8v-78zM201.003 654
c0 -4.66699 -0.999023 -8 -2.99902 -10s-5.33301 -3 -10 -3h-33c-4.66699 0 -7.83398 0.833008 -9.50098 2.5s-2.5 4.5 -2.5 8.5v79c0 4.66699 0.666992 7.66699 2 9s4 2 8 2h38c3.33301 0 5.83301 -0.666992 7.5 -2s2.5 -4 2.5 -8v-78z" />
    <glyph glyph-name="eth" unicode="&#xf0;" horiz-adv-x="598" 
d="M514.5 118.5c-19.667 -40.333 -48.1689 -71.835 -85.502 -94.502s-81.333 -34 -132 -34c-48 0 -90.333 11.167 -127 33.5s-65.167 53.333 -85.5 93s-30.5 84.834 -30.5 135.501c0 51.333 10.167 97.333 30.5 138s48.5 72.5 84.5 95.5s76.667 34.5 122 34.5
c32.667 0 62.667 -5.5 90 -16.5s51.333 -26.833 72 -47.5c-32 74 -86.667 136.667 -164 188l-163 -92c-1.33301 -0.666992 -3 -1 -5 -1c-3.33301 0 -6.33301 2 -9 6l-9 15c-3.33301 4.66699 -3 8.33398 1 11.001l150 84c-38 21.333 -75 39 -111 53
c-2.66699 1.33301 -4.16699 3 -4.5 5s0.833984 4 3.50098 6l22 16c1.33301 0.666992 2.83301 1.5 4.5 2.5s3.5 1.5 5.5 1.5c3.33301 0 6 -0.666992 8 -2c42.667 -16.667 81.334 -35.334 116.001 -56.001l102 57c2 0.666992 4 1 6 1s3.33301 -0.666992 4 -2l13 -23
c2.66699 -3.33301 2 -6 -2 -8l-87 -49c74 -50.667 127.5 -110.167 160.5 -178.5s49.5 -146.166 49.5 -233.499c0 -52 -9.83301 -98.167 -29.5 -138.5zM399.498 62.998c29 19.333 51.666 45.6689 67.999 79.002s24.5 70.666 24.5 111.999s-8.33301 79 -25 113
s-39.667 60.833 -69 80.5s-62 29.5 -98 29.5s-68.833 -9.83301 -98.5 -29.5s-53 -46.667 -70 -81s-25.5 -71.833 -25.5 -112.5s8.5 -77.834 25.5 -111.501s40.333 -60.167 70 -79.5s62.834 -29 99.501 -29s69.5 9.66699 98.5 29z" />
    <glyph glyph-name="ntilde" unicode="&#xf1;" 
d="M88 10l0.00195312 509.998c0 6.66699 3 10 9 10h29c3.33301 0 5.66602 -0.666992 6.99902 -2s2 -3.66602 2 -6.99902v-61c0 -3.33301 0.666992 -5.33301 2 -6s3.33301 0.333008 6 3c42 30.667 76.167 52.167 102.5 64.5s56.166 18.5 89.499 18.5c52 0 92 -13.333 120 -40
s42 -62.667 42 -108v-381c0 -7.33301 -3.66699 -11 -11 -11h-29c-6.66699 0 -10 3.33301 -10 10v365c0 80.667 -39.667 121 -119 121c-32 0 -61.167 -6.66699 -87.5 -20s-60.5 -36.666 -102.5 -69.999v-396c0 -6.66699 -3.66699 -10 -11 -10h-29
c-6.66699 -0 -10 3.33301 -10 10zM362.002 668.998c-12 0 -22.666 1.16602 -31.999 3.49902s-20.333 5.5 -33 9.5c-19.333 7.33301 -36.666 11 -51.999 11c-11.333 0 -20.5 -1.33301 -27.5 -4s-13 -5.66699 -18 -9s-8.83301 -5.66602 -11.5 -6.99902s-4.66699 -2 -6 -2
c-2 0 -4 2 -6 6l-7 19c-0.666992 2 -0.833984 3.66699 -0.500977 5s1.16602 2.66602 2.49902 3.99902c12 8.66699 23.167 15.334 33.5 20.001s22.5 7 36.5 7c16.667 0 37.334 -4.33301 62.001 -13c25.333 -8 45.333 -12 60 -12c10.667 0 19.5 1.16699 26.5 3.5
s15.5 6.5 25.5 12.5c3.33301 2 5.66602 3 6.99902 3c2 0 4 -2 6 -6l9 -21c0.666992 -0.666992 1 -1.66699 1 -3c0 -2.66699 -2.33301 -5 -7 -7c-19.333 -13.333 -42.333 -20 -69 -20z" />
    <glyph glyph-name="ograve" unicode="&#xf2;" horiz-adv-x="598" 
d="M170.5 24.5c-37 23 -65.667 55 -86 96s-30.5 88.167 -30.5 141.5c0 54 10.333 102 31 144s49.667 74.833 87 98.5s80 35.5 128 35.5s90.5 -11.667 127.5 -35s65.667 -56 86 -98s30.5 -89.667 30.5 -143s-10.167 -100.833 -30.5 -142.5s-49 -74 -86 -97
s-79.833 -34.5 -128.5 -34.5s-91.5 11.5 -128.5 34.5zM441 96.5c34 41.667 51 97.499 51 167.499c0 70.667 -17.333 127.167 -52 169.5s-81.334 63.5 -140.001 63.5c-39.333 0 -73.666 -9.66699 -102.999 -29s-51.833 -46.666 -67.5 -81.999s-23.5 -76 -23.5 -122
c0 -70 17.5 -125.833 52.5 -167.5s82.5 -62.5 142.5 -62.5c59.333 0 106 20.833 140 62.5zM172.5 750.999c1.66699 0.666992 3.49902 0.667969 5.49902 0.000976562l230 -94c4 -2.66699 5 -6.33398 3 -11.001l-6 -17c-0.666992 -3.33301 -2 -5.5 -4 -6.5
s-4.66699 -0.833008 -8 0.5l-227 76c-7.33301 2.66699 -10 7 -8 13l11 35c0.666992 2 1.83398 3.33301 3.50098 4z" />
    <glyph glyph-name="oacute" unicode="&#xf3;" horiz-adv-x="598" 
d="M170.5 24.5c-37 23 -65.667 55 -86 96s-30.5 88.167 -30.5 141.5c0 54 10.333 102 31 144s49.667 74.833 87 98.5s80 35.5 128 35.5s90.5 -11.667 127.5 -35s65.667 -56 86 -98s30.5 -89.667 30.5 -143s-10.167 -100.833 -30.5 -142.5s-49 -74 -86 -97
s-79.833 -34.5 -128.5 -34.5s-91.5 11.5 -128.5 34.5zM441 96.5c34 41.667 51 97.499 51 167.499c0 70.667 -17.333 127.167 -52 169.5s-81.334 63.5 -140.001 63.5c-39.333 0 -73.666 -9.66699 -102.999 -29s-51.833 -46.666 -67.5 -81.999s-23.5 -76 -23.5 -122
c0 -70 17.5 -125.833 52.5 -167.5s82.5 -62.5 142.5 -62.5c59.333 0 106 20.833 140 62.5zM427 711.999l0.999023 -3.99902c0 -4 -3 -7 -9 -9l-227 -76c-1.33301 -0.666992 -3 -1 -5 -1c-4 0 -6.33301 2.33301 -7 7l-6 17c-0.666992 0.666992 -1 2 -1 4
c0 3.33301 1.33301 5.66602 4 6.99902l230 94c2 0.666992 3.83301 0.666992 5.5 0s2.83398 -2 3.50098 -4z" />
    <glyph glyph-name="ocircumflex" unicode="&#xf4;" horiz-adv-x="598" 
d="M170.5 24.5c-37 23 -65.667 55 -86 96s-30.5 88.167 -30.5 141.5c0 54 10.333 102 31 144s49.667 74.833 87 98.5s80 35.5 128 35.5s90.5 -11.667 127.5 -35s65.667 -56 86 -98s30.5 -89.667 30.5 -143s-10.167 -100.833 -30.5 -142.5s-49 -74 -86 -97
s-79.833 -34.5 -128.5 -34.5s-91.5 11.5 -128.5 34.5zM441 96.5c34 41.667 51 97.499 51 167.499c0 70.667 -17.333 127.167 -52 169.5s-81.334 63.5 -140.001 63.5c-39.333 0 -73.666 -9.66699 -102.999 -29s-51.833 -46.666 -67.5 -81.999s-23.5 -76 -23.5 -122
c0 -70 17.5 -125.833 52.5 -167.5s82.5 -62.5 142.5 -62.5c59.333 0 106 20.833 140 62.5zM311 695.999c-5.33301 4 -8.66699 6.00098 -10 6.00098c-2 0 -5.33301 -2 -10 -6l-61 -49c-2.66699 -2 -5.16699 -3.5 -7.5 -4.5s-5.16602 -1.5 -8.49902 -1.5h-41
c-3.33301 0 -5.33301 1 -6 3s0.666016 4.33301 3.99902 7l100 82c6.66699 6.66699 13.667 10 21 10h23c4.66699 0 8.5 -1.33301 11.5 -4s4.83301 -4.33398 5.5 -5.00098l98 -83c4 -3.33301 6 -5.83301 6 -7.5s-2.33301 -2.5 -7 -2.5h-45c-5.33301 0 -10.333 2 -15 6z" />
    <glyph glyph-name="otilde" unicode="&#xf5;" horiz-adv-x="598" 
d="M170.5 24.5c-37 23 -65.667 55 -86 96s-30.5 88.167 -30.5 141.5c0 54 10.333 102 31 144s49.667 74.833 87 98.5s80 35.5 128 35.5s90.5 -11.667 127.5 -35s65.667 -56 86 -98s30.5 -89.667 30.5 -143s-10.167 -100.833 -30.5 -142.5s-49 -74 -86 -97
s-79.833 -34.5 -128.5 -34.5s-91.5 11.5 -128.5 34.5zM441 96.5c34 41.667 51 97.499 51 167.499c0 70.667 -17.333 127.167 -52 169.5s-81.334 63.5 -140.001 63.5c-39.333 0 -73.666 -9.66699 -102.999 -29s-51.833 -46.666 -67.5 -81.999s-23.5 -76 -23.5 -122
c0 -70 17.5 -125.833 52.5 -167.5s82.5 -62.5 142.5 -62.5c59.333 0 106 20.833 140 62.5zM360 668.999c-12 0 -22.666 1.16602 -31.999 3.49902s-20.333 5.5 -33 9.5c-19.333 7.33301 -36.666 11 -51.999 11c-11.333 0 -20.5 -1.33301 -27.5 -4s-13 -5.66699 -18 -9
s-8.83301 -5.66602 -11.5 -6.99902s-4.66699 -2 -6 -2c-2 0 -4 2 -6 6l-7 19c-0.666992 2 -0.833984 3.66699 -0.500977 5s1.16602 2.66602 2.49902 3.99902c12 8.66699 23.167 15.334 33.5 20.001s22.5 7 36.5 7c16.667 0 37.334 -4.33301 62.001 -13
c25.333 -8 45.333 -12 60 -12c10.667 0 19.5 1.16699 26.5 3.5s15.5 6.5 25.5 12.5c3.33301 2 5.66602 3 6.99902 3c2 0 4 -2 6 -6l9 -21c0.666992 -0.666992 1 -1.66699 1 -3c0 -2.66699 -2.33301 -5 -7 -7c-19.333 -13.333 -42.333 -20 -69 -20z" />
    <glyph glyph-name="odieresis" unicode="&#xf6;" horiz-adv-x="598" 
d="M170.5 24.5c-37 23 -65.667 55 -86 96s-30.5 88.167 -30.5 141.5c0 54 10.333 102 31 144s49.667 74.833 87 98.5s80 35.5 128 35.5s90.5 -11.667 127.5 -35s65.667 -56 86 -98s30.5 -89.667 30.5 -143s-10.167 -100.833 -30.5 -142.5s-49 -74 -86 -97
s-79.833 -34.5 -128.5 -34.5s-91.5 11.5 -128.5 34.5zM441 96.5c34 41.667 51 97.499 51 167.499c0 70.667 -17.333 127.167 -52 169.5s-81.334 63.5 -140.001 63.5c-39.333 0 -73.666 -9.66699 -102.999 -29s-51.833 -46.666 -67.5 -81.999s-23.5 -76 -23.5 -122
c0 -70 17.5 -125.833 52.5 -167.5s82.5 -62.5 142.5 -62.5c59.333 0 106 20.833 140 62.5zM270 653.999c0 -4.66699 -0.998047 -8 -2.99805 -10s-5.33301 -3 -10 -3h-33c-4.66699 0 -7.83398 0.833008 -9.50098 2.5s-2.5 4.5 -2.5 8.5v79c0 4.66699 0.666992 7.66699 2 9
s3.66602 2 6.99902 2h39c3.33301 0 5.83301 -0.666992 7.5 -2s2.5 -4 2.5 -8v-78zM389.002 653.999c0 -4.66699 -0.999023 -8 -2.99902 -10s-5.33301 -3 -10 -3h-33c-4.66699 0 -7.83398 0.833008 -9.50098 2.5s-2.5 4.5 -2.5 8.5v79c0 4.66699 0.666992 7.66699 2 9
s4 2 8 2h38c3.33301 0 5.83301 -0.666992 7.5 -2s2.5 -4 2.5 -8v-78z" />
    <glyph glyph-name="divide" unicode="&#xf7;" horiz-adv-x="545" 
d="M317 505c0 -4.66699 -1 -7.83301 -3 -9.5s-5.66699 -2.5 -11 -2.5h-64c-4 0 -6.66699 0.833008 -8 2.5s-2 4.5 -2 8.5v65c0 6 2.33301 9 7 9h74c4.66699 0 7 -2.66699 7 -8v-65zM477 360.001c0 -6 -4.00098 -9 -12.001 -9l-388 -1c-3.33301 0 -5.66602 0.5 -6.99902 1.5
s-2 3.16699 -2 6.5v28c0 5.33301 2 8 6 8l395 1c5.33301 0 8 -2.33301 8 -7v-28zM316.999 179.001c0 -4.66699 -1 -7.83301 -3 -9.5s-5.66699 -2.5 -11 -2.5h-64c-4 0 -6.66699 0.833008 -8 2.5s-2 4.5 -2 8.5v65c0 6 2.33301 9 7 9h74c4.66699 0 7 -2.66699 7 -8v-65z" />
    <glyph glyph-name="oslash" unicode="&#xf8;" horiz-adv-x="577" 
d="M554 495l-59.002 -57.999c31.333 -48 47 -105.667 47 -173c0 -53.333 -10.167 -100.833 -30.5 -142.5s-49 -74 -86 -97s-79.833 -34.5 -128.5 -34.5c-37.333 0 -71.166 6.66699 -101.499 20s-56.166 32.333 -77.499 57l-64 -62c-2.66699 -2.66699 -5.66699 -4 -9 -4
s-6.33301 1.33301 -9 4l-11 12c-3.33301 4.66699 -5 8 -5 10c0 3.33301 1.66699 6.66602 5 9.99902l67 66c-26.667 44 -40 97 -40 159c0 54 10.333 102 31 144s49.667 74.833 87 98.5s80 35.5 128 35.5c34 0 65.333 -6 94 -18s53.667 -29 75 -51l54 53
c4.66699 3.33301 8 5 10 5s4.66699 -1.66699 8 -5l15 -14c4 -6 4 -11 0 -15zM128.998 139.001l304.999 299c-34 39.333 -79.333 59 -136 59c-39.333 0 -73.666 -9.66699 -102.999 -29s-51.833 -46.666 -67.5 -81.999s-23.5 -76 -23.5 -122
c0 -46.667 8.33301 -88.334 25 -125.001zM458.997 402.001l-306 -300c16.667 -22 37.5 -38.833 62.5 -50.5s52.833 -17.5 83.5 -17.5c59.333 0 106 20.833 140 62.5s51 97.5 51 167.5c0 54 -10.333 100 -31 138z" />
    <glyph glyph-name="ugrave" unicode="&#xf9;" horiz-adv-x="573" 
d="M340 59.5c30 17 61.666 42.168 94.999 75.501v385c0 6.66699 3.66699 10 11 10h29c6.66699 0 10 -3.33301 10 -10v-510c0 -6.66699 -3 -10 -9 -10h-29c-3.33301 0 -5.66602 0.666992 -6.99902 2s-2 3.66602 -2 6.99902v63c0 3.33301 -0.666992 5.33301 -2 6
s-3.33301 -0.333008 -6 -3c-39.333 -32 -73.333 -54.167 -102 -66.5s-57 -18.5 -85 -18.5c-46.667 0 -85.5 13.833 -116.5 41.5s-46.5 63.167 -46.5 106.5v381c0 7.33301 3.33301 11 10 11h30c6.66699 0 10 -3.33301 10 -10v-360c0 -38 10.5 -68.5 31.5 -91.5
s49.833 -34.5 86.5 -34.5c31.333 0 62 8.5 92 25.5zM141.499 751.001c1.66699 0.666992 3.49902 0.667969 5.49902 0.000976562l230 -94c4 -2.66699 5 -6.33398 3 -11.001l-6 -17c-0.666992 -3.33301 -2 -5.5 -4 -6.5s-4.66699 -0.833008 -8 0.5l-227 76
c-7.33301 2.66699 -10 7 -8 13l11 35c0.666992 2 1.83398 3.33301 3.50098 4z" />
    <glyph glyph-name="uacute" unicode="&#xfa;" horiz-adv-x="573" 
d="M340 59.5c30 17 61.666 42.168 94.999 75.501v385c0 6.66699 3.66699 10 11 10h29c6.66699 0 10 -3.33301 10 -10v-510c0 -6.66699 -3 -10 -9 -10h-29c-3.33301 0 -5.66602 0.666992 -6.99902 2s-2 3.66602 -2 6.99902v63c0 3.33301 -0.666992 5.33301 -2 6
s-3.33301 -0.333008 -6 -3c-39.333 -32 -73.333 -54.167 -102 -66.5s-57 -18.5 -85 -18.5c-46.667 0 -85.5 13.833 -116.5 41.5s-46.5 63.167 -46.5 106.5v381c0 7.33301 3.33301 11 10 11h30c6.66699 0 10 -3.33301 10 -10v-360c0 -38 10.5 -68.5 31.5 -91.5
s49.833 -34.5 86.5 -34.5c31.333 0 62 8.5 92 25.5zM395.999 712.001l0.999023 -3.99902c0 -4 -3 -7 -9 -9l-227 -76c-1.33301 -0.666992 -3 -1 -5 -1c-4 0 -6.33301 2.33301 -7 7l-6 17c-0.666992 0.666992 -1 2 -1 4c0 3.33301 1.33301 5.66602 4 6.99902l230 94
c2 0.666992 3.83301 0.666992 5.5 0s2.83398 -2 3.50098 -4z" />
    <glyph glyph-name="ucircumflex" unicode="&#xfb;" horiz-adv-x="573" 
d="M340 59.5c30 17 61.666 42.168 94.999 75.501v385c0 6.66699 3.66699 10 11 10h29c6.66699 0 10 -3.33301 10 -10v-510c0 -6.66699 -3 -10 -9 -10h-29c-3.33301 0 -5.66602 0.666992 -6.99902 2s-2 3.66602 -2 6.99902v63c0 3.33301 -0.666992 5.33301 -2 6
s-3.33301 -0.333008 -6 -3c-39.333 -32 -73.333 -54.167 -102 -66.5s-57 -18.5 -85 -18.5c-46.667 0 -85.5 13.833 -116.5 41.5s-46.5 63.167 -46.5 106.5v381c0 7.33301 3.33301 11 10 11h30c6.66699 0 10 -3.33301 10 -10v-360c0 -38 10.5 -68.5 31.5 -91.5
s49.833 -34.5 86.5 -34.5c31.333 0 62 8.5 92 25.5zM279.999 696.001c-5.33301 4 -8.66699 6.00098 -10 6.00098c-2 0 -5.33301 -2 -10 -6l-61 -49c-2.66699 -2 -5.16699 -3.5 -7.5 -4.5s-5.16602 -1.5 -8.49902 -1.5h-41c-3.33301 0 -5.33301 1 -6 3
s0.666016 4.33301 3.99902 7l100 82c6.66699 6.66699 13.667 10 21 10h23c4.66699 0 8.5 -1.33301 11.5 -4s4.83301 -4.33398 5.5 -5.00098l98 -83c4 -3.33301 6 -5.83301 6 -7.5s-2.33301 -2.5 -7 -2.5h-45c-5.33301 0 -10.333 2 -15 6z" />
    <glyph glyph-name="udieresis" unicode="&#xfc;" horiz-adv-x="573" 
d="M340 59.5c30 17 61.666 42.168 94.999 75.501v385c0 6.66699 3.66699 10 11 10h29c6.66699 0 10 -3.33301 10 -10v-510c0 -6.66699 -3 -10 -9 -10h-29c-3.33301 0 -5.66602 0.666992 -6.99902 2s-2 3.66602 -2 6.99902v63c0 3.33301 -0.666992 5.33301 -2 6
s-3.33301 -0.333008 -6 -3c-39.333 -32 -73.333 -54.167 -102 -66.5s-57 -18.5 -85 -18.5c-46.667 0 -85.5 13.833 -116.5 41.5s-46.5 63.167 -46.5 106.5v381c0 7.33301 3.33301 11 10 11h30c6.66699 0 10 -3.33301 10 -10v-360c0 -38 10.5 -68.5 31.5 -91.5
s49.833 -34.5 86.5 -34.5c31.333 0 62 8.5 92 25.5zM238.999 654.001c0 -4.66699 -0.998047 -8 -2.99805 -10s-5.33301 -3 -10 -3h-33c-4.66699 0 -7.83398 0.833008 -9.50098 2.5s-2.5 4.5 -2.5 8.5v79c0 4.66699 0.666992 7.66699 2 9s3.66602 2 6.99902 2h39
c3.33301 0 5.83301 -0.666992 7.5 -2s2.5 -4 2.5 -8v-78zM358.001 654.001c0 -4.66699 -0.999023 -8 -2.99902 -10s-5.33301 -3 -10 -3h-33c-4.66699 0 -7.83398 0.833008 -9.50098 2.5s-2.5 4.5 -2.5 8.5v79c0 4.66699 0.666992 7.66699 2 9s4 2 8 2h38
c3.33301 0 5.83301 -0.666992 7.5 -2s2.5 -4 2.5 -8v-78z" />
    <glyph glyph-name="yacute" unicode="&#xfd;" horiz-adv-x="513" 
d="M57 -163.5c-8.66699 1 -13.001 4.16699 -13.001 9.5v20c0 4.66699 1.83301 7.83398 5.5 9.50098s11.5 2.5 23.5 2.5h61c16.667 0 32 6.66699 46 20s25.167 30.166 33.5 50.499s12.5 39.833 12.5 58.5c0 12.667 -1.66699 22.667 -5 30l-189 480
c-0.666992 1.33301 -1 3 -1 5c0 5.33301 3.33301 8 10 8h30c6.66699 0 11 -3 13 -9l168 -431c2 -6 4.66699 -9 8 -9c4 0 7.33301 4.33301 10 13l165 428c2 5.33301 5.66699 8 11 8h28c2.66699 0 4.83398 -1.16699 6.50098 -3.5s1.83398 -4.5 0.500977 -6.5l-227 -590
c-13.333 -35.333 -31.833 -60 -55.5 -74s-53.834 -21 -90.501 -21c-25.333 0 -42.333 0.5 -51 1.5zM384.999 712l0.999023 -3.99902c0 -4 -3 -7 -9 -9l-227 -76c-1.33301 -0.666992 -3 -1 -5 -1c-4 0 -6.33301 2.33301 -7 7l-6 17c-0.666992 0.666992 -1 2 -1 4
c0 3.33301 1.33301 5.66602 4 6.99902l230 94c2 0.666992 3.83301 0.666992 5.5 0s2.83398 -2 3.50098 -4z" />
    <glyph glyph-name="thorn" unicode="&#xfe;" horiz-adv-x="590" 
d="M136 730l0.000976562 -261c0 -6 1.33301 -9 4 -9c2 0 9.83301 7.33301 23.5 22s32.5 28 56.5 40s54 18 90 18c43.333 0 82 -10 116 -30s60.833 -49.833 80.5 -89.5s29.5 -88.167 29.5 -145.5c0 -56.667 -9.83301 -106.5 -29.5 -149.5s-47.334 -76.333 -83.001 -100
s-77.5 -35.5 -125.5 -35.5c-30.667 0 -58.334 4.83301 -83.001 14.5s-45.667 21.5 -63 35.5c-3.33301 3.33301 -6.66602 5 -9.99902 5c-2.66699 0 -4 -4 -4 -12v-187c0 -4 -0.666992 -6.83301 -2 -8.5s-4 -2.5 -8 -2.5h-31c-6 0 -9 3.33301 -9 10v884
c0 5.33301 1 8.83301 3 10.5s5.33301 2.5 10 2.5h24c7.33301 0 11 -4 11 -12zM212.501 52c25 -12.667 51.501 -18.999 79.501 -18.999c37.333 0 70.5 9.5 99.5 28.5s51.667 46.5 68 82.5s24.5 78.333 24.5 127c0 50 -8.33301 92 -25 126s-39 59.167 -67 75.5
s-58.667 24.5 -92 24.5c-30.667 0 -58.334 -6.83301 -83.001 -20.5s-44 -30.834 -58 -51.501s-21 -41 -21 -61v-257c24.667 -24 49.5 -42.333 74.5 -55z" />
    <glyph glyph-name="ydieresis" unicode="&#xff;" horiz-adv-x="513" 
d="M57 -163.5c-8.66699 1 -13.001 4.16699 -13.001 9.5v20c0 4.66699 1.83301 7.83398 5.5 9.50098s11.5 2.5 23.5 2.5h61c16.667 0 32 6.66699 46 20s25.167 30.166 33.5 50.499s12.5 39.833 12.5 58.5c0 12.667 -1.66699 22.667 -5 30l-189 480
c-0.666992 1.33301 -1 3 -1 5c0 5.33301 3.33301 8 10 8h30c6.66699 0 11 -3 13 -9l168 -431c2 -6 4.66699 -9 8 -9c4 0 7.33301 4.33301 10 13l165 428c2 5.33301 5.66699 8 11 8h28c2.66699 0 4.83398 -1.16699 6.50098 -3.5s1.83398 -4.5 0.500977 -6.5l-227 -590
c-13.333 -35.333 -31.833 -60 -55.5 -74s-53.834 -21 -90.501 -21c-25.333 0 -42.333 0.5 -51 1.5zM227.999 654c0 -4.66699 -0.998047 -8 -2.99805 -10s-5.33301 -3 -10 -3h-33c-4.66699 0 -7.83398 0.833008 -9.50098 2.5s-2.5 4.5 -2.5 8.5v79
c0 4.66699 0.666992 7.66699 2 9s3.66602 2 6.99902 2h39c3.33301 0 5.83301 -0.666992 7.5 -2s2.5 -4 2.5 -8v-78zM347.001 654c0 -4.66699 -0.999023 -8 -2.99902 -10s-5.33301 -3 -10 -3h-33c-4.66699 0 -7.83398 0.833008 -9.50098 2.5s-2.5 4.5 -2.5 8.5v79
c0 4.66699 0.666992 7.66699 2 9s4 2 8 2h38c3.33301 0 5.83301 -0.666992 7.5 -2s2.5 -4 2.5 -8v-78z" />
    <glyph glyph-name="Amacron" unicode="&#x100;" horiz-adv-x="706" 
d="M51 11l263.999 718.999c1.33301 4.66699 3.33301 7.83398 6 9.50098s6.33398 2.5 11.001 2.5h43c10.667 0 17 -3.66699 19 -11l261 -719l1 -4c0 -5.33301 -3 -8 -9 -8h-35c-7.33301 0 -12 3 -14 9l-78 216c-2 4.66699 -5.33301 7 -10 7h-316
c-4.66699 0 -8 -2.33301 -10 -7l-80 -217c-0.666992 -5.33301 -4.66699 -8 -12 -8h-33c-7.33301 0 -10 3.66699 -8 11zM489.999 279.999c7.33301 0 10 3.66699 8 11l-138 376c-2 6.66699 -4.33301 10 -7 10c-2 0 -4.66699 -3.66699 -8 -11l-140 -377
c-0.666992 -1.33301 -1 -3 -1 -5c0 -2.66699 2.33301 -4 7 -4h279zM483.999 900.999c0 -3.33301 -0.833008 -5.66602 -2.5 -6.99902s-4.5 -2 -8.5 -2h-243c-3.33301 0 -5.5 0.666992 -6.5 2s-1.5 3.66602 -1.5 6.99902v26c0 5.33301 2 8 6 8h250c4 0 6 -2 6 -6v-28z" />
    <glyph glyph-name="amacron" unicode="&#x101;" horiz-adv-x="540" 
d="M216 -10c-52.667 0 -94.1689 13.001 -124.502 39.001s-45.5 61.333 -45.5 106c0 50.667 21 90.667 63 120s104.667 47.666 188 54.999l99 8c11.333 1.33301 17 6.33301 17 15v30c0 40.667 -13.167 73.167 -39.5 97.5s-61.166 36.5 -104.499 36.5
c-64 0 -118 -29.667 -162 -89c-2 -3.33301 -3.66699 -5.33301 -5 -6s-3.33301 -0.333984 -6 0.999023l-31 16c-4 2.66699 -4 6.33398 0 11.001c22 34 50.333 60.833 85 80.5s75.334 29.5 122.001 29.5c58.667 0 105 -15.333 139 -46s51 -72.667 51 -126v-357
c0 -7.33301 -3.66699 -11 -11 -11h-25c-6.66699 0 -10 3.66699 -10 11l-2 57c-0.666992 4 -2 6.16699 -4 6.5s-4.33301 -1.16699 -7 -4.5c-54.667 -53.333 -117 -80 -187 -80zM398.998 278.001l-84 -7c-144.667 -10.667 -217 -54.334 -217 -131.001
c0 -33.333 11.667 -59.333 35 -78s54.666 -28 93.999 -28c23.333 0 46.333 4.16699 69 12.5s43.334 19.833 62.001 34.5c17.333 14 30.833 28.833 40.5 44.5s14.5 30.834 14.5 45.501v92c0 11.333 -4.66699 16.333 -14 15zM398.998 689.001
c0 -3.33301 -0.833008 -5.66602 -2.5 -6.99902s-4.5 -2 -8.5 -2h-243c-3.33301 0 -5.5 0.666992 -6.5 2s-1.5 3.66602 -1.5 6.99902v26c0 5.33301 2 8 6 8h250c4 0 6 -2 6 -6v-28z" />
    <glyph glyph-name="Abreve" unicode="&#x102;" horiz-adv-x="706" 
d="M51 11l263.999 718.999c1.33301 4.66699 3.33301 7.83398 6 9.50098s6.33398 2.5 11.001 2.5h43c10.667 0 17 -3.66699 19 -11l261 -719l1 -4c0 -5.33301 -3 -8 -9 -8h-35c-7.33301 0 -12 3 -14 9l-78 216c-2 4.66699 -5.33301 7 -10 7h-316
c-4.66699 0 -8 -2.33301 -10 -7l-80 -217c-0.666992 -5.33301 -4.66699 -8 -12 -8h-33c-7.33301 0 -10 3.66699 -8 11zM489.999 279.999c7.33301 0 10 3.66699 8 11l-138 376c-2 6.66699 -4.33301 10 -7 10c-2 0 -4.66699 -3.66699 -8 -11l-140 -377
c-0.666992 -1.33301 -1 -3 -1 -5c0 -2.66699 2.33301 -4 7 -4h279zM486.499 951.999c1 -1.33301 0.833984 -3.99902 -0.499023 -7.99902c-6 -21.333 -21 -41 -45 -59s-54 -27 -90 -27s-65.333 8.83301 -88 26.5s-37 38.167 -43 61.5c-2 5.33301 -0.333008 8 5 8h37
c3.33301 0 5.83301 -0.666992 7.5 -2s3.5 -3 5.5 -5c1.33301 -1.33301 5.16602 -6.33301 11.499 -15s15 -15.834 26 -21.501s23.833 -8.5 38.5 -8.5c34 0 60.667 15.333 80 46c2.66699 4 6 6 10 6h37c4.66699 0 7.5 -0.666992 8.5 -2z" />
    <glyph glyph-name="abreve" unicode="&#x103;" horiz-adv-x="540" 
d="M216 -10c-52.667 0 -94.1689 13.001 -124.502 39.001s-45.5 61.333 -45.5 106c0 50.667 21 90.667 63 120s104.667 47.666 188 54.999l99 8c11.333 1.33301 17 6.33301 17 15v30c0 40.667 -13.167 73.167 -39.5 97.5s-61.166 36.5 -104.499 36.5
c-64 0 -118 -29.667 -162 -89c-2 -3.33301 -3.66699 -5.33301 -5 -6s-3.33301 -0.333984 -6 0.999023l-31 16c-4 2.66699 -4 6.33398 0 11.001c22 34 50.333 60.833 85 80.5s75.334 29.5 122.001 29.5c58.667 0 105 -15.333 139 -46s51 -72.667 51 -126v-357
c0 -7.33301 -3.66699 -11 -11 -11h-25c-6.66699 0 -10 3.66699 -10 11l-2 57c-0.666992 4 -2 6.16699 -4 6.5s-4.33301 -1.16699 -7 -4.5c-54.667 -53.333 -117 -80 -187 -80zM398.998 278.001l-84 -7c-144.667 -10.667 -217 -54.334 -217 -131.001
c0 -33.333 11.667 -59.333 35 -78s54.666 -28 93.999 -28c23.333 0 46.333 4.16699 69 12.5s43.334 19.833 62.001 34.5c17.333 14 30.833 28.833 40.5 44.5s14.5 30.834 14.5 45.501v92c0 11.333 -4.66699 16.333 -14 15zM401.498 740.001
c1 -1.33301 0.833984 -3.99902 -0.499023 -7.99902c-6 -21.333 -21 -41 -45 -59s-54 -27 -90 -27s-65.333 8.83301 -88 26.5s-37 38.167 -43 61.5c-2 5.33301 -0.333008 8 5 8h37c3.33301 0 5.83301 -0.666992 7.5 -2s3.5 -3 5.5 -5
c1.33301 -1.33301 5.16602 -6.33301 11.499 -15s15 -15.834 26 -21.501s23.833 -8.5 38.5 -8.5c34 0 60.667 15.333 80 46c2.66699 4 6 6 10 6h37c4.66699 0 7.5 -0.666992 8.5 -2z" />
    <glyph glyph-name="Aogonek" unicode="&#x104;" horiz-adv-x="706" 
d="M679 -118.5c1.33301 -0.333008 2.00098 -1.83496 2.00098 -4.50195v-22c0 -2.66699 -0.333008 -4.66699 -1 -6s-2 -2.33301 -4 -3c-8.66699 -4 -20.334 -7.5 -35.001 -10.5s-29.667 -4.5 -45 -4.5c-31.333 0 -54.833 7 -70.5 21s-23.5 33 -23.5 57
c0 22 7.33301 40.833 22 56.5s39.667 29.167 75 40.5l-1 3l-78 216c-2 4.66699 -5.33301 7 -10 7h-316c-4.66699 0 -8 -2.33301 -10 -7l-80 -217c-0.666992 -5.33301 -4.66699 -8 -12 -8h-33c-7.33301 0 -10 3.66699 -8 11l264 719
c1.33301 4.66699 3.33301 7.83398 6 9.50098s6.33398 2.5 11.001 2.5h43c10.667 0 17 -3.66699 19 -11l261 -719v-4c0 -2.66699 -1 -5 -3 -7c-35.333 -16 -60.833 -30.833 -76.5 -44.5s-23.5 -29.5 -23.5 -47.5c0 -14 4.5 -24.333 13.5 -31s23.167 -10 42.5 -10
c13.333 0 26 1.33301 38 4s20.667 5.33398 26 8.00098c3.33301 1.33301 5.66602 1.83301 6.99902 1.5zM498.001 290.998l-138 376c-2 6.66699 -4.33301 10 -7 10c-2 0 -4.66699 -3.66699 -8 -11l-140 -377c-0.666992 -1.33301 -1 -3 -1 -5c0 -2.66699 2.33301 -4 7 -4h279
c7.33301 0 10 3.66699 8 11z" />
    <glyph glyph-name="aogonek" unicode="&#x105;" horiz-adv-x="540" 
d="M488 -115.5c1.33301 -0.333008 2 -1.83496 2 -4.50195v-22c0 -2.66699 -0.333008 -4.66699 -1 -6s-2 -2.33301 -4 -3c-8.66699 -4 -20.334 -7.5 -35.001 -10.5s-29.667 -4.5 -45 -4.5c-31.333 0 -54.833 7 -70.5 21s-23.5 33 -23.5 57c0 22.667 7.83301 42 23.5 58
s42.834 29.667 81.501 41l-2 57c-0.666992 4 -2 6.16699 -4 6.5s-4.33301 -1.16699 -7 -4.5c-54.667 -53.333 -117 -80 -187 -80c-52.667 0 -94.167 13 -124.5 39s-45.5 61.333 -45.5 106c0 50.667 21 90.667 63 120s104.667 47.666 188 54.999l99 8
c11.333 1.33301 17 6.33301 17 15v30c0 40.667 -13.167 73.167 -39.5 97.5s-61.166 36.5 -104.499 36.5c-64 0 -118 -29.667 -162 -89c-2 -3.33301 -3.66699 -5.33301 -5 -6s-3.33301 -0.333984 -6 0.999023l-31 16c-4 2.66699 -4 6.33398 0 11.001
c22 34 50.333 60.833 85 80.5s75.334 29.5 122.001 29.5c58.667 0 105 -15.333 139 -46s51 -72.667 51 -126v-357c0 -3.33301 -0.333008 -5.66602 -1 -6.99902h-1c-0.666992 -2.66699 -3.33398 -4 -8.00098 -4c-32 -14.667 -55.167 -28.667 -69.5 -42
s-21.5 -28.666 -21.5 -45.999c0 -14 4.5 -24.333 13.5 -31s23.167 -10 42.5 -10c13.333 0 26 1.33301 38 4s20.667 5.33398 26 8.00098c3.33301 1.33301 5.66602 1.83301 6.99902 1.5zM413 262.998c0 11.333 -4.66699 16.333 -14 15l-84 -7
c-144.667 -10.667 -217 -54.334 -217 -131.001c0 -33.333 11.667 -59.333 35 -78s54.666 -28 93.999 -28c23.333 0 46.333 4.16699 69 12.5s43.334 19.833 62.001 34.5c17.333 14 30.833 28.833 40.5 44.5s14.5 30.834 14.5 45.501v92z" />
    <glyph glyph-name="Cacute" unicode="&#x106;" horiz-adv-x="698" 
d="M494.5 724.5c38.333 -18.333 70.1689 -42.666 95.502 -72.999s40 -62.833 44 -97.5v-4c0 -2 -0.5 -3.33301 -1.5 -4s-2.5 -1 -4.5 -1l-45 -4h-2c-2.66699 0 -4.33398 2.33301 -5.00098 7c-11.333 46.667 -34.833 84.167 -70.5 112.5s-78.167 42.5 -127.5 42.5
c-79.333 0 -139.666 -28.333 -180.999 -85s-62 -139.667 -62 -249c0 -106.667 21 -188.167 63 -244.5s104.333 -84.5 187 -84.5c51.333 0 93.666 12.167 126.999 36.5s60 62.5 80 114.5c0.666992 2.66699 3 3.66699 7 3l40 -11c2.66699 -1.33301 3.66699 -4.33301 3 -9
c-17.333 -54 -49.5 -98.167 -96.5 -132.5s-101.833 -51.5 -164.5 -51.5c-96.667 0 -171.834 33.167 -225.501 99.5s-80.5 159.5 -80.5 279.5c0 80 12 148.667 36 206s58.5 101.166 103.5 131.499s98.833 45.5 161.5 45.5c40.667 0 80.167 -9.16699 118.5 -27.5zM502.003 924
l0.999023 -3.99902c0 -4 -3 -7 -9 -9l-227 -76c-1.33301 -0.666992 -3 -1 -5 -1c-4 0 -6.33301 2.33301 -7 7l-6 17c-0.666992 0.666992 -1 2 -1 4c0 3.33301 1.33301 5.66602 4 6.99902l230 94c2 0.666992 3.83301 0.666992 5.5 0s2.83398 -2 3.50098 -4z" />
    <glyph glyph-name="cacute" unicode="&#x107;" horiz-adv-x="538" 
d="M495 429c2 -3.33301 2.83203 -5.66602 2.49902 -6.99902s-1.5 -2.66602 -3.5 -3.99902l-31 -15c-0.666992 -0.666992 -2 -1 -4 -1s-4.66699 1.66699 -8 5c-26 32.667 -50.5 55.834 -73.5 69.501s-48.5 20.5 -76.5 20.5c-38.667 0 -72.834 -9.66699 -102.501 -29
s-52.5 -46.5 -68.5 -81.5s-24 -75.5 -24 -121.5s8 -86.5 24 -121.5s38.833 -62.167 68.5 -81.5s63.834 -29 102.501 -29c33.333 0 63.166 8.16699 89.499 24.5s50.5 41.166 72.5 74.499c2 3.33301 3.66699 5.16602 5 5.49902s3 -0.166992 5 -1.5l28 -15
c3.33301 -2 4 -5.66699 2 -11c-22.667 -38.667 -51.667 -68.334 -87 -89.001s-75.333 -31 -120 -31c-47.333 0 -89.333 11.333 -126 34s-65.167 54.667 -85.5 96s-30.5 89 -30.5 143c0 53.333 10.333 101 31 143s49.334 74.833 86.001 98.5s78.334 35.5 125.001 35.5
c84 0 150.333 -37 199 -111zM420.999 712l0.999023 -3.99902c0 -4 -3 -7 -9 -9l-227 -76c-1.33301 -0.666992 -3 -1 -5 -1c-4 0 -6.33301 2.33301 -7 7l-6 17c-0.666992 0.666992 -1 2 -1 4c0 3.33301 1.33301 5.66602 4 6.99902l230 94c2 0.666992 3.83301 0.666992 5.5 0
s2.83398 -2 3.50098 -4z" />
    <glyph glyph-name="Ccircumflex" unicode="&#x108;" horiz-adv-x="698" 
d="M494.5 724.5c38.333 -18.333 70.1689 -42.666 95.502 -72.999s40 -62.833 44 -97.5v-4c0 -2 -0.5 -3.33301 -1.5 -4s-2.5 -1 -4.5 -1l-45 -4h-2c-2.66699 0 -4.33398 2.33301 -5.00098 7c-11.333 46.667 -34.833 84.167 -70.5 112.5s-78.167 42.5 -127.5 42.5
c-79.333 0 -139.666 -28.333 -180.999 -85s-62 -139.667 -62 -249c0 -106.667 21 -188.167 63 -244.5s104.333 -84.5 187 -84.5c51.333 0 93.666 12.167 126.999 36.5s60 62.5 80 114.5c0.666992 2.66699 3 3.66699 7 3l40 -11c2.66699 -1.33301 3.66699 -4.33301 3 -9
c-17.333 -54 -49.5 -98.167 -96.5 -132.5s-101.833 -51.5 -164.5 -51.5c-96.667 0 -171.834 33.167 -225.501 99.5s-80.5 159.5 -80.5 279.5c0 80 12 148.667 36 206s58.5 101.166 103.5 131.499s98.833 45.5 161.5 45.5c40.667 0 80.167 -9.16699 118.5 -27.5zM386.003 908
c-5.33301 4 -8.66699 6.00098 -10 6.00098c-2 0 -5.33301 -2 -10 -6l-61 -49c-2.66699 -2 -5.16699 -3.5 -7.5 -4.5s-5.16602 -1.5 -8.49902 -1.5h-41c-3.33301 0 -5.33301 1 -6 3s0.666016 4.33301 3.99902 7l100 82c6.66699 6.66699 13.667 10 21 10h23
c4.66699 0 8.5 -1.33301 11.5 -4s4.83301 -4.33398 5.5 -5.00098l98 -83c4 -3.33301 6 -5.83301 6 -7.5s-2.33301 -2.5 -7 -2.5h-45c-5.33301 0 -10.333 2 -15 6z" />
    <glyph glyph-name="ccircumflex" unicode="&#x109;" horiz-adv-x="538" 
d="M495 429c2 -3.33301 2.83203 -5.66602 2.49902 -6.99902s-1.5 -2.66602 -3.5 -3.99902l-31 -15c-0.666992 -0.666992 -2 -1 -4 -1s-4.66699 1.66699 -8 5c-26 32.667 -50.5 55.834 -73.5 69.501s-48.5 20.5 -76.5 20.5c-38.667 0 -72.834 -9.66699 -102.501 -29
s-52.5 -46.5 -68.5 -81.5s-24 -75.5 -24 -121.5s8 -86.5 24 -121.5s38.833 -62.167 68.5 -81.5s63.834 -29 102.501 -29c33.333 0 63.166 8.16699 89.499 24.5s50.5 41.166 72.5 74.499c2 3.33301 3.66699 5.16602 5 5.49902s3 -0.166992 5 -1.5l28 -15
c3.33301 -2 4 -5.66699 2 -11c-22.667 -38.667 -51.667 -68.334 -87 -89.001s-75.333 -31 -120 -31c-47.333 0 -89.333 11.333 -126 34s-65.167 54.667 -85.5 96s-30.5 89 -30.5 143c0 53.333 10.333 101 31 143s49.334 74.833 86.001 98.5s78.334 35.5 125.001 35.5
c84 0 150.333 -37 199 -111zM304.999 696c-5.33301 4 -8.66699 6.00098 -10 6.00098c-2 0 -5.33301 -2 -10 -6l-61 -49c-2.66699 -2 -5.16699 -3.5 -7.5 -4.5s-5.16602 -1.5 -8.49902 -1.5h-41c-3.33301 0 -5.33301 1 -6 3s0.666016 4.33301 3.99902 7l100 82
c6.66699 6.66699 13.667 10 21 10h23c4.66699 0 8.5 -1.33301 11.5 -4s4.83301 -4.33398 5.5 -5.00098l98 -83c4 -3.33301 6 -5.83301 6 -7.5s-2.33301 -2.5 -7 -2.5h-45c-5.33301 0 -10.333 2 -15 6z" />
    <glyph glyph-name="Cdotaccent" unicode="&#x10a;" horiz-adv-x="698" 
d="M494.5 724.5c38.333 -18.333 70.1689 -42.666 95.502 -72.999s40 -62.833 44 -97.5v-4c0 -2 -0.5 -3.33301 -1.5 -4s-2.5 -1 -4.5 -1l-45 -4h-2c-2.66699 0 -4.33398 2.33301 -5.00098 7c-11.333 46.667 -34.833 84.167 -70.5 112.5s-78.167 42.5 -127.5 42.5
c-79.333 0 -139.666 -28.333 -180.999 -85s-62 -139.667 -62 -249c0 -106.667 21 -188.167 63 -244.5s104.333 -84.5 187 -84.5c51.333 0 93.666 12.167 126.999 36.5s60 62.5 80 114.5c0.666992 2.66699 3 3.66699 7 3l40 -11c2.66699 -1.33301 3.66699 -4.33301 3 -9
c-17.333 -54 -49.5 -98.167 -96.5 -132.5s-101.833 -51.5 -164.5 -51.5c-96.667 0 -171.834 33.167 -225.501 99.5s-80.5 159.5 -80.5 279.5c0 80 12 148.667 36 206s58.5 101.166 103.5 131.499s98.833 45.5 161.5 45.5c40.667 0 80.167 -9.16699 118.5 -27.5zM405.003 865
c0 -5.33301 -0.831055 -8.83301 -2.49805 -10.5s-5.16699 -2.5 -10.5 -2.5h-34c-4.66699 0 -7.83398 0.666992 -9.50098 2s-2.5 4.33301 -2.5 9v80c0 4.66699 0.666992 7.66699 2 9s4 2 8 2h40c3.33301 0 5.66602 -0.666992 6.99902 -2s2 -4.33301 2 -9v-78z" />
    <glyph glyph-name="cdotaccent" unicode="&#x10b;" horiz-adv-x="538" 
d="M495 429c2 -3.33301 2.83203 -5.66602 2.49902 -6.99902s-1.5 -2.66602 -3.5 -3.99902l-31 -15c-0.666992 -0.666992 -2 -1 -4 -1s-4.66699 1.66699 -8 5c-26 32.667 -50.5 55.834 -73.5 69.501s-48.5 20.5 -76.5 20.5c-38.667 0 -72.834 -9.66699 -102.501 -29
s-52.5 -46.5 -68.5 -81.5s-24 -75.5 -24 -121.5s8 -86.5 24 -121.5s38.833 -62.167 68.5 -81.5s63.834 -29 102.501 -29c33.333 0 63.166 8.16699 89.499 24.5s50.5 41.166 72.5 74.499c2 3.33301 3.66699 5.16602 5 5.49902s3 -0.166992 5 -1.5l28 -15
c3.33301 -2 4 -5.66699 2 -11c-22.667 -38.667 -51.667 -68.334 -87 -89.001s-75.333 -31 -120 -31c-47.333 0 -89.333 11.333 -126 34s-65.167 54.667 -85.5 96s-30.5 89 -30.5 143c0 53.333 10.333 101 31 143s49.334 74.833 86.001 98.5s78.334 35.5 125.001 35.5
c84 0 150.333 -37 199 -111zM323.999 653c0 -5.33301 -0.831055 -8.83301 -2.49805 -10.5s-5.16699 -2.5 -10.5 -2.5h-34c-4.66699 0 -7.83398 0.666992 -9.50098 2s-2.5 4.33301 -2.5 9v80c0 4.66699 0.666992 7.66699 2 9s4 2 8 2h40
c3.33301 0 5.66602 -0.666992 6.99902 -2s2 -4.33301 2 -9v-78z" />
    <glyph glyph-name="Ccaron" unicode="&#x10c;" horiz-adv-x="698" 
d="M494.5 724.5c38.333 -18.333 70.1689 -42.666 95.502 -72.999s40 -62.833 44 -97.5v-4c0 -2 -0.5 -3.33301 -1.5 -4s-2.5 -1 -4.5 -1l-45 -4h-2c-2.66699 0 -4.33398 2.33301 -5.00098 7c-11.333 46.667 -34.833 84.167 -70.5 112.5s-78.167 42.5 -127.5 42.5
c-79.333 0 -139.666 -28.333 -180.999 -85s-62 -139.667 -62 -249c0 -106.667 21 -188.167 63 -244.5s104.333 -84.5 187 -84.5c51.333 0 93.666 12.167 126.999 36.5s60 62.5 80 114.5c0.666992 2.66699 3 3.66699 7 3l40 -11c2.66699 -1.33301 3.66699 -4.33301 3 -9
c-17.333 -54 -49.5 -98.167 -96.5 -132.5s-101.833 -51.5 -164.5 -51.5c-96.667 0 -171.834 33.167 -225.501 99.5s-80.5 159.5 -80.5 279.5c0 80 12 148.667 36 206s58.5 101.166 103.5 131.499s98.833 45.5 161.5 45.5c40.667 0 80.167 -9.16699 118.5 -27.5zM459.003 954
h45.001c4.66699 0 7 -1 7 -3c0 -1.33301 -2 -3.66602 -6 -6.99902l-98 -83c-0.666992 -0.666992 -2.5 -2.33398 -5.5 -5.00098s-6.83301 -4 -11.5 -4h-23c-7.33301 0 -14.333 3.33301 -21 10l-100 82c-3.33301 2.66699 -4.66602 5 -3.99902 7s2.66699 3 6 3h41
c3.33301 0 6.16602 -0.5 8.49902 -1.5s4.83301 -2.5 7.5 -4.5l61 -49c4.66699 -4 8 -6 10 -6c1.33301 0 4.66602 2 9.99902 6l58 49c4.66699 4 9.66699 6 15 6z" />
    <glyph glyph-name="ccaron" unicode="&#x10d;" horiz-adv-x="538" 
d="M495 429c2 -3.33301 2.83203 -5.66602 2.49902 -6.99902s-1.5 -2.66602 -3.5 -3.99902l-31 -15c-0.666992 -0.666992 -2 -1 -4 -1s-4.66699 1.66699 -8 5c-26 32.667 -50.5 55.834 -73.5 69.501s-48.5 20.5 -76.5 20.5c-38.667 0 -72.834 -9.66699 -102.501 -29
s-52.5 -46.5 -68.5 -81.5s-24 -75.5 -24 -121.5s8 -86.5 24 -121.5s38.833 -62.167 68.5 -81.5s63.834 -29 102.501 -29c33.333 0 63.166 8.16699 89.499 24.5s50.5 41.166 72.5 74.499c2 3.33301 3.66699 5.16602 5 5.49902s3 -0.166992 5 -1.5l28 -15
c3.33301 -2 4 -5.66699 2 -11c-22.667 -38.667 -51.667 -68.334 -87 -89.001s-75.333 -31 -120 -31c-47.333 0 -89.333 11.333 -126 34s-65.167 54.667 -85.5 96s-30.5 89 -30.5 143c0 53.333 10.333 101 31 143s49.334 74.833 86.001 98.5s78.334 35.5 125.001 35.5
c84 0 150.333 -37 199 -111zM377.999 742h45.001c4.66699 0 7 -1 7 -3c0 -1.33301 -2 -3.66602 -6 -6.99902l-98 -83c-0.666992 -0.666992 -2.5 -2.33398 -5.5 -5.00098s-6.83301 -4 -11.5 -4h-23c-7.33301 0 -14.333 3.33301 -21 10l-100 82
c-3.33301 2.66699 -4.66602 5 -3.99902 7s2.66699 3 6 3h41c3.33301 0 6.16602 -0.5 8.49902 -1.5s4.83301 -2.5 7.5 -4.5l61 -49c4.66699 -4 8 -6 10 -6c1.33301 0 4.66602 2 9.99902 6l58 49c4.66699 4 9.66699 6 15 6z" />
    <glyph glyph-name="Dcaron" unicode="&#x10e;" horiz-adv-x="707" 
d="M246 741c135.333 -0.666992 233.667 -30.5 295 -89.5s92 -150.833 92 -275.5c0 -128.667 -32.667 -223.5 -98 -284.5s-166.333 -91.5 -303 -91.5h-112c-6.66699 0 -10 3.66699 -10 11v722c0 6 3.33301 9 10 9zM167.001 680l-0.000976562 -622.998
c0 -6.66699 4 -10 12 -10h47c84.667 0 152.167 10.667 202.5 32s87 55.666 110 102.999s34.5 110.666 34.5 189.999c0 82 -11.667 146 -35 192s-59.166 78.667 -107.499 98s-112.833 30 -193.5 32h-62c-5.33301 0 -8 -4.66699 -8 -14zM422 954.002h45.001
c4.66699 0 7 -1 7 -3c0 -1.33301 -2 -3.66602 -6 -6.99902l-98 -83c-0.666992 -0.666992 -2.5 -2.33398 -5.5 -5.00098s-6.83301 -4 -11.5 -4h-23c-7.33301 0 -14.333 3.33301 -21 10l-100 82c-3.33301 2.66699 -4.66602 5 -3.99902 7s2.66699 3 6 3h41
c3.33301 0 6.16602 -0.5 8.49902 -1.5s4.83301 -2.5 7.5 -4.5l61 -49c4.66699 -4 8 -6 10 -6c1.33301 0 4.66602 2 9.99902 6l58 49c4.66699 4 9.66699 6 15 6z" />
    <glyph glyph-name="dcaron" unicode="&#x10f;" horiz-adv-x="651" 
d="M458 12v48.999c0 6 -1.33301 9 -4 9c-2 0 -4.66699 -1.66699 -8 -5c-13.333 -13.333 -25.666 -24.666 -36.999 -33.999s-28 -18.5 -50 -27.5s-47 -13.5 -75 -13.5c-43.333 0 -82.333 10 -117 30s-62 50 -82 90s-30 88.667 -30 146c0 56 10 105.5 30 148.5
s48.167 76.333 84.5 100s78.5 35.5 126.5 35.5c32 0 59.167 -5 81.5 -15s43.5 -23 63.5 -39c4.66699 -4 8 -6 10 -6c3.33301 0 5 4.33301 5 13v238c0 4 0.666992 6.83301 2 8.5s3.66602 2.5 6.99902 2.5h32c6 0 9 -3.33301 9 -10v-719c0 -4.66699 -1 -8 -3 -10
s-5.33301 -3 -10 -3h-24c-7.33301 0 -11 4 -11 12zM381 478.499c-24.667 12.333 -51.335 18.501 -80.002 18.501c-37.333 0 -70.666 -9.5 -99.999 -28.5s-52.333 -46.5 -69 -82.5s-25 -78.333 -25 -127c0 -50 8.5 -92 25.5 -126s39.667 -59.167 68 -75.5
s59.5 -24.5 93.5 -24.5c29.333 0 56.333 7.16699 81 21.5s44.334 32.166 59.001 53.499s22 42 22 62v253c-25.333 24.667 -50.333 43.167 -75 55.5zM568.499 565.5c-1 1.66699 -1.16797 3.16699 -0.500977 4.5l30 71c1.33301 3.33301 1.83301 5.5 1.5 6.5
s-1.83301 1.83301 -4.5 2.5l-5 1c-3.33301 0.666992 -5.66602 1.66699 -6.99902 3s-2 3.33301 -2 6v74c0 5.33301 2.33301 8 7 8h46c3.33301 0 5 -2 5 -6v-85l-1 -4l-33 -77c-2 -4.66699 -6.66699 -7 -14 -7h-17c-2.66699 0 -4.5 0.833008 -5.5 2.5z" />
    <glyph glyph-name="Dcroat" unicode="&#x110;" horiz-adv-x="709" 
d="M542 651.5c61.333 -59 92.001 -150.833 92.001 -275.5c0 -128.667 -32.667 -223.5 -98 -284.5s-166.333 -91.5 -303 -91.5h-112c-6.66699 0 -10 3.66699 -10 11v338h-66c-7.33301 0 -11 3.66699 -11 11v28c0 6 2.66699 9 8 9h69v336c0 6 3.33301 9 10 9l126 -1
c135.333 -0.666992 233.666 -30.5 294.999 -89.5zM429.501 79c50.333 21.333 86.999 55.668 109.999 103.001s34.5 110.666 34.5 189.999c0 82 -11.667 146 -35 192s-59.166 78.667 -107.499 98s-112.833 30 -193.5 32h-62c-5.33301 0 -8 -4.66699 -8 -14v-283h172
c5.33301 0 8 -2.66699 8 -8v-28c0 -8 -5 -12 -15 -12h-165v-292c0 -6.66699 4 -10 12 -10h47c84.667 0 152.167 10.667 202.5 32z" />
    <glyph glyph-name="dcroat" unicode="&#x111;" horiz-adv-x="604" 
d="M579 657v-24.001c0 -3.33301 -0.833008 -5.66602 -2.5 -6.99902s-4.5 -2 -8.5 -2h-62v-611c0 -4.66699 -1 -8 -3 -10s-5.33301 -3 -10 -3h-24c-7.33301 0 -11 4 -11 12v49c0 6 -1.33301 9 -4 9c-2 0 -4.66699 -1.66699 -8 -5
c-13.333 -13.333 -25.666 -24.666 -36.999 -33.999s-28 -18.5 -50 -27.5s-47 -13.5 -75 -13.5c-43.333 0 -82.333 10 -117 30s-62 50 -82 90s-30 88.667 -30 146c0 56 10 105.5 30 148.5s48.167 76.333 84.5 100s78.5 35.5 126.5 35.5c32 0 59.167 -5 81.5 -15
s43.5 -23 63.5 -39c4.66699 -4 8 -6 10 -6c3.33301 0 5 4.33301 5 13v131h-163c-3.33301 0 -5.5 0.666992 -6.5 2s-1.5 3.66602 -1.5 6.99902v23c0 5.33301 2 8 6 8h165v67c0 4 0.666992 6.83301 2 8.5s3.66602 2.5 6.99902 2.5h32c6 0 9 -3.33301 9 -10v-68h68
c3.33301 0 5 -2.33301 5 -7zM456 422.999c-25.333 24.667 -50.334 43.168 -75.001 55.501s-51.334 18.5 -80.001 18.5c-37.333 0 -70.666 -9.5 -99.999 -28.5s-52.333 -46.5 -69 -82.5s-25 -78.333 -25 -127c0 -50 8.5 -92 25.5 -126s39.667 -59.167 68 -75.5
s59.5 -24.5 93.5 -24.5c29.333 0 56.333 7.16699 81 21.5s44.334 32.166 59.001 53.499s22 42 22 62v253z" />
    <glyph glyph-name="Emacron" unicode="&#x112;" horiz-adv-x="616" 
d="M112 740c1.33301 1.33301 3.99902 1.99902 7.99902 1.99902h423c4.66699 0 7 -2.66699 7 -8v-31c0 -3.33301 -0.666992 -5.66602 -2 -6.99902s-3.66602 -2 -6.99902 -2h-364c-4 0 -6.66699 -0.5 -8 -1.5s-2 -3.5 -2 -7.5v-278c0 -3.33301 0.666992 -5.5 2 -6.5
s4 -1.5 8 -1.5h282c5.33301 0 8 -2.66699 8 -8v-32c0 -3.33301 -0.666992 -5.5 -2 -6.5s-3.66602 -1.5 -6.99902 -1.5h-281c-4 0 -6.66699 -0.5 -8 -1.5s-2 -3.5 -2 -7.5v-285c0 -4 0.666992 -6.5 2 -7.5s4 -1.5 8 -1.5h379c3.33301 0 5.66602 -0.5 6.99902 -1.5
s2 -3.16699 2 -6.5v-32c0 -5.33301 -2.66699 -8 -8 -8h-437c-4 0 -6.66699 0.666992 -8 2s-2 4.33301 -2 9v720c0 4.66699 0.666992 7.66699 2 9zM474.999 900.999c0 -3.33301 -0.833008 -5.66602 -2.5 -6.99902s-4.5 -2 -8.5 -2h-243c-3.33301 0 -5.5 0.666992 -6.5 2
s-1.5 3.66602 -1.5 6.99902v26c0 5.33301 2 8 6 8h250c4 0 6 -2 6 -6v-28z" />
    <glyph glyph-name="emacron" unicode="&#x113;" 
d="M132 137c17.333 -31.333 41.001 -56.3311 71.001 -74.998s62.667 -28 98 -28c76 0 133 30.333 171 91c4 5.33301 7.66699 6.33301 11 3l28 -16c3.33301 -2.66699 3.66602 -6.33398 0.999023 -11.001c-47.333 -74 -118.333 -111 -213 -111c-48 0 -90.5 11.333 -127.5 34
s-65.833 54.5 -86.5 95.5s-31 88.167 -31 141.5c0 56.667 10.5 106.167 31.5 148.5s50 74.666 87 96.999s79.167 33.5 126.5 33.5c71.333 0 127.833 -23.5 169.5 -70.5s62.5 -112.5 62.5 -196.5v-6c0 -4.66699 -0.833008 -8.16699 -2.5 -10.5s-5.5 -3.83301 -11.5 -4.5h-404
c-4.66699 0 -7 -4.66699 -7 -14c0 -36 8.66699 -69.667 26 -101zM462.001 293.002c6.66699 0 11.167 0.999023 13.5 2.99902s3.5 5.66699 3.5 11c0 34.667 -7.33301 66.5 -22 95.5s-35.667 52 -63 69s-59 25.5 -95 25.5c-40 0 -74.667 -10 -104 -30s-51.5 -45.667 -66.5 -77
s-22.167 -63.666 -21.5 -96.999h355zM428.001 689.001c0 -3.33301 -0.833008 -5.66602 -2.5 -6.99902s-4.5 -2 -8.5 -2h-243c-3.33301 0 -5.5 0.666992 -6.5 2s-1.5 3.66602 -1.5 6.99902v26c0 5.33301 2 8 6 8h250c4 0 6 -2 6 -6v-28z" />
    <glyph glyph-name="Ebreve" unicode="&#x114;" horiz-adv-x="616" 
d="M112 740c1.33301 1.33301 3.99902 1.99902 7.99902 1.99902h423c4.66699 0 7 -2.66699 7 -8v-31c0 -3.33301 -0.666992 -5.66602 -2 -6.99902s-3.66602 -2 -6.99902 -2h-364c-4 0 -6.66699 -0.5 -8 -1.5s-2 -3.5 -2 -7.5v-278c0 -3.33301 0.666992 -5.5 2 -6.5
s4 -1.5 8 -1.5h282c5.33301 0 8 -2.66699 8 -8v-32c0 -3.33301 -0.666992 -5.5 -2 -6.5s-3.66602 -1.5 -6.99902 -1.5h-281c-4 0 -6.66699 -0.5 -8 -1.5s-2 -3.5 -2 -7.5v-285c0 -4 0.666992 -6.5 2 -7.5s4 -1.5 8 -1.5h379c3.33301 0 5.66602 -0.5 6.99902 -1.5
s2 -3.16699 2 -6.5v-32c0 -5.33301 -2.66699 -8 -8 -8h-437c-4 0 -6.66699 0.666992 -8 2s-2 4.33301 -2 9v720c0 4.66699 0.666992 7.66699 2 9zM477.499 951.999c1 -1.33301 0.833984 -3.99902 -0.499023 -7.99902c-6 -21.333 -21 -41 -45 -59s-54 -27 -90 -27
s-65.333 8.83301 -88 26.5s-37 38.167 -43 61.5c-2 5.33301 -0.333008 8 5 8h37c3.33301 0 5.83301 -0.666992 7.5 -2s3.5 -3 5.5 -5c1.33301 -1.33301 5.16602 -6.33301 11.499 -15s15 -15.834 26 -21.501s23.833 -8.5 38.5 -8.5c34 0 60.667 15.333 80 46
c2.66699 4 6 6 10 6h37c4.66699 0 7.5 -0.666992 8.5 -2z" />
    <glyph glyph-name="ebreve" unicode="&#x115;" 
d="M132 137c17.333 -31.333 41.001 -56.3311 71.001 -74.998s62.667 -28 98 -28c76 0 133 30.333 171 91c4 5.33301 7.66699 6.33301 11 3l28 -16c3.33301 -2.66699 3.66602 -6.33398 0.999023 -11.001c-47.333 -74 -118.333 -111 -213 -111c-48 0 -90.5 11.333 -127.5 34
s-65.833 54.5 -86.5 95.5s-31 88.167 -31 141.5c0 56.667 10.5 106.167 31.5 148.5s50 74.666 87 96.999s79.167 33.5 126.5 33.5c71.333 0 127.833 -23.5 169.5 -70.5s62.5 -112.5 62.5 -196.5v-6c0 -4.66699 -0.833008 -8.16699 -2.5 -10.5s-5.5 -3.83301 -11.5 -4.5h-404
c-4.66699 0 -7 -4.66699 -7 -14c0 -36 8.66699 -69.667 26 -101zM462.001 293.002c6.66699 0 11.167 0.999023 13.5 2.99902s3.5 5.66699 3.5 11c0 34.667 -7.33301 66.5 -22 95.5s-35.667 52 -63 69s-59 25.5 -95 25.5c-40 0 -74.667 -10 -104 -30s-51.5 -45.667 -66.5 -77
s-22.167 -63.666 -21.5 -96.999h355zM430.501 740.001c1 -1.33301 0.833984 -3.99902 -0.499023 -7.99902c-6 -21.333 -21 -41 -45 -59s-54 -27 -90 -27s-65.333 8.83301 -88 26.5s-37 38.167 -43 61.5c-2 5.33301 -0.333008 8 5 8h37c3.33301 0 5.83301 -0.666992 7.5 -2
s3.5 -3 5.5 -5c1.33301 -1.33301 5.16602 -6.33301 11.499 -15s15 -15.834 26 -21.501s23.833 -8.5 38.5 -8.5c34 0 60.667 15.333 80 46c2.66699 4 6 6 10 6h37c4.66699 0 7.5 -0.666992 8.5 -2z" />
    <glyph glyph-name="Edotaccent" unicode="&#x116;" horiz-adv-x="616" 
d="M112 740c1.33301 1.33301 3.99902 1.99902 7.99902 1.99902h423c4.66699 0 7 -2.66699 7 -8v-31c0 -3.33301 -0.666992 -5.66602 -2 -6.99902s-3.66602 -2 -6.99902 -2h-364c-4 0 -6.66699 -0.5 -8 -1.5s-2 -3.5 -2 -7.5v-278c0 -3.33301 0.666992 -5.5 2 -6.5
s4 -1.5 8 -1.5h282c5.33301 0 8 -2.66699 8 -8v-32c0 -3.33301 -0.666992 -5.5 -2 -6.5s-3.66602 -1.5 -6.99902 -1.5h-281c-4 0 -6.66699 -0.5 -8 -1.5s-2 -3.5 -2 -7.5v-285c0 -4 0.666992 -6.5 2 -7.5s4 -1.5 8 -1.5h379c3.33301 0 5.66602 -0.5 6.99902 -1.5
s2 -3.16699 2 -6.5v-32c0 -5.33301 -2.66699 -8 -8 -8h-437c-4 0 -6.66699 0.666992 -8 2s-2 4.33301 -2 9v720c0 4.66699 0.666992 7.66699 2 9zM372.999 864.999c0 -5.33301 -0.831055 -8.83301 -2.49805 -10.5s-5.16699 -2.5 -10.5 -2.5h-34
c-4.66699 0 -7.83398 0.666992 -9.50098 2s-2.5 4.33301 -2.5 9v80c0 4.66699 0.666992 7.66699 2 9s4 2 8 2h40c3.33301 0 5.66602 -0.666992 6.99902 -2s2 -4.33301 2 -9v-78z" />
    <glyph glyph-name="edotaccent" unicode="&#x117;" 
d="M132 137c17.333 -31.333 41.001 -56.3311 71.001 -74.998s62.667 -28 98 -28c76 0 133 30.333 171 91c4 5.33301 7.66699 6.33301 11 3l28 -16c3.33301 -2.66699 3.66602 -6.33398 0.999023 -11.001c-47.333 -74 -118.333 -111 -213 -111c-48 0 -90.5 11.333 -127.5 34
s-65.833 54.5 -86.5 95.5s-31 88.167 -31 141.5c0 56.667 10.5 106.167 31.5 148.5s50 74.666 87 96.999s79.167 33.5 126.5 33.5c71.333 0 127.833 -23.5 169.5 -70.5s62.5 -112.5 62.5 -196.5v-6c0 -4.66699 -0.833008 -8.16699 -2.5 -10.5s-5.5 -3.83301 -11.5 -4.5h-404
c-4.66699 0 -7 -4.66699 -7 -14c0 -36 8.66699 -69.667 26 -101zM462.001 293.002c6.66699 0 11.167 0.999023 13.5 2.99902s3.5 5.66699 3.5 11c0 34.667 -7.33301 66.5 -22 95.5s-35.667 52 -63 69s-59 25.5 -95 25.5c-40 0 -74.667 -10 -104 -30s-51.5 -45.667 -66.5 -77
s-22.167 -63.666 -21.5 -96.999h355zM274.001 653.001c0 -5.33301 -0.831055 -8.83301 -2.49805 -10.5s-5.16699 -2.5 -10.5 -2.5h-34c-4.66699 0 -7.83398 0.666992 -9.50098 2s-2.5 4.33301 -2.5 9v80c0 4.66699 0.666992 7.66699 2 9s4 2 8 2h40
c3.33301 0 5.66602 -0.666992 6.99902 -2s2 -4.33301 2 -9v-78z" />
    <glyph glyph-name="Eogonek" unicode="&#x118;" horiz-adv-x="616" 
d="M586 -119.5c1.33301 -0.333008 2.00098 -1.83594 2.00098 -4.50293v-22c0 -2.66699 -0.333008 -4.66699 -1 -6s-2 -2.33301 -4 -3c-8.66699 -4 -20.334 -7.5 -35.001 -10.5s-29.667 -4.5 -45 -4.5c-31.333 0 -54.833 7 -70.5 21s-23.5 33 -23.5 57
c0 20.667 6.16699 38.334 18.5 53.001s33.833 27.667 64.5 39h-372c-4 0 -6.66699 0.666992 -8 2s-2 4.33301 -2 9v720c0 4.66699 0.666992 7.66699 2 9s4 2 8 2h423c4.66699 0 7 -2.66699 7 -8v-31c0 -3.33301 -0.666992 -5.66602 -2 -6.99902s-3.66602 -2 -6.99902 -2
h-364c-4 0 -6.66699 -0.5 -8 -1.5s-2 -3.5 -2 -7.5v-278c0 -3.33301 0.666992 -5.5 2 -6.5s4 -1.5 8 -1.5h282c5.33301 0 8 -2.66699 8 -8v-32c0 -3.33301 -0.666992 -5.5 -2 -6.5s-3.66602 -1.5 -6.99902 -1.5h-281c-4 0 -6.66699 -0.5 -8 -1.5s-2 -3.5 -2 -7.5v-285
c0 -4 0.666992 -6.5 2 -7.5s4 -1.5 8 -1.5h379c3.33301 0 5.66602 -0.5 6.99902 -1.5s2 -3.16699 2 -6.5v-32c0 -4 -2 -6.66699 -6 -8c-35.333 -16 -60.833 -30.833 -76.5 -44.5s-23.5 -29.5 -23.5 -47.5c0 -14 4.5 -24.333 13.5 -31s23.167 -10 42.5 -10
c13.333 0 26 1.33301 38 4s20.667 5.33398 26 8.00098c3.33301 1.33301 5.66602 1.83301 6.99902 1.5z" />
    <glyph glyph-name="eogonek" unicode="&#x119;" 
d="M531 267c0 -4.66699 -0.831055 -8.16699 -2.49805 -10.5s-5.5 -3.83301 -11.5 -4.5h-404c-4.66699 0 -7 -4.66699 -7 -14c0 -36 8.66699 -69.667 26 -101s41 -56.333 71 -75s62.667 -28 98 -28c76 0 133 30.333 171 91c4 5.33301 7.66699 6.33301 11 3l28 -16
c3.33301 -2.66699 3.66602 -6.33398 0.999023 -11.001c-30.667 -48 -71.334 -80.667 -122.001 -98c-30.667 -14 -53 -27.5 -67 -40.5s-21 -28.167 -21 -45.5c0 -14 4.5 -24.333 13.5 -31s23.167 -10 42.5 -10c13.333 0 26 1.33301 38 4s20.667 5.33398 26 8.00098
c3.33301 1.33301 5.66602 1.83301 6.99902 1.5s2 -1.83301 2 -4.5v-22c0 -2.66699 -0.333008 -4.66699 -1 -6s-2 -2.33301 -4 -3c-8.66699 -4 -20.334 -7.5 -35.001 -10.5s-29.667 -4.5 -45 -4.5c-31.333 0 -54.833 7 -70.5 21s-23.5 33 -23.5 57c0 15.333 3.33301 29 10 41
s17.667 22.667 33 32c-47.333 0.666992 -89.166 12.5 -125.499 35.5s-64.666 54.833 -84.999 95.5s-30.5 87.334 -30.5 140.001c0 56.667 10.5 106.167 31.5 148.5s50 74.666 87 96.999s79.167 33.5 126.5 33.5c71.333 0 127.833 -23.5 169.5 -70.5s62.5 -112.5 62.5 -196.5
v-6zM475.502 296c2.33301 2 3.5 5.66602 3.5 10.999c0 34.667 -7.33301 66.5 -22 95.5s-35.667 52 -63 69s-59 25.5 -95 25.5c-40 0 -74.667 -10 -104 -30s-51.5 -45.667 -66.5 -77s-22.167 -63.666 -21.5 -96.999h355c6.66699 0 11.167 1 13.5 3z" />
    <glyph glyph-name="Ecaron" unicode="&#x11a;" horiz-adv-x="616" 
d="M112 740c1.33301 1.33301 3.99902 1.99902 7.99902 1.99902h423c4.66699 0 7 -2.66699 7 -8v-31c0 -3.33301 -0.666992 -5.66602 -2 -6.99902s-3.66602 -2 -6.99902 -2h-364c-4 0 -6.66699 -0.5 -8 -1.5s-2 -3.5 -2 -7.5v-278c0 -3.33301 0.666992 -5.5 2 -6.5
s4 -1.5 8 -1.5h282c5.33301 0 8 -2.66699 8 -8v-32c0 -3.33301 -0.666992 -5.5 -2 -6.5s-3.66602 -1.5 -6.99902 -1.5h-281c-4 0 -6.66699 -0.5 -8 -1.5s-2 -3.5 -2 -7.5v-285c0 -4 0.666992 -6.5 2 -7.5s4 -1.5 8 -1.5h379c3.33301 0 5.66602 -0.5 6.99902 -1.5
s2 -3.16699 2 -6.5v-32c0 -5.33301 -2.66699 -8 -8 -8h-437c-4 0 -6.66699 0.666992 -8 2s-2 4.33301 -2 9v720c0 4.66699 0.666992 7.66699 2 9zM426.999 953.999h45.001c4.66699 0 7 -1 7 -3c0 -1.33301 -2 -3.66602 -6 -6.99902l-98 -83
c-0.666992 -0.666992 -2.5 -2.33398 -5.5 -5.00098s-6.83301 -4 -11.5 -4h-23c-7.33301 0 -14.333 3.33301 -21 10l-100 82c-3.33301 2.66699 -4.66602 5 -3.99902 7s2.66699 3 6 3h41c3.33301 0 6.16602 -0.5 8.49902 -1.5s4.83301 -2.5 7.5 -4.5l61 -49
c4.66699 -4 8 -6 10 -6c1.33301 0 4.66602 2 9.99902 6l58 49c4.66699 4 9.66699 6 15 6z" />
    <glyph glyph-name="ecaron" unicode="&#x11b;" 
d="M132 137c17.333 -31.333 41.001 -56.3311 71.001 -74.998s62.667 -28 98 -28c76 0 133 30.333 171 91c4 5.33301 7.66699 6.33301 11 3l28 -16c3.33301 -2.66699 3.66602 -6.33398 0.999023 -11.001c-47.333 -74 -118.333 -111 -213 -111c-48 0 -90.5 11.333 -127.5 34
s-65.833 54.5 -86.5 95.5s-31 88.167 -31 141.5c0 56.667 10.5 106.167 31.5 148.5s50 74.666 87 96.999s79.167 33.5 126.5 33.5c71.333 0 127.833 -23.5 169.5 -70.5s62.5 -112.5 62.5 -196.5v-6c0 -4.66699 -0.833008 -8.16699 -2.5 -10.5s-5.5 -3.83301 -11.5 -4.5h-404
c-4.66699 0 -7 -4.66699 -7 -14c0 -36 8.66699 -69.667 26 -101zM462.001 293.002c6.66699 0 11.167 0.999023 13.5 2.99902s3.5 5.66699 3.5 11c0 34.667 -7.33301 66.5 -22 95.5s-35.667 52 -63 69s-59 25.5 -95 25.5c-40 0 -74.667 -10 -104 -30s-51.5 -45.667 -66.5 -77
s-22.167 -63.666 -21.5 -96.999h355zM380.001 742.001h45.001c4.66699 0 7 -1 7 -3c0 -1.33301 -2 -3.66602 -6 -6.99902l-98 -83c-0.666992 -0.666992 -2.5 -2.33398 -5.5 -5.00098s-6.83301 -4 -11.5 -4h-23c-7.33301 0 -14.333 3.33301 -21 10l-100 82
c-3.33301 2.66699 -4.66602 5 -3.99902 7s2.66699 3 6 3h41c3.33301 0 6.16602 -0.5 8.49902 -1.5s4.83301 -2.5 7.5 -4.5l61 -49c4.66699 -4 8 -6 10 -6c1.33301 0 4.66602 2 9.99902 6l58 49c4.66699 4 9.66699 6 15 6z" />
    <glyph glyph-name="Gcircumflex" unicode="&#x11c;" horiz-adv-x="732" 
d="M213 35c-44.667 30 -78.833 73.333 -102.5 130s-35.5 124.334 -35.5 203.001c0 80.667 12.167 149.834 36.5 207.501s59 101.5 104 131.5s98.167 45 159.5 45c41.333 0 81.166 -9 119.499 -27s70 -41.833 95 -71.5s39.5 -61.834 43.5 -96.501
c1.33301 -5.33301 -0.333984 -8.33301 -5.00098 -9l-44 -8c-4.66699 0 -7.33398 2.33301 -8.00098 7c-4.66699 28.667 -16.5 55 -35.5 79s-42.833 42.833 -71.5 56.5s-60 20.5 -94 20.5c-77.333 0 -136.666 -28.667 -177.999 -86s-62 -138.333 -62 -243
c0 -109.333 20.333 -192.5 61 -249.5s100.334 -85.5 179.001 -85.5c47.333 0 87.833 11 121.5 33s58.834 49.5 75.501 82.5s25.334 65.833 26.001 98.5v74c0 6 -3.66699 9 -11 9h-183c-5.33301 0 -8 2.33301 -8 7v27c0 4.66699 2 7 6 7h239c5.33301 0 8 -2.66699 8 -8v-358
c0 -4 -0.666992 -6.83301 -2 -8.5s-4 -2.5 -8 -2.5h-19c-4.66699 0 -8 0.5 -10 1.5s-3.33301 3.83301 -4 8.5l-2 103c-0.666992 3.33301 -1.83398 5 -3.50098 5s-3.5 -1.66699 -5.5 -5c-20.667 -36.667 -49.667 -66.334 -87 -89.001s-82.333 -34 -135 -34
c-62 0 -115.333 15 -160 45zM385.001 908c-5.33301 4 -8.66699 6.00098 -10 6.00098c-2 0 -5.33301 -2 -10 -6l-61 -49c-2.66699 -2 -5.16699 -3.5 -7.5 -4.5s-5.16602 -1.5 -8.49902 -1.5h-41c-3.33301 0 -5.33301 1 -6 3s0.666016 4.33301 3.99902 7l100 82
c6.66699 6.66699 13.667 10 21 10h23c4.66699 0 8.5 -1.33301 11.5 -4s4.83301 -4.33398 5.5 -5.00098l98 -83c4 -3.33301 6 -5.83301 6 -7.5s-2.33301 -2.5 -7 -2.5h-45c-5.33301 0 -10.333 2 -15 6z" />
    <glyph glyph-name="gcircumflex" unicode="&#x11d;" horiz-adv-x="586" 
d="M553 529c2.66699 -2 4 -5.66602 4 -10.999v-18c0 -10.667 -5.66699 -16 -17 -16c-13.333 -0.666992 -23.833 -1.83398 -31.5 -3.50098s-15.5 -4.83398 -23.5 -9.50098c-8.66699 -4.66699 -14.5 -8.66699 -17.5 -12s-3.83301 -7 -2.5 -11c0.666992 -2 3 -7.16699 7 -15.5
s7.16699 -18 9.5 -29s3.5 -22.5 3.5 -34.5c0 -47.333 -17.167 -85.833 -51.5 -115.5s-85.5 -44.5 -153.5 -44.5c-51.333 0 -88.333 -4.5 -111 -13.5s-34 -20.5 -34 -34.5c0 -11.333 8 -19.666 24 -24.999s43 -9 81 -11l122 -7c105.333 -6 158 -51.333 158 -136
c0 -50 -21.167 -88.667 -63.5 -116s-102.166 -41 -179.499 -41c-78 0 -138.167 12.833 -180.5 38.5s-63.5 61.5 -63.5 107.5c0 48.667 30.667 89.667 92 123c7.33301 4 7.33301 7.66699 0 11c-26.667 11.333 -40 28.666 -40 51.999c0 12.667 5.83301 25 17.5 37
s29.167 21.667 52.5 29c3.33301 0.666992 5 2.33398 5 5.00098s-2 5 -6 7c-28 15.333 -48.5 33.833 -61.5 55.5s-19.5 47.834 -19.5 78.501c0 53.333 18.833 94.833 56.5 124.5s90.167 44.5 157.5 44.5c32.667 0 60.667 -3.83301 84 -11.5s43.666 -18.834 60.999 -33.501
c4.66699 -3.33301 8 -5 10 -5s5 1.33301 9 4c31.333 26.667 60.333 40 87 40c7.33301 0 12.333 -1 15 -3zM398 280.501c26 20.333 39.001 50.498 39.001 90.498c0 40.667 -13.167 71.834 -39.5 93.501s-65.166 32.5 -116.499 32.5c-50.667 0 -89.834 -11.167 -117.501 -33.5
s-41.5 -53.166 -41.5 -92.499c0 -38.667 13.667 -68.5 41 -89.5s66.666 -31.5 117.999 -31.5c52 0 91 10.167 117 30.5zM186.001 80.999c-12 0.666992 -26.332 -3.50195 -42.999 -12.502s-31 -21.667 -43 -38s-18 -34.166 -18 -53.499c0 -35.333 17.667 -62.666 53 -81.999
s85.666 -29 150.999 -29c122.667 0 184 38 184 114c0 28 -8.5 49.5 -25.5 64.5s-45.167 23.5 -84.5 25.5zM294.002 695.997c-5.33301 4 -8.66699 6.00098 -10 6.00098c-2 0 -5.33301 -2 -10 -6l-61 -49c-2.66699 -2 -5.16699 -3.5 -7.5 -4.5s-5.16602 -1.5 -8.49902 -1.5
h-41c-3.33301 0 -5.33301 1 -6 3s0.666016 4.33301 3.99902 7l100 82c6.66699 6.66699 13.667 10 21 10h23c4.66699 0 8.5 -1.33301 11.5 -4s4.83301 -4.33398 5.5 -5.00098l98 -83c4 -3.33301 6 -5.83301 6 -7.5s-2.33301 -2.5 -7 -2.5h-45c-5.33301 0 -10.333 2 -15 6z
" />
    <glyph glyph-name="Gbreve" unicode="&#x11e;" horiz-adv-x="732" 
d="M213 35c-44.667 30 -78.833 73.333 -102.5 130s-35.5 124.334 -35.5 203.001c0 80.667 12.167 149.834 36.5 207.501s59 101.5 104 131.5s98.167 45 159.5 45c41.333 0 81.166 -9 119.499 -27s70 -41.833 95 -71.5s39.5 -61.834 43.5 -96.501
c1.33301 -5.33301 -0.333984 -8.33301 -5.00098 -9l-44 -8c-4.66699 0 -7.33398 2.33301 -8.00098 7c-4.66699 28.667 -16.5 55 -35.5 79s-42.833 42.833 -71.5 56.5s-60 20.5 -94 20.5c-77.333 0 -136.666 -28.667 -177.999 -86s-62 -138.333 -62 -243
c0 -109.333 20.333 -192.5 61 -249.5s100.334 -85.5 179.001 -85.5c47.333 0 87.833 11 121.5 33s58.834 49.5 75.501 82.5s25.334 65.833 26.001 98.5v74c0 6 -3.66699 9 -11 9h-183c-5.33301 0 -8 2.33301 -8 7v27c0 4.66699 2 7 6 7h239c5.33301 0 8 -2.66699 8 -8v-358
c0 -4 -0.666992 -6.83301 -2 -8.5s-4 -2.5 -8 -2.5h-19c-4.66699 0 -8 0.5 -10 1.5s-3.33301 3.83301 -4 8.5l-2 103c-0.666992 3.33301 -1.83398 5 -3.50098 5s-3.5 -1.66699 -5.5 -5c-20.667 -36.667 -49.667 -66.334 -87 -89.001s-82.333 -34 -135 -34
c-62 0 -115.333 15 -160 45zM508.501 952c1 -1.33301 0.833984 -3.99902 -0.499023 -7.99902c-6 -21.333 -21 -41 -45 -59s-54 -27 -90 -27s-65.333 8.83301 -88 26.5s-37 38.167 -43 61.5c-2 5.33301 -0.333008 8 5 8h37c3.33301 0 5.83301 -0.666992 7.5 -2s3.5 -3 5.5 -5
c1.33301 -1.33301 5.16602 -6.33301 11.499 -15s15 -15.834 26 -21.501s23.833 -8.5 38.5 -8.5c34 0 60.667 15.333 80 46c2.66699 4 6 6 10 6h37c4.66699 0 7.5 -0.666992 8.5 -2z" />
    <glyph glyph-name="gbreve" unicode="&#x11f;" horiz-adv-x="586" 
d="M553 529c2.66699 -2 4 -5.66602 4 -10.999v-18c0 -10.667 -5.66699 -16 -17 -16c-13.333 -0.666992 -23.833 -1.83398 -31.5 -3.50098s-15.5 -4.83398 -23.5 -9.50098c-8.66699 -4.66699 -14.5 -8.66699 -17.5 -12s-3.83301 -7 -2.5 -11c0.666992 -2 3 -7.16699 7 -15.5
s7.16699 -18 9.5 -29s3.5 -22.5 3.5 -34.5c0 -47.333 -17.167 -85.833 -51.5 -115.5s-85.5 -44.5 -153.5 -44.5c-51.333 0 -88.333 -4.5 -111 -13.5s-34 -20.5 -34 -34.5c0 -11.333 8 -19.666 24 -24.999s43 -9 81 -11l122 -7c105.333 -6 158 -51.333 158 -136
c0 -50 -21.167 -88.667 -63.5 -116s-102.166 -41 -179.499 -41c-78 0 -138.167 12.833 -180.5 38.5s-63.5 61.5 -63.5 107.5c0 48.667 30.667 89.667 92 123c7.33301 4 7.33301 7.66699 0 11c-26.667 11.333 -40 28.666 -40 51.999c0 12.667 5.83301 25 17.5 37
s29.167 21.667 52.5 29c3.33301 0.666992 5 2.33398 5 5.00098s-2 5 -6 7c-28 15.333 -48.5 33.833 -61.5 55.5s-19.5 47.834 -19.5 78.501c0 53.333 18.833 94.833 56.5 124.5s90.167 44.5 157.5 44.5c32.667 0 60.667 -3.83301 84 -11.5s43.666 -18.834 60.999 -33.501
c4.66699 -3.33301 8 -5 10 -5s5 1.33301 9 4c31.333 26.667 60.333 40 87 40c7.33301 0 12.333 -1 15 -3zM398 280.501c26 20.333 39.001 50.498 39.001 90.498c0 40.667 -13.167 71.834 -39.5 93.501s-65.166 32.5 -116.499 32.5c-50.667 0 -89.834 -11.167 -117.501 -33.5
s-41.5 -53.166 -41.5 -92.499c0 -38.667 13.667 -68.5 41 -89.5s66.666 -31.5 117.999 -31.5c52 0 91 10.167 117 30.5zM186.001 80.999c-12 0.666992 -26.332 -3.50195 -42.999 -12.502s-31 -21.667 -43 -38s-18 -34.166 -18 -53.499c0 -35.333 17.667 -62.666 53 -81.999
s85.666 -29 150.999 -29c122.667 0 184 38 184 114c0 28 -8.5 49.5 -25.5 64.5s-45.167 23.5 -84.5 25.5zM417.502 739.997c1 -1.33301 0.833984 -3.99902 -0.499023 -7.99902c-6 -21.333 -21 -41 -45 -59s-54 -27 -90 -27s-65.333 8.83301 -88 26.5s-37 38.167 -43 61.5
c-2 5.33301 -0.333008 8 5 8h37c3.33301 0 5.83301 -0.666992 7.5 -2s3.5 -3 5.5 -5c1.33301 -1.33301 5.16602 -6.33301 11.499 -15s15 -15.834 26 -21.501s23.833 -8.5 38.5 -8.5c34 0 60.667 15.333 80 46c2.66699 4 6 6 10 6h37c4.66699 0 7.5 -0.666992 8.5 -2z" />
    <glyph glyph-name="Gdotaccent" unicode="&#x120;" horiz-adv-x="732" 
d="M213 35c-44.667 30 -78.833 73.333 -102.5 130s-35.5 124.334 -35.5 203.001c0 80.667 12.167 149.834 36.5 207.501s59 101.5 104 131.5s98.167 45 159.5 45c41.333 0 81.166 -9 119.499 -27s70 -41.833 95 -71.5s39.5 -61.834 43.5 -96.501
c1.33301 -5.33301 -0.333984 -8.33301 -5.00098 -9l-44 -8c-4.66699 0 -7.33398 2.33301 -8.00098 7c-4.66699 28.667 -16.5 55 -35.5 79s-42.833 42.833 -71.5 56.5s-60 20.5 -94 20.5c-77.333 0 -136.666 -28.667 -177.999 -86s-62 -138.333 -62 -243
c0 -109.333 20.333 -192.5 61 -249.5s100.334 -85.5 179.001 -85.5c47.333 0 87.833 11 121.5 33s58.834 49.5 75.501 82.5s25.334 65.833 26.001 98.5v74c0 6 -3.66699 9 -11 9h-183c-5.33301 0 -8 2.33301 -8 7v27c0 4.66699 2 7 6 7h239c5.33301 0 8 -2.66699 8 -8v-358
c0 -4 -0.666992 -6.83301 -2 -8.5s-4 -2.5 -8 -2.5h-19c-4.66699 0 -8 0.5 -10 1.5s-3.33301 3.83301 -4 8.5l-2 103c-0.666992 3.33301 -1.83398 5 -3.50098 5s-3.5 -1.66699 -5.5 -5c-20.667 -36.667 -49.667 -66.334 -87 -89.001s-82.333 -34 -135 -34
c-62 0 -115.333 15 -160 45zM404.001 865c0 -5.33301 -0.831055 -8.83301 -2.49805 -10.5s-5.16699 -2.5 -10.5 -2.5h-34c-4.66699 0 -7.83398 0.666992 -9.50098 2s-2.5 4.33301 -2.5 9v80c0 4.66699 0.666992 7.66699 2 9s4 2 8 2h40
c3.33301 0 5.66602 -0.666992 6.99902 -2s2 -4.33301 2 -9v-78z" />
    <glyph glyph-name="gdotaccent" unicode="&#x121;" horiz-adv-x="586" 
d="M553 529c2.66699 -2 4 -5.66602 4 -10.999v-18c0 -10.667 -5.66699 -16 -17 -16c-13.333 -0.666992 -23.833 -1.83398 -31.5 -3.50098s-15.5 -4.83398 -23.5 -9.50098c-8.66699 -4.66699 -14.5 -8.66699 -17.5 -12s-3.83301 -7 -2.5 -11c0.666992 -2 3 -7.16699 7 -15.5
s7.16699 -18 9.5 -29s3.5 -22.5 3.5 -34.5c0 -47.333 -17.167 -85.833 -51.5 -115.5s-85.5 -44.5 -153.5 -44.5c-51.333 0 -88.333 -4.5 -111 -13.5s-34 -20.5 -34 -34.5c0 -11.333 8 -19.666 24 -24.999s43 -9 81 -11l122 -7c105.333 -6 158 -51.333 158 -136
c0 -50 -21.167 -88.667 -63.5 -116s-102.166 -41 -179.499 -41c-78 0 -138.167 12.833 -180.5 38.5s-63.5 61.5 -63.5 107.5c0 48.667 30.667 89.667 92 123c7.33301 4 7.33301 7.66699 0 11c-26.667 11.333 -40 28.666 -40 51.999c0 12.667 5.83301 25 17.5 37
s29.167 21.667 52.5 29c3.33301 0.666992 5 2.33398 5 5.00098s-2 5 -6 7c-28 15.333 -48.5 33.833 -61.5 55.5s-19.5 47.834 -19.5 78.501c0 53.333 18.833 94.833 56.5 124.5s90.167 44.5 157.5 44.5c32.667 0 60.667 -3.83301 84 -11.5s43.666 -18.834 60.999 -33.501
c4.66699 -3.33301 8 -5 10 -5s5 1.33301 9 4c31.333 26.667 60.333 40 87 40c7.33301 0 12.333 -1 15 -3zM398 280.501c26 20.333 39.001 50.498 39.001 90.498c0 40.667 -13.167 71.834 -39.5 93.501s-65.166 32.5 -116.499 32.5c-50.667 0 -89.834 -11.167 -117.501 -33.5
s-41.5 -53.166 -41.5 -92.499c0 -38.667 13.667 -68.5 41 -89.5s66.666 -31.5 117.999 -31.5c52 0 91 10.167 117 30.5zM186.001 80.999c-12 0.666992 -26.332 -3.50195 -42.999 -12.502s-31 -21.667 -43 -38s-18 -34.166 -18 -53.499c0 -35.333 17.667 -62.666 53 -81.999
s85.666 -29 150.999 -29c122.667 0 184 38 184 114c0 28 -8.5 49.5 -25.5 64.5s-45.167 23.5 -84.5 25.5zM313.002 652.997c0 -5.33301 -0.831055 -8.83301 -2.49805 -10.5s-5.16699 -2.5 -10.5 -2.5h-34c-4.66699 0 -7.83398 0.666992 -9.50098 2s-2.5 4.33301 -2.5 9v80
c0 4.66699 0.666992 7.66699 2 9s4 2 8 2h40c3.33301 0 5.66602 -0.666992 6.99902 -2s2 -4.33301 2 -9v-78z" />
    <glyph glyph-name="Gcommaaccent" unicode="&#x122;" horiz-adv-x="732" 
d="M213 35c-44.667 30 -78.833 73.333 -102.5 130s-35.5 124.334 -35.5 203.001c0 80.667 12.167 149.834 36.5 207.501s59 101.5 104 131.5s98.167 45 159.5 45c41.333 0 81.166 -9 119.499 -27s70 -41.833 95 -71.5s39.5 -61.834 43.5 -96.501
c1.33301 -5.33301 -0.333984 -8.33301 -5.00098 -9l-44 -8c-4.66699 0 -7.33398 2.33301 -8.00098 7c-4.66699 28.667 -16.5 55 -35.5 79s-42.833 42.833 -71.5 56.5s-60 20.5 -94 20.5c-77.333 0 -136.666 -28.667 -177.999 -86s-62 -138.333 -62 -243
c0 -109.333 20.333 -192.5 61 -249.5s100.334 -85.5 179.001 -85.5c47.333 0 87.833 11 121.5 33s58.834 49.5 75.501 82.5s25.334 65.833 26.001 98.5v74c0 6 -3.66699 9 -11 9h-183c-5.33301 0 -8 2.33301 -8 7v27c0 4.66699 2 7 6 7h239c5.33301 0 8 -2.66699 8 -8v-358
c0 -4 -0.666992 -6.83301 -2 -8.5s-4 -2.5 -8 -2.5h-19c-4.66699 0 -8 0.5 -10 1.5s-3.33301 3.83301 -4 8.5l-2 103c-0.666992 3.33301 -1.83398 5 -3.50098 5s-3.5 -1.66699 -5.5 -5c-20.667 -36.667 -49.667 -66.334 -87 -89.001s-82.333 -34 -135 -34
c-62 0 -115.333 15 -160 45zM346.501 -234c-1 2 -1.16602 4 -0.499023 6l26 54c1.33301 2.66699 1.66602 5 0.999023 7s-2.33398 3 -5.00098 3h-8c-3.33301 0 -5.66602 0.666992 -6.99902 2s-2 4 -2 8v65c0 6 2.33301 9 7 9h48c4.66699 0 7 -2.66699 7 -8v-76l-1 -7l-33 -59
c-1.33301 -2.66699 -3 -4.5 -5 -5.5s-5.33301 -1.5 -10 -1.5h-13c-2 0 -3.5 1 -4.5 3z" />
    <glyph glyph-name="gcommaaccent" unicode="&#x123;" horiz-adv-x="586" 
d="M250 638v76l1 7l33 59c1.33301 2.66699 3 4.5 5 5.5s5.33301 1.5 10 1.5h13c2.66699 0 4.5 -1 5.5 -3s0.833008 -4 -0.5 -6l-26 -54c-0.666992 -1.33301 -1 -3 -1 -5c0 -3.33301 2 -5 6 -5h8c6 0 9 -3.33301 9 -10v-65c0 -6 -2.66699 -9 -8 -9h-48
c-4.66699 0 -7 2.66699 -7 8zM553 529c2.66699 -2 4 -5.66602 4 -10.999v-18c0 -10.667 -5.66699 -16 -17 -16c-13.333 -0.666992 -23.833 -1.83398 -31.5 -3.50098s-15.5 -4.83398 -23.5 -9.50098c-8.66699 -4.66699 -14.5 -8.66699 -17.5 -12s-3.83301 -7 -2.5 -11
c0.666992 -2 3 -7.16699 7 -15.5s7.16699 -18 9.5 -29s3.5 -22.5 3.5 -34.5c0 -47.333 -17.167 -85.833 -51.5 -115.5s-85.5 -44.5 -153.5 -44.5c-51.333 0 -88.333 -4.5 -111 -13.5s-34 -20.5 -34 -34.5c0 -11.333 8 -19.666 24 -24.999s43 -9 81 -11l122 -7
c105.333 -6 158 -51.333 158 -136c0 -50 -21.167 -88.667 -63.5 -116s-102.166 -41 -179.499 -41c-78 0 -138.167 12.833 -180.5 38.5s-63.5 61.5 -63.5 107.5c0 48.667 30.667 89.667 92 123c7.33301 4 7.33301 7.66699 0 11c-26.667 11.333 -40 28.666 -40 51.999
c0 12.667 5.83301 25 17.5 37s29.167 21.667 52.5 29c3.33301 0.666992 5 2.33398 5 5.00098s-2 5 -6 7c-28 15.333 -48.5 33.833 -61.5 55.5s-19.5 47.834 -19.5 78.501c0 53.333 18.833 94.833 56.5 124.5s90.167 44.5 157.5 44.5c32.667 0 60.667 -3.83301 84 -11.5
s43.666 -18.834 60.999 -33.501c4.66699 -3.33301 8 -5 10 -5s5 1.33301 9 4c31.333 26.667 60.333 40 87 40c7.33301 0 12.333 -1 15 -3zM398 280.501c26 20.333 39.001 50.498 39.001 90.498c0 40.667 -13.167 71.834 -39.5 93.501s-65.166 32.5 -116.499 32.5
c-50.667 0 -89.834 -11.167 -117.501 -33.5s-41.5 -53.166 -41.5 -92.499c0 -38.667 13.667 -68.5 41 -89.5s66.666 -31.5 117.999 -31.5c52 0 91 10.167 117 30.5zM186.001 80.999c-12 0.666992 -26.332 -3.50195 -42.999 -12.502s-31 -21.667 -43 -38
s-18 -34.166 -18 -53.499c0 -35.333 17.667 -62.666 53 -81.999s85.666 -29 150.999 -29c122.667 0 184 38 184 114c0 28 -8.5 49.5 -25.5 64.5s-45.167 23.5 -84.5 25.5z" />
    </font>
</defs>
</svg>
