<?xml version="1.0" standalone="no"?>
<!DOCTYPE svg PUBLIC "-//W3C//DTD SVG 1.1//EN" "http://www.w3.org/Graphics/SVG/1.1/DTD/svg11.dtd" >
<svg>
<metadata>
Created by FontForge 20090914 at Wed Jun 28 20:15:47 2017
 By www-data
Copyright (c) 2015, Impallari Type (www.impallari.com)
</metadata>
<defs>
<font id="LibreFranklin-Light" horiz-adv-x="232" >
  <font-face 
    font-family="Libre Franklin Light"
    font-weight="300"
    font-stretch="normal"
    units-per-em="1000"
    panose-1="0 0 4 0 0 0 0 0 0 0"
    ascent="800"
    descent="-200"
    x-height="529.999"
    cap-height="742"
    bbox="-346 -238.003 1261 964.274"
    underline-thickness="50"
    underline-position="-50"
    unicode-range="U+000D-U+FB02"
  />
<missing-glyph horiz-adv-x="716" 
d="M607 841.5c3.33301 -3.66699 5 -8.83301 5 -15.5v-962c0 -10.667 -2.66699 -18.167 -8 -22.5s-13.666 -6.5 -24.999 -6.5h-448c-10 0 -17 2 -21 6s-6 10.333 -6 19v964c0 7.33301 1.66699 13 5 17s8 6 14 6h471c5.33301 0 9.66602 -1.83301 12.999 -5.5zM556 792.001
c-2.66699 3.33301 -6.33301 5.00098 -11 5.00098h-353l368 -855v837c0 5.33301 -1.33301 9.66602 -4 12.999zM161.001 -109.998c3.33301 -3.33301 9.33301 -5.00098 18 -5.00098h344l-367 849v-828c0 -7.33301 1.66699 -12.666 5 -15.999z" />
    <glyph glyph-name="fi" unicode="fi" horiz-adv-x="605" 
d="M348 521l-0.000976562 -33.999c0 -5.33301 -3 -8 -9 -8h-121c-5.33301 0 -8 -2.66699 -8 -8v-458c0 -8.66699 -3.33301 -13 -10 -13h-46c-6.66699 0 -10 4 -10 12v459c0 5.33301 -2 8 -6 8h-105c-5.33301 0 -8 2.66699 -8 8v34c0 6 3 9 9 9h102
c3.33301 0 5.5 0.666992 6.5 2s1.5 3.66602 1.5 6.99902v76c0 84.667 40.333 127 121 127h78c6.66699 0 10 -3.33301 10 -10v-31c0 -6 -3.33301 -9 -10 -9h-74c-21.333 0 -36.666 -6.33301 -45.999 -19s-14 -31.667 -14 -57v-78c0 -5.33301 2.66699 -8 8 -8h123
c5.33301 0 8 -3 8 -9zM525.999 651.001c0 -6 -1 -10.5 -3 -13.5s-6 -4.5 -12 -4.5h-46c-5.33301 0 -8.83301 1.33301 -10.5 4s-2.5 6.66699 -2.5 12v78c0 10 4.33301 15 13 15h48c8.66699 0 13 -4.66699 13 -14v-77zM521.999 15.001c0 -6 -1 -10.001 -3 -12.001
s-6.33301 -3 -13 -3h-37c-4.66699 -0 -8 0.833008 -10 2.5s-3 4.83398 -3 9.50098v506c0 4.66699 0.833008 7.83398 2.5 9.50098s4.5 2.5 8.5 2.5h44c4 0 6.83301 -0.833008 8.5 -2.5s2.5 -4.83398 2.5 -9.50098v-503z" />
    <glyph glyph-name="fl" unicode="fl" horiz-adv-x="605" 
d="M348 521l-0.000976562 -33.999c0 -5.33301 -3 -8 -9 -8h-121c-5.33301 0 -8 -2.66699 -8 -8v-458c0 -8.66699 -3.33301 -13 -10 -13h-46c-6.66699 0 -10 4 -10 12v459c0 5.33301 -2 8 -6 8h-105c-5.33301 0 -8 2.66699 -8 8v34c0 6 3 9 9 9h102
c3.33301 0 5.5 0.666992 6.5 2s1.5 3.66602 1.5 6.99902v76c0 84.667 40.333 127 121 127h78c6.66699 0 10 -3.33301 10 -10v-31c0 -6 -3.33301 -9 -10 -9h-74c-21.333 0 -36.666 -6.33301 -45.999 -19s-14 -31.667 -14 -57v-78c0 -5.33301 2.66699 -8 8 -8h123
c5.33301 0 8 -3 8 -9zM521.999 15.001c0 -6 -1 -10.002 -3 -12.002s-6 -3 -12 -3h-38c-4.66699 0 -8 0.833008 -10 2.5s-3 4.83398 -3 9.50098l1 718c0 4.66699 0.666992 7.83398 2 9.50098s4 2.5 8 2.5h45c6.66699 0 10 -4 10 -12v-715z" />
    <glyph glyph-name=".notdef" horiz-adv-x="716" 
d="M607 841.5c3.33301 -3.66699 5 -8.83301 5 -15.5v-962c0 -10.667 -2.66699 -18.167 -8 -22.5s-13.666 -6.5 -24.999 -6.5h-448c-10 0 -17 2 -21 6s-6 10.333 -6 19v964c0 7.33301 1.66699 13 5 17s8 6 14 6h471c5.33301 0 9.66602 -1.83301 12.999 -5.5zM556 792.001
c-2.66699 3.33301 -6.33301 5.00098 -11 5.00098h-353l368 -855v837c0 5.33301 -1.33301 9.66602 -4 12.999zM161.001 -109.998c3.33301 -3.33301 9.33301 -5.00098 18 -5.00098h344l-367 849v-828c0 -7.33301 1.66699 -12.666 5 -15.999z" />
    <glyph glyph-name="uni0000" horiz-adv-x="0" 
 />
    <glyph glyph-name="uni0000" horiz-adv-x="0" 
 />
    <glyph glyph-name="nonmarkingreturn" unicode="&#xd;" horiz-adv-x="214" 
 />
    <glyph glyph-name="space" unicode=" " horiz-adv-x="217" 
 />
    <glyph glyph-name="exclam" unicode="!" horiz-adv-x="239" 
d="M143 178c0 -7.33301 -4.33398 -11 -13.001 -11h-23c-4 0 -6.83301 0.833008 -8.5 2.5s-2.5 4.16699 -2.5 7.5l-17 555c0 6.66699 2.66699 10 8 10h65c2.66699 0 4.83398 -0.833008 6.50098 -2.5s2.16699 -3.5 1.5 -5.5zM161.999 14c0 -5.33301 -1.16699 -9 -3.5 -11
s-6.5 -3 -12.5 -3h-57c-8.66699 0 -13 4 -13 12v75c0 7.33301 3 11 9 11h68c6 0 9 -3.33301 9 -10v-74z" />
    <glyph glyph-name="quotedbl" unicode="&#x22;" horiz-adv-x="393" 
d="M298 540c-0.666992 -4.66699 -1.83203 -8 -3.49902 -10s-4.83398 -3 -9.50098 -3h-22c-4 0 -6.66699 0.666992 -8 2s-2.33301 4 -3 8l-23 196c0 6 2.66699 9 8 9h77c5.33301 0 8 -2.66699 8 -8zM142.002 540c-0.666992 -4.66699 -1.83203 -8 -3.49902 -10
s-4.83398 -3 -9.50098 -3h-22c-4 0 -6.66699 0.666992 -8 2s-2.33301 4 -3 8l-23 196c0 6 2.66699 9 8 9h77c5.33301 0 8 -2.66699 8 -8z" />
    <glyph glyph-name="numbersign" unicode="#" horiz-adv-x="603" 
d="M565 495v-28c0 -8 -4.66699 -12 -14 -12h-104l-25 -162h101c6 0 9 -2.66699 9 -8v-28c0 -8 -4.66699 -12 -14 -12h-103l-36 -234c-0.666992 -8.66699 -4.66699 -12.334 -12 -11.001l-26 4c-4 0.666992 -6.66699 1.5 -8 2.5s-2 3.16699 -2 6.5l35 232h-158l-36 -234
c-0.666992 -8 -4.33398 -11.667 -11.001 -11l-27 4c-6.66699 0.666992 -9.66699 3.66699 -9 9l35 232h-111c-4 0 -6.66699 0.833008 -8 2.5s-2 4.16699 -2 7.5v28c0 6.66699 2.33301 10 7 10h122l25 162h-111c-4 0 -6.66699 0.833008 -8 2.5s-2 4.16699 -2 7.5v28
c0 6.66699 2.33301 10 7 10h121l35 230c1.33301 6.66699 4.33301 9.66699 9 9l30 -4c6 -1.33301 8.66699 -5.66602 8 -12.999l-34 -222h158l35 230c0.666992 3.33301 1.83398 5.83301 3.50098 7.5s3.5 2.16699 5.5 1.5l30 -4c6.66699 -0.666992 9.66699 -5 9 -13l-34 -222
h101c6 0 9 -2.66699 9 -8zM399 455h-159l-25 -162h159z" />
    <glyph glyph-name="dollar" unicode="$" horiz-adv-x="592" 
d="M528 82.5c-17.333 -27.667 -41.8281 -49.6631 -73.4951 -65.9961s-67.834 -24.833 -108.501 -25.5c-4 0 -6.66699 -0.5 -8 -1.5s-2 -3.16699 -2 -6.5v-61c0 -4.66699 -0.833008 -7.83398 -2.5 -9.50098s-4.5 -2.5 -8.5 -2.5h-31c-6.66699 0 -10 3 -10 9v64
c0 3.33301 -0.5 5.5 -1.5 6.5s-2.83301 1.5 -5.5 1.5c-56 0.666992 -102.333 10.5 -139 29.5s-68.667 47.833 -96 86.5c-3.33301 3.33301 -5 7 -5 11c0 3.33301 1.33301 6 4 8l26 23c4 2.66699 7 4 9 4c3.33301 0 6.66602 -1.66699 9.99902 -5
c25.333 -32.667 52.333 -57 81 -73s64.667 -24.333 108 -25c3.33301 0 5.66602 0.5 6.99902 1.5s2 3.16699 2 6.5v263c0 6 -1.66699 11 -5 15s-8.66602 7.66699 -15.999 11c-51.333 20 -91.333 39.5 -120 58.5s-49.334 40 -62.001 63s-19 50.833 -19 83.5
c0 53.333 19.5 98 58.5 134s90.167 57 153.5 63c2.66699 0 5 0.833008 7 2.5s3 3.83398 3 6.50098v52c0 6 2.33301 9 7 9h34c6.66699 0 10 -4 10 -12v-51c0 -4 3 -6.66699 9 -8c38 -4 72 -13.5 102 -28.5s58 -35.5 84 -61.5c3.33301 -2 5 -4.66699 5 -8
c0 -2.66699 -1.33301 -5.33398 -4 -8.00098l-30 -29c-2 -2 -4 -3 -6 -3c-2.66699 0 -6 2.33301 -10 7c-15.333 18 -35.333 33.333 -60 46s-51.334 21 -80.001 25l-4 1c-4 0 -6 -3 -6 -9v-271c0 -4.66699 0.666992 -7.83398 2 -9.50098s4.33301 -3.5 9 -5.5l34 -12
c57.333 -22.667 100.666 -50.834 129.999 -84.501s44 -74.167 44 -121.5c0 -34.667 -8.66699 -65.834 -26 -93.501zM284.005 682.004c0 3.33301 -1 5.66895 -3 7.00195s-4.66699 1.66602 -8 0.999023c-43.333 -4 -78 -18.333 -104 -43s-39 -55.334 -39 -92.001
c0 -27.333 9.83301 -51.333 29.5 -72s54.5 -42 104.5 -64l8 -2c8 0 12 5 12 15v250zM344.005 50.0068c42.667 0.666992 77 12.667 103 36s39 52.666 39 87.999c0 32.667 -10.333 59.834 -31 81.501s-55 42.5 -103 62.5c-2 0.666992 -4.66699 1 -8 1
c-5.33301 0 -8 -3.33301 -8 -10v-253c0 -4 2.66699 -6 8 -6z" />
    <glyph glyph-name="percent" unicode="%" horiz-adv-x="909" 
d="M316 727.5c25.333 -17 45.165 -41.333 59.498 -73s21.5 -69.5 21.5 -113.5c0 -66.667 -15.5 -118.834 -46.5 -156.501s-71.5 -56.5 -121.5 -56.5c-50.667 0 -91.667 18.833 -123 56.5s-47 89.834 -47 156.501c0 44 7.33301 81.833 22 113.5s34.834 56 60.501 73
s54.834 25.5 87.501 25.5s61.667 -8.5 87 -25.5zM238.999 5c-2.66699 -3.33301 -5.16504 -5.66797 -7.49805 -7.00098s-5.83301 -2 -10.5 -2h-21c-6.66699 0 -10 2.66699 -10 8c0 3.33301 1 6.33301 3 9l486 731c2 2.66699 4.16699 4.33398 6.5 5.00098s4.83301 1 7.5 1h28
c3.33301 0 5.66602 -0.833008 6.99902 -2.5s0.666016 -4.16699 -2.00098 -7.5zM312.501 416.498c21 31.667 31.5 72.834 31.5 123.501c0 51.333 -10.5 92.833 -31.5 124.5s-49.167 47.5 -84.5 47.5s-63.5 -16 -84.5 -48s-31.5 -73.333 -31.5 -124
s10.5 -91.834 31.5 -123.501s49.167 -47.5 84.5 -47.5s63.5 15.833 84.5 47.5zM802.501 358.498c31 -37.667 46.5 -89.5 46.5 -155.5c0 -66.667 -15.333 -118.834 -46 -156.501s-71 -56.5 -121 -56.5c-50.667 0 -91.667 18.833 -123 56.5s-47 89.834 -47 156.501
c0 66 15.667 117.833 47 155.5s72.333 56.5 123 56.5c49.333 0 89.5 -18.833 120.5 -56.5zM764.001 79.498c21.333 32.333 32 73.166 32 122.499s-10.667 90.333 -32 123s-49 49 -83 49c-34.667 0 -62.667 -16.333 -84 -49s-32 -73.667 -32 -123s10.667 -90.166 32 -122.499
s49.333 -48.5 84 -48.5c34 0 61.667 16.167 83 48.5z" />
    <glyph glyph-name="ampersand" unicode="&#x26;" horiz-adv-x="762" 
d="M456.5 713c33.667 -26.667 50.5059 -62.666 50.5059 -107.999c0 -38.667 -14.833 -75.334 -44.5 -110.001s-75.834 -65.667 -138.501 -93c-5.33301 -3.33301 -8 -6 -8 -8c0 -1.33301 1.66699 -4.33301 5 -9l170 -199c3.33301 -3.33301 5.66602 -5 6.99902 -5
s4.33301 2 9 6c25.333 24.667 52.666 58.167 81.999 100.5s48 75.5 56 99.5c2.66699 6 8 8 16 6l30 -11c3.33301 -1.33301 5.66602 -3.33301 6.99902 -6s1.66602 -5.33398 0.999023 -8.00098c-9.33301 -29.333 -28.666 -65.333 -57.999 -108s-61 -81.667 -95 -117
c-2.66699 -2.66699 -4 -5 -4 -7c0 -2.66699 2 -5.66699 6 -9c19.333 -18.667 46.166 -34.5 80.499 -47.5s66.833 -19.5 97.5 -19.5c8.66699 0 13 -4 13 -12v-32c0 -6 -1.16699 -10.167 -3.5 -12.5s-6.83301 -3.5 -13.5 -3.5c-36 0 -76 8.33301 -120 25s-80 36 -108 58
c-4 2.66699 -6.66699 4 -8 4c-2.66699 0 -5.66699 -1.66699 -9 -5c-65.333 -58 -139 -87 -221 -87c-66 0 -118.5 17.5 -157.5 52.5s-58.5 81.833 -58.5 140.5c0 40.667 11.667 77.5 35 110.5s61.666 65.5 114.999 97.5c6.66699 4 10 7.66699 10 11
c0 2.66699 -3 7.33398 -9 14.001c-44.667 46.667 -67 95.667 -67 147c0 34.667 8.83301 66 26.5 94s42 50.167 73 66.5s65.833 24.5 104.5 24.5c52 0 94.833 -13.333 128.5 -40zM231.506 663.501c-24.333 -25.667 -36.502 -56.5 -36.502 -92.5c0 -18 3.5 -35 10.5 -51
s18.5 -32.667 34.5 -50l25 -29c2 -2 4.66699 -3 8 -3c2 0 5 0.666992 9 2c56.667 26.667 97.334 53 122.001 79s37 54.667 37 86s-10.5 55.333 -31.5 72s-47.5 25 -79.5 25c-41.333 0 -74.166 -12.833 -98.499 -38.5zM245.004 359.001c-4 0 -8.66797 -1.33301 -14.001 -4
c-36.667 -18 -65.667 -41.667 -87 -71s-32 -61 -32 -95c0 -40.667 14.667 -74 44 -100s66.333 -39 111 -39c29.333 0 58.833 6.33301 88.5 19s55.834 29 78.501 49c5.33301 5.33301 8 9.66602 8 12.999c0 2.66699 -1.66699 6.33398 -5 11.001l-178 208
c-5.33301 6 -10 9 -14 9z" />
    <glyph glyph-name="quotesingle" unicode="'" horiz-adv-x="238" 
d="M142 540c-0.666992 -4.66699 -1.83203 -8 -3.49902 -10s-4.83398 -3 -9.50098 -3h-22c-4 0 -6.66699 0.666992 -8 2s-2.33301 4 -3 8l-23 196c0 6 2.66699 9 8 9h77c5.33301 0 8 -2.66699 8 -8z" />
    <glyph glyph-name="parenleft" unicode="(" horiz-adv-x="278" 
d="M258.5 739.5c1 -1.66699 0.833008 -3.50195 -0.5 -5.50195c-35.333 -70 -63.5 -143.667 -84.5 -221s-31.5 -153.666 -31.5 -228.999c0 -74 8.83301 -146.667 26.5 -218s44.5 -145.333 80.5 -222c0.666992 -0.666992 1 -2 1 -4c0 -3.33301 -2.33301 -5 -7 -5h-26
c-4.66699 0 -8.33398 2 -11.001 6c-44 76 -77.167 148.833 -99.5 218.5s-33.5 144.834 -33.5 225.501c0 80 12.833 158.5 38.5 235.5s60.167 148.5 103.5 214.5c2.66699 4.66699 7.33398 7 14.001 7h23c3.33301 0 5.5 -0.833008 6.5 -2.5z" />
    <glyph glyph-name="parenright" unicode=")" horiz-adv-x="278" 
d="M49 742c6.66699 0 11.334 -2.33105 14.001 -6.99805c43.333 -66 77.833 -137.5 103.5 -214.5s38.5 -155.5 38.5 -235.5c0 -80.667 -11.167 -155.834 -33.5 -225.501s-55.5 -142.5 -99.5 -218.5c-2.66699 -4 -6.33398 -6 -11.001 -6h-26c-3.33301 0 -5.5 1 -6.5 3
s-0.833008 4 0.5 6c36 76.667 62.833 150.667 80.5 222s26.5 144 26.5 218c0 75.333 -10.5 151.666 -31.5 228.999s-49.167 151 -84.5 221c-0.666992 0.666992 -1 1.66699 -1 3c0 3.33301 2.33301 5 7 5h23z" />
    <glyph glyph-name="asterisk" unicode="*" horiz-adv-x="359" 
d="M187 547c-2 2 -3.66699 2.00195 -5 0.00195312l-75 -118c-0.666992 -1.33301 -2.16699 -2 -4.5 -2s-4.5 0.666992 -6.5 2l-29 20c-4.66699 2.66699 -5 6 -1 10l83 107c1.33301 1.33301 1.66602 2.5 0.999023 3.5s-2 1.83301 -4 2.5l-113 33
c-4 1.33301 -5 4.66602 -3 9.99902l11 31c1.33301 4 4.33301 5 9 3l107 -41c2 -0.666992 3.66699 -0.666992 5 0s2 2 2 4l-8 123c0 4.66699 2.66699 7 8 7h40c4.66699 0 7 -2.33301 7 -7l-7 -123c0 -4.66699 1.66699 -6.33398 5 -5.00098l111 47c4 2 7 1 9 -3l9 -30
c2 -6 1 -9.33301 -3 -10l-112 -38c-4 -0.666992 -4.66699 -3 -2 -7l80 -100c1.33301 -1.33301 2 -3.33301 2 -6s-1.66699 -5 -5 -7l-27 -20c-2.66699 -2 -5.16699 -2.83301 -7.5 -2.5s-4.16602 1.5 -5.49902 3.5z" />
    <glyph glyph-name="plus" unicode="+" horiz-adv-x="551" 
d="M486 392v-35c0 -7.33301 -4.66699 -11 -14 -11h-169v-175c0 -6 -2.66699 -9 -8 -9h-35c-7.33301 0 -11 4.66699 -11 14v169h-173c-7.33301 0 -11 3.33301 -11 10v35c0 6.66699 2.33301 10 7 10h176v172c0 7.33301 3.33301 11 10 11h35c6 0 9 -2.33301 9 -7v-176h175
c6 0 9 -2.66699 9 -8z" />
    <glyph glyph-name="comma" unicode="," horiz-adv-x="202" 
d="M45.5 -135.5c-1 2.33301 -0.832031 5.16602 0.500977 8.49902l44 113l2 8c0 4 -3.33301 6 -10 6h-11c-7.33301 0 -11 3.33301 -11 10v80c0 5.33301 2.66699 8 8 8h70c5.33301 0 8 -2.66699 8 -8v-71c0 -5.33301 -1 -9.66602 -3 -12.999l-66 -136
c-2.66699 -6 -8.33398 -9 -17.001 -9h-9c-2.66699 0 -4.5 1.16699 -5.5 3.5z" />
    <glyph glyph-name="hyphen" unicode="-" horiz-adv-x="381" 
d="M316 249c0 -8 -4.66699 -12 -14 -12h-226c-7.33301 0 -11 3 -11 9v37c0 6.66699 2.66699 10 8 10l234 1c6 0 9 -3 9 -9v-36z" />
    <glyph glyph-name="period" unicode="." horiz-adv-x="198" 
d="M142 14c0 -5.33301 -1.16699 -9 -3.5 -11s-6.83301 -3 -13.5 -3h-57c-8.66699 0 -13 4 -13 12v76c0 7.33301 3 11 9 11h69c6 0 9 -3.33301 9 -10v-75z" />
    <glyph glyph-name="slash" unicode="/" horiz-adv-x="336" 
d="M14 -43l251.001 777c2 5.33301 5.66699 8 11 8h38c7.33301 0 9.66602 -4.66699 6.99902 -14l-247 -767c-2.66699 -7.33301 -7.66699 -11 -15 -11h-38c-6 0 -8.33301 2.33301 -7 7z" />
    <glyph glyph-name="zero" unicode="0" horiz-adv-x="683" 
d="M480 708c40.667 -29.333 72.667 -72.666 96 -129.999s35 -127 35 -209c0 -81.333 -11.667 -150.5 -35 -207.5s-55.333 -99.833 -96 -128.5s-87 -43 -139 -43s-98.333 14.333 -139 43s-72.667 71.167 -96 127.5s-35 125.166 -35 206.499c0 82 11.667 152 35 210
s55.5 101.667 96.5 131s87.5 44 139.5 44c51.333 0 97.333 -14.667 138 -44zM483.5 128.5c33.667 51.667 50.5 131.833 50.5 240.5c0 109.333 -17 190.5 -51 243.5s-81 79.5 -141 79.5s-107.167 -26.667 -141.5 -80s-51.5 -134.333 -51.5 -243c0 -108 17.333 -188 52 -240
s82 -78 142 -78s106.833 25.833 140.5 77.5z" />
    <glyph glyph-name="one" unicode="1" horiz-adv-x="454" 
d="M410 54l-0.000976562 -44.999c0 -2 -0.833008 -4 -2.5 -6s-4.16699 -3 -7.5 -3h-338c-6 0 -9 2.66699 -9 8v46c0 5.33301 2.66699 8 8 8h133c4.66699 0 7 1.66699 7 5v583c0 7.33301 -2.66699 9.66602 -8 6.99902l-130 -49l-4 -1c-4.66699 0 -7 3.33301 -7 10v34
c0 4 0.333008 6.5 1 7.5s3 2.5 7 4.5l144 72c8 4.66699 16.667 7 26 7h37c2.66699 0 4.83398 -1 6.50098 -3s2.5 -4.66699 2.5 -8v-662c0 -4.66699 2 -7 6 -7h119c6 0 9 -2.66699 9 -8z" />
    <glyph glyph-name="two" unicode="2" horiz-adv-x="588" 
d="M295 308c55.333 54 94.165 98.8301 116.498 134.497s33.5 72.5 33.5 110.5c0 28.667 -7.5 53.5 -22.5 74.5s-34.667 36.833 -59 47.5s-49.833 16 -76.5 16c-32 0 -64 -8.16699 -96 -24.5s-58.667 -40.833 -80 -73.5c-2 -3.33301 -5 -5 -9 -5
c-3.33301 0 -6.66602 1.33301 -9.99902 4l-32 20c-4.66699 4 -7 7.66699 -7 11c0 2.66699 1.33301 5.66699 4 9c28 40 63 70 105 90s86.333 30 133 30c40.667 0 78 -7.5 112 -22.5s61.167 -37.667 81.5 -68s30.5 -68.166 30.5 -113.499c0 -43.333 -12 -84.166 -36 -122.499
s-67 -87.833 -129 -148.5l-206 -200c-3.33301 -3.33301 -5 -5.66602 -5 -6.99902c0 -3.33301 3.66699 -5 11 -5h362c4 0 6.83301 -0.666992 8.5 -2s2.5 -4 2.5 -8v-45c0 -6.66699 -3.66699 -10 -11 -10h-449c-5.33301 0 -9.16602 1 -11.499 3s-3.5 5.66699 -3.5 11v33
c0 7.33301 1.33301 13.5 4 18.5s8.66699 11.5 18 19.5z" />
    <glyph glyph-name="three" unicode="3" horiz-adv-x="634" 
d="M77 648c0 2.66699 0.998047 4.99707 2.99805 6.99707c32 33.333 66.333 57.833 103 73.5s77 23.5 121 23.5c48.667 0 91.334 -8.16699 128.001 -24.5s64.834 -38.5 84.501 -66.5s29.5 -59.667 29.5 -95c0 -37.333 -11.5 -70.666 -34.5 -99.999s-54.5 -51 -94.5 -65
c-7.33301 -2 -11 -4 -11 -6s3.66699 -4 11 -6c43.333 -12 79.5 -34.5 108.5 -67.5s43.5 -72.5 43.5 -118.5c0 -40.667 -10.5 -77.167 -31.5 -109.5s-52.5 -57.666 -94.5 -75.999s-93 -27.5 -153 -27.5c-49.333 0 -93.666 8.16699 -132.999 24.5
s-75.666 42.166 -108.999 77.499c-2.66699 2.66699 -4 4.66699 -4 6c0 2.66699 2 5.33398 6 8.00098l34 28c3.33301 2.66699 6 3.83398 8 3.50098s4 -1.5 6 -3.5c29.333 -30 59.666 -51.333 90.999 -64s67 -19 107 -19c62 0 110.5 13.5 145.5 40.5s52.5 62.833 52.5 107.5
c0 33.333 -9.5 62 -28.5 86s-43.833 42.167 -74.5 54.5s-63.334 18.5 -98.001 18.5l-89 1c-7.33301 0 -11 2.66699 -11 8v42c0 2.66699 1 4.66699 3 6s4.66699 2 8 2l72 1c36 0 69 6.33301 99 19s53.667 30 71 52s26 46.667 26 74c0 24 -7.16699 45.833 -21.5 65.5
s-34.166 35.167 -59.499 46.5s-54 17 -86 17c-68 0 -128.667 -26 -182 -78c-2.66699 -2.66699 -5.66699 -4 -9 -4c-2.66699 0 -5.33398 1.33301 -8.00098 4l-26 27c-2 2 -3 4.33301 -3 7z" />
    <glyph glyph-name="four" unicode="4" horiz-adv-x="638" 
d="M412 742l52.999 0.000976562c7.33301 0 11 -3.66699 11 -11v-458c0 -5.33301 2.33301 -8 7 -8h98c8 0 12 -3 12 -9v-39c0 -8 -4.33301 -12 -13 -12h-96c-5.33301 0 -8 -3.33301 -8 -10v-183c0 -8 -4.66699 -12 -14 -12h-51c-7.33301 0 -11 4 -11 12v186
c0 4.66699 -3 7 -9 7h-330c-8.66699 0 -13 4 -13 12v43c0 7.33301 4.33301 16.666 13 27.999l331 446c4.66699 5.33301 11.334 8 20.001 8zM387.999 265.001c2.66699 0 4.83301 0.666992 6.5 2s2.5 3 2.5 5v355c0 8.66699 -1.33301 13 -4 13s-6 -3 -10 -9l-261 -353
c-2 -2.66699 -3 -5 -3 -7c0 -4 3.33301 -6 10 -6h259z" />
    <glyph glyph-name="five" unicode="5" horiz-adv-x="649" 
d="M540 742c5.33301 0 8.83301 -0.666992 10.5 -2s2.16699 -4.66602 1.5 -9.99902l-4 -43c0 -1.33301 -0.166992 -3 -0.5 -5s-1.33301 -3.16699 -3 -3.5s-4.16699 -0.5 -7.5 -0.5h-347c-6.66699 0 -10.334 -3.33301 -11.001 -10l-18 -241v-3
c0 -3.33301 1.16699 -5.83301 3.5 -7.5s4.83301 -1.83398 7.5 -0.500977c31.333 17.333 59.166 30.166 83.499 38.499s53.5 12.5 87.5 12.5c44.667 0 85.5 -8 122.5 -24s66.667 -40.667 89 -74s33.5 -75.333 33.5 -126c0 -52 -12 -97.167 -36 -135.5
s-57.333 -67.5 -100 -87.5s-90.667 -30 -144 -30c-48.667 0 -94.5 8.5 -137.5 25.5s-80.167 41.833 -111.5 74.5c-3.33301 4.66699 -5 7.66699 -5 9c0 2.66699 2 5.33398 6 8.00098l34 29c0.666992 0.666992 2 1 4 1c3.33301 0 6.33301 -1.33301 9 -4
c32.667 -29.333 62.5 -50.666 89.5 -63.999s60.5 -20 100.5 -20c67.333 0 120.333 17.667 159 53s58 81.666 58 138.999c0 54.667 -17 96.167 -51 124.5s-76.667 42.5 -128 42.5c-34 0 -65 -5.66699 -93 -17s-58 -27 -90 -47c-4 -2 -7 -3 -9 -3
c-0.666992 0 -1.66699 0.5 -3 1.5s-3 1.83301 -5 2.5l-38 23c-1.33301 1.33301 -3 2.5 -5 3.5s-3 2.16699 -3 3.5c0 0.666992 0.333008 2 1 4s1 4.66699 1 8l27 343c0.666992 6 1.83398 9.5 3.50098 10.5s6.83398 1.5 15.501 1.5h403z" />
    <glyph glyph-name="six" unicode="6" horiz-adv-x="655" 
d="M553 664c1.33301 -4 2.16309 -6.83301 2.49609 -8.5s-1.16699 -3.5 -4.5 -5.5l-44 -21c-0.666992 -0.666992 -2 -1 -4 -1c-3.33301 0 -6.66602 2.33301 -9.99902 7c-16 18.667 -33.667 32.667 -53 42s-42.666 14 -69.999 14c-75.333 0 -131.5 -26 -168.5 -78
s-55.5 -121 -55.5 -207c0 -8.66699 0.5 -14.667 1.5 -18s2.83301 -5 5.5 -5s6 1 10 3c36 17.333 68.167 30.666 96.5 39.999s60.833 14 97.5 14c50 0 93.167 -9.33301 129.5 -28s63.833 -44.334 82.5 -77.001s28 -70 28 -112c0 -45.333 -11.167 -85.666 -33.5 -120.999
s-52.666 -62.833 -90.999 -82.5s-80.5 -29.5 -126.5 -29.5c-56.667 0 -105.667 14.5 -147 43.5s-73 71.333 -95 127s-33 122.5 -33 200.5c0 80.667 11.833 150.334 35.5 209.001s57.834 103.667 102.501 135s98 47 160 47c76.667 0 138 -29.333 184 -88zM255.497 367.5
c-35.667 -9 -64.1631 -20.4961 -85.4961 -34.4961c-8.66699 -6 -14.5 -12 -17.5 -18s-4.5 -15.333 -4.5 -28c0 -35.333 7.5 -71.333 22.5 -108s37.5 -67.5 67.5 -92.5s66.667 -37.5 110 -37.5c32.667 0 62.167 7.66699 88.5 23s47.166 36.166 62.499 62.499
s23 55.166 23 86.499c0 29.333 -6.83301 56.166 -20.5 80.499s-33.334 43.666 -59.001 57.999s-55.834 21.5 -90.501 21.5c-28.667 0 -60.834 -4.5 -96.501 -13.5z" />
    <glyph glyph-name="seven" unicode="7" horiz-adv-x="594" 
d="M536 742c4 0 6.99805 -1.00098 8.99805 -3.00098s2.66699 -4.33301 2 -7v-31c0 -9.33301 -4 -19.666 -12 -30.999c-43.333 -63.333 -85.166 -137.166 -125.499 -221.499s-74.5 -165.666 -102.5 -243.999s-45.667 -140.833 -53 -187.5c-1.33301 -11.333 -6 -17 -14 -17
h-58c-10.667 0 -14.334 5.33301 -11.001 16c21.333 86.667 56.5 188.167 105.5 304.5s109.833 231.166 182.5 344.499c2.66699 4 4 6.66699 4 8c0 3.33301 -3.33301 5 -10 5h-401c-5.33301 0 -8 3.33301 -8 10l5 45c0.666992 3.33301 1.83398 5.66602 3.50098 6.99902
s4.83398 2 9.50098 2h474z" />
    <glyph glyph-name="eight" unicode="8" horiz-adv-x="665" 
d="M456 726.5c36 -17 63.835 -40.9971 83.502 -71.9971s29.5 -66.5 29.5 -106.5c0 -32 -7.83301 -60.5 -23.5 -85.5s-41.834 -50.833 -78.501 -77.5c-5.33301 -3.33301 -8 -6 -8 -8s2.33301 -4.33301 7 -7c44 -16 77.667 -39.167 101 -69.5s35 -66.166 35 -107.499
c0 -40.667 -11.333 -76.334 -34 -107.001s-54.5 -54.334 -95.5 -71.001s-88.5 -25 -142.5 -25c-82 0 -146.5 17.167 -193.5 51.5s-70.5 82.166 -70.5 143.499c0 36 9 68.167 27 96.5s47 55.5 87 81.5c8.66699 6 13 10.333 13 13c0 3.33301 -4.33301 7 -13 11
c-62.667 33.333 -94 84.666 -94 153.999c0 39.333 10.5 75 31.5 107s50.167 57.333 87.5 76s79.666 28 126.999 28c46.667 0 88 -8.5 124 -25.5zM244.502 674.003c-26.333 -12.667 -47.168 -30.333 -62.501 -53s-23 -47.667 -23 -75c0 -66.667 37 -108 111 -124l109 -24
c12.667 -3.33301 28.834 2.5 48.501 17.5s36.667 35 51 60s21.5 50.167 21.5 75.5c0 42.667 -15.167 77 -45.5 103s-70.833 39 -121.5 39c-32.667 0 -62.167 -6.33301 -88.5 -19zM474.5 88.0039c35 26 52.501 60.667 52.501 104c0 34 -8.83301 61.167 -26.5 81.5
s-46.167 34.833 -85.5 43.5l-138 33c-1.33301 0.666992 -4 1 -8 1c-15.333 0 -33.833 -7.33301 -55.5 -22s-40.167 -34.167 -55.5 -58.5s-23 -50.833 -23 -79.5c0 -44.667 17.167 -79.5 51.5 -104.5s83.166 -37.5 146.499 -37.5c59.333 0 106.5 13 141.5 39z" />
    <glyph glyph-name="nine" unicode="9" horiz-adv-x="651" 
d="M95 78c-2 3.33301 -2.99805 6.00391 -2.99805 8.00391c0 2.66699 1.66699 4.66699 5 6l43 21c1.33301 0.666992 3 1 5 1c3.33301 0 6.66602 -2 9.99902 -6c15.333 -18.667 33.5 -32.834 54.5 -42.501s46.833 -14.5 77.5 -14.5c72 0 126.167 26.167 162.5 78.5
s54.5 121.166 54.5 206.499c0 8.66699 -0.333008 14.667 -1 18s-2.33398 5 -5.00098 5s-6 -1 -10 -3c-35.333 -18 -66.833 -31.5 -94.5 -40.5s-59.834 -13.5 -96.501 -13.5c-49.333 0 -92 9.33301 -128 28s-63.333 44.5 -82 77.5s-28 70.167 -28 111.5
c0 45.333 11 85.666 33 120.999s52.167 62.833 90.5 82.5s80.5 29.5 126.5 29.5c56 0 104.333 -14.5 145 -43.5s71.834 -71.333 93.501 -127s32.5 -122.5 32.5 -200.5c0 -80.667 -11.667 -150.334 -35 -209.001s-57 -103.667 -101 -135s-96.333 -47 -157 -47
c-80.667 0 -144.667 29.333 -192 88zM398.002 376.504c34.667 10.333 62.6699 23.165 84.0029 38.498c9.33301 6 15.333 12 18 18s4 15.333 4 28c0 34 -7.33301 69 -22 105s-36.834 66.167 -66.501 90.5s-65.5 36.5 -107.5 36.5c-32.667 0 -62.334 -7.5 -89.001 -22.5
s-47.5 -35.667 -62.5 -62s-22.5 -55.166 -22.5 -86.499c0 -30 6.83301 -57.167 20.5 -81.5s33.167 -43.666 58.5 -57.999s54.666 -21.5 87.999 -21.5c30 0 62.333 5.16699 97 15.5z" />
    <glyph glyph-name="colon" unicode=":" horiz-adv-x="198" 
d="M142 420c0 -5.33301 -1.16699 -9 -3.5 -11s-6.83301 -3 -13.5 -3h-57c-8.66699 0 -13 4 -13 12v75c0 7.33301 3 11 9 11h69c6 0 9 -3.33301 9 -10v-74zM142 17c0 -5.33301 -1.16699 -9 -3.5 -11s-6.83301 -3 -13.5 -3h-57c-4.66699 0 -8 1 -10 3s-3 5.33301 -3 10v74
c0 7.33301 3 11 9 11h69c6 0 9 -3.33301 9 -10v-74z" />
    <glyph glyph-name="semicolon" unicode=";" horiz-adv-x="221" 
d="M55 417v75c0 8 3 12 9 12h69c6 0 9 -3.33301 9 -10v-75c0 -5.33301 -1.16699 -9 -3.5 -11s-6.83301 -3 -13.5 -3h-57c-8.66699 0 -13 4 -13 12zM45.5 -136.5c-1 2.33301 -0.832031 5.49902 0.500977 9.49902l44 113l2 8c0 4 -3.33301 6 -10 6h-11
c-7.33301 0 -11 3.33301 -11 10v80c0 5.33301 2.66699 8 8 8h70c5.33301 0 8 -2.66699 8 -8v-71c0 -5.33301 -1 -9.66602 -3 -12.999l-66 -137c-2.66699 -6 -8.33398 -9 -17.001 -9h-9c-2.66699 0 -4.5 1.16699 -5.5 3.5z" />
    <glyph glyph-name="less" unicode="&#x3c;" horiz-adv-x="535" 
d="M467 182c0 -10 -4.00098 -14.999 -12.001 -14.999l-8 2l-380 149c-7.33301 3.33301 -11 8 -11 14v48c0 6 3.66699 10.667 11 14l381 152c4 1.33301 7 2 9 2c7.33301 0 11 -4.66699 11 -14v-37c0 -7.33301 -6 -13.666 -18 -18.999l-309 -122l308 -122
c6.66699 -2.66699 11.334 -5.33398 14.001 -8.00098s4 -6.33398 4 -11.001v-33z" />
    <glyph glyph-name="equal" unicode="=" horiz-adv-x="551" 
d="M486 456c0 -7.33301 -4.66699 -11 -14 -11l-396 -1c-7.33301 0 -11 3.33301 -11 10v35c0 6.66699 2.33301 10 7 10l405 1c6 0 9 -2.66699 9 -8v-36zM486 233c0 -7.33301 -4.66699 -11 -14 -11l-396 -1c-7.33301 0 -11 3.33301 -11 10v35c0 6.66699 2.33301 10 7 10h405
c6 0 9 -2.66699 9 -8v-35z" />
    <glyph glyph-name="greater" unicode="&#x3e;" horiz-adv-x="535" 
d="M72.5 226c3 2.66699 7.83398 5.33008 14.501 7.99707l307 122l-308 122c-6.66699 2.66699 -11.334 5.33398 -14.001 8.00098s-4 6.33398 -4 11.001v37c0 9.33301 3.66699 14 11 14c2 0 5 -0.666992 9 -2l380 -152c7.33301 -3.33301 11 -8 11 -14v-48
c0 -6 -3.66699 -10.667 -11 -14l-380 -149l-8 -2c-8 0 -12 5 -12 15v33c0 4.66699 1.5 8.33398 4.5 11.001z" />
    <glyph glyph-name="question" unicode="?" horiz-adv-x="519" 
d="M33 615.5c-0.666992 2.33301 -0.330078 4.49512 1.00293 6.49512c20.667 40.667 51.667 72.5 93 95.5s87.333 34.5 138 34.5c44 0 82.333 -7.5 115 -22.5s58 -36.167 76 -63.5s27 -58.666 27 -93.999c0 -26.667 -4.66699 -51.167 -14 -73.5
s-20.833 -42.166 -34.5 -59.499s-31.834 -38 -54.501 -62c-23.333 -24.667 -41.833 -45.667 -55.5 -63s-25.167 -37.166 -34.5 -59.499s-14 -47.166 -14 -74.499c0 -2.66699 -1 -5.16699 -3 -7.5s-4.33301 -3.5 -7 -3.5h-40c-7.33301 0 -11 4.33301 -11 13
c0 31.333 5 60 15 86s22.167 48.5 36.5 67.5s33.5 41.5 57.5 67.5c30.667 34 53.167 62.667 67.5 86s21.5 50.333 21.5 81c0 38.667 -13.5 69.334 -40.5 92.001s-62.833 34 -107.5 34c-36 0 -70.667 -9.5 -104 -28.5s-55.333 -41.833 -66 -68.5
c-1.33301 -2 -2.83301 -3.33301 -4.5 -4s-3.83398 -0.666992 -6.50098 0l-46 16c-2.66699 0.666992 -4.33398 2.16699 -5.00098 4.5zM288.004 13.9951c0 -5.33301 -1.16699 -9 -3.5 -11s-6.5 -3 -12.5 -3h-57c-8.66699 0 -13 4 -13 12v75c0 7.33301 3 11 9 11h69
c5.33301 0 8 -3.33301 8 -10v-74z" />
    <glyph glyph-name="at" unicode="@" horiz-adv-x="834" 
d="M552.5 -95.5c-37 -11.667 -75.8311 -17.5029 -116.498 -17.5029c-78.667 0 -147.167 16.667 -205.5 50s-103 78.333 -134 135s-46.5 119.667 -46.5 189c0 72 16.833 138.5 50.5 199.5s80.834 109.667 141.501 146s129.667 54.5 207 54.5c60 0 116.833 -11.667 170.5 -35
s97.167 -59.166 130.5 -107.499s50 -107.833 50 -178.5c0 -50 -8.33301 -94.667 -25 -134s-39.667 -70 -69 -92s-62 -33 -98 -33c-26 0 -46 4.33301 -60 13s-23.333 22.667 -28 42c-2 4.66699 -3.66699 7 -5 7c-0.666992 0 -2.66699 -2 -6 -6
c-34.667 -46.667 -81.667 -70 -141 -70c-24.667 0 -47.5 7.33301 -68.5 22s-37.833 35.334 -50.5 62.001s-19 57.334 -19 92.001c0 42.667 8.16699 81.667 24.5 117s39.166 63.333 68.499 84s62 31 98 31c26 0 49 -6 69 -18s36 -28.333 48 -49
c1.33301 -1.33301 2.66602 -1.66602 3.99902 -0.999023s2.33301 2 3 4l9 33c0.666992 3.33301 3 5 7 5h39c5.33301 0 7.33301 -2 6 -6l-38 -226c-2 -12 -3 -22.667 -3 -32c0 -18 3.83301 -31 11.5 -39s19.167 -12 34.5 -12c23.333 0 45 8.16699 65 24.5
s35.833 39.666 47.5 69.999s17.5 65.5 17.5 105.5c0 62 -14.167 113.667 -42.5 155s-64.833 71.666 -109.5 90.999s-91.667 29 -141 29c-68.667 0 -128.667 -15.667 -180 -47s-90.666 -73.666 -117.999 -126.999s-41 -112 -41 -176c0 -59.333 13 -113.333 39 -162
s64.5 -87.167 115.5 -115.5s112.5 -42.5 184.5 -42.5c39.333 0 70.666 4.66699 93.999 14s50.666 24 81.999 44c3.33301 2.66699 7 4 11 4s7 -1.66699 9 -5l16 -22c2 -3.33301 3 -6 3 -8c0 -4 -3.33301 -8 -10 -12c-30 -21.333 -63.5 -37.833 -100.5 -49.5zM315.502 154.997
c15 -22 35.833 -33 62.5 -33c34 0 64.333 14.167 91 42.5s43 63.166 49 104.499c2 12 3 23 3 33c0 38 -9.5 67.167 -28.5 87.5s-41.833 30.5 -68.5 30.5c-38.667 0 -70.167 -16.667 -94.5 -50s-36.5 -74.666 -36.5 -123.999c0 -38.667 7.5 -69 22.5 -91z" />
    <glyph glyph-name="A" unicode="A" horiz-adv-x="716" 
d="M49.5 3.5c-1.66699 2.33301 -1.83496 5.83301 -0.501953 10.5l261 715c2 4.66699 4.33301 8 7 10s6.33398 3 11.001 3h60c11.333 0 18.333 -4.33301 21 -13l258 -715c0.666992 -1.33301 1 -3 1 -5c0 -6 -3 -9 -9 -9h-52c-8 0 -13 3 -15 9l-74 206
c-2 5.33301 -5.66699 8 -11 8h-304c-5.33301 0 -9 -2.66699 -11 -8l-76 -207c-1.33301 -5.33301 -5.66602 -8 -12.999 -8h-46c-3.33301 0 -5.83301 1.16699 -7.5 3.5zM484.999 284c6.66699 0 9.00098 3.66699 7.00098 11l-129 355c-2 6 -4.33301 9 -7 9
s-5.33398 -3.33301 -8.00098 -10l-131 -355c-1.33301 -2.66699 -2 -4.66699 -2 -6c0 -2.66699 2.66699 -4 8 -4h262z" />
    <glyph glyph-name="B" unicode="B" horiz-adv-x="693" 
d="M104 10l-0.000976562 719.001c0 4.66699 0.833008 8 2.5 10s4.83398 3 9.50098 3h220c86.667 0 153.5 -16.5 200.5 -49.5s70.5 -80.5 70.5 -142.5c0 -82 -43.667 -137.667 -131 -167c-2.66699 -0.666992 -4 -2.16699 -4 -4.5s1.33301 -3.83301 4 -4.5
c48 -10.667 84.833 -30.834 110.5 -60.501s38.5 -68.167 38.5 -115.5c0 -66 -24.333 -115.5 -73 -148.5s-119 -49.5 -211 -49.5h-227c-6.66699 -0 -10 3.33301 -10 10zM347.999 404.001c51.333 0 94.667 10.5 130 31.5s53 56.5 53 106.5c0 47.333 -17.333 82.833 -52 106.5
s-83 35.5 -145 35.5h-143c-4 0 -7 -0.666992 -9 -2s-3 -4 -3 -8v-258c0 -8 3 -12 9 -12h160zM336 58.001c72 0 125.167 11 159.5 33s51.5 57.333 51.5 106c0 50.667 -18 88.167 -54 112.5s-84.333 36.5 -145 36.5h-156c-8.66699 0 -13 -3.66699 -13 -11v-265
c0 -8 3 -12 9 -12h148z" />
    <glyph glyph-name="C" unicode="C" horiz-adv-x="702" 
d="M498.5 724c39 -18.667 71.3389 -43.498 97.0059 -74.498s40.834 -64.167 45.501 -99.5l1 -5c0 -4 -2.66699 -6 -8 -6l-58 -5h-3c-2 0 -3.5 0.833008 -4.5 2.5s-1.5 3.83398 -1.5 6.50098c-10.667 45.333 -32.834 81.5 -66.501 108.5s-74.167 40.5 -121.5 40.5
c-74.667 0 -131.667 -27.333 -171 -82s-59 -135 -59 -241c0 -103.333 19.833 -182 59.5 -236s98.834 -81 177.501 -81c49.333 0 90.166 12 122.499 36s58.5 61.333 78.5 112c1.33301 2.66699 4.33301 3.66699 9 3l49 -13c3.33301 -1.33301 4.66602 -5 3.99902 -11
c-10.667 -34.667 -28.334 -66.334 -53.001 -95.001s-55.5 -51.5 -92.5 -68.5s-77.833 -25.5 -122.5 -25.5c-64.667 0 -120.334 15.167 -167.001 45.5s-82.334 74 -107.001 131s-37 124.833 -37 203.5c0 79.333 12.167 147.666 36.5 204.999s59.666 101.166 105.999 131.499
s101.166 45.5 164.499 45.5c42 0 82.5 -9.33301 121.5 -28z" />
    <glyph glyph-name="D" unicode="D" horiz-adv-x="714" 
d="M256 741c135.333 -1.33301 234 -31.832 296 -91.499s93 -150.834 93 -273.501c0 -127.333 -33 -221.833 -99 -283.5s-166.667 -92.5 -302 -92.5h-128c-8 -0 -12 4.33301 -12 13v718c0 7.33301 4 11 12 11zM179 668.001l-0.000976562 -599.002c0 -6.66699 4 -10 12 -10h43
c80 0 144 10.333 192 31s83.333 53.834 106 99.501s34 106.834 34 183.501c0 78 -11.167 139 -33.5 183s-56.166 75.5 -101.499 94.5s-106 29.5 -182 31.5h-62c-5.33301 0 -8 -4.66699 -8 -14z" />
    <glyph glyph-name="E" unicode="E" horiz-adv-x="622" 
d="M106.5 739.5c1.66699 1.66699 4.50195 2.49707 8.50195 2.49707h435c6 0 9 -3 9 -9l-1 -41c0 -4 -0.666992 -6.66699 -2 -8s-4 -2 -8 -2h-357c-4.66699 0 -7.83398 -0.666992 -9.50098 -2s-2.5 -4.33301 -2.5 -9v-257c0 -4 0.833008 -6.66699 2.5 -8s4.5 -2 8.5 -2h271
c3.33301 0 5.66602 -0.666992 6.99902 -2s2 -3.66602 2 -6.99902v-42c0 -3.33301 -0.666992 -5.5 -2 -6.5s-3.66602 -1.5 -6.99902 -1.5h-272c-3.33301 0 -5.83301 -0.666992 -7.5 -2s-2.5 -4 -2.5 -8v-265c0 -4 0.666992 -6.66699 2 -8s4 -2 8 -2h373
c4 0 6.83301 -0.5 8.5 -1.5s2.5 -3.5 2.5 -7.5v-42c0 -6 -3.33301 -9 -10 -9h-447c-4.66699 0 -7.83398 0.833008 -9.50098 2.5s-2.5 4.83398 -2.5 9.50098v718c0 4.66699 0.833008 7.83398 2.5 9.50098z" />
    <glyph glyph-name="F" unicode="F" horiz-adv-x="594" 
d="M106.5 739.5c1.66699 1.66699 4.50195 2.49609 8.50195 2.49609h425c6 0 9 -3 9 -9v-41c0 -4 -0.833008 -6.66699 -2.5 -8s-4.5 -2 -8.5 -2h-347c-4.66699 0 -7.83398 -0.666992 -9.50098 -2s-2.5 -4.33301 -2.5 -9v-270c0 -3.33301 0.833008 -5.66602 2.5 -6.99902
s4.5 -2 8.5 -2h280c6 0 9 -3 9 -9v-41c0 -3.33301 -0.666992 -5.66602 -2 -6.99902s-4 -2 -8 -2h-280c-3.33301 0 -5.83301 -0.666992 -7.5 -2s-2.5 -4 -2.5 -8v-312c0 -7.33301 -3.66699 -11 -11 -11h-52c-4.66699 0 -7.83398 0.833008 -9.50098 2.5
s-2.5 4.83398 -2.5 9.50098v718c0 4.66699 0.833008 7.83398 2.5 9.50098z" />
    <glyph glyph-name="G" unicode="G" horiz-adv-x="735" 
d="M211.5 35.5c-45.667 30.333 -80.6621 73.833 -104.995 130.5s-36.5 124 -36.5 202c0 80 12.5 148.833 37.5 206.5s60.667 101.667 107 132s100.5 45.5 162.5 45.5c42.667 0 83.5 -9.16699 122.5 -27.5s71.167 -42.666 96.5 -72.999s40.333 -62.5 45 -96.5v-6
c0 -4 -2 -6.33301 -6 -7l-57 -9h-2c-3.33301 0 -5.66602 2.66699 -6.99902 8c-8 42.667 -29.833 78.5 -65.5 107.5s-78.167 43.5 -127.5 43.5c-73.333 0 -129.5 -27.5 -168.5 -82.5s-58.5 -133.5 -58.5 -235.5c0 -106.667 19.5 -187.167 58.5 -241.5
s95.833 -81.5 170.5 -81.5c44 0 81.667 10 113 30s55 45.167 71 75.5s24.667 61.166 26 92.499v67v2c0 5.33301 -3.33301 8 -10 8h-174c-6 0 -9 2.66699 -9 8v35c0 5.33301 2.33301 8 7 8h244c7.33301 0 11 -3.33301 11 -10v-355c0 -8 -3.66699 -12 -11 -12h-21
c-4.66699 0 -8.33398 0.666992 -11.001 2s-4.33398 4.33301 -5.00098 9l-6 98c-0.666992 3.33301 -1.83398 5 -3.50098 5s-3.5 -1.66699 -5.5 -5c-20.667 -35.333 -49.334 -64 -86.001 -86s-81.334 -33 -134.001 -33c-62.667 0 -116.834 15.167 -162.501 45.5z" />
    <glyph glyph-name="H" unicode="H" horiz-adv-x="731" 
d="M187 355c-2.66699 0 -4.66699 -0.832031 -6 -2.49902s-2 -3.5 -2 -5.5v-335c0 -8 -4.33301 -12 -13 -12h-50c-8 0 -12 4 -12 12v718c0 4.66699 0.833008 7.83398 2.5 9.50098s4.5 2.5 8.5 2.5h54c4 0 6.66699 -0.833008 8 -2.5s2 -4.83398 2 -9.50098v-303
c0 -4.66699 0.833008 -7.66699 2.5 -9s4.5 -2 8.5 -2h352c6.66699 0 10 3.33301 10 10v305c0 7.33301 3 11 9 11h55c4 0 6.83301 -0.833008 8.5 -2.5s2.5 -4.83398 2.5 -9.50098v-718c0 -8 -4 -12 -12 -12h-50c-8.66699 0 -13 4 -13 12v334c0 6 -3 9 -9 9h-356z" />
    <glyph glyph-name="I" unicode="I" horiz-adv-x="283" 
d="M169 742c4 0 6.66699 -0.833984 8 -2.50098s2 -4.83398 2 -9.50098v-715c0 -6 -1 -10 -3 -12s-6 -3 -12 -3h-46c-5.33301 0 -9 0.833008 -11 2.5s-3 4.83398 -3 9.50098v718c0 4.66699 0.833008 7.83398 2.5 9.50098s4.5 2.5 8.5 2.5h54z" />
    <glyph glyph-name="J" unicode="J" horiz-adv-x="410" 
d="M274.5 31.5c-23.667 -27.667 -61.1641 -41.501 -112.497 -41.501c-22.667 0 -43.834 2.5 -63.501 7.5s-35.167 10.167 -46.5 15.5c-6.66699 2 -9.33398 6.66699 -8.00098 14l9 45c0.666992 6.66699 4 9 10 7c3.33301 -1.33301 9.66602 -4.16602 18.999 -8.49902
s19.5 -7.66602 30.5 -9.99902s23.167 -3.5 36.5 -3.5c32 0 54.333 8.33301 67 25s19 47 19 91v558c0 7.33301 3.33301 11 10 11h56c6 0 9 -4 9 -12v-575c0 -54.667 -11.833 -95.834 -35.5 -123.501z" />
    <glyph glyph-name="K" unicode="K" horiz-adv-x="690" 
d="M645 5c0 -3.33301 -2.33301 -5.00195 -7 -5.00195h-64c-8 0 -13 2.33301 -15 7l-236 384c-2 2.66699 -4 4 -6 4s-4.66699 -1.66699 -8 -5l-122 -137c-3.33301 -3.33301 -5.5 -6.16602 -6.5 -8.49902s-1.5 -5.5 -1.5 -9.5v-223c0 -8 -4.33301 -12 -13 -12h-49
c-4.66699 0 -8 0.833008 -10 2.5s-3 4.83398 -3 9.50098v720c0 6.66699 3.33301 10 10 10h56c6 0 9 -3.33301 9 -10v-385c0 -7.33301 3 -8 9 -2l350 390c2.66699 2.66699 5.16699 4.5 7.5 5.5s5.5 1.5 9.5 1.5h56c4.66699 0 7.5 -1.16699 8.5 -3.5
s0.166992 -4.83301 -2.5 -7.5l-244 -270c-1.33301 -2 -2 -3.66699 -2 -5s0.666992 -3 2 -5l270 -440c1.33301 -2.66699 2 -4.66699 2 -6z" />
    <glyph glyph-name="L" unicode="L" horiz-adv-x="596" 
d="M106.5 739.5c1.66699 1.66699 4.5 2.5 8.5 2.5h54c4 0 6.66699 -0.833008 8 -2.5s2 -4.83398 2 -9.50098v-660c0 -4 0.666992 -6.66699 2 -8s4 -2 8 -2h353c4 0 6.66699 -0.5 8 -1.5s2 -3.5 2 -7.5v-42c0 -6 -3.33301 -9 -10 -9h-426c-8 0 -12 4 -12 12v718
c0 4.66699 0.833008 7.83398 2.5 9.50098z" />
    <glyph glyph-name="M" unicode="M" horiz-adv-x="895" 
d="M104 13l0.00390625 716.997c0 4.66699 0.833008 7.83398 2.5 9.50098s4.5 2.5 8.5 2.5h67c4.66699 0 8.16699 -0.666992 10.5 -2s4.16602 -4 5.49902 -8l240 -612c3.33301 -6.66699 6 -10 8 -10s4.66699 3.33301 8 10l242 611c2 7.33301 6.33301 11 13 11h72
c6.66699 0 10 -4 10 -12v-717c0 -8.66699 -4.33301 -13 -13 -13h-50c-4.66699 0 -7.83398 0.833008 -9.50098 2.5s-2.5 4.83398 -2.5 9.50098v590c0 2.66699 -0.666992 3.83398 -2 3.50098s-2.33301 -1.5 -3 -3.5l-232 -590c-2.66699 -8 -8.33398 -12 -17.001 -12h-40
c-5.33301 -0 -9.5 0.833008 -12.5 2.5s-5.5 4.5 -7.5 8.5l-227 585c-0.666992 3.33301 -1.66699 5 -3 5s-2 -1.66699 -2 -5v-585c0 -4 -0.833008 -6.83301 -2.5 -8.5s-4.83398 -2.5 -9.50098 -2.5h-42c-8 -0 -12 4.33301 -12 13z" />
    <glyph glyph-name="N" unicode="N" horiz-adv-x="756" 
d="M642 742c4 0 6.66797 -0.835938 8.00098 -2.50293s2 -4.5 2 -8.5v-720c0 -7.33301 -3.66699 -11 -11 -11h-35h-5c-6.66699 0 -11.667 2.33301 -15 7l-403 590c-3.33301 4.66699 -6.16602 6.66699 -8.49902 6s-3.5 -3 -3.5 -7v-585c0 -7.33301 -4 -11 -12 -11h-43
c-4.66699 0 -7.83398 0.833008 -9.50098 2.5s-2.5 4.83398 -2.5 9.50098v718c0 4.66699 0.833008 7.83398 2.5 9.50098s4.5 2.5 8.5 2.5h42c4.66699 0 8.16699 -0.5 10.5 -1.5s4.83301 -3.5 7.5 -7.5l396 -582c3.33301 -4 6.33301 -6 9 -6
c1.33301 0 2.66602 0.833008 3.99902 2.5s2 3.83398 2 6.50098v577c0 7.33301 3.33301 11 10 11h46z" />
    <glyph glyph-name="O" unicode="O" horiz-adv-x="762" 
d="M152 88c-54.667 65.333 -82 158.332 -82 278.999c0 81.333 12.5 150.833 37.5 208.5s61 101.5 108 131.5s102.5 45 166.5 45s119.167 -14.833 165.5 -44.5s81.833 -73.167 106.5 -130.5s37 -126.666 37 -207.999c0 -121.333 -27.333 -214.833 -82 -280.5
s-130.667 -98.5 -228 -98.5c-98 0 -174.333 32.667 -229 98zM555 128.999c38 52 57 132 57 240c0 215.333 -76.667 323 -230 323c-155.333 0 -233 -107.667 -233 -323c0 -212 78 -318 234 -318c76.667 0 134 26 172 78z" />
    <glyph glyph-name="P" unicode="P" horiz-adv-x="683" 
d="M555 370c-47.333 -35.333 -111 -53.001 -191 -53.001h-176c-6 0 -9 -3 -9 -9v-296c0 -8 -4 -12 -12 -12h-52c-7.33301 0 -11 3.66699 -11 11v719c0 4.66699 0.833008 7.83398 2.5 9.50098s4.5 2.5 8.5 2.5h239c83.333 0 149.5 -17.5 198.5 -52.5s73.5 -88.5 73.5 -160.5
c0 -70.667 -23.667 -123.667 -71 -159zM497.5 647.999c-33.667 23.333 -82.5 35 -146.5 35h-160c-8 0 -12 -3.66699 -12 -11v-283c0 -8 3 -12 9 -12h170c60 0 106.667 12.5 140 37.5s50 64.167 50 117.5c0 54 -16.833 92.667 -50.5 116z" />
    <glyph glyph-name="Q" unicode="Q" horiz-adv-x="762" 
d="M152.5 652.5c55 66.333 131.168 99.502 228.501 99.502s173.333 -33.167 228 -99.5s82 -160.833 82 -283.5c0 -160.667 -48.333 -272 -145 -334c-3.33301 -2.66699 -5 -5.66699 -5 -9c0 -8.66699 6.5 -19.5 19.5 -32.5s29.833 -24.833 50.5 -35.5
s41.667 -17.334 63 -20.001c6 -0.666992 9 -3.66699 9 -9v-36c0 -6 -1.83301 -10.167 -5.5 -12.5s-9.83398 -3.5 -18.501 -3.5c-29.333 0 -59.833 9.16699 -91.5 27.5s-62.5 48.166 -92.5 89.499c-3.33301 4.66699 -8.33301 6 -15 4c-26.667 -5.33301 -53 -8 -79 -8
c-96.667 0 -172.667 32.5 -228 97.5s-83 158.833 -83 281.5s27.5 217.167 82.5 283.5zM381.001 51.002c154.667 0 232 106 232 318c0 106.667 -19.5 187.167 -58.5 241.5s-96.833 81.5 -173.5 81.5s-134.5 -27.333 -173.5 -82s-58.5 -135.667 -58.5 -243
c0 -210.667 77.333 -316 232 -316z" />
    <glyph glyph-name="R" unicode="R" horiz-adv-x="689" 
d="M617 12c0 -3.33301 -1.00195 -6.16895 -3.00195 -8.50195s-4.66699 -3.5 -8 -3.5h-55c-6 0 -10.667 3.66699 -14 11l-135 323c-1.33301 4 -3.66602 6.83301 -6.99902 8.5s-8.33301 2.5 -15 2.5h-189c-8 0 -12 -3.66699 -12 -11v-320c0 -5.33301 -1 -9 -3 -11
s-5.33301 -3 -10 -3h-49c-8.66699 0 -13 4 -13 12v718c0 4.66699 0.833008 7.83398 2.5 9.50098s4.5 2.5 8.5 2.5h270c76.667 0 135.834 -16.167 177.501 -48.5s62.5 -79.166 62.5 -140.499c0 -54 -14.333 -96.667 -43 -128s-63.667 -53 -105 -65
c-4 -0.666992 -5.33301 -3.66699 -4 -9l143 -334c0.666992 -1.33301 1 -3 1 -5zM499.498 436.997c31.667 22.667 47.5 58.667 47.5 108c0 92.667 -55 139 -165 139h-190c-8.66699 0 -13 -3 -13 -9v-261c0 -7.33301 3 -11 9 -11h166c65.333 0 113.833 11.333 145.5 34z" />
    <glyph glyph-name="S" unicode="S" horiz-adv-x="631" 
d="M323 692c-52.667 0 -94.1699 -11.999 -124.503 -35.999s-45.5 -57.667 -45.5 -101c0 -56 37.667 -97.333 113 -124l142 -49c58 -20 100 -45.667 126 -77s39 -69.666 39 -114.999c0 -62.667 -22.833 -111.667 -68.5 -147s-108.5 -53 -188.5 -53
c-116.667 0 -203.334 41.333 -260.001 124c-2.66699 5.33301 -4 8.66602 -4 9.99902c0 4 3.33301 8.33301 10 13l26 18c4 3.33301 8 5 12 5c4.66699 0 8.33398 -2 11.001 -6c29.333 -37.333 58.333 -64 87 -80s67.334 -24 116.001 -24c58 0 103.333 10.833 136 32.5
s49 55.5 49 101.5c0 28.667 -8.5 52.667 -25.5 72s-48.833 37.666 -95.5 54.999l-151 55c-51.333 18 -88.666 43.333 -111.999 76s-35 68.334 -35 107.001c0 41.333 10.167 77.333 30.5 108s49 54.167 86 70.5s79.5 24.5 127.5 24.5c92.667 0 168.334 -32.667 227.001 -98
c2.66699 -4 4 -7 4 -9c0 -2.66699 -1.33301 -5.33398 -4 -8.00098l-36 -29c-2 -2 -4 -3 -6 -3c-2.66699 0 -6 2.66699 -10 8c-44 52.667 -102.667 79 -176 79z" />
    <glyph glyph-name="T" unicode="T" horiz-adv-x="636" 
d="M44 732c0 6.66699 3.33301 10 10 10h528c6.66699 0 10 -3.33301 10 -10v-41c0 -6 -3.33301 -9 -10 -9h-207c-4 0 -6.66699 -0.5 -8 -1.5s-2 -3.5 -2 -7.5v-661c0 -4.66699 -0.833008 -7.83398 -2.5 -9.50098s-4.5 -2.5 -8.5 -2.5h-54c-4 0 -6.83301 0.833008 -8.5 2.5
s-2.5 4.83398 -2.5 9.50098v661c0 4 -0.666992 6.5 -2 7.5s-4 1.5 -8 1.5h-225c-6.66699 0 -10 3 -10 9v41z" />
    <glyph glyph-name="U" unicode="U" horiz-adv-x="706" 
d="M547 51c-43.333 -40.667 -108.001 -60.999 -194.001 -60.999c-89.333 0 -154.833 21.667 -196.5 65s-62.5 110.333 -62.5 201v473c0 8.66699 3.33301 13 10 13h54c4.66699 0 7.83398 -0.833008 9.50098 -2.5s2.5 -4.83398 2.5 -9.50098v-494
c0 -123.333 62.667 -185 188 -185c126.667 0 190 62.667 190 188v492c0 7.33301 3.33301 11 10 11h44c6.66699 0 10 -3.66699 10 -11v-491c0 -85.333 -21.667 -148.333 -65 -189z" />
    <glyph glyph-name="V" unicode="V" horiz-adv-x="700" 
d="M650.5 738.5c1.66699 -2.33301 1.83301 -5.16699 0.5 -8.5l-257 -717c-2.66699 -8.66699 -9 -13 -19 -13h-53c-12.667 0 -20 4 -22 12l-251 717c-0.666992 1.33301 -1 3 -1 5s1 3.83301 3 5.5s4.33301 2.5 7 2.5h51c8 0 13 -3.33301 15 -10l220 -633
c2 -6 4.66699 -9 8 -9c2.66699 0 5 3.33301 7 10l225 633c2 6 6.33301 9 13 9h46c3.33301 0 5.83301 -1.16699 7.5 -3.5z" />
    <glyph glyph-name="W" unicode="W" horiz-adv-x="1035" 
d="M985 738c2 -2.66699 2.33301 -6.00195 1 -10.002l-207 -715c-2 -8.66699 -8.33301 -13 -19 -13h-49c-12 0 -19 4 -21 12l-169 600c-0.666992 3.33301 -1.5 5 -2.5 5s-1.83301 -1.66699 -2.5 -5l-172 -599c-2.66699 -8.66699 -9 -13 -19 -13h-50c-12 0 -19 4 -21 12
l-203 715c0 0.666992 -0.166992 1.33398 -0.5 2.00098s-0.166016 1.33398 0.500977 2.00098c0 7.33301 4 11 12 11h48c4.66699 0 8 -0.666992 10 -2s3.66699 -4 5 -8l172 -616c2 -6.66699 4 -10 6 -10s4 3.66699 6 11l175 616c3.33301 6 8.66602 9 15.999 9h44
c4.66699 0 8 -0.666992 10 -2s3.66699 -4 5 -8l173 -617c2 -6 4 -9 6 -9s4 3 6 9l175 618c1.33301 6 6.33301 9 15 9h40c4.66699 0 8 -1.33301 10 -4z" />
    <glyph glyph-name="X" unicode="X" horiz-adv-x="677" 
d="M630 6c0 -4 -3.33301 -5.99805 -10 -5.99805h-60c-6 0 -10.333 2.33301 -13 7l-202 301c-2.66699 6 -6 9 -10 9c-2.66699 0 -6.66699 -4 -12 -12l-199 -298c-2.66699 -4.66699 -7.33398 -7 -14.001 -7h-53c-6.66699 0 -10 1.66699 -10 5c0 2.66699 1.66699 6.66699 5 12
l235 351c2.66699 3.33301 4 6.66602 4 9.99902s-1.66699 7.66602 -5 12.999l-227 339c-1.33301 2.66699 -2 4.66699 -2 6c0 4 2.33301 6 7 6h64c6.66699 0 11.334 -2.33301 14.001 -7l188 -284c3.33301 -4 6.33301 -6 9 -6c3.33301 0 6.33301 2.33301 9 7l188 283
c2.66699 4.66699 7 7 13 7h59c6.66699 0 8 -3.33301 4 -10l-227 -337c-2 -4 -3 -7.33301 -3 -10s1 -6 3 -10l240 -358c3.33301 -5.33301 5 -9 5 -11z" />
    <glyph glyph-name="Y" unicode="Y" horiz-adv-x="660" 
d="M615 738c1.33301 -2.66699 1.00098 -5.66602 -0.999023 -8.99902l-238 -401c-2 -3.33301 -3.33301 -7 -4 -11s-1 -9.33301 -1 -16v-285c0 -10.667 -6 -16 -18 -16h-43c-10 0 -15 4.33301 -15 13v281c0 5.33301 -0.5 9.66602 -1.5 12.999s-2.5 7 -4.5 11l-243 409
c-1.33301 2 -2 4.33301 -2 7c0 5.33301 4 8 12 8h52c5.33301 0 9.16602 -0.666992 11.499 -2s4.83301 -4.33301 7.5 -9l196 -335c4 -8 8 -12 12 -12c2.66699 0 6.33398 3.33301 11.001 10l194 337c2.66699 4.66699 5.16699 7.66699 7.5 9s6.16602 2 11.499 2h48
c4 0 6.66699 -1.33301 8 -4z" />
    <glyph glyph-name="Z" unicode="Z" horiz-adv-x="619" 
d="M52.5 2c-1.66699 1.33301 -2.49902 4 -2.49902 8v20c0 4 0.833008 7.66699 2.5 11s4.16699 7 7.5 11l401 621c4 6 2.66699 9 -4 9h-384c-6 0 -9 3 -9 9v43c0 5.33301 2.66699 8 8 8h486c6 0 9 -2.66699 9 -8v-23c0 -2.66699 -0.833008 -5.66699 -2.5 -9
s-3.16699 -6 -4.5 -8l-407 -625c-4 -6 -3 -9 3 -9h401c3.33301 0 5.66602 -0.5 6.99902 -1.5s2 -2.83301 2 -5.5v-44c0 -6 -3.33301 -9 -10 -9h-495c-4 0 -6.83301 0.666992 -8.5 2z" />
    <glyph glyph-name="bracketleft" unicode="[" horiz-adv-x="279" 
d="M107 742h149c3.33301 0 5.5 -0.333008 6.5 -1s1.5 -2.33398 1.5 -5.00098v-35c0 -4.66699 -2.66699 -7 -8 -7h-87c-6.66699 0 -10 -3.66699 -10 -11l-1 -791c0 -3.33301 0.666992 -5.66602 2 -6.99902s3.66602 -2 6.99902 -2h87c6 0 9 -3 9 -9v-29
c0 -4 -0.666992 -6.66699 -2 -8s-3.66602 -2 -6.99902 -2h-145c-8 0 -12 3.66699 -12 11l-1 887c0 6 3.66699 9 11 9z" />
    <glyph glyph-name="backslash" unicode="\" horiz-adv-x="336" 
d="M262 -39l-247 767l-2 8c0 4 3 6 9 6h37c6 0 9.66699 -2.66699 11 -8l251 -777l1 -3c0 -2.66699 -2.66699 -4 -8 -4h-38c-8 0 -12.667 3.66699 -14 11z" />
    <glyph glyph-name="bracketright" unicode="]" horiz-adv-x="279" 
d="M182 -154c0 -7.33301 -4 -11 -12 -11h-145c-3.33301 0 -5.66602 0.666992 -6.99902 2s-2 4 -2 8v29c0 6 3 9 9 9h87c3.33301 0 5.66602 0.666992 6.99902 2s2 3.66602 2 6.99902l-1 791c0 7.33301 -3.33301 11 -10 11h-87c-5.33301 0 -8 2.33301 -8 7v35
c0 2.66699 0.5 4.33398 1.5 5.00098s3.16699 1 6.5 1h149c7.33301 0 11 -3 11 -9z" />
    <glyph glyph-name="asciicircum" unicode="^" horiz-adv-x="476" 
d="M243 439c-2 3.33301 -4.16699 5.00195 -6.5 5.00195s-4.16602 -1.66699 -5.49902 -5l-118 -296c-2 -4.66699 -6 -7 -12 -7h-40c-3.33301 0 -5.5 1.16699 -6.5 3.5s-0.833008 5.16602 0.5 8.49902l145 356c4.66699 11.333 10.167 20.166 16.5 26.499
s13.166 9.5 20.499 9.5c14.667 0 27 -12 37 -36l146 -359c0.666992 -1.33301 1 -3 1 -5c0 -4 -2.66699 -6 -8 -6h-38c-8 0 -13 2.66699 -15 8z" />
    <glyph glyph-name="underscore" unicode="_" horiz-adv-x="511" 
d="M446 -99c0 -4.66699 -1 -7.83301 -3 -9.5s-5.66699 -2.5 -11 -2.5h-356c-7.33301 0 -11 3 -11 9v37c0 6.66699 2.33301 10 7 10l365 1c6 0 9 -3 9 -9v-36z" />
    <glyph glyph-name="grave" unicode="`" horiz-adv-x="280" 
d="M34 751l231 -95c4.66699 -2 6 -6 4 -12l-7 -20c-1.33301 -3.33301 -3 -5.5 -5 -6.5s-5 -0.833008 -9 0.5l-228 73c-4.66699 2 -7.66699 4.16699 -9 6.5s-1.33301 5.5 0 9.5l13 40c2 4 5.33301 5.33301 10 4z" />
    <glyph glyph-name="a" unicode="a" horiz-adv-x="544" 
d="M309.5 9c-29.667 -12.667 -62.167 -19.002 -97.5 -19.002c-52.667 0 -94 13 -124 39s-45 61.333 -45 106c0 52 21.833 93 65.5 123s107.5 48 191.5 54l89 7c11.333 1.33301 17 6.33301 17 15v29c0 38.667 -12.167 69.334 -36.5 92.001s-57.166 34 -98.499 34
c-61.333 0 -112.333 -28.333 -153 -85c-2 -3.33301 -4 -5.33301 -6 -6s-4.33301 -0.333984 -7 0.999023l-41 17c-2.66699 1.33301 -4 3 -4 5c0 2.66699 1 5.33398 3 8.00098c20.667 34.667 49 61.834 85 81.501s78 29.5 126 29.5c62 0 110.167 -15.167 144.5 -45.5
s51.5 -72.5 51.5 -126.5v-355c0 -8.66699 -4 -13 -12 -13h-37c-8 -0 -12 4.33301 -12 13l-2 52c-1.33301 4.66699 -3 7 -5 7s-4.66699 -1.66699 -8 -5c-26.667 -26 -54.834 -45.333 -84.501 -58zM391 273.998l-74.999 -6c-137.333 -10 -206 -52 -206 -126
c0 -30.667 11 -55 33 -73s51.333 -27 88 -27c22 0 43.667 4 65 12s40.666 18.667 57.999 32c34.667 28.667 52 57 52 85v88c0 11.333 -5 16.333 -15 15z" />
    <glyph glyph-name="b" unicode="b" horiz-adv-x="596" 
d="M96 0c-4.66699 0 -8.00098 1.16699 -10.001 3.5s-3 6.16602 -3 11.499v715c0 8 3.66699 12 11 12h45c6.66699 0 10 -4.33301 10 -13v-248c0 -7.33301 1.66699 -11 5 -11c1.33301 0 4.33301 1.66699 9 5c46.667 43.333 101.667 65 165 65c71.333 0 125 -25.333 161 -76
s54 -116.334 54 -197.001c0 -86 -20.167 -153.667 -60.5 -203s-96.166 -74 -167.499 -74c-42 0 -76.333 8.33301 -103 25s-47 34.334 -61 53.001c-2 3.33301 -4 5 -6 5c-2.66699 0 -4 -2.66699 -4 -8l-4 -50c-0.666992 -5.33301 -2.16699 -9.16602 -4.5 -11.499
s-6.5 -3.5 -12.5 -3.5h-24zM148.999 178c0 -24.667 7.33203 -47.5 21.999 -68.5s34 -37.667 58 -50s48.667 -18.5 74 -18.5c50.667 0 91.834 19 123.501 57s47.5 94.333 47.5 169c0 69.333 -14.167 123.5 -42.5 162.5s-68.833 58.5 -121.5 58.5
c-32 0 -61.833 -7.33301 -89.5 -22s-51.5 -33.667 -71.5 -57v-231z" />
    <glyph glyph-name="c" unicode="c" horiz-adv-x="540" 
d="M499 423c2 -4 2.83398 -6.83203 2.50098 -8.49902s-2.16602 -3.16699 -5.49902 -4.5l-42 -14c-0.666992 -0.666992 -2 -1 -4 -1c-2.66699 0 -5.33398 2 -8.00098 6c-24 30.667 -46.833 52.834 -68.5 66.501s-45.834 20.5 -72.501 20.5
c-55.333 0 -99.666 -20.167 -132.999 -60.5s-50 -94.5 -50 -162.5s16.667 -122.167 50 -162.5s78 -60.5 134 -60.5c32.667 0 61.5 8 86.5 24s47.833 40.333 68.5 73c4 5.33301 8 6.66602 12 3.99902l35 -16c4 -2 5 -6 3 -12c-22 -38.667 -50.833 -69.167 -86.5 -91.5
s-77.167 -33.5 -124.5 -33.5c-48 0 -90.667 11.5 -128 34.5s-66.333 55.167 -87 96.5s-31 88.666 -31 141.999s10.5 101 31.5 143s50.167 74.833 87.5 98.5s79.666 35.5 126.999 35.5c88 0 155.667 -39 203 -117z" />
    <glyph glyph-name="d" unicode="d" horiz-adv-x="596" 
d="M449 13l0.00292969 46.001c0 6 -1.33301 9 -4 9c-2 0 -4.66699 -1.66699 -8 -5c-20 -20 -41.833 -37.167 -65.5 -51.5s-55.167 -21.5 -94.5 -21.5c-42.667 0 -81.167 10 -115.5 30s-61.333 50 -81 90s-29.5 88.667 -29.5 146c0 56 10 105.5 30 148.5s48 76.333 84 100
s77.333 35.5 124 35.5c31.333 0 58.166 -4.83301 80.499 -14.5s43.166 -22.834 62.499 -39.501c5.33301 -3.33301 8.66602 -5 9.99902 -5c3.33301 0 5 4 5 12v237c0 8 3.66699 12 11 12h45c6.66699 0 10 -3.66699 10 -11v-717c0 -5.33301 -1 -9 -3 -11s-5.66699 -3 -11 -3
h-37c-8.66699 -0 -13 4.33301 -13 13zM377.003 470.501c-23.333 11.667 -48.332 17.501 -74.999 17.501c-35.333 0 -66.833 -9 -94.5 -27s-49.334 -44.167 -65.001 -78.5s-23.5 -75.166 -23.5 -122.499c0 -72 16.667 -126.5 50 -163.5s75.333 -55.5 126 -55.5
c27.333 0 52.666 6.66699 75.999 20s41.833 30.166 55.5 50.499s20.5 40.166 20.5 59.499v247c-23.333 23.333 -46.666 40.833 -69.999 52.5z" />
    <glyph glyph-name="e" unicode="e" horiz-adv-x="579" 
d="M144 139.5c16.667 -29.667 39.168 -53.165 67.501 -70.498s59.166 -26 92.499 -26c72 0 126.667 29 164 87c2 3.33301 4 5.16602 6 5.49902s4.33301 -0.166992 7 -1.5l34 -19c2 -1.33301 3.16699 -3 3.5 -5s-0.5 -4.33301 -2.5 -7
c-24.667 -38.667 -54.667 -67.167 -90 -85.5s-77.333 -27.5 -126 -27.5s-91.834 11.333 -129.501 34s-67.167 54.5 -88.5 95.5s-32 87.833 -32 140.5c0 56.667 10.833 106.167 32.5 148.5s51.334 74.833 89.001 97.5s80.167 34 127.5 34
c72.667 0 130.167 -23.833 172.5 -71.5s63.5 -113.5 63.5 -197.5v-6c0 -4.66699 -0.833008 -8.33398 -2.5 -11.001s-5.5 -4 -11.5 -4h-395c-4.66699 0 -7 -5 -7 -15c0 -34 8.33301 -65.833 25 -95.5zM451.001 297.002c6.66699 0 11.1641 0.999023 13.4971 2.99902
s3.5 5.66699 3.5 11c0 32 -6.83301 61.667 -20.5 89s-33.167 49 -58.5 65s-55 24 -89 24c-37.333 0 -69.666 -9.16699 -96.999 -27.5s-48.166 -42.166 -62.499 -71.499s-21.166 -60.333 -20.499 -93h331z" />
    <glyph glyph-name="f" unicode="f" horiz-adv-x="373" 
d="M348 521l-0.000976562 -33.999c0 -5.33301 -3 -8 -9 -8h-121c-5.33301 0 -8 -2.66699 -8 -8v-458c0 -8.66699 -3.33301 -13 -10 -13h-46c-6.66699 0 -10 4 -10 12v459c0 5.33301 -2 8 -6 8h-105c-5.33301 0 -8 2.66699 -8 8v34c0 6 3 9 9 9h102
c3.33301 0 5.5 0.666992 6.5 2s1.5 3.66602 1.5 6.99902v76c0 84.667 40.333 127 121 127h78c6.66699 0 10 -3.33301 10 -10v-31c0 -6 -3.33301 -9 -10 -9h-74c-21.333 0 -36.666 -6.33301 -45.999 -19s-14 -31.667 -14 -57v-78c0 -5.33301 2.66699 -8 8 -8h123
c5.33301 0 8 -3 8 -9z" />
    <glyph glyph-name="g" unicode="g" horiz-adv-x="594" 
d="M561 531.5c2.66699 -2.33301 4.00293 -6.16602 4.00293 -11.499v-25c0 -6 -1.33301 -10.5 -4 -13.5s-7.33398 -4.5 -14.001 -4.5c-21.333 0 -39 -3.33301 -53 -10c-8.66699 -4.66699 -14.5 -8.66699 -17.5 -12s-3.83301 -7 -2.5 -11
c1.33301 -2.66699 3.66602 -8 6.99902 -16s6 -16.833 8 -26.5s3 -20.167 3 -31.5c0 -47.333 -17.833 -86 -53.5 -116s-88.167 -45 -157.5 -45c-49.333 0 -84.833 -4.33301 -106.5 -13s-32.5 -19.334 -32.5 -32.001c0 -11.333 7.5 -19.5 22.5 -24.5s40.5 -8.5 76.5 -10.5
l125 -7c55.333 -3.33301 96.5 -16.833 123.5 -40.5s40.5 -55.834 40.5 -96.501c0 -50.667 -21.833 -90 -65.5 -118s-105.167 -42 -184.5 -42c-81.333 0 -143.5 12.5 -186.5 37.5s-64.5 60.5 -64.5 106.5c0 46.667 30.667 86 92 118c4 2 6 3.66699 6 5c0 2 -2 4 -6 6
c-28 12 -42 30.333 -42 55c0 14 6.16699 27.167 18.5 39.5s30.833 22.5 55.5 30.5c3.33301 1.33301 5 3 5 5c0 2.66699 -2 5 -6 7c-28 15.333 -48.833 34 -62.5 56s-20.5 48.333 -20.5 79c0 52.667 19.333 93.834 58 123.501s92.667 44.5 162 44.5
c62.667 0 111.667 -15 147 -45c3.33301 -2.66699 6.66602 -4 9.99902 -4c4 0 7.33301 1.33301 10 4c32.667 28 62.667 42 90 42c7.33301 0 12.333 -1.16699 15 -3.5zM429.003 371c0 38.667 -12.333 68.332 -37 88.999s-61.334 31 -110.001 31
c-47.333 0 -84.166 -10.667 -110.499 -32s-39.5 -50.666 -39.5 -87.999c0 -36.667 13 -65 39 -85s63 -30 111 -30c98 0 147 38.333 147 115zM190.003 72.998c-12 0.666992 -26.001 -3.16699 -42.001 -11.5s-29.667 -20 -41 -35s-17 -31.833 -17 -50.5c0 -34 17 -60 51 -78
s83.333 -27 148 -27c118 0 177 35.667 177 107c0 26 -8.16699 46.167 -24.5 60.5s-43.166 22.5 -80.499 24.5z" />
    <glyph glyph-name="h" unicode="h" horiz-adv-x="581" 
d="M83 12v719.001c0 7.33301 3.33301 11 10 11h43c6.66699 0 10 -3.33301 10 -10v-270c0 -8 3 -9 9 -3c40 29.333 73.167 50.166 99.5 62.499s55.833 18.5 88.5 18.5c52 0 91.833 -13.5 119.5 -40.5s41.5 -63.5 41.5 -109.5v-377c0 -8.66699 -4 -13 -12 -13h-42
c-8 0 -12 4 -12 12v361c0 74.667 -37 112 -111 112c-30.667 0 -58.5 -6.33301 -83.5 -19s-56.5 -34.667 -94.5 -66v-388c0 -8 -4.33301 -12 -13 -12h-41c-8 0 -12 4 -12 12z" />
    <glyph glyph-name="i" unicode="i" 
d="M153 651c0 -6 -1 -10.5 -3 -13.5s-6 -4.5 -12 -4.5h-46c-5.33301 0 -8.83301 1.33301 -10.5 4s-2.5 6.66699 -2.5 12v78c0 10 4.33301 15 13 15h48c8.66699 0 13 -4.66699 13 -14v-77zM149 15c0 -6 -1 -10.001 -3 -12.001s-6.33301 -3 -13 -3h-37
c-4.66699 0 -8 0.833008 -10 2.5s-3 4.83398 -3 9.50098v506c0 4.66699 0.833008 7.83398 2.5 9.50098s4.5 2.5 8.5 2.5h44c4 0 6.83301 -0.833008 8.5 -2.5s2.5 -4.83398 2.5 -9.50098v-503z" />
    <glyph glyph-name="j" unicode="j" 
d="M153 651c0 -6 -1 -10.5 -3 -13.5s-6 -4.5 -12 -4.5h-46c-8.66699 0 -13 5.33301 -13 16v78c0 10 4.33301 15 13 15h48c8.66699 0 13 -4.66699 13 -14v-77zM121 -139c-18.667 -20.667 -52.333 -31 -101 -31c-16.667 0 -30.167 0.166992 -40.5 0.5s-17 1.33301 -20 3
s-4.5 4.5 -4.5 8.5v34c0 6 2.66699 9 8 9l54 2c24 0.666992 41 6.83398 51 18.501s15 32.167 15 61.5v551c0 8 4 12 12 12h44c6.66699 0 10 -4 10 -12v-556c0 -46.667 -9.33301 -80.334 -28 -101.001z" />
    <glyph glyph-name="k" unicode="k" horiz-adv-x="553" 
d="M525 7c0 -4.66699 -3.33301 -7 -10 -7h-54c-7.33301 -0 -12.333 3.33301 -15 10l-165 273c-1.33301 2 -2.66602 3.16699 -3.99902 3.5s-3.33301 -0.833984 -6 -3.50098l-115 -116c-4.66699 -4.66699 -7 -11 -7 -19v-133c0 -6 -1 -10 -3 -12s-6 -3 -12 -3h-37
c-5.33301 0 -9 0.833008 -11 2.5s-3 4.83398 -3 9.50098v718c0 4.66699 0.833008 7.83398 2.5 9.50098s4.5 2.5 8.5 2.5h45c6.66699 0 10 -4 10 -12v-478c0 -6 1 -9 3 -9c1.33301 0 3.66602 1.66699 6.99902 5l263 271c4 4 7.16699 6.83301 9.5 8.5s5.5 2.5 9.5 2.5h49
c6.66699 0 10 -2 10 -6c0 -3.33301 -2 -7 -6 -11l-163 -166c-2.66699 -2.66699 -4 -5 -4 -7s1 -4.66699 3 -8l192 -317c2 -2.66699 3 -5.33398 3 -8.00098z" />
    <glyph glyph-name="l" unicode="l" 
d="M149 15c0 -6 -1 -10.002 -3 -12.002s-6 -3 -12 -3h-38c-4.66699 0 -8 0.833008 -10 2.5s-3 4.83398 -3 9.50098l1 718c0 4.66699 0.666992 7.83398 2 9.50098s4 2.5 8 2.5h45c6.66699 0 10 -4 10 -12v-715z" />
    <glyph glyph-name="m" unicode="m" horiz-adv-x="902" 
d="M83 12l0.00585938 506.999c0 7.33301 3.33301 11 10 11h43c6.66699 0 10 -3.33301 10 -10v-59c0 -7.33301 3 -8.33301 9 -3c38 29.333 69.667 50.333 95 63s53.666 19 84.999 19c37.333 0 68.166 -8.5 92.499 -25.5s40.833 -37.5 49.5 -61.5
c1.33301 -2 2.66602 -3 3.99902 -3c2 0 5.33301 1.66699 10 5c37.333 30 69.166 51.667 95.499 65s55.5 20 87.5 20c48 0 85.333 -13.5 112 -40.5s40 -63.5 40 -109.5v-377c0 -8.66699 -4.33301 -13 -13 -13h-42c-4 0 -6.83301 0.833008 -8.5 2.5s-2.5 4.83398 -2.5 9.50098
v361c0 74.667 -34.333 112 -103 112c-28.667 0 -55.5 -6.83301 -80.5 -20.5s-49.5 -30.834 -73.5 -51.501c-6 -5.33301 -10.167 -10.166 -12.5 -14.499s-3.5 -9.5 -3.5 -15.5v-370c0 -8.66699 -4 -13 -12 -13h-42c-8 0 -12 4 -12 12v361c0 74.667 -34.333 112 -103 112
c-28.667 0 -54.834 -6.33301 -78.501 -19s-53.834 -34.667 -90.501 -66v-388c0 -8 -4.33301 -12 -13 -12h-41c-8 0 -12 4 -12 12z" />
    <glyph glyph-name="n" unicode="n" horiz-adv-x="581" 
d="M83 12v507c0 7.33301 3.33301 11 10 11h43c6.66699 0 10 -3.33301 10 -10v-59c0 -8 3 -9 9 -3c40 29.333 73.167 50.333 99.5 63s55.833 19 88.5 19c51.333 0 91 -13.5 119 -40.5s42 -63.167 42 -108.5v-378c0 -8.66699 -4 -13 -12 -13h-42c-8 0 -12 4 -12 12v361
c0 74.667 -37 112 -111 112c-30.667 0 -58.5 -6.33301 -83.5 -19s-56.5 -34.667 -94.5 -66v-388c0 -8 -4.33301 -12 -13 -12h-41c-8 0 -12 4 -12 12z" />
    <glyph glyph-name="o" unicode="o" horiz-adv-x="598" 
d="M168.5 24.5c-37.667 23 -66.834 55.001 -87.501 96.001s-31 88.167 -31 141.5c0 54 10.5 102.167 31.5 144.5s50.5 75.166 88.5 98.499s81.333 35 130 35s91.834 -11.667 129.501 -35s66.834 -56 87.501 -98s31 -89.667 31 -143s-10.333 -100.833 -31 -142.5
s-49.834 -74 -87.501 -97s-81.167 -34.5 -130.5 -34.5s-92.833 11.5 -130.5 34.5zM432.5 102.501c31.667 39.667 47.498 93.5 47.498 161.5s-16.167 122.333 -48.5 163s-76.166 61 -131.499 61c-56 0 -100.333 -20.333 -133 -61s-49 -95 -49 -163s16.333 -121.833 49 -161.5
s77.334 -59.5 134.001 -59.5c56 0 99.833 19.833 131.5 59.5z" />
    <glyph glyph-name="p" unicode="p" horiz-adv-x="594" 
d="M147 517l-0.00195312 -46c0 -6 1.33301 -9 4 -9s5.66699 1.66699 9 5l22.5 23c13 13.333 31.667 25 56 35s51.166 15 80.499 15c42.667 0 80.834 -10 114.501 -30s60.167 -50 79.5 -90s29 -88.667 29 -146s-9.66699 -107.5 -29 -150.5s-46.666 -76 -81.999 -99
s-76.333 -34.5 -123 -34.5c-30 0 -57.167 4.66699 -81.5 14s-45.166 21.333 -62.499 36c-5.33301 4 -9 6 -11 6c-2.66699 0 -4 -4.33301 -4 -13v-186c0 -8 -3.66699 -12 -11 -12h-45c-6.66699 0 -10 3.66699 -10 11v670c0 5.33301 1 9 3 11s5.66699 3 11 3h38
c8 0 12 -4.33301 12 -13zM218.998 59c23.333 -12 48.334 -17.998 75.001 -17.998c54 0 97.5 20.167 130.5 60.5s49.5 96.833 49.5 169.5c0 72 -16.5 126.333 -49.5 163s-74.167 55 -123.5 55c-28.667 0 -54.5 -6.33301 -77.5 -19s-41.167 -28.834 -54.5 -48.501
s-20 -38.834 -20 -57.501v-252c23.333 -23.333 46.666 -41 69.999 -53z" />
    <glyph glyph-name="q" unicode="q" horiz-adv-x="597" 
d="M500 530c5.33301 0 8.99902 -1.16699 10.999 -3.5s3 -6.16602 3 -11.499v-668c0 -8 -3.66699 -12 -11 -12h-46c-6 0 -9 4 -9 12v186c0 9.33301 -1.33301 14 -4 14c-2 0 -5.66699 -2 -11 -6c-19.333 -14.667 -42 -26.834 -68 -36.501s-53.667 -14.5 -83 -14.5
c-47.333 0 -88.333 11.333 -123 34s-61.167 54.834 -79.5 96.501s-27.5 90.5 -27.5 146.5c0 83.333 20.333 149.666 61 198.999s97 74 169 74c32 0 58.833 -4 80.5 -12s37.667 -16.167 48 -24.5s22.5 -19.5 36.5 -33.5c2.66699 -2.66699 4.66699 -4 6 -4
c2.66699 0 4.33398 2.33301 5.00098 7l5 42c1.33301 6 3 10 5 12s6 3 12 3h20zM447.999 352c0 23.333 -6.66797 45.667 -20.001 67s-31.666 38.5 -54.999 51.5s-49.333 19.5 -78 19.5c-32.667 0 -62.334 -8.33301 -89.001 -25s-47.667 -41.667 -63 -75s-23 -74 -23 -122
c0 -70.667 16.333 -126.167 49 -166.5s75.334 -60.5 128.001 -60.5c28 0 55.333 6.16699 82 18.5s49.667 29.5 69 51.5v241z" />
    <glyph glyph-name="r" unicode="r" horiz-adv-x="372" 
d="M83 12v506.999c0 7.33301 3.33301 11 10 11h43c6 0 9 -3.33301 9 -10v-66c0 -3.33301 1 -5.33301 3 -6s4.33301 0.333008 7 3c27.333 30.667 53.666 53.167 78.999 67.5s51 21.5 77 21.5c12.667 0 21.834 -0.833008 27.501 -2.5s8.5 -4.83398 8.5 -9.50098v-46
c0 -4.66699 -2.66699 -7 -8 -7c-18 2 -31 3 -39 3c-20 0 -42 -6.16699 -66 -18.5s-44.167 -28.166 -60.5 -47.499s-24.5 -38.666 -24.5 -57.999v-342c0 -8 -4.33301 -12 -13 -12h-41c-8 0 -12 4 -12 12z" />
    <glyph glyph-name="s" unicode="s" horiz-adv-x="508" 
d="M338.5 470c-25.667 12.667 -55.168 19.001 -88.501 19.001c-39.333 0 -71.666 -8.33301 -96.999 -25s-38 -39 -38 -67c0 -16.667 6.5 -31.834 19.5 -45.501s35.833 -25.5 68.5 -35.5l130 -40c42 -12 73.333 -29.5 94 -52.5s31 -50.167 31 -81.5
c0 -29.333 -9.16699 -55.5 -27.5 -78.5s-43.5 -41 -75.5 -54s-68 -19.5 -108 -19.5c-50 0 -94.667 10.167 -134 30.5s-67.333 47.166 -84 80.499c-1.33301 2.66699 -2 4.66699 -2 6c0 2.66699 1.33301 5 4 7l32 19c2.66699 1.33301 4.66699 2 6 2c2 0 4.33301 -1.33301 7 -4
c36.667 -59.333 93 -89 169 -89c42.667 0 78.167 8.5 106.5 25.5s42.5 39.5 42.5 67.5c0 20 -8.33301 37.167 -25 51.5s-44 26.833 -82 37.5l-102 30c-48 13.333 -82.167 30.833 -102.5 52.5s-30.5 47.834 -30.5 78.501s8.5 57.667 25.5 81s40.5 41.5 70.5 54.5
s64.333 19.5 103 19.5c42.667 0 81.167 -8.16699 115.5 -24.5s60.833 -39.166 79.5 -68.499c4 -4.66699 3.66699 -8.33398 -1 -11.001l-34 -20c-2 -1.33301 -4.16699 -1.83301 -6.5 -1.5s-4.16602 1.5 -5.49902 3.5c-14.667 22 -34.834 39.333 -60.501 52z" />
    <glyph glyph-name="t" unicode="t" horiz-adv-x="375" 
d="M202 479c-5.33301 0 -8 -2.66699 -8 -8v-336c0 -32.667 4.83301 -54.667 14.5 -66s25.834 -17 48.501 -17h73c6.66699 0 10 -3.33301 10 -10v-27c0 -5.33301 -3.33301 -9 -10 -11c-16 -2.66699 -45 -4 -87 -4c-41.333 0 -70.833 9.5 -88.5 28.5s-26.5 49.833 -26.5 92.5
v349c0 6 -3 9 -9 9h-85c-6 0 -9 2.66699 -9 8v35c0 5.33301 2.66699 8 8 8h89c3.33301 0 5.66602 2.66699 6.99902 8l10 160c0 8 3 12 9 12h36c7.33301 0 11 -4.33301 11 -13v-159c0 -5.33301 2.33301 -8 7 -8h132c5.33301 0 8 -2.66699 8 -8v-35c0 -5.33301 -3 -8 -9 -8
h-131z" />
    <glyph glyph-name="u" unicode="u" horiz-adv-x="576" 
d="M339.5 69c28.333 16 57.502 39.3301 87.502 69.9971v379c0 8 4.33301 12 13 12h42c7.33301 0 11 -4 11 -12v-507c0 -7.33301 -3.33301 -11 -10 -11h-43c-6.66699 0 -10 3.33301 -10 10v61c0 3.33301 -0.666992 5.33301 -2 6s-3.66602 -0.333008 -6.99902 -3
c-36.667 -31.333 -69.334 -53.166 -98.001 -65.499s-57.334 -18.5 -86.001 -18.5c-46.667 0 -85.334 13.833 -116.001 41.5s-46 63.834 -46 108.501v377c0 8.66699 4.33301 13 13 13h42c7.33301 0 11 -4 11 -12v-356c0 -35.333 10 -63.666 30 -84.999s47 -32 81 -32
c30 0 59.167 8 87.5 24z" />
    <glyph glyph-name="v" unicode="v" horiz-adv-x="540" 
d="M509.5 526.5c1.66699 -2.33301 1.83301 -5.16699 0.5 -8.5l-205 -505c-2.66699 -8.66699 -9.66699 -13 -21 -13h-27c-11.333 0 -19 4 -23 12l-204 505l-1 3c0 6.66699 3.66699 10 11 10h46c7.33301 0 12 -3.33301 14 -10l168 -418c2 -6.66699 4.33301 -10 7 -10
s5.66699 3.66699 9 11l167 418c2 6 6.33301 9 13 9h37c4 0 6.83301 -1.16699 8.5 -3.5z" />
    <glyph glyph-name="w" unicode="w" horiz-adv-x="791" 
d="M756 526.5c2 -2.33301 2.33398 -5.16797 1.00098 -8.50098l-151 -506c-2 -8 -7.66699 -12 -17 -12h-40c-10.667 0 -17.334 4 -20.001 12l-127 399c-2 6 -4 9 -6 9c-1.33301 0 -3 -3 -5 -9l-121 -399c-2 -8 -7.66699 -12 -17 -12h-42c-11.333 0 -18 4 -20 12l-157 505
l-1 4c0 2.66699 1 4.83398 3 6.50098s4.66699 2.5 8 2.5h44c7.33301 0 12 -3.33301 14 -10l128 -416c2 -6.66699 4.33301 -10 7 -10s5 3.66699 7 11l126 417c2 5.33301 6.33301 8 13 8h37c7.33301 0 12 -3.33301 14 -10l132 -416c2 -6.66699 4.33301 -10 7 -10
s5 3.66699 7 11l122 416c3.33301 6 8.33301 9 15 9h31c3.33301 0 6 -1.16699 8 -3.5z" />
    <glyph glyph-name="x" unicode="x" horiz-adv-x="532" 
d="M503 5c0 -3.33301 -2.99902 -4.99902 -8.99902 -4.99902h-56c-6.66699 0 -12.334 2.33301 -17.001 7l-150 207c-2.66699 4.66699 -5.33398 7 -8.00098 7c-2 0 -5 -2.33301 -9 -7l-157 -207c-3.33301 -4.66699 -9 -7 -17 -7h-38c-8.66699 0 -13 2.66699 -13 8
c0 3.33301 2 7.33301 6 12l187 237c2.66699 3.33301 4 6.66602 4 9.99902s-1.33301 6.66602 -4 9.99902l-177 240c-1.33301 1.33301 -2 3.33301 -2 6c0 4.66699 3 7 9 7h52c4 0 7.16699 -0.5 9.5 -1.5s4.5 -2.83301 6.5 -5.5l146 -196c2 -4 4.33301 -6 7 -6
s5.33398 2 8.00098 6l142 196c2 2.66699 4.16699 4.5 6.5 5.5s5.5 1.5 9.5 1.5h42c4 0 6.5 -1.16699 7.5 -3.5s0.166992 -4.83301 -2.5 -7.5l-174 -232c-2.66699 -3.33301 -4 -6.66602 -4 -9.99902c0 -4 1.33301 -7.66699 4 -11l185 -249c4 -6 6 -10 6 -12z" />
    <glyph glyph-name="y" unicode="y" horiz-adv-x="521" 
d="M58 -163c-9.33301 1.33301 -14.001 4.66699 -14.001 10v29c0 4.66699 1.83301 7.83398 5.5 9.50098s11.5 2.5 23.5 2.5h62c16 0 30.833 6.33301 44.5 19s24.5 28.5 32.5 47.5s12 37.167 12 54.5c0 10.667 -1.33301 19.667 -4 27l-190 479
c-0.666992 1.33301 -1 3.33301 -1 6c0 6 3.66699 9 11 9h45c7.33301 0 12 -3.33301 14 -10l160 -411c2 -6 4.66699 -9 8 -9c4 0 7.33301 4.33301 10 13l156 408c3.33301 6 7.66602 9 12.999 9h36c4 0 6.83301 -1.33301 8.5 -4s1.83398 -5.33398 0.500977 -8.00098l-224 -577
c-16 -40 -36.5 -67.667 -61.5 -83s-57.833 -23 -98.5 -23c-23.333 0 -39.666 0.666992 -48.999 2z" />
    <glyph glyph-name="z" unicode="z" horiz-adv-x="472" 
d="M35 2c-1.33301 1.33301 -2.00098 4 -2.00098 8v27c0 4.66699 0.666992 8.66699 2 12s4 7.66602 8 12.999l304 410c4 6 2.66699 9 -4 9h-278c-6.66699 0 -10 3 -10 9v31c0 6 2.66699 9 8 9h360c4.66699 0 7 -2.66699 7 -8v-29c0 -9.33301 -2.66699 -17.666 -8 -24.999
l-305 -410c-4 -6 -3 -9 3 -9h307c6 0 9 -2.66699 9 -8v-31c0 -6.66699 -3.66699 -10 -11 -10h-383c-3.33301 0 -5.66602 0.666992 -6.99902 2z" />
    <glyph glyph-name="braceleft" unicode="{" horiz-adv-x="290" 
d="M148 715.5c21.333 17.667 50.667 26.5029 88 26.5029h30c6 0 9 -2 9 -6v-35c0 -4.66699 -3 -7 -9 -7h-23c-23.333 0 -39.833 -4.33301 -49.5 -13s-14.5 -22 -14.5 -40v-226c-0.666992 -37.333 -10.167 -66.333 -28.5 -87s-41.5 -32.334 -69.5 -35.001
c-4 -0.666992 -6.16699 -1.83398 -6.5 -3.50098s1.83398 -2.83398 6.50098 -3.50098c28 -2 51.167 -12.833 69.5 -32.5s27.833 -48.834 28.5 -87.501v-228c0 -19.333 4.66699 -33.333 14 -42s26.333 -13 51 -13h21c6.66699 0 10 -3 10 -9v-29
c0 -4 -0.833008 -6.66699 -2.5 -8s-4.16699 -2 -7.5 -2h-28c-38.667 0 -68.5 9 -89.5 27s-31.5 42 -31.5 72v229c0 26.667 -9.83301 50.5 -29.5 71.5s-46.834 31.5 -81.501 31.5c-3.33301 0 -5 2.66699 -5 8v31c0 5.33301 1.66699 8 5 8
c36 0.666992 63.5 10.834 82.5 30.501s28.5 45.167 28.5 76.5v225c0 29.333 10.667 52.833 32 70.5z" />
    <glyph glyph-name="bar" unicode="|" horiz-adv-x="263" 
d="M115 -165c-6.66699 0 -10 3.33301 -10 10l-1 992c0 6.66699 3 10 9 10h36c7.33301 0 11 -3.66699 11 -11v-991c0 -6.66699 -3.33301 -10 -10 -10h-35z" />
    <glyph glyph-name="braceright" unicode="}" horiz-adv-x="290" 
d="M174 420c0 -31.333 9.50098 -56.8359 28.501 -76.5029s46.5 -29.834 82.5 -30.501c3.33301 0 5 -2.66699 5 -8v-31c0 -5.33301 -1.66699 -8 -5 -8c-34.667 0 -61.834 -10.5 -81.501 -31.5s-29.5 -44.833 -29.5 -71.5v-229c0 -30 -10.5 -54 -31.5 -72
s-50.833 -27 -89.5 -27h-28c-3.33301 0 -5.83301 0.666992 -7.5 2s-2.5 4 -2.5 8v29c0 6 3.33301 9 10 9h21c24.667 0 41.667 4.33301 51 13s14 22.667 14 42v228c0.666992 38.667 10.167 67.834 28.5 87.501s41.5 30.5 69.5 32.5
c4.66699 0.666992 6.83398 1.83398 6.50098 3.50098s-2.5 2.83398 -6.5 3.50098c-28 2.66699 -51.167 14.334 -69.5 35.001s-27.833 49.667 -28.5 87v226c0 18 -4.83301 31.333 -14.5 40s-26.167 13 -49.5 13h-23c-6 0 -9 2.33301 -9 7v35c0 4 3 6 9 6h30
c37.333 0 66.666 -8.83301 87.999 -26.5s32 -41.167 32 -70.5v-225z" />
    <glyph glyph-name="asciitilde" unicode="~" horiz-adv-x="557" 
d="M446 339c-20 -9.33301 -43.332 -13.998 -69.999 -13.998c-18.667 0 -35.334 2.16699 -50.001 6.5s-31.667 10.833 -51 19.5c-16 7.33301 -30.5 13 -43.5 17s-27.167 6 -42.5 6c-38.667 0 -72.667 -14.667 -102 -44c-2.66699 -2.66699 -4.66699 -3.83398 -6 -3.50098
s-3 2.16602 -5 5.49902l-12 27c-2.66699 5.33301 -2 9.33301 2 12c18.667 17.333 37 30.5 55 39.5s39.667 13.5 65 13.5c16.667 0 32 -2 46 -6s31.667 -10.333 53 -19c20 -8 36.333 -14 49 -18s26.667 -6 42 -6c22 0 39.833 3.66699 53.5 11s26.167 17 37.5 29
c2.66699 2.66699 5 4 7 4c2.66699 0 5 -2 7 -6l12 -26l2 -5c0 -2 -1.66699 -5.33301 -5 -10c-9.33301 -12.667 -24 -23.667 -44 -33z" />
    <glyph glyph-name="uni00A0" unicode="&#xa0;" horiz-adv-x="214" 
 />
    <glyph glyph-name="exclamdown" unicode="&#xa1;" horiz-adv-x="239" 
d="M154 432h-68c-6 0 -9 3.66699 -9 11v75c0 8 4 12 12 12h58c6 0 10.167 -1 12.5 -3s3.5 -5.66699 3.5 -11v-74c0 -6.66699 -3 -10 -9 -10zM159 -162.5c-1.33301 -1.66699 -3.33301 -2.5 -6 -2.5h-66c-2 0 -3.83301 0.833008 -5.5 2.5s-2.16699 4.16699 -1.5 7.5l16 508
c0.666992 4 1.66699 6.66699 3 8s4 2 8 2h23c9.33301 0 14 -3.66699 14 -11l17 -509c0 -2 -0.666992 -3.83301 -2 -5.5z" />
    <glyph glyph-name="cent" unicode="&#xa2;" horiz-adv-x="558" 
d="M507 226c-20 -36 -46.3311 -65.002 -78.998 -87.002s-70.334 -34.333 -113.001 -37v-86c0 -5.33301 -1.16699 -9.33301 -3.5 -12s-6.5 -4 -12.5 -4h-24c-9.33301 0 -14 4.66699 -14 14v89c-42 5.33301 -78.833 20 -110.5 44s-56.334 55.5 -74.001 94.5
s-26.5 83.167 -26.5 132.5c0 48.667 8.83301 92.834 26.5 132.501s42.5 71.834 74.5 96.501s68.667 40 110 46v81c0 8 4 12 12 12h31c7.33301 0 11 -3.66699 11 -11v-81c80 -5.33301 141.333 -44 184 -116c2 -4 2.83301 -6.83301 2.5 -8.5s-2.16602 -3.16699 -5.49902 -4.5
l-42 -14c-0.666992 -0.666992 -2 -1 -4 -1c-2.66699 0 -5.33398 2 -8.00098 6c-24 30.667 -46.833 52.834 -68.5 66.501s-45.834 20.5 -72.501 20.5c-55.333 0 -99.666 -20.167 -132.999 -60.5s-50 -94.5 -50 -162.5s16.667 -122.167 50 -162.5s78 -60.5 134 -60.5
c32.667 0 61.5 8 86.5 24s47.833 40.333 68.5 73c4 5.33301 8 6.66602 12 3.99902l35 -16c4 -2 5 -6 3 -12z" />
    <glyph glyph-name="sterling" unicode="&#xa3;" horiz-adv-x="608" 
d="M12 10l0.00878906 41.001c0 5.33301 2.66699 8 8 8h32c28 -0.666992 51 12.5 69 39.5s27 66.833 27 119.5c0 32 -4 76 -12 132c-0.666992 4 -2.66699 6 -6 6h-92c-4 0 -6 2.33301 -6 7v34c0 4.66699 2 7 6 7h80c5.33301 0 7.66602 2.33301 6.99902 7l-16 74
c-4.66699 20.667 -7 42 -7 64c0 41.333 9.33301 77.333 28 108s43.667 54.167 75 70.5s65.666 24.5 102.999 24.5c42 0 81.333 -10 118 -30s61 -44.333 73 -73l1 -3c0 -2 -1.16699 -3.5 -3.5 -4.5s-3.83301 -1.83301 -4.5 -2.5l-42 -16c-1.33301 -0.666992 -3 -1 -5 -1
c-3.33301 0 -5.66602 1.66699 -6.99902 5c-11.333 20.667 -26.833 36.5 -46.5 47.5s-45.167 16.5 -76.5 16.5c-40.667 0 -74.334 -11.5 -101.001 -34.5s-40 -54.5 -40 -94.5c0 -24 2.5 -49.833 7.5 -77.5s10.833 -51.834 17.5 -72.501
c1.33301 -4.66699 3.66602 -7 6.99902 -7h162c4.66699 0 7 -2 7 -6v-36c0 -4.66699 -2.33301 -7 -7 -7h-151c-6 0 -8.66699 -2.33301 -8 -7c6.66699 -38 9.66699 -76.333 9 -115c-0.666992 -43.333 -6.33398 -78.333 -17.001 -105s-22.334 -47 -35.001 -61
c-2.66699 -2.66699 -3.66699 -4.66699 -3 -6s2.66699 -2 6 -2h189c35.333 0 64.166 5.83301 86.499 17.5s39.166 30.834 50.499 57.501c3.33301 6 7.66602 8 12.999 6l38 -11c7.33301 -2.66699 9.66602 -6.33398 6.99902 -11.001c-14.667 -39.333 -38.5 -69 -71.5 -89
s-73.167 -30 -120.5 -30h-339c-6.66699 -0 -10 3.33301 -10 10z" />
    <glyph glyph-name="currency" unicode="&#xa4;" horiz-adv-x="527" 
d="M161 223c-2.66699 1.33301 -4.66895 2 -6.00195 2c-2.66699 0 -5 -1.33301 -7 -4l-43 -43c-2.66699 -2.66699 -5.66699 -4 -9 -4s-6.66602 1.33301 -9.99902 4l-19 20c-2.66699 2.66699 -4 5.66699 -4 9c0 2.66699 1.33301 5.33398 4 8.00098l43 43c2 3.33301 3 6 3 8
c0 2.66699 -1 5.33398 -3 8.00098c-19.333 31.333 -29 64.333 -29 99c0 36.667 10.333 70.334 31 101.001c3.33301 5.33301 3 9.66602 -1 12.999l-42 43c-2.66699 3.33301 -4 6.66602 -4 9.99902s1.33301 6.33301 4 9l19 19c3.33301 3.33301 6.33301 5 9 5
c2 0 4.66699 -1.66699 8 -5l44 -43c3.33301 -4.66699 7.33301 -5 12 -1c30.667 20 64.334 30 101.001 30c38 0 71.667 -10.667 101 -32c5.33301 -2 9.66602 -1.66699 12.999 1l47 48c4.66699 3.33301 9 3.33301 13 0l25 -26c3.33301 -4 3.33301 -8 0 -12l-48 -48
c-3.33301 -3.33301 -3.66602 -7 -0.999023 -11c20.667 -30.667 31 -64.334 31 -101.001c0 -38 -10.333 -71.333 -31 -100c-1.33301 -2 -2 -4.16699 -2 -6.5s1 -4.5 3 -6.5l48 -46c4 -4.66699 4 -9 0 -13l-25 -25c-4 -4 -7.66699 -4 -11 0l-47 46c-4 4 -8 5 -12 3
c-32.667 -22.667 -67 -34 -103 -34c-38.667 0 -72.667 10.667 -102 32zM327.498 265.5c19 11.667 34 27 45 46s16.5 39.5 16.5 61.5s-5.5 42.5 -16.5 61.5s-26 34.333 -45 46s-40.167 17.5 -63.5 17.5s-44.5 -5.83301 -63.5 -17.5s-34 -27 -45 -46s-16.5 -39.5 -16.5 -61.5
s5.5 -42.5 16.5 -61.5s26 -34.333 45 -46s40.167 -17.5 63.5 -17.5s44.5 5.83301 63.5 17.5z" />
    <glyph glyph-name="yen" unicode="&#xa5;" horiz-adv-x="596" 
d="M582.5 738c1.66699 -2.66699 1.16602 -5.66602 -1.50098 -8.99902l-232 -387h140c6 0 9 -3 9 -9v-28c0 -4.66699 -1 -7.83398 -3 -9.50098s-5.66699 -2.5 -11 -2.5h-144v-96h149c6 0 9 -2.66699 9 -8v-29c0 -7.33301 -4.66699 -11 -14 -11h-144v-133
c0 -10.667 -6 -16 -18 -16h-44c-9.33301 -0 -14 4.33301 -14 13v135h-147c-4 0 -6.83301 0.833008 -8.5 2.5s-2.5 4.16699 -2.5 7.5v28c0 6.66699 2.33301 10 7 10h151v97h-147c-4 0 -6.83301 0.833008 -8.5 2.5s-2.5 4.16699 -2.5 7.5v28c0 6.66699 2.33301 10 7 10h133
l-229 386c-1.33301 2 -2 4.33301 -2 7c0 5.33301 4 8 12 8h55c5.33301 0 9.16602 -0.666992 11.499 -2s4.83301 -4.33301 7.5 -9l195 -336c0.666992 -0.666992 1.83398 -2.5 3.50098 -5.5s3.5 -4.5 5.5 -4.5c2.66699 0 5.33398 3 8.00098 9l198 337
c2.66699 4.66699 5 7.66699 7 9s6 2 12 2h44c4 0 6.83301 -1.33301 8.5 -4z" />
    <glyph glyph-name="brokenbar" unicode="&#xa6;" horiz-adv-x="263" 
d="M115 440c-6.66699 0 -10 3 -10 9l-1 388c0 6.66699 3 10 9 10h36c7.33301 0 11 -3.66699 11 -11v-387c0 -6 -3.33301 -9 -10 -9h-35zM115 -165c-6.66699 0 -10 3.33301 -10 10l-1 387c0 6.66699 3 10 9 10h36c7.33301 0 11 -3.66699 11 -11v-386
c0 -6.66699 -3.33301 -10 -10 -10h-35z" />
    <glyph glyph-name="section" unicode="&#xa7;" horiz-adv-x="484" 
d="M419 141.5c16 -21 24.001 -45.1689 24.001 -72.502c0 -26.667 -8 -50.667 -24 -72s-38.5 -38 -67.5 -50s-62.167 -18 -99.5 -18c-44.667 0 -86.167 10 -124.5 30s-66.5 46.667 -84.5 80c-2 2.66699 -2.83301 5 -2.5 7s1.16602 3.33301 2.49902 4l35 20l5 2
c2.66699 0 5 -1.66699 7 -5c17.333 -26 40 -46.833 68 -62.5s59.667 -23.5 95 -23.5c37.333 0 67.5 7.33301 90.5 22s34.5 35.334 34.5 62.001c0 20.667 -8 39.334 -24 56.001s-44.333 32.667 -85 48l-93 36c-43.333 16.667 -74.833 36.834 -94.5 60.501
s-29.5 51.167 -29.5 82.5c0 30 9.83301 56.667 29.5 80s45.167 41 76.5 53c-40 20.667 -67.5 41.667 -82.5 63s-22.5 45.333 -22.5 72c0 25.333 7.66699 48.333 23 69s37.166 37 65.499 49s60.5 18 96.5 18c40 0 76.167 -8.83301 108.5 -26.5s57.5 -39.834 75.5 -66.501
c3.33301 -5.33301 3 -9 -1 -11l-32 -18c-6 -4 -10.667 -3.66699 -14 1c-38 46 -82 69 -132 69c-38.667 0 -69 -7.16699 -91 -21.5s-33 -33.5 -33 -57.5c0 -18 6.5 -34.5 19.5 -49.5s36.833 -29.833 71.5 -44.5l87 -35c51.333 -21.333 88.333 -45 111 -71s34 -56.333 34 -91
c0 -31.333 -8.66699 -57.333 -26 -78s-40.666 -38 -69.999 -52c32.667 -18 57 -37.5 73 -58.5zM325.501 241.498c15.667 7.66699 28.333 18.4971 38 32.4971s14.5 29 14.5 45c0 25.333 -6.16699 46.333 -18.5 63s-36.833 32.334 -73.5 47.001l-61 24
c-30 -2.66699 -56 -13.667 -78 -33s-33 -40.666 -33 -63.999c0 -20.667 6.33301 -38 19 -52s37.667 -28.667 75 -44l67 -28c18 -1.33301 34.833 1.83398 50.5 9.50098z" />
    <glyph glyph-name="dieresis" unicode="&#xa8;" horiz-adv-x="222" 
d="M80 651c0 -5.33301 -1 -9.00098 -3 -11.001s-6 -3 -12 -3h-42c-5.33301 0 -8.83301 0.833008 -10.5 2.5s-2.5 4.83398 -2.5 9.50098v81c0 8 3.33301 12 10 12h50c6.66699 0 10 -3.66699 10 -11v-80zM212 650.999c0 -5.33301 -1.16797 -9.00098 -3.50098 -11.001
s-6.16602 -3 -11.499 -3h-42c-5.33301 0 -8.83301 0.833008 -10.5 2.5s-2.5 4.83398 -2.5 9.50098v81c0 8 3.33301 12 10 12h49c7.33301 0 11 -3.66699 11 -11v-80z" />
    <glyph glyph-name="copyright" unicode="&#xa9;" horiz-adv-x="830" 
d="M223.5 41c-58.333 34 -104.5 80.167 -138.5 138.5s-51 122.166 -51 191.499c0 68.667 17 132.167 51 190.5s80.167 104.666 138.5 138.999s122.166 51.5 191.499 51.5c68.667 0 132.167 -17.167 190.5 -51.5s104.666 -80.666 138.999 -138.999s51.5 -121.833 51.5 -190.5
c0 -69.333 -17.167 -133.166 -51.5 -191.499s-80.666 -104.5 -138.999 -138.5s-121.833 -51 -190.5 -51c-69.333 0 -133.166 17 -191.499 51zM577.5 84c49.667 27.333 89.167 65.833 118.5 115.5s44 106.834 44 171.501c0 64 -14.667 121 -44 171
s-68.833 88.833 -118.5 116.5s-103.834 41.5 -162.501 41.5c-59.333 0 -113.833 -13.833 -163.5 -41.5s-89 -66.5 -118 -116.5s-43.5 -107 -43.5 -171c0 -64.667 14.5 -121.834 43.5 -171.501s68.167 -88.167 117.5 -115.5s104 -41 164 -41
c58.667 0 112.834 13.667 162.501 41zM578 492c2 -4.66699 1.00195 -8 -2.99805 -10l-40 -15h-2c-2.66699 0 -5 2 -7 6c-28.667 45.333 -63.667 68 -105 68c-40 0 -72.333 -15.167 -97 -45.5s-37 -70.5 -37 -120.5c0 -50.667 12.5 -91.167 37.5 -121.5
s57.5 -45.5 97.5 -45.5c25.333 0 48 6.83301 68 20.5s36.667 32.167 50 55.5c1.33301 3.33301 4.66602 3.66602 9.99902 0.999023l29 -12c3.33301 -1.33301 4.33301 -4.66602 3 -9.99902c-18 -31.333 -41 -56.5 -69 -75.5s-60 -28.5 -96 -28.5c-37.333 0 -70.5 9 -99.5 27
s-51.667 43.167 -68 75.5s-24.5 69.5 -24.5 111.5s8.16699 79.333 24.5 112s39.166 58.167 68.499 76.5s62.333 27.5 99 27.5c66 0 119.667 -32.333 161 -97z" />
    <glyph glyph-name="ordfeminine" unicode="&#xaa;" horiz-adv-x="403" 
d="M286.5 719c21.667 -20 32.501 -47.666 32.501 -82.999v-164c0 -10 0.5 -18.333 1.5 -25s3.5 -15.334 7.5 -26.001c0.666992 -0.666992 1 -1.66699 1 -3c0 -4.66699 -3.33301 -7 -10 -7h-33c-3.33301 0 -5.66602 0.5 -6.99902 1.5s-2.33301 3.16699 -3 6.5l-6 33
c-0.666992 2.66699 -1.5 4 -2.5 4s-3.16699 -1.33301 -6.5 -4c-17.333 -16.667 -34.333 -28.667 -51 -36s-35.334 -11 -56.001 -11c-34.667 0 -61.834 8.16699 -81.501 24.5s-29.5 38.833 -29.5 67.5c0 64 54.333 101 163 111l53 5c7.33301 1.33301 11 4.33301 11 9v16
c0 47.333 -27.667 71 -83 71c-20 0 -37 -3.33301 -51 -10s-26.333 -19 -37 -37c-2.66699 -3.33301 -6 -4.33301 -10 -3l-33 11c-2 2 -2.33301 5.33301 -1 10c12 22 29.5 39 52.5 51s50.833 18 83.5 18c42 0 73.833 -10 95.5 -30zM115.001 459.001
c13.333 -10 31.333 -14.999 54 -14.999c28 0 52.667 9.66699 74 29c18 16 27 31.667 27 47v47c0 4 -0.666992 6.66699 -2 8s-4 1.66602 -8 0.999023l-44 -4c-80.667 -6 -121 -30.333 -121 -73c0 -16.667 6.66699 -30 20 -40z" />
    <glyph glyph-name="guillemotleft" unicode="&#xab;" horiz-adv-x="436" 
d="M211 81l1.00098 -1.99902c0 -2.66699 -3 -4 -9 -4h-22c-4.66699 0 -7.66699 1.66699 -9 5l-131 168c-2.66699 2.66699 -4 5.66699 -4 9s1 6 3 8l132 178c1.33301 2 2.66602 3.33301 3.99902 4s3 1 5 1h24c2.66699 0 4.66699 -0.833008 6 -2.5
s1.33301 -3.83398 0 -6.50098l-105 -175c-2 -5.33301 -2 -10 0 -14zM385.001 81.001l1 -1.99902c0 -2.66699 -3.33301 -4 -10 -4h-21c-4.66699 0 -8 1.66699 -10 5l-130 168c-2.66699 2.66699 -4 5.66699 -4 9s1 6 3 8l132 178c2 3.33301 5 5 9 5h24
c2.66699 0 4.66699 -0.833008 6 -2.5s1.33301 -3.83398 0 -6.50098l-105 -175c-2 -5.33301 -2 -10 0 -14z" />
    <glyph glyph-name="logicalnot" unicode="&#xac;" horiz-adv-x="551" 
d="M486 392v-179c0 -7.33301 -3.66699 -11 -11 -11h-36c-6.66699 0 -10 2.66699 -10 8l-1 136l-352 -1c-7.33301 0 -11 3.33301 -11 10v35c0 6.66699 2.33301 10 7 10h405c6 0 9 -2.66699 9 -8z" />
    <glyph glyph-name="uni00AD" unicode="&#xad;" horiz-adv-x="381" 
d="M316 249c0 -8 -4.66699 -12 -14 -12h-226c-7.33301 0 -11 3 -11 9v37c0 6.66699 2.66699 10 8 10l234 1c6 0 9 -3 9 -9v-36z" />
    <glyph glyph-name="registered" unicode="&#xae;" horiz-adv-x="545" 
d="M153 307c-36.667 21.333 -65.6699 50.166 -87.0029 86.499s-32 76.166 -32 119.499s10.667 83.333 32 120s50.333 65.667 87 87s76.667 32 120 32c42.667 0 82.334 -10.667 119.001 -32s65.667 -50.333 87 -87s32 -76.667 32 -120s-10.667 -83.166 -32 -119.499
s-50.166 -65.166 -86.499 -86.499s-76.166 -32 -119.499 -32s-83.333 10.667 -120 32zM374.497 340.5c29.667 16.333 52.668 39.333 69.001 69s24.5 64.167 24.5 103.5s-8.16699 74 -24.5 104s-39.333 53.167 -69 69.5s-63.5 24.5 -101.5 24.5
c-38.667 0 -72.834 -8.16699 -102.501 -24.5s-52.667 -39.5 -69 -69.5s-24.5 -64.667 -24.5 -104c0 -60 18 -107.833 54 -143.5s83.333 -53.5 142 -53.5c38 0 71.833 8.16699 101.5 24.5zM358.498 395c-1 -1.33301 -2.16797 -2.00098 -3.50098 -2.00098h-30
c-2.66699 0 -4.33398 1.33301 -5.00098 4l-39 104c0 0.666992 -0.166992 1.5 -0.5 2.5s-2.5 1.5 -6.5 1.5h-50c-2.66699 0 -4 -1.33301 -4 -4v-103c0 -3.33301 -1.66699 -5 -5 -5h-27c-1.33301 0 -2.33301 0.333008 -3 1s-1 1.66699 -1 3v229c0 2.66699 0.666992 4 2 4h102
c24.667 0 43.834 -5.16699 57.501 -15.5s20.5 -24.833 20.5 -43.5c0 -31.333 -16 -52 -48 -62c-1.33301 0 -1.66602 -1 -0.999023 -3l42 -107c0.666992 -1.33301 0.5 -2.66602 -0.5 -3.99902zM327.997 566.999c0 21.333 -16.333 32 -49 32h-55
c-0.666992 0 -1.5 0.166992 -2.5 0.5s-1.5 -1.16699 -1.5 -4.5v-56c0 -2 1 -3 3 -3h58c31.333 0 47 10.333 47 31z" />
    <glyph glyph-name="macron" unicode="&#xaf;" horiz-adv-x="298" 
d="M288 684c0 -7.33301 -4.33301 -11 -13 -11h-256c-6 0 -9 3.66699 -9 11v32c0 6 2.33301 9 7 9h264c4.66699 0 7 -2.66699 7 -8v-33z" />
    <glyph glyph-name="degree" unicode="&#xb0;" horiz-adv-x="464" 
d="M367 622.5c-13.333 -23.667 -31.833 -42.166 -55.5 -55.499s-50.167 -20 -79.5 -20c-45.333 0 -82.5 14.667 -111.5 44s-43.5 66.666 -43.5 111.999s14.5 82.5 43.5 111.5s66.167 43.5 111.5 43.5c44.667 0 81.667 -14.5 111 -43.5s44 -66.167 44 -111.5
c0 -30 -6.66699 -56.833 -20 -80.5zM305 778.001c-18.667 19.333 -43.667 29.001 -75 29.001c-30.667 0 -55.334 -9.5 -74.001 -28.5s-28 -43.833 -28 -74.5c0 -32.667 9.16699 -59 27.5 -79s43.5 -30 75.5 -30c30.667 0 55.334 9.83301 74.001 29.5s28 45.5 28 77.5
c0 31.333 -9.33301 56.666 -28 75.999z" />
    <glyph glyph-name="plusminus" unicode="&#xb1;" horiz-adv-x="551" 
d="M486 466v-35c0 -7.33301 -4.66699 -11 -14 -11h-170v-175c0 -6 -2.66699 -9 -8 -9h-34c-7.33301 0 -11 4.66699 -11 14v169h-173c-7.33301 0 -11 3.33301 -11 10v35c0 6.66699 2.33301 10 7 10h176v172c0 7.33301 3.33301 11 10 11h35c6 0 9 -2.33301 9 -7v-175h175
c6 0 9 -3 9 -9zM486 119v-35c0 -7.33301 -4.66699 -11 -14 -11l-396 -1c-7.33301 0 -11 3.33301 -11 10v35c0 6.66699 2.33301 10 7 10l405 1c6 0 9 -3 9 -9z" />
    <glyph glyph-name="uni00B2" unicode="&#xb2;" horiz-adv-x="452" 
d="M204 578c34.667 34 58.9971 62.165 72.9971 84.498s21 45.5 21 69.5c0 26.667 -10 47.834 -30 63.501s-43 23.5 -69 23.5c-20 0 -40.167 -5.16699 -60.5 -15.5s-37.166 -25.833 -50.499 -46.5c-3.33301 -3.33301 -7.33301 -3.66602 -12 -0.999023l-20 13
c-2.66699 2 -4.16699 3.83301 -4.5 5.5s0.5 4.16699 2.5 7.5c17.333 24.667 39.333 43.334 66 56.001s54.667 19 84 19c39.333 0 72.5 -11 99.5 -33s40.5 -53.667 40.5 -95c0 -27.333 -7.5 -53.166 -22.5 -77.499s-41.833 -55.5 -80.5 -93.5l-130 -126
c-2.66699 -2 -3.66699 -3.66699 -3 -5s3 -2 7 -2h228c2.66699 0 4.33398 -0.333008 5.00098 -1s1 -2.33398 1 -5.00098v-29c0 -4 -2 -6 -6 -6h-283c-3.33301 0 -5.66602 0.666992 -6.99902 2s-2 3.66602 -2 6.99902v21c0 4 0.833008 7.66699 2.5 11s5.5 7.33301 11.5 12z
" />
    <glyph glyph-name="uni00B3" unicode="&#xb3;" horiz-adv-x="467" 
d="M78 796c20.667 20.667 42.5 36.001 65.5 46.001s48.167 15 75.5 15c46 0 82.833 -11 110.5 -33s41.5 -50 41.5 -84c0 -23.333 -7.16699 -44.333 -21.5 -63s-34.166 -32.334 -59.499 -41.001c-8.66699 -2.66699 -8.66699 -5 0 -7c28 -8 51 -22.167 69 -42.5
s27 -45.166 27 -74.499c0 -39.333 -15.167 -71.5 -45.5 -96.5s-73.833 -37.5 -130.5 -37.5c-30.667 0 -58.5 5.16699 -83.5 15.5s-47.833 26.5 -68.5 48.5c-2.66699 2.66699 -2.33398 5.66699 0.999023 9l22 17c3.33301 3.33301 6.33301 3.33301 9 0
c18 -18.667 36.833 -32 56.5 -40s42.167 -12 67.5 -12c38.667 0 69.167 8.5 91.5 25.5s33.5 39.5 33.5 67.5c0 31.333 -12.5 55.833 -37.5 73.5s-54.833 26.5 -89.5 26.5l-56 1c-4.66699 0 -7 1.66699 -7 5v26c0 1.33301 0.833008 2.5 2.5 3.5s3.16699 1.5 4.5 1.5l46 1
c34.667 0.666992 63.834 9.5 87.501 26.5s35.5 38.5 35.5 64.5c0 23.333 -9.83301 42.666 -29.5 57.999s-44.834 23 -75.501 23c-44 0 -82.333 -16.333 -115 -49c-4 -4 -7.33301 -4 -10 0l-17 17c-2.66699 2.66699 -2.66699 5.66699 0 9z" />
    <glyph glyph-name="acute" unicode="&#xb4;" horiz-adv-x="280" 
d="M269 707c0.666992 -1.33301 1.00098 -3.33301 1.00098 -6c0 -4 -3.33301 -7.33301 -10 -10l-228 -73c-1.33301 -0.666992 -3.33301 -1 -6 -1c-4.66699 0 -7.33398 2.33301 -8.00098 7l-7 20l-1 4c0 4 1.66699 6.66699 5 8l230 95h3c3.33301 0 6 -1.33301 8 -4z" />
    <glyph glyph-name="paragraph" unicode="&#xb6;" horiz-adv-x="550" 
d="M418 697c-3.33301 0 -5.00098 -1.99805 -5.00098 -5.99805v-769c0 -4.66699 -2 -7 -6 -7h-35c-4.66699 0 -7 2.33301 -7 7v770c0 3.33301 -2.33301 5 -7 5h-35c-4 0 -6 -2 -6 -6v-769c0 -4.66699 -2 -7 -6 -7h-35c-4.66699 0 -7 2.33301 -7 7v379
c0 2.66699 -1.33301 4 -4 4c-44 0.666992 -82.167 10.667 -114.5 30s-57.166 44.833 -74.499 76.5s-26 66.5 -26 104.5c0 39.333 8.83301 76.166 26.5 110.499s44.167 62.166 79.5 83.499s78 32 128 32h184c4 0 6 -1.66699 6 -5v-35c0 -3.33301 -2 -5 -6 -5h-50z" />
    <glyph glyph-name="periodcentered" unicode="&#xb7;" horiz-adv-x="189" 
d="M144 339c0 -4.66699 -1.16602 -8 -3.49902 -10s-6.5 -3 -12.5 -3h-71c-4.66699 0 -7.83398 1 -9.50098 3s-2.5 5 -2.5 9v72c0 7.33301 2.66699 11 8 11h82c6 0 9 -3 9 -9v-73z" />
    <glyph glyph-name="cedilla" unicode="&#xb8;" horiz-adv-x="211" 
d="M171 -187c-20 -13.333 -45.334 -19.999 -76.001 -19.999c-32.667 0 -59.667 7 -81 21c-3.33301 2 -4.66602 4.66699 -3.99902 8l10 23c2 3.33301 4.66699 4 8 2c8.66699 -6 17.5 -10.667 26.5 -14s20.167 -5 33.5 -5c38.667 0 58 13.667 58 41
c0 14.667 -6.33301 25.667 -19 33s-32.667 11.666 -60 12.999c-5.33301 0 -7 1.66699 -5 5l36 85h42l-24 -58c-0.666992 -2.66699 0.666016 -4 3.99902 -4c28.667 -2 49.334 -10 62.001 -24s19 -30.333 19 -49c0 -24.667 -10 -43.667 -30 -57z" />
    <glyph glyph-name="uni00B9" unicode="&#xb9;" horiz-adv-x="367" 
d="M264 414l0.000976562 -28c0 -4 -2 -6 -6 -6h-213c-2 0 -3.5 0.5 -4.5 1.5s-1.5 2.16699 -1.5 3.5v29c0 3.33301 1.66699 5 5 5h84c2.66699 0 4 1 4 3v367c0 4.66699 -1.66699 6 -5 4l-81 -31c-4.66699 -0.666992 -7 1.33301 -7 6v21c0 2.66699 0.333008 4.5 1 5.5
s2 1.83301 4 2.5l90 45c6 3.33301 11.667 5 17 5h23c1.33301 0 2.66602 -0.666992 3.99902 -2s2 -3 2 -5v-417c0 -2.66699 1 -4 3 -4h75c4 0 6 -1.66699 6 -5z" />
    <glyph glyph-name="ordmasculine" unicode="&#xba;" horiz-adv-x="414" 
d="M321.5 703.5c28.333 -31.667 42.5 -73.833 42.5 -126.5c0 -50.667 -14 -91.667 -42 -123s-66.333 -47 -115 -47s-87 15.667 -115 47s-42 72.333 -42 123c0 52 14.333 94 43 126s66.667 48 114 48c48 0 86.167 -15.833 114.5 -47.5zM131 674.501
c-17.333 -23 -25.998 -54.499 -25.998 -94.499c0 -42 8.66699 -74.5 26 -97.5s42.666 -34.5 75.999 -34.5s58.666 11.667 75.999 35s26 55.666 26 96.999c0 40 -8.83301 71.5 -26.5 94.5s-42.834 34.5 -75.501 34.5c-33.333 0 -58.666 -11.5 -75.999 -34.5z" />
    <glyph glyph-name="guillemotright" unicode="&#xbb;" horiz-adv-x="435" 
d="M155 264l-105 174.999c-0.666992 0.666992 -1 1.66699 -1 3c0 2 0.833008 3.5 2.5 4.5s3.16699 1.5 4.5 1.5h24c4 0 7 -1.66699 9 -5l132 -178c2 -2 3 -4.66699 3 -8s-1.33301 -6.33301 -4 -9l-130 -168c-1.33301 -3.33301 -4.33301 -5 -9 -5h-22c-8 0 -11 2 -9 6
l105 169c2.66699 4.66699 2.66699 9.33398 0 14.001zM329 263.999l-104.999 175c-0.666992 0.666992 -1 2 -1 4c0 3.33301 2.33301 5 7 5h24c2 0 3.66699 -0.333008 5 -1s2.66602 -2 3.99902 -4l132 -178c2.66699 -2.66699 4 -5.33398 4 -8.00098s-1.66699 -5.66699 -5 -9
l-130 -168c-2 -3.33301 -5.33301 -5 -10 -5h-22c-7.33301 0 -10 2 -8 6l105 169c2.66699 4.66699 2.66699 9.33398 0 14.001z" />
    <glyph glyph-name="onequarter" unicode="&#xbc;" horiz-adv-x="878" 
d="M230 310l0.000976562 -28c0 -4 -2 -6 -6 -6h-213c-2 0 -3.5 0.5 -4.5 1.5s-1.5 2.16699 -1.5 3.5v29c0 3.33301 1.66699 5 5 5h84c2.66699 0 4 1 4 3v367c0 4.66699 -1.66699 6 -5 4l-81 -31c-4.66699 -0.666992 -7 1.33301 -7 6v21c0 2.66699 0.333008 4.5 1 5.5
s2 1.83301 4 2.5l90 45c6 3.33301 11.667 5 17 5h23c1.33301 0 2.66602 -0.666992 3.99902 -2s2 -3 2 -5v-417c0 -2.66699 1 -4 3 -4h75c4 0 6 -1.66699 6 -5zM202.001 5c-2.66699 -3.33301 -5.16504 -5.66797 -7.49805 -7.00098s-5.83301 -2 -10.5 -2h-21
c-6.66699 0 -10 2.66699 -10 8c0 3.33301 1 6.33301 3 9l486 731c2 2.66699 4.16699 4.33398 6.5 5.00098s4.83301 1 7.5 1h28c3.33301 0 5.66602 -0.833008 6.99902 -2.5s0.666016 -4.16699 -2.00098 -7.5zM742.003 466.998h33c4.66699 0 7 -2.33301 7 -7v-288
c0 -3.33301 1.66699 -5 5 -5h61c5.33301 0 8 -2 8 -6v-25c0 -4.66699 -2.66699 -7 -8 -7h-61c-3.33301 0 -5 -2 -5 -6v-115c0 -5.33301 -2.66699 -8 -8 -8h-32c-4.66699 0 -7 2.66699 -7 8v117c0 2.66699 -2 4 -6 4h-208c-5.33301 0 -8 2.33301 -8 7v28
c0 4 2.66699 9.66699 8 17l209 281c3.33301 3.33301 7.33301 5 12 5zM727.003 166.998c1.33301 0 2.66699 0.333008 4 1s2 1.66699 2 3v223c0 5.33301 -1 8 -3 8c-1.33301 0 -3.33301 -1.66699 -6 -5l-164 -222c-4 -5.33301 -2.66699 -8 4 -8h163z" />
    <glyph glyph-name="onehalf" unicode="&#xbd;" horiz-adv-x="939" 
d="M230 310l0.000976562 -28c0 -4 -2 -6 -6 -6h-213c-2 0 -3.5 0.5 -4.5 1.5s-1.5 2.16699 -1.5 3.5v29c0 3.33301 1.66699 5 5 5h84c2.66699 0 4 1 4 3v367c0 4.66699 -1.66699 6 -5 4l-81 -31c-4.66699 -0.666992 -7 1.33301 -7 6v21c0 2.66699 0.333008 4.5 1 5.5
s2 1.83301 4 2.5l90 45c6 3.33301 11.667 5 17 5h23c1.33301 0 2.66602 -0.666992 3.99902 -2s2 -3 2 -5v-417c0 -2.66699 1 -4 3 -4h75c4 0 6 -1.66699 6 -5zM256.001 5c-2.66699 -3.33301 -5.16504 -5.66797 -7.49805 -7.00098s-5.83301 -2 -10.5 -2h-21
c-6.66699 0 -10 2.66699 -10 8c0 3.33301 1 6.33301 3 9l486 731c2 2.66699 4.16699 4.33398 6.5 5.00098s4.83301 1 7.5 1h28c3.33301 0 5.66602 -0.833008 6.99902 -2.5s0.666016 -4.16699 -2.00098 -7.5zM742.003 193.998c34.667 34 58.9971 62.165 72.9971 84.498
s21 45.5 21 69.5c0 26.667 -10 47.834 -30 63.501s-43 23.5 -69 23.5c-20 0 -40.167 -5.16699 -60.5 -15.5s-37.166 -25.833 -50.499 -46.5c-3.33301 -3.33301 -7.33301 -3.66602 -12 -0.999023l-20 13c-2.66699 2 -4.16699 3.83301 -4.5 5.5s0.5 4.16699 2.5 7.5
c17.333 24.667 39.333 43.334 66 56.001s54.667 19 84 19c39.333 0 72.5 -11 99.5 -33s40.5 -53.667 40.5 -95c0 -27.333 -7.5 -53.166 -22.5 -77.499s-41.833 -55.5 -80.5 -93.5l-130 -126c-2.66699 -2 -3.66699 -3.66699 -3 -5s3 -2 7 -2h228
c2.66699 0 4.33398 -0.333008 5.00098 -1s1 -2.33398 1 -5.00098v-29c0 -4 -2 -6 -6 -6h-283c-3.33301 0 -5.66602 0.666992 -6.99902 2s-2 3.66602 -2 6.99902v21c0 4 0.833008 7.66699 2.5 11s5.5 7.33301 11.5 12z" />
    <glyph glyph-name="threequarters" unicode="&#xbe;" horiz-adv-x="911" 
d="M44 691c20.667 20.667 42.5 36.001 65.5 46.001s48.167 15 75.5 15c46 0 82.833 -11 110.5 -33s41.5 -50 41.5 -84c0 -23.333 -7.16699 -44.333 -21.5 -63s-34.166 -32.334 -59.499 -41.001c-8.66699 -2.66699 -8.66699 -5 0 -7c28 -8 51 -22.167 69 -42.5
s27 -45.166 27 -74.499c0 -39.333 -15.167 -71.5 -45.5 -96.5s-73.833 -37.5 -130.5 -37.5c-30.667 0 -58.5 5.16699 -83.5 15.5s-47.833 26.5 -68.5 48.5c-2.66699 2.66699 -2.33398 5.66699 0.999023 9l22 17c3.33301 3.33301 6.33301 3.33301 9 0
c18 -18.667 36.833 -32 56.5 -40s42.167 -12 67.5 -12c38.667 0 69.167 8.5 91.5 25.5s33.5 39.5 33.5 67.5c0 31.333 -12.5 55.833 -37.5 73.5s-54.833 26.5 -89.5 26.5l-56 1c-4.66699 0 -7 1.66699 -7 5v26c0 1.33301 0.833008 2.5 2.5 3.5s3.16699 1.5 4.5 1.5l46 1
c34.667 0.666992 63.834 9.5 87.501 26.5s35.5 38.5 35.5 64.5c0 23.333 -9.83301 42.666 -29.5 57.999s-44.834 23 -75.501 23c-44 0 -82.333 -16.333 -115 -49c-4 -4 -7.33301 -4 -10 0l-17 17c-2.66699 2.66699 -2.66699 5.66699 0 9zM302 5.00098
c-2.66699 -3.33301 -5.16504 -5.66797 -7.49805 -7.00098s-5.83301 -2 -10.5 -2h-21c-6.66699 0 -10 2.66699 -10 8c0 3.33301 1 6.33301 3 9l486 731c2 2.66699 4.16699 4.33398 6.5 5.00098s4.83301 1 7.5 1h28c3.33301 0 5.66602 -0.833008 6.99902 -2.5
s0.666016 -4.16699 -2.00098 -7.5zM773.002 466.999h33c4.66699 0 7 -2.33301 7 -7v-288c0 -3.33301 1.66699 -5 5 -5h61c5.33301 0 8 -2 8 -6v-25c0 -4.66699 -2.66699 -7 -8 -7h-61c-3.33301 0 -5 -2 -5 -6v-115c0 -5.33301 -2.66699 -8 -8 -8h-32
c-4.66699 0 -7 2.66699 -7 8v117c0 2.66699 -2 4 -6 4h-208c-5.33301 0 -8 2.33301 -8 7v28c0 4 2.66699 9.66699 8 17l209 281c3.33301 3.33301 7.33301 5 12 5zM758.002 166.999c1.33301 0 2.66699 0.333008 4 1s2 1.66699 2 3v223c0 5.33301 -1 8 -3 8
c-1.33301 0 -3.33301 -1.66699 -6 -5l-164 -222c-4 -5.33301 -2.66699 -8 4 -8h163z" />
    <glyph glyph-name="questiondown" unicode="&#xbf;" horiz-adv-x="512" 
d="M224 516c0 5.33301 1.16699 9 3.5 11s6.5 3 12.5 3h57c8.66699 0 13 -4 13 -12v-75c0 -7.33301 -3 -11 -9 -11h-68c-6 0 -9 3.33301 -9 10v74zM479 -38.5c0.666992 -2.33301 0.334961 -4.50195 -0.998047 -6.50195c-21.333 -40.667 -52.5 -72.5 -93.5 -95.5
s-86.833 -34.5 -137.5 -34.5c-67.333 0 -120.5 16.5 -159.5 49.5s-58.5 76.5 -58.5 130.5c0 24.667 4.5 46.667 13.5 66s20.167 36 33.5 50s31 30.667 53 50c23.333 19.333 42.166 36.5 56.499 51.5s26.333 33.333 36 55s14.5 46.5 14.5 74.5c0 2.66699 1 5 3 7
s4.33301 3 7 3h40c7.33301 0 11 -4 11 -12c0 -32.667 -5.16699 -61.334 -15.5 -86.001s-23 -45.167 -38 -61.5s-34.5 -35.166 -58.5 -56.499c-29.333 -25.333 -51 -47.666 -65 -66.999s-21 -43.333 -21 -72c0 -38 13.5 -68.333 40.5 -91s63.167 -34 108.5 -34
c35.333 0 69.666 9.33301 102.999 28s55.666 41.334 66.999 68.001c2 4 5.33301 5.33301 10 4l46 -16c2.66699 -0.666992 4.33398 -2.16699 5.00098 -4.5z" />
    <glyph glyph-name="Agrave" unicode="&#xc0;" horiz-adv-x="716" 
d="M49.5 3.5c-1.66699 2.33301 -1.83496 5.83301 -0.501953 10.5l261 715c2 4.66699 4.33301 8 7 10s6.33398 3 11.001 3h60c11.333 0 18.333 -4.33301 21 -13l258 -715c0.666992 -1.33301 1 -3 1 -5c0 -6 -3 -9 -9 -9h-52c-8 0 -13 3 -15 9l-74 206
c-2 5.33301 -5.66699 8 -11 8h-304c-5.33301 0 -9 -2.66699 -11 -8l-76 -207c-1.33301 -5.33301 -5.66602 -8 -12.999 -8h-46c-3.33301 0 -5.83301 1.16699 -7.5 3.5zM484.999 284c6.66699 0 9.00098 3.66699 7.00098 11l-129 355c-2 6 -4.33301 9 -7 9
s-5.33398 -3.33301 -8.00098 -10l-131 -355c-1.33301 -2.66699 -2 -4.66699 -2 -6c0 -2.66699 2.66699 -4 8 -4h262zM236 963l231 -95c4.66699 -2 6 -6 4 -12l-7 -20c-1.33301 -3.33301 -3 -5.5 -5 -6.5s-5 -0.833008 -9 0.5l-228 73c-4.66699 2 -7.66699 4.16699 -9 6.5
s-1.33301 5.5 0 9.5l13 40c2 4 5.33301 5.33301 10 4z" />
    <glyph glyph-name="Aacute" unicode="&#xc1;" horiz-adv-x="716" 
d="M49.5 3.5c-1.66699 2.33301 -1.83496 5.83301 -0.501953 10.5l261 715c2 4.66699 4.33301 8 7 10s6.33398 3 11.001 3h60c11.333 0 18.333 -4.33301 21 -13l258 -715c0.666992 -1.33301 1 -3 1 -5c0 -6 -3 -9 -9 -9h-52c-8 0 -13 3 -15 9l-74 206
c-2 5.33301 -5.66699 8 -11 8h-304c-5.33301 0 -9 -2.66699 -11 -8l-76 -207c-1.33301 -5.33301 -5.66602 -8 -12.999 -8h-46c-3.33301 0 -5.83301 1.16699 -7.5 3.5zM484.999 284c6.66699 0 9.00098 3.66699 7.00098 11l-129 355c-2 6 -4.33301 9 -7 9
s-5.33398 -3.33301 -8.00098 -10l-131 -355c-1.33301 -2.66699 -2 -4.66699 -2 -6c0 -2.66699 2.66699 -4 8 -4h262zM486 919c0.666992 -1.33301 1.00098 -3.33301 1.00098 -6c0 -4 -3.33301 -7.33301 -10 -10l-228 -73c-1.33301 -0.666992 -3.33301 -1 -6 -1
c-4.66699 0 -7.33398 2.33301 -8.00098 7l-7 20l-1 4c0 4 1.66699 6.66699 5 8l230 95h3c3.33301 0 6 -1.33301 8 -4z" />
    <glyph glyph-name="Acircumflex" unicode="&#xc2;" horiz-adv-x="716" 
d="M49.5 3.5c-1.66699 2.33301 -1.83496 5.83301 -0.501953 10.5l261 715c2 4.66699 4.33301 8 7 10s6.33398 3 11.001 3h60c11.333 0 18.333 -4.33301 21 -13l258 -715c0.666992 -1.33301 1 -3 1 -5c0 -6 -3 -9 -9 -9h-52c-8 0 -13 3 -15 9l-74 206
c-2 5.33301 -5.66699 8 -11 8h-304c-5.33301 0 -9 -2.66699 -11 -8l-76 -207c-1.33301 -5.33301 -5.66602 -8 -12.999 -8h-46c-3.33301 0 -5.83301 1.16699 -7.5 3.5zM484.999 284c6.66699 0 9.00098 3.66699 7.00098 11l-129 355c-2 6 -4.33301 9 -7 9
s-5.33398 -3.33301 -8.00098 -10l-131 -355c-1.33301 -2.66699 -2 -4.66699 -2 -6c0 -2.66699 2.66699 -4 8 -4h262zM367 904c-4.66699 4.66699 -8 7.00098 -10 7.00098s-5.66699 -2.33301 -11 -7l-59 -49c-3.33301 -2.66699 -6 -4.5 -8 -5.5s-5 -1.5 -9 -1.5h-47
c-4 0 -6.33301 1 -7 3s0.666016 4.66699 3.99902 8l102 87c6.66699 6.66699 14 10 22 10h31c4.66699 0 8.66699 -1.33301 12 -4s5.33301 -4.33398 6 -5.00098l100 -88c8.66699 -7.33301 8.33398 -11 -0.999023 -11h-52c-6 0 -11.667 2.33301 -17 7z" />
    <glyph glyph-name="Atilde" unicode="&#xc3;" horiz-adv-x="716" 
d="M49.5 3.5c-1.66699 2.33301 -1.83496 5.83301 -0.501953 10.5l261 715c2 4.66699 4.33301 8 7 10s6.33398 3 11.001 3h60c11.333 0 18.333 -4.33301 21 -13l258 -715c0.666992 -1.33301 1 -3 1 -5c0 -6 -3 -9 -9 -9h-52c-8 0 -13 3 -15 9l-74 206
c-2 5.33301 -5.66699 8 -11 8h-304c-5.33301 0 -9 -2.66699 -11 -8l-76 -207c-1.33301 -5.33301 -5.66602 -8 -12.999 -8h-46c-3.33301 0 -5.83301 1.16699 -7.5 3.5zM484.999 284c6.66699 0 9.00098 3.66699 7.00098 11l-129 355c-2 6 -4.33301 9 -7 9
s-5.33398 -3.33301 -8.00098 -10l-131 -355c-1.33301 -2.66699 -2 -4.66699 -2 -6c0 -2.66699 2.66699 -4 8 -4h262zM420 875c-12.667 0 -24.0049 1.16699 -34.0049 3.5s-21.333 5.83301 -34 10.5c-2 0.666992 -8.66699 2.66699 -20 6s-22.666 5 -33.999 5
s-20.666 -1.5 -27.999 -4.5s-13.833 -6.16699 -19.5 -9.5s-9.5 -5.66602 -11.5 -6.99902l-6 -3c-2.66699 0 -5 2.66699 -7 8l-8 22c-1.33301 3.33301 -1.83301 5.66602 -1.5 6.99902s1.83301 2.66602 4.5 3.99902c12 9.33301 23.333 16.5 34 21.5s23.667 7.5 39 7.5
c16.667 0 38.334 -4.66699 65.001 -14c2.66699 -0.666992 10.334 -3 23.001 -7s25.334 -6 38.001 -6c10.667 0 19.5 1.33301 26.5 4s16.5 7.33398 28.5 14.001c2.66699 2 5 3 7 3c2.66699 0 5 -2.33301 7 -7l9 -25l1 -4c0 -3.33301 -2.33301 -6.33301 -7 -9
c-20.667 -13.333 -44.667 -20 -72 -20z" />
    <glyph glyph-name="Adieresis" unicode="&#xc4;" horiz-adv-x="716" 
d="M49.5 3.5c-1.66699 2.33301 -1.83496 5.83301 -0.501953 10.5l261 715c2 4.66699 4.33301 8 7 10s6.33398 3 11.001 3h60c11.333 0 18.333 -4.33301 21 -13l258 -715c0.666992 -1.33301 1 -3 1 -5c0 -6 -3 -9 -9 -9h-52c-8 0 -13 3 -15 9l-74 206
c-2 5.33301 -5.66699 8 -11 8h-304c-5.33301 0 -9 -2.66699 -11 -8l-76 -207c-1.33301 -5.33301 -5.66602 -8 -12.999 -8h-46c-3.33301 0 -5.83301 1.16699 -7.5 3.5zM484.999 284c6.66699 0 9.00098 3.66699 7.00098 11l-129 355c-2 6 -4.33301 9 -7 9
s-5.33398 -3.33301 -8.00098 -10l-131 -355c-1.33301 -2.66699 -2 -4.66699 -2 -6c0 -2.66699 2.66699 -4 8 -4h262zM326 863c0 -5.33301 -1 -9.00098 -3 -11.001s-6 -3 -12 -3h-42c-5.33301 0 -8.83301 0.833008 -10.5 2.5s-2.5 4.83398 -2.5 9.50098v81
c0 8 3.33301 12 10 12h50c6.66699 0 10 -3.66699 10 -11v-80zM458 862.999c0 -5.33301 -1.16797 -9.00098 -3.50098 -11.001s-6.16602 -3 -11.499 -3h-42c-5.33301 0 -8.83301 0.833008 -10.5 2.5s-2.5 4.83398 -2.5 9.50098v81c0 8 3.33301 12 10 12h49
c7.33301 0 11 -3.66699 11 -11v-80z" />
    <glyph glyph-name="Aring" unicode="&#xc5;" horiz-adv-x="716" 
d="M49.5 3.5c-1.66699 2.33301 -1.83496 5.83301 -0.501953 10.5l261 715c2 4.66699 4.33301 8 7 10s6.33398 3 11.001 3h60c11.333 0 18.333 -4.33301 21 -13l258 -715c0.666992 -1.33301 1 -3 1 -5c0 -6 -3 -9 -9 -9h-52c-8 0 -13 3 -15 9l-74 206
c-2 5.33301 -5.66699 8 -11 8h-304c-5.33301 0 -9 -2.66699 -11 -8l-76 -207c-1.33301 -5.33301 -5.66602 -8 -12.999 -8h-46c-3.33301 0 -5.83301 1.16699 -7.5 3.5zM484.999 284c6.66699 0 9.00098 3.66699 7.00098 11l-129 355c-2 6 -4.33301 9 -7 9
s-5.33398 -3.33301 -8.00098 -10l-131 -355c-1.33301 -2.66699 -2 -4.66699 -2 -6c0 -2.66699 2.66699 -4 8 -4h262zM430 789.5c-20 -19.667 -44.333 -29.498 -73 -29.498c-29.333 0 -53.833 10 -73.5 30s-29.5 44.667 -29.5 74c0 27.333 10 50.666 30 69.999
s44.333 29 73 29s53 -9.66699 73 -29s30 -43.333 30 -72s-10 -52.834 -30 -72.501zM396 902.002c-10.667 10.667 -24 16.002 -40 16.002c-15.333 0 -28.833 -5.33301 -40.5 -16s-17.5 -24.334 -17.5 -41.001c0 -14.667 5.83301 -27.834 17.5 -39.501
s25.167 -17.5 40.5 -17.5c16 0 29.333 5.66699 40 17s16 24.666 16 39.999c0 16.667 -5.33301 30.334 -16 41.001z" />
    <glyph glyph-name="AE" unicode="&#xc6;" horiz-adv-x="990" 
d="M939.5 58.5c1.66699 -1 2.50098 -3.50098 2.50098 -7.50098v-42c0 -6 -3.33301 -9 -10 -9h-422c-4.66699 0 -7.83398 0.833008 -9.50098 2.5s-2.5 4.83398 -2.5 9.50098v204c0 4.66699 -2 7 -6 7h-246c-5.33301 0 -9.66602 -2.66699 -12.999 -8l-117 -207
c-3.33301 -5.33301 -8 -8 -14 -8h-46c-4 -0 -6.5 1.33301 -7.5 4s-0.5 6 1.5 10l404 715c4 8.66699 10.667 13 20 13h445c6 0 9 -3 9 -9l-1 -41c0 -4 -0.833008 -6.66699 -2.5 -8s-4.5 -2 -8.5 -2h-331c-4.66699 0 -7.83398 -0.666992 -9.50098 -2s-2.5 -4.33301 -2.5 -9
v-257c0 -4 0.833008 -6.66699 2.5 -8s4.5 -2 8.5 -2h254c6.66699 0 10 -3 10 -9v-42c0 -5.33301 -3.33301 -8 -10 -8h-254c-4 0 -6.83301 -0.666992 -8.5 -2s-2.5 -4 -2.5 -8v-265c0 -4 0.666992 -6.66699 2 -8s4 -2 8 -2h348c4 0 6.83301 -0.5 8.5 -1.5zM498.001 294.999
v360c0 8 -2 12 -6 12s-8.33301 -4.33301 -13 -13l-208 -360c-2 -4 -2.66699 -6.66699 -2 -8s2.66699 -2 6 -2h213c6.66699 0 10 3.66699 10 11z" />
    <glyph glyph-name="Ccedilla" unicode="&#xc7;" horiz-adv-x="702" 
d="M649 179c-16 -51.333 -46.3311 -94.8311 -90.998 -130.498s-98 -55.167 -160 -58.5l-18 -43c-0.666992 -2.66699 0.666016 -4 3.99902 -4c28.667 -2 49.334 -10 62.001 -24s19 -30.333 19 -49c0 -24.667 -10 -43.667 -30 -57s-45.333 -20 -76 -20
c-32.667 0 -59.667 7 -81 21c-3.33301 2 -4.66602 4.66699 -3.99902 8l10 23c2 3.33301 4.66699 4 8 2c8.66699 -6 17.5 -10.667 26.5 -14s20.167 -5 33.5 -5c38.667 0 58 13.667 58 41c0 14.667 -6.33301 25.667 -19 33s-32.667 11.666 -60 12.999
c-5.33301 0 -7 1.66699 -5 5l30 71c-90.667 5.33301 -161 41.333 -211 108s-75 157 -75 271c0 79.333 12.167 147.666 36.5 204.999s59.666 101.166 105.999 131.499s101.166 45.5 164.499 45.5c42 0 82.5 -9.33301 121.5 -28s71.333 -43.5 97 -74.5
s40.834 -64.167 45.501 -99.5l1 -5c0 -4 -2.66699 -6 -8 -6l-58 -5h-3c-2 0 -3.5 0.833008 -4.5 2.5s-1.5 3.83398 -1.5 6.50098c-10.667 45.333 -32.834 81.5 -66.501 108.5s-74.167 40.5 -121.5 40.5c-74.667 0 -131.667 -27.333 -171 -82s-59 -135 -59 -241
c0 -103.333 19.833 -182 59.5 -236s98.834 -81 177.501 -81c49.333 0 90.166 12 122.499 36s58.5 61.333 78.5 112c1.33301 2.66699 4.33301 3.66699 9 3l49 -13c3.33301 -1.33301 4.66602 -5 3.99902 -11z" />
    <glyph glyph-name="Egrave" unicode="&#xc8;" horiz-adv-x="622" 
d="M106.5 739.5c1.66699 1.66699 4.50195 2.49707 8.50195 2.49707h435c6 0 9 -3 9 -9l-1 -41c0 -4 -0.666992 -6.66699 -2 -8s-4 -2 -8 -2h-357c-4.66699 0 -7.83398 -0.666992 -9.50098 -2s-2.5 -4.33301 -2.5 -9v-257c0 -4 0.833008 -6.66699 2.5 -8s4.5 -2 8.5 -2h271
c3.33301 0 5.66602 -0.666992 6.99902 -2s2 -3.66602 2 -6.99902v-42c0 -3.33301 -0.666992 -5.5 -2 -6.5s-3.66602 -1.5 -6.99902 -1.5h-272c-3.33301 0 -5.83301 -0.666992 -7.5 -2s-2.5 -4 -2.5 -8v-265c0 -4 0.666992 -6.66699 2 -8s4 -2 8 -2h373
c4 0 6.83301 -0.5 8.5 -1.5s2.5 -3.5 2.5 -7.5v-42c0 -6 -3.33301 -9 -10 -9h-447c-4.66699 0 -7.83398 0.833008 -9.50098 2.5s-2.5 4.83398 -2.5 9.50098v718c0 4.66699 0.833008 7.83398 2.5 9.50098zM223.002 962.997l231 -95c4.66699 -2 6 -6 4 -12l-7 -20
c-1.33301 -3.33301 -3 -5.5 -5 -6.5s-5 -0.833008 -9 0.5l-228 73c-4.66699 2 -7.66699 4.16699 -9 6.5s-1.33301 5.5 0 9.5l13 40c2 4 5.33301 5.33301 10 4z" />
    <glyph glyph-name="Eacute" unicode="&#xc9;" horiz-adv-x="622" 
d="M106.5 739.5c1.66699 1.66699 4.50195 2.49707 8.50195 2.49707h435c6 0 9 -3 9 -9l-1 -41c0 -4 -0.666992 -6.66699 -2 -8s-4 -2 -8 -2h-357c-4.66699 0 -7.83398 -0.666992 -9.50098 -2s-2.5 -4.33301 -2.5 -9v-257c0 -4 0.833008 -6.66699 2.5 -8s4.5 -2 8.5 -2h271
c3.33301 0 5.66602 -0.666992 6.99902 -2s2 -3.66602 2 -6.99902v-42c0 -3.33301 -0.666992 -5.5 -2 -6.5s-3.66602 -1.5 -6.99902 -1.5h-272c-3.33301 0 -5.83301 -0.666992 -7.5 -2s-2.5 -4 -2.5 -8v-265c0 -4 0.666992 -6.66699 2 -8s4 -2 8 -2h373
c4 0 6.83301 -0.5 8.5 -1.5s2.5 -3.5 2.5 -7.5v-42c0 -6 -3.33301 -9 -10 -9h-447c-4.66699 0 -7.83398 0.833008 -9.50098 2.5s-2.5 4.83398 -2.5 9.50098v718c0 4.66699 0.833008 7.83398 2.5 9.50098zM473.002 918.997c0.666992 -1.33301 1.00098 -3.33301 1.00098 -6
c0 -4 -3.33301 -7.33301 -10 -10l-228 -73c-1.33301 -0.666992 -3.33301 -1 -6 -1c-4.66699 0 -7.33398 2.33301 -8.00098 7l-7 20l-1 4c0 4 1.66699 6.66699 5 8l230 95h3c3.33301 0 6 -1.33301 8 -4z" />
    <glyph glyph-name="Ecircumflex" unicode="&#xca;" horiz-adv-x="622" 
d="M106.5 739.5c1.66699 1.66699 4.50195 2.49707 8.50195 2.49707h435c6 0 9 -3 9 -9l-1 -41c0 -4 -0.666992 -6.66699 -2 -8s-4 -2 -8 -2h-357c-4.66699 0 -7.83398 -0.666992 -9.50098 -2s-2.5 -4.33301 -2.5 -9v-257c0 -4 0.833008 -6.66699 2.5 -8s4.5 -2 8.5 -2h271
c3.33301 0 5.66602 -0.666992 6.99902 -2s2 -3.66602 2 -6.99902v-42c0 -3.33301 -0.666992 -5.5 -2 -6.5s-3.66602 -1.5 -6.99902 -1.5h-272c-3.33301 0 -5.83301 -0.666992 -7.5 -2s-2.5 -4 -2.5 -8v-265c0 -4 0.666992 -6.66699 2 -8s4 -2 8 -2h373
c4 0 6.83301 -0.5 8.5 -1.5s2.5 -3.5 2.5 -7.5v-42c0 -6 -3.33301 -9 -10 -9h-447c-4.66699 0 -7.83398 0.833008 -9.50098 2.5s-2.5 4.83398 -2.5 9.50098v718c0 4.66699 0.833008 7.83398 2.5 9.50098zM354.002 903.997c-4.66699 4.66699 -8 7.00098 -10 7.00098
s-5.66699 -2.33301 -11 -7l-59 -49c-3.33301 -2.66699 -6 -4.5 -8 -5.5s-5 -1.5 -9 -1.5h-47c-4 0 -6.33301 1 -7 3s0.666016 4.66699 3.99902 8l102 87c6.66699 6.66699 14 10 22 10h31c4.66699 0 8.66699 -1.33301 12 -4s5.33301 -4.33398 6 -5.00098l100 -88
c8.66699 -7.33301 8.33398 -11 -0.999023 -11h-52c-6 0 -11.667 2.33301 -17 7z" />
    <glyph glyph-name="Edieresis" unicode="&#xcb;" horiz-adv-x="622" 
d="M106.5 739.5c1.66699 1.66699 4.50195 2.49707 8.50195 2.49707h435c6 0 9 -3 9 -9l-1 -41c0 -4 -0.666992 -6.66699 -2 -8s-4 -2 -8 -2h-357c-4.66699 0 -7.83398 -0.666992 -9.50098 -2s-2.5 -4.33301 -2.5 -9v-257c0 -4 0.833008 -6.66699 2.5 -8s4.5 -2 8.5 -2h271
c3.33301 0 5.66602 -0.666992 6.99902 -2s2 -3.66602 2 -6.99902v-42c0 -3.33301 -0.666992 -5.5 -2 -6.5s-3.66602 -1.5 -6.99902 -1.5h-272c-3.33301 0 -5.83301 -0.666992 -7.5 -2s-2.5 -4 -2.5 -8v-265c0 -4 0.666992 -6.66699 2 -8s4 -2 8 -2h373
c4 0 6.83301 -0.5 8.5 -1.5s2.5 -3.5 2.5 -7.5v-42c0 -6 -3.33301 -9 -10 -9h-447c-4.66699 0 -7.83398 0.833008 -9.50098 2.5s-2.5 4.83398 -2.5 9.50098v718c0 4.66699 0.833008 7.83398 2.5 9.50098zM313.002 862.997c0 -5.33301 -1 -9.00098 -3 -11.001s-6 -3 -12 -3
h-42c-5.33301 0 -8.83301 0.833008 -10.5 2.5s-2.5 4.83398 -2.5 9.50098v81c0 8 3.33301 12 10 12h50c6.66699 0 10 -3.66699 10 -11v-80zM445.002 862.996c0 -5.33301 -1.16797 -9.00098 -3.50098 -11.001s-6.16602 -3 -11.499 -3h-42
c-5.33301 0 -8.83301 0.833008 -10.5 2.5s-2.5 4.83398 -2.5 9.50098v81c0 8 3.33301 12 10 12h49c7.33301 0 11 -3.66699 11 -11v-80z" />
    <glyph glyph-name="Igrave" unicode="&#xcc;" horiz-adv-x="283" 
d="M169 742c4 0 6.66699 -0.833984 8 -2.50098s2 -4.83398 2 -9.50098v-715c0 -6 -1 -10 -3 -12s-6 -3 -12 -3h-46c-5.33301 0 -9 0.833008 -11 2.5s-3 4.83398 -3 9.50098v718c0 4.66699 0.833008 7.83398 2.5 9.50098s4.5 2.5 8.5 2.5h54zM23 962.999l231 -95
c4.66699 -2 6 -6 4 -12l-7 -20c-1.33301 -3.33301 -3 -5.5 -5 -6.5s-5 -0.833008 -9 0.5l-228 73c-4.66699 2 -7.66699 4.16699 -9 6.5s-1.33301 5.5 0 9.5l13 40c2 4 5.33301 5.33301 10 4z" />
    <glyph glyph-name="Iacute" unicode="&#xcd;" horiz-adv-x="283" 
d="M169 742c4 0 6.66699 -0.833984 8 -2.50098s2 -4.83398 2 -9.50098v-715c0 -6 -1 -10 -3 -12s-6 -3 -12 -3h-46c-5.33301 0 -9 0.833008 -11 2.5s-3 4.83398 -3 9.50098v718c0 4.66699 0.833008 7.83398 2.5 9.50098s4.5 2.5 8.5 2.5h54zM273 918.999
c0.666992 -1.33301 1.00098 -3.33301 1.00098 -6c0 -4 -3.33301 -7.33301 -10 -10l-228 -73c-1.33301 -0.666992 -3.33301 -1 -6 -1c-4.66699 0 -7.33398 2.33301 -8.00098 7l-7 20l-1 4c0 4 1.66699 6.66699 5 8l230 95h3c3.33301 0 6 -1.33301 8 -4z" />
    <glyph glyph-name="Icircumflex" unicode="&#xce;" horiz-adv-x="283" 
d="M169 742c4 0 6.66699 -0.833984 8 -2.50098s2 -4.83398 2 -9.50098v-715c0 -6 -1 -10 -3 -12s-6 -3 -12 -3h-46c-5.33301 0 -9 0.833008 -11 2.5s-3 4.83398 -3 9.50098v718c0 4.66699 0.833008 7.83398 2.5 9.50098s4.5 2.5 8.5 2.5h54zM154 903.999
c-4.66699 4.66699 -8 7.00098 -10 7.00098s-5.66699 -2.33301 -11 -7l-59 -49c-3.33301 -2.66699 -6 -4.5 -8 -5.5s-5 -1.5 -9 -1.5h-47c-4 0 -6.33301 1 -7 3s0.666016 4.66699 3.99902 8l102 87c6.66699 6.66699 14 10 22 10h31c4.66699 0 8.66699 -1.33301 12 -4
s5.33301 -4.33398 6 -5.00098l100 -88c8.66699 -7.33301 8.33398 -11 -0.999023 -11h-52c-6 0 -11.667 2.33301 -17 7z" />
    <glyph glyph-name="Idieresis" unicode="&#xcf;" horiz-adv-x="283" 
d="M169 742c4 0 6.66699 -0.833984 8 -2.50098s2 -4.83398 2 -9.50098v-715c0 -6 -1 -10 -3 -12s-6 -3 -12 -3h-46c-5.33301 0 -9 0.833008 -11 2.5s-3 4.83398 -3 9.50098v718c0 4.66699 0.833008 7.83398 2.5 9.50098s4.5 2.5 8.5 2.5h54zM113 862.999
c0 -5.33301 -1 -9.00098 -3 -11.001s-6 -3 -12 -3h-42c-5.33301 0 -8.83301 0.833008 -10.5 2.5s-2.5 4.83398 -2.5 9.50098v81c0 8 3.33301 12 10 12h50c6.66699 0 10 -3.66699 10 -11v-80zM245 862.998c0 -5.33301 -1.16797 -9.00098 -3.50098 -11.001
s-6.16602 -3 -11.499 -3h-42c-5.33301 0 -8.83301 0.833008 -10.5 2.5s-2.5 4.83398 -2.5 9.50098v81c0 8 3.33301 12 10 12h49c7.33301 0 11 -3.66699 11 -11v-80z" />
    <glyph glyph-name="Eth" unicode="&#xd0;" horiz-adv-x="717" 
d="M555 649.5c62 -59.667 93 -150.833 93 -273.5c0 -127.333 -33 -221.833 -99 -283.5s-166.667 -92.5 -302 -92.5h-128c-8 -0 -12 4.33301 -12 13v330h-61c-4.66699 0 -8 1 -10 3s-3 5.33301 -3 10v34c0 7.33301 3 11 9 11h65v330c0 7.33301 4 11 12 11l140 -1
c135.333 -1.33301 234 -31.833 296 -91.5zM429 90.001c48 20.667 83.332 53.832 105.999 99.499s34 106.834 34 183.501c0 78 -11.167 139 -33.5 183s-56.166 75.5 -101.499 94.5s-106 29.5 -182 31.5h-62c-5.33301 0 -8 -4.66699 -8 -14v-267h166c6 0 9 -3.33301 9 -10v-34
c0 -9.33301 -5.66699 -14 -17 -14h-158v-274c0 -6.66699 4 -10 12 -10h43c80 0 144 10.333 192 31z" />
    <glyph glyph-name="Ntilde" unicode="&#xd1;" horiz-adv-x="756" 
d="M642 742c4 0 6.66797 -0.835938 8.00098 -2.50293s2 -4.5 2 -8.5v-720c0 -7.33301 -3.66699 -11 -11 -11h-35h-5c-6.66699 0 -11.667 2.33301 -15 7l-403 590c-3.33301 4.66699 -6.16602 6.66699 -8.49902 6s-3.5 -3 -3.5 -7v-585c0 -7.33301 -4 -11 -12 -11h-43
c-4.66699 0 -7.83398 0.833008 -9.50098 2.5s-2.5 4.83398 -2.5 9.50098v718c0 4.66699 0.833008 7.83398 2.5 9.50098s4.5 2.5 8.5 2.5h42c4.66699 0 8.16699 -0.5 10.5 -1.5s4.83301 -3.5 7.5 -7.5l396 -582c3.33301 -4 6.33301 -6 9 -6
c1.33301 0 2.66602 0.833008 3.99902 2.5s2 3.83398 2 6.50098v577c0 7.33301 3.33301 11 10 11h46zM455.001 874.997c-12.667 0 -24.0049 1.16699 -34.0049 3.5s-21.333 5.83301 -34 10.5c-2 0.666992 -8.66699 2.66699 -20 6s-22.666 5 -33.999 5
s-20.666 -1.5 -27.999 -4.5s-13.833 -6.16699 -19.5 -9.5s-9.5 -5.66602 -11.5 -6.99902l-6 -3c-2.66699 0 -5 2.66699 -7 8l-8 22c-1.33301 3.33301 -1.83301 5.66602 -1.5 6.99902s1.83301 2.66602 4.5 3.99902c12 9.33301 23.333 16.5 34 21.5s23.667 7.5 39 7.5
c16.667 0 38.334 -4.66699 65.001 -14c2.66699 -0.666992 10.334 -3 23.001 -7s25.334 -6 38.001 -6c10.667 0 19.5 1.33301 26.5 4s16.5 7.33398 28.5 14.001c2.66699 2 5 3 7 3c2.66699 0 5 -2.33301 7 -7l9 -25l1 -4c0 -3.33301 -2.33301 -6.33301 -7 -9
c-20.667 -13.333 -44.667 -20 -72 -20z" />
    <glyph glyph-name="Ograve" unicode="&#xd2;" horiz-adv-x="762" 
d="M152 88c-54.667 65.333 -82 158.332 -82 278.999c0 81.333 12.5 150.833 37.5 208.5s61 101.5 108 131.5s102.5 45 166.5 45s119.167 -14.833 165.5 -44.5s81.833 -73.167 106.5 -130.5s37 -126.666 37 -207.999c0 -121.333 -27.333 -214.833 -82 -280.5
s-130.667 -98.5 -228 -98.5c-98 0 -174.333 32.667 -229 98zM555 128.999c38 52 57 132 57 240c0 215.333 -76.667 323 -230 323c-155.333 0 -233 -107.667 -233 -323c0 -212 78 -318 234 -318c76.667 0 134 26 172 78zM261 962.999l231 -95c4.66699 -2 6 -6 4 -12l-7 -20
c-1.33301 -3.33301 -3 -5.5 -5 -6.5s-5 -0.833008 -9 0.5l-228 73c-4.66699 2 -7.66699 4.16699 -9 6.5s-1.33301 5.5 0 9.5l13 40c2 4 5.33301 5.33301 10 4z" />
    <glyph glyph-name="Oacute" unicode="&#xd3;" horiz-adv-x="762" 
d="M152 88c-54.667 65.333 -82 158.332 -82 278.999c0 81.333 12.5 150.833 37.5 208.5s61 101.5 108 131.5s102.5 45 166.5 45s119.167 -14.833 165.5 -44.5s81.833 -73.167 106.5 -130.5s37 -126.666 37 -207.999c0 -121.333 -27.333 -214.833 -82 -280.5
s-130.667 -98.5 -228 -98.5c-98 0 -174.333 32.667 -229 98zM555 128.999c38 52 57 132 57 240c0 215.333 -76.667 323 -230 323c-155.333 0 -233 -107.667 -233 -323c0 -212 78 -318 234 -318c76.667 0 134 26 172 78zM511 918.999
c0.666992 -1.33301 1.00098 -3.33301 1.00098 -6c0 -4 -3.33301 -7.33301 -10 -10l-228 -73c-1.33301 -0.666992 -3.33301 -1 -6 -1c-4.66699 0 -7.33398 2.33301 -8.00098 7l-7 20l-1 4c0 4 1.66699 6.66699 5 8l230 95h3c3.33301 0 6 -1.33301 8 -4z" />
    <glyph glyph-name="Ocircumflex" unicode="&#xd4;" horiz-adv-x="762" 
d="M152 88c-54.667 65.333 -82 158.332 -82 278.999c0 81.333 12.5 150.833 37.5 208.5s61 101.5 108 131.5s102.5 45 166.5 45s119.167 -14.833 165.5 -44.5s81.833 -73.167 106.5 -130.5s37 -126.666 37 -207.999c0 -121.333 -27.333 -214.833 -82 -280.5
s-130.667 -98.5 -228 -98.5c-98 0 -174.333 32.667 -229 98zM555 128.999c38 52 57 132 57 240c0 215.333 -76.667 323 -230 323c-155.333 0 -233 -107.667 -233 -323c0 -212 78 -318 234 -318c76.667 0 134 26 172 78zM392 903.999
c-4.66699 4.66699 -8 7.00098 -10 7.00098s-5.66699 -2.33301 -11 -7l-59 -49c-3.33301 -2.66699 -6 -4.5 -8 -5.5s-5 -1.5 -9 -1.5h-47c-4 0 -6.33301 1 -7 3s0.666016 4.66699 3.99902 8l102 87c6.66699 6.66699 14 10 22 10h31c4.66699 0 8.66699 -1.33301 12 -4
s5.33301 -4.33398 6 -5.00098l100 -88c8.66699 -7.33301 8.33398 -11 -0.999023 -11h-52c-6 0 -11.667 2.33301 -17 7z" />
    <glyph glyph-name="Otilde" unicode="&#xd5;" horiz-adv-x="762" 
d="M152 88c-54.667 65.333 -82 158.332 -82 278.999c0 81.333 12.5 150.833 37.5 208.5s61 101.5 108 131.5s102.5 45 166.5 45s119.167 -14.833 165.5 -44.5s81.833 -73.167 106.5 -130.5s37 -126.666 37 -207.999c0 -121.333 -27.333 -214.833 -82 -280.5
s-130.667 -98.5 -228 -98.5c-98 0 -174.333 32.667 -229 98zM555 128.999c38 52 57 132 57 240c0 215.333 -76.667 323 -230 323c-155.333 0 -233 -107.667 -233 -323c0 -212 78 -318 234 -318c76.667 0 134 26 172 78zM445 874.999
c-12.667 0 -24.0049 1.16699 -34.0049 3.5s-21.333 5.83301 -34 10.5c-2 0.666992 -8.66699 2.66699 -20 6s-22.666 5 -33.999 5s-20.666 -1.5 -27.999 -4.5s-13.833 -6.16699 -19.5 -9.5s-9.5 -5.66602 -11.5 -6.99902l-6 -3c-2.66699 0 -5 2.66699 -7 8l-8 22
c-1.33301 3.33301 -1.83301 5.66602 -1.5 6.99902s1.83301 2.66602 4.5 3.99902c12 9.33301 23.333 16.5 34 21.5s23.667 7.5 39 7.5c16.667 0 38.334 -4.66699 65.001 -14c2.66699 -0.666992 10.334 -3 23.001 -7s25.334 -6 38.001 -6c10.667 0 19.5 1.33301 26.5 4
s16.5 7.33398 28.5 14.001c2.66699 2 5 3 7 3c2.66699 0 5 -2.33301 7 -7l9 -25l1 -4c0 -3.33301 -2.33301 -6.33301 -7 -9c-20.667 -13.333 -44.667 -20 -72 -20z" />
    <glyph glyph-name="Odieresis" unicode="&#xd6;" horiz-adv-x="762" 
d="M152 88c-54.667 65.333 -82 158.332 -82 278.999c0 81.333 12.5 150.833 37.5 208.5s61 101.5 108 131.5s102.5 45 166.5 45s119.167 -14.833 165.5 -44.5s81.833 -73.167 106.5 -130.5s37 -126.666 37 -207.999c0 -121.333 -27.333 -214.833 -82 -280.5
s-130.667 -98.5 -228 -98.5c-98 0 -174.333 32.667 -229 98zM555 128.999c38 52 57 132 57 240c0 215.333 -76.667 323 -230 323c-155.333 0 -233 -107.667 -233 -323c0 -212 78 -318 234 -318c76.667 0 134 26 172 78zM351 862.999c0 -5.33301 -1 -9.00098 -3 -11.001
s-6 -3 -12 -3h-42c-5.33301 0 -8.83301 0.833008 -10.5 2.5s-2.5 4.83398 -2.5 9.50098v81c0 8 3.33301 12 10 12h50c6.66699 0 10 -3.66699 10 -11v-80zM483 862.998c0 -5.33301 -1.16797 -9.00098 -3.50098 -11.001s-6.16602 -3 -11.499 -3h-42
c-5.33301 0 -8.83301 0.833008 -10.5 2.5s-2.5 4.83398 -2.5 9.50098v81c0 8 3.33301 12 10 12h49c7.33301 0 11 -3.66699 11 -11v-80z" />
    <glyph glyph-name="multiply" unicode="&#xd7;" horiz-adv-x="530" 
d="M461 205l-25.002 -25.001c-2.66699 -2.66699 -5.33398 -4 -8.00098 -4c-3.33301 0 -6.66602 1.66699 -9.99902 5l-153 153l-156 -156c-1.33301 -2 -3.16602 -3.16699 -5.49902 -3.5s-4.16602 0.5 -5.49902 2.5l-25 25c-2.66699 2.66699 -4 5.33398 -4 8.00098
c0 3.33301 1.66699 6.66602 5 9.99902l152 152l-155 155c-2.66699 4 -4 6.66699 -4 8c0 2 1.33301 4.33301 4 7l25 25c2 2 4.16699 3 6.5 3s4.16602 -0.666992 5.49902 -2l157 -157l155 156c2.66699 2.66699 5.33398 4 8.00098 4s5 -1.33301 7 -4l25 -25
c2 -2 3 -4.16699 3 -6.5s-0.666992 -4.16602 -2 -5.49902l-157 -157l156 -156c4.66699 -4 5 -8 1 -12z" />
    <glyph glyph-name="Oslash" unicode="&#xd8;" horiz-adv-x="721" 
d="M700 707l-84.002 -95.001c36.667 -63.333 55 -144.333 55 -243c0 -80.667 -12.5 -149.334 -37.5 -206.001s-60.667 -99.667 -107 -129s-101.5 -44 -165.5 -44c-93.333 0 -166.666 29.333 -219.999 88l-70 -79c-4 -5.33301 -7.66699 -8 -11 -8c-4 0 -8 2 -12 6l-20 20
c-4.66699 4 -7.16699 7.33301 -7.5 10s0.833984 5.33398 3.50098 8.00098l81 92c-36.667 62 -55 142 -55 240c0 81.333 12.5 150.833 37.5 208.5s60.833 101.5 107.5 131.5s102 45 166 45c92.667 0 165.667 -30.333 219 -91l73 84c6 6.66699 11.333 7.66699 16 3l30 -28
c4.66699 -3.33301 5 -7.66602 1 -12.999zM161.998 187.999l370 423c-37.333 53.333 -94.333 80 -171 80c-153.333 0 -230 -107.333 -230 -322c0 -74.667 10.333 -135 31 -181zM557.998 550.999l-369.001 -421c38.667 -52.667 96.334 -79 173.001 -79s133.667 26 171 78
s56 132 56 240c0 75.333 -10.333 136 -31 182z" />
    <glyph glyph-name="Ugrave" unicode="&#xd9;" horiz-adv-x="706" 
d="M547 51c-43.333 -40.667 -108.001 -60.999 -194.001 -60.999c-89.333 0 -154.833 21.667 -196.5 65s-62.5 110.333 -62.5 201v473c0 8.66699 3.33301 13 10 13h54c4.66699 0 7.83398 -0.833008 9.50098 -2.5s2.5 -4.83398 2.5 -9.50098v-494
c0 -123.333 62.667 -185 188 -185c126.667 0 190 62.667 190 188v492c0 7.33301 3.33301 11 10 11h44c6.66699 0 10 -3.66699 10 -11v-491c0 -85.333 -21.667 -148.333 -65 -189zM237.999 963.001l231 -95c4.66699 -2 6 -6 4 -12l-7 -20c-1.33301 -3.33301 -3 -5.5 -5 -6.5
s-5 -0.833008 -9 0.5l-228 73c-4.66699 2 -7.66699 4.16699 -9 6.5s-1.33301 5.5 0 9.5l13 40c2 4 5.33301 5.33301 10 4z" />
    <glyph glyph-name="Uacute" unicode="&#xda;" horiz-adv-x="706" 
d="M547 51c-43.333 -40.667 -108.001 -60.999 -194.001 -60.999c-89.333 0 -154.833 21.667 -196.5 65s-62.5 110.333 -62.5 201v473c0 8.66699 3.33301 13 10 13h54c4.66699 0 7.83398 -0.833008 9.50098 -2.5s2.5 -4.83398 2.5 -9.50098v-494
c0 -123.333 62.667 -185 188 -185c126.667 0 190 62.667 190 188v492c0 7.33301 3.33301 11 10 11h44c6.66699 0 10 -3.66699 10 -11v-491c0 -85.333 -21.667 -148.333 -65 -189zM487.999 919.001c0.666992 -1.33301 1.00098 -3.33301 1.00098 -6
c0 -4 -3.33301 -7.33301 -10 -10l-228 -73c-1.33301 -0.666992 -3.33301 -1 -6 -1c-4.66699 0 -7.33398 2.33301 -8.00098 7l-7 20l-1 4c0 4 1.66699 6.66699 5 8l230 95h3c3.33301 0 6 -1.33301 8 -4z" />
    <glyph glyph-name="Ucircumflex" unicode="&#xdb;" horiz-adv-x="706" 
d="M547 51c-43.333 -40.667 -108.001 -60.999 -194.001 -60.999c-89.333 0 -154.833 21.667 -196.5 65s-62.5 110.333 -62.5 201v473c0 8.66699 3.33301 13 10 13h54c4.66699 0 7.83398 -0.833008 9.50098 -2.5s2.5 -4.83398 2.5 -9.50098v-494
c0 -123.333 62.667 -185 188 -185c126.667 0 190 62.667 190 188v492c0 7.33301 3.33301 11 10 11h44c6.66699 0 10 -3.66699 10 -11v-491c0 -85.333 -21.667 -148.333 -65 -189zM368.999 904.001c-4.66699 4.66699 -8 7.00098 -10 7.00098s-5.66699 -2.33301 -11 -7
l-59 -49c-3.33301 -2.66699 -6 -4.5 -8 -5.5s-5 -1.5 -9 -1.5h-47c-4 0 -6.33301 1 -7 3s0.666016 4.66699 3.99902 8l102 87c6.66699 6.66699 14 10 22 10h31c4.66699 0 8.66699 -1.33301 12 -4s5.33301 -4.33398 6 -5.00098l100 -88
c8.66699 -7.33301 8.33398 -11 -0.999023 -11h-52c-6 0 -11.667 2.33301 -17 7z" />
    <glyph glyph-name="Udieresis" unicode="&#xdc;" horiz-adv-x="706" 
d="M547 51c-43.333 -40.667 -108.001 -60.999 -194.001 -60.999c-89.333 0 -154.833 21.667 -196.5 65s-62.5 110.333 -62.5 201v473c0 8.66699 3.33301 13 10 13h54c4.66699 0 7.83398 -0.833008 9.50098 -2.5s2.5 -4.83398 2.5 -9.50098v-494
c0 -123.333 62.667 -185 188 -185c126.667 0 190 62.667 190 188v492c0 7.33301 3.33301 11 10 11h44c6.66699 0 10 -3.66699 10 -11v-491c0 -85.333 -21.667 -148.333 -65 -189zM327.999 863.001c0 -5.33301 -1 -9.00098 -3 -11.001s-6 -3 -12 -3h-42
c-5.33301 0 -8.83301 0.833008 -10.5 2.5s-2.5 4.83398 -2.5 9.50098v81c0 8 3.33301 12 10 12h50c6.66699 0 10 -3.66699 10 -11v-80zM459.999 863c0 -5.33301 -1.16797 -9.00098 -3.50098 -11.001s-6.16602 -3 -11.499 -3h-42c-5.33301 0 -8.83301 0.833008 -10.5 2.5
s-2.5 4.83398 -2.5 9.50098v81c0 8 3.33301 12 10 12h49c7.33301 0 11 -3.66699 11 -11v-80z" />
    <glyph glyph-name="Yacute" unicode="&#xdd;" horiz-adv-x="660" 
d="M615 738c1.33301 -2.66699 1.00098 -5.66602 -0.999023 -8.99902l-238 -401c-2 -3.33301 -3.33301 -7 -4 -11s-1 -9.33301 -1 -16v-285c0 -10.667 -6 -16 -18 -16h-43c-10 0 -15 4.33301 -15 13v281c0 5.33301 -0.5 9.66602 -1.5 12.999s-2.5 7 -4.5 11l-243 409
c-1.33301 2 -2 4.33301 -2 7c0 5.33301 4 8 12 8h52c5.33301 0 9.16602 -0.666992 11.499 -2s4.83301 -4.33301 7.5 -9l196 -335c4 -8 8 -12 12 -12c2.66699 0 6.33398 3.33301 11.001 10l194 337c2.66699 4.66699 5.16699 7.66699 7.5 9s6.16602 2 11.499 2h48
c4 0 6.66699 -1.33301 8 -4zM457.001 919.001c0.666992 -1.33301 1.00098 -3.33301 1.00098 -6c0 -4 -3.33301 -7.33301 -10 -10l-228 -73c-1.33301 -0.666992 -3.33301 -1 -6 -1c-4.66699 0 -7.33398 2.33301 -8.00098 7l-7 20l-1 4c0 4 1.66699 6.66699 5 8l230 95h3
c3.33301 0 6 -1.33301 8 -4z" />
    <glyph glyph-name="Thorn" unicode="&#xde;" horiz-adv-x="685" 
d="M557.5 227.5c-47 -34.333 -110.833 -51.5 -191.5 -51.5h-178c-6 0 -9 -3.33301 -9 -10v-154c0 -8 -4 -12 -12 -12h-52c-7.33301 0 -11 3.66699 -11 11v719c0 4.66699 0.833008 7.83398 2.5 9.50098s4.5 2.5 8.5 2.5h54c4 0 6.66699 -0.833008 8 -2.5
s2 -4.83398 2 -9.50098v-140c0 -4 2.33301 -6 7 -6h170c82.667 0 148.667 -16.5 198 -49.5s74 -82.167 74 -147.5c0 -72 -23.5 -125.167 -70.5 -159.5zM499 492c-34 21.333 -82.667 31.999 -146 31.999h-162c-4 0 -7 -0.666992 -9 -2s-3 -4 -3 -8v-267c0 -8 3 -12 9 -12h172
c60 0 106.667 12.333 140 37s50 63.334 50 116.001c0 48 -17 82.667 -51 104z" />
    <glyph glyph-name="germandbls" unicode="&#xdf;" horiz-adv-x="597" 
d="M442 702c26.667 -26.667 39.998 -59.3301 39.998 -97.9971c0 -24.667 -5.16699 -45 -15.5 -61s-22.833 -28.667 -37.5 -38s-36.334 -21.333 -65.001 -36c-28.667 -15.333 -47.5 -27 -56.5 -35s-13.5 -19 -13.5 -33s4.33301 -24 13 -30s26.667 -13.333 54 -22
c38 -13.333 68.833 -25.833 92.5 -37.5s45.167 -29.834 64.5 -54.501s29 -56.667 29 -96c0 -54 -18.333 -96 -55 -126s-83 -45 -139 -45c-24 0 -48 2.66699 -72 8s-44 13 -60 23c-6 2.66699 -7.66699 6.66699 -5 12l20 35c2 2.66699 6 3 12 1
c16 -8.66699 31.333 -15.334 46 -20.001s32 -7 52 -7c42.667 0 76.334 10 101.001 30s37 47.667 37 83c0 25.333 -6.16699 46.333 -18.5 63s-28 29.5 -47 38.5s-43.5 18.5 -73.5 28.5c-23.333 8 -42.166 15.5 -56.499 22.5s-26.666 17.333 -36.999 31s-15.5 31.5 -15.5 53.5
c0 24.667 7.16699 45.167 21.5 61.5s38.5 33.5 72.5 51.5l33.5 19c17.667 10 31 21.667 40 35s13.5 28.666 13.5 45.999c0 26 -9.66699 46.667 -29 62s-46 23 -80 23c-44 0 -78.833 -13.167 -104.5 -39.5s-38.5 -64.833 -38.5 -115.5v-523v-3c0 -6 -3 -9 -9 -9h-47
c-6.66699 -0 -10 3.33301 -10 10v453c0 6.66699 -2.66699 10 -8 10h-56c-5.33301 0 -8 2.66699 -8 8v35c0 5.33301 3 8 9 8h55c5.33301 0 8 3.33301 8 10c0 63.333 19.333 113.833 58 151.5s91.667 56.5 159 56.5c57.333 0 99.333 -13.333 126 -40z" />
    <glyph glyph-name="agrave" unicode="&#xe0;" horiz-adv-x="544" 
d="M309.5 9c-29.667 -12.667 -62.167 -19.002 -97.5 -19.002c-52.667 0 -94 13 -124 39s-45 61.333 -45 106c0 52 21.833 93 65.5 123s107.5 48 191.5 54l89 7c11.333 1.33301 17 6.33301 17 15v29c0 38.667 -12.167 69.334 -36.5 92.001s-57.166 34 -98.499 34
c-61.333 0 -112.333 -28.333 -153 -85c-2 -3.33301 -4 -5.33301 -6 -6s-4.33301 -0.333984 -7 0.999023l-41 17c-2.66699 1.33301 -4 3 -4 5c0 2.66699 1 5.33398 3 8.00098c20.667 34.667 49 61.834 85 81.501s78 29.5 126 29.5c62 0 110.167 -15.167 144.5 -45.5
s51.5 -72.5 51.5 -126.5v-355c0 -8.66699 -4 -13 -12 -13h-37c-8 -0 -12 4.33301 -12 13l-2 52c-1.33301 4.66699 -3 7 -5 7s-4.66699 -1.66699 -8 -5c-26.667 -26 -54.834 -45.333 -84.501 -58zM391 273.998l-74.999 -6c-137.333 -10 -206 -52 -206 -126
c0 -30.667 11 -55 33 -73s51.333 -27 88 -27c22 0 43.667 4 65 12s40.666 18.667 57.999 32c34.667 28.667 52 57 52 85v88c0 11.333 -5 16.333 -15 15zM150.001 750.998l231 -95c4.66699 -2 6 -6 4 -12l-7 -20c-1.33301 -3.33301 -3 -5.5 -5 -6.5s-5 -0.833008 -9 0.5
l-228 73c-4.66699 2 -7.66699 4.16699 -9 6.5s-1.33301 5.5 0 9.5l13 40c2 4 5.33301 5.33301 10 4z" />
    <glyph glyph-name="aacute" unicode="&#xe1;" horiz-adv-x="544" 
d="M309.5 9c-29.667 -12.667 -62.167 -19.002 -97.5 -19.002c-52.667 0 -94 13 -124 39s-45 61.333 -45 106c0 52 21.833 93 65.5 123s107.5 48 191.5 54l89 7c11.333 1.33301 17 6.33301 17 15v29c0 38.667 -12.167 69.334 -36.5 92.001s-57.166 34 -98.499 34
c-61.333 0 -112.333 -28.333 -153 -85c-2 -3.33301 -4 -5.33301 -6 -6s-4.33301 -0.333984 -7 0.999023l-41 17c-2.66699 1.33301 -4 3 -4 5c0 2.66699 1 5.33398 3 8.00098c20.667 34.667 49 61.834 85 81.501s78 29.5 126 29.5c62 0 110.167 -15.167 144.5 -45.5
s51.5 -72.5 51.5 -126.5v-355c0 -8.66699 -4 -13 -12 -13h-37c-8 -0 -12 4.33301 -12 13l-2 52c-1.33301 4.66699 -3 7 -5 7s-4.66699 -1.66699 -8 -5c-26.667 -26 -54.834 -45.333 -84.501 -58zM391 273.998l-74.999 -6c-137.333 -10 -206 -52 -206 -126
c0 -30.667 11 -55 33 -73s51.333 -27 88 -27c22 0 43.667 4 65 12s40.666 18.667 57.999 32c34.667 28.667 52 57 52 85v88c0 11.333 -5 16.333 -15 15zM400.001 706.998c0.666992 -1.33301 1.00098 -3.33301 1.00098 -6c0 -4 -3.33301 -7.33301 -10 -10l-228 -73
c-1.33301 -0.666992 -3.33301 -1 -6 -1c-4.66699 0 -7.33398 2.33301 -8.00098 7l-7 20l-1 4c0 4 1.66699 6.66699 5 8l230 95h3c3.33301 0 6 -1.33301 8 -4z" />
    <glyph glyph-name="acircumflex" unicode="&#xe2;" horiz-adv-x="544" 
d="M309.5 9c-29.667 -12.667 -62.167 -19.002 -97.5 -19.002c-52.667 0 -94 13 -124 39s-45 61.333 -45 106c0 52 21.833 93 65.5 123s107.5 48 191.5 54l89 7c11.333 1.33301 17 6.33301 17 15v29c0 38.667 -12.167 69.334 -36.5 92.001s-57.166 34 -98.499 34
c-61.333 0 -112.333 -28.333 -153 -85c-2 -3.33301 -4 -5.33301 -6 -6s-4.33301 -0.333984 -7 0.999023l-41 17c-2.66699 1.33301 -4 3 -4 5c0 2.66699 1 5.33398 3 8.00098c20.667 34.667 49 61.834 85 81.501s78 29.5 126 29.5c62 0 110.167 -15.167 144.5 -45.5
s51.5 -72.5 51.5 -126.5v-355c0 -8.66699 -4 -13 -12 -13h-37c-8 -0 -12 4.33301 -12 13l-2 52c-1.33301 4.66699 -3 7 -5 7s-4.66699 -1.66699 -8 -5c-26.667 -26 -54.834 -45.333 -84.501 -58zM391 273.998l-74.999 -6c-137.333 -10 -206 -52 -206 -126
c0 -30.667 11 -55 33 -73s51.333 -27 88 -27c22 0 43.667 4 65 12s40.666 18.667 57.999 32c34.667 28.667 52 57 52 85v88c0 11.333 -5 16.333 -15 15zM281.001 691.998c-4.66699 4.66699 -8 7.00098 -10 7.00098s-5.66699 -2.33301 -11 -7l-59 -49
c-3.33301 -2.66699 -6 -4.5 -8 -5.5s-5 -1.5 -9 -1.5h-47c-4 0 -6.33301 1 -7 3s0.666016 4.66699 3.99902 8l102 87c6.66699 6.66699 14 10 22 10h31c4.66699 0 8.66699 -1.33301 12 -4s5.33301 -4.33398 6 -5.00098l100 -88c8.66699 -7.33301 8.33398 -11 -0.999023 -11
h-52c-6 0 -11.667 2.33301 -17 7z" />
    <glyph glyph-name="atilde" unicode="&#xe3;" horiz-adv-x="544" 
d="M309.5 9c-29.667 -12.667 -62.167 -19.002 -97.5 -19.002c-52.667 0 -94 13 -124 39s-45 61.333 -45 106c0 52 21.833 93 65.5 123s107.5 48 191.5 54l89 7c11.333 1.33301 17 6.33301 17 15v29c0 38.667 -12.167 69.334 -36.5 92.001s-57.166 34 -98.499 34
c-61.333 0 -112.333 -28.333 -153 -85c-2 -3.33301 -4 -5.33301 -6 -6s-4.33301 -0.333984 -7 0.999023l-41 17c-2.66699 1.33301 -4 3 -4 5c0 2.66699 1 5.33398 3 8.00098c20.667 34.667 49 61.834 85 81.501s78 29.5 126 29.5c62 0 110.167 -15.167 144.5 -45.5
s51.5 -72.5 51.5 -126.5v-355c0 -8.66699 -4 -13 -12 -13h-37c-8 -0 -12 4.33301 -12 13l-2 52c-1.33301 4.66699 -3 7 -5 7s-4.66699 -1.66699 -8 -5c-26.667 -26 -54.834 -45.333 -84.501 -58zM391 273.998l-74.999 -6c-137.333 -10 -206 -52 -206 -126
c0 -30.667 11 -55 33 -73s51.333 -27 88 -27c22 0 43.667 4 65 12s40.666 18.667 57.999 32c34.667 28.667 52 57 52 85v88c0 11.333 -5 16.333 -15 15zM334.001 662.998c-12.667 0 -24.0049 1.16699 -34.0049 3.5s-21.333 5.83301 -34 10.5
c-2 0.666992 -8.66699 2.66699 -20 6s-22.666 5 -33.999 5s-20.666 -1.5 -27.999 -4.5s-13.833 -6.16699 -19.5 -9.5s-9.5 -5.66602 -11.5 -6.99902l-6 -3c-2.66699 0 -5 2.66699 -7 8l-8 22c-1.33301 3.33301 -1.83301 5.66602 -1.5 6.99902s1.83301 2.66602 4.5 3.99902
c12 9.33301 23.333 16.5 34 21.5s23.667 7.5 39 7.5c16.667 0 38.334 -4.66699 65.001 -14c2.66699 -0.666992 10.334 -3 23.001 -7s25.334 -6 38.001 -6c10.667 0 19.5 1.33301 26.5 4s16.5 7.33398 28.5 14.001c2.66699 2 5 3 7 3c2.66699 0 5 -2.33301 7 -7l9 -25l1 -4
c0 -3.33301 -2.33301 -6.33301 -7 -9c-20.667 -13.333 -44.667 -20 -72 -20z" />
    <glyph glyph-name="adieresis" unicode="&#xe4;" horiz-adv-x="544" 
d="M309.5 9c-29.667 -12.667 -62.167 -19.002 -97.5 -19.002c-52.667 0 -94 13 -124 39s-45 61.333 -45 106c0 52 21.833 93 65.5 123s107.5 48 191.5 54l89 7c11.333 1.33301 17 6.33301 17 15v29c0 38.667 -12.167 69.334 -36.5 92.001s-57.166 34 -98.499 34
c-61.333 0 -112.333 -28.333 -153 -85c-2 -3.33301 -4 -5.33301 -6 -6s-4.33301 -0.333984 -7 0.999023l-41 17c-2.66699 1.33301 -4 3 -4 5c0 2.66699 1 5.33398 3 8.00098c20.667 34.667 49 61.834 85 81.501s78 29.5 126 29.5c62 0 110.167 -15.167 144.5 -45.5
s51.5 -72.5 51.5 -126.5v-355c0 -8.66699 -4 -13 -12 -13h-37c-8 -0 -12 4.33301 -12 13l-2 52c-1.33301 4.66699 -3 7 -5 7s-4.66699 -1.66699 -8 -5c-26.667 -26 -54.834 -45.333 -84.501 -58zM391 273.998l-74.999 -6c-137.333 -10 -206 -52 -206 -126
c0 -30.667 11 -55 33 -73s51.333 -27 88 -27c22 0 43.667 4 65 12s40.666 18.667 57.999 32c34.667 28.667 52 57 52 85v88c0 11.333 -5 16.333 -15 15zM240.001 650.998c0 -5.33301 -1 -9.00098 -3 -11.001s-6 -3 -12 -3h-42c-5.33301 0 -8.83301 0.833008 -10.5 2.5
s-2.5 4.83398 -2.5 9.50098v81c0 8 3.33301 12 10 12h50c6.66699 0 10 -3.66699 10 -11v-80zM372.001 650.997c0 -5.33301 -1.16797 -9.00098 -3.50098 -11.001s-6.16602 -3 -11.499 -3h-42c-5.33301 0 -8.83301 0.833008 -10.5 2.5s-2.5 4.83398 -2.5 9.50098v81
c0 8 3.33301 12 10 12h49c7.33301 0 11 -3.66699 11 -11v-80z" />
    <glyph glyph-name="aring" unicode="&#xe5;" horiz-adv-x="544" 
d="M309.5 9c-29.667 -12.667 -62.167 -19.002 -97.5 -19.002c-52.667 0 -94 13 -124 39s-45 61.333 -45 106c0 52 21.833 93 65.5 123s107.5 48 191.5 54l89 7c11.333 1.33301 17 6.33301 17 15v29c0 38.667 -12.167 69.334 -36.5 92.001s-57.166 34 -98.499 34
c-61.333 0 -112.333 -28.333 -153 -85c-2 -3.33301 -4 -5.33301 -6 -6s-4.33301 -0.333984 -7 0.999023l-41 17c-2.66699 1.33301 -4 3 -4 5c0 2.66699 1 5.33398 3 8.00098c20.667 34.667 49 61.834 85 81.501s78 29.5 126 29.5c62 0 110.167 -15.167 144.5 -45.5
s51.5 -72.5 51.5 -126.5v-355c0 -8.66699 -4 -13 -12 -13h-37c-8 -0 -12 4.33301 -12 13l-2 52c-1.33301 4.66699 -3 7 -5 7s-4.66699 -1.66699 -8 -5c-26.667 -26 -54.834 -45.333 -84.501 -58zM391 273.998l-74.999 -6c-137.333 -10 -206 -52 -206 -126
c0 -30.667 11 -55 33 -73s51.333 -27 88 -27c22 0 43.667 4 65 12s40.666 18.667 57.999 32c34.667 28.667 52 57 52 85v88c0 11.333 -5 16.333 -15 15zM344.001 626.498c-20 -19.667 -44.333 -29.498 -73 -29.498c-29.333 0 -53.833 10 -73.5 30s-29.5 44.667 -29.5 74
c0 27.333 10 50.666 30 69.999s44.333 29 73 29s53 -9.66699 73 -29s30 -43.333 30 -72s-10 -52.834 -30 -72.501zM310.001 739c-10.667 10.667 -24 16.002 -40 16.002c-15.333 0 -28.833 -5.33301 -40.5 -16s-17.5 -24.334 -17.5 -41.001
c0 -14.667 5.83301 -27.834 17.5 -39.501s25.167 -17.5 40.5 -17.5c16 0 29.333 5.66699 40 17s16 24.666 16 39.999c0 16.667 -5.33301 30.334 -16 41.001z" />
    <glyph glyph-name="ae" unicode="&#xe6;" horiz-adv-x="928" 
d="M471 244.5c-2.66699 -3 -3.99805 -9.49902 -3.99805 -19.499c0 -29.333 8.33301 -58.166 25 -86.499s39.167 -51.333 67.5 -69s59.166 -26.5 92.499 -26.5c40.667 0 73 7.66699 97 23s46.667 36.666 68 63.999c2.66699 3.33301 4.66699 5.16602 6 5.49902
s3.33301 -0.166992 6 -1.5l34 -19c4 -2 4.33301 -6 1 -12c-20 -35.333 -49.167 -63 -87.5 -83s-81.833 -30 -130.5 -30c-50.667 0 -91.667 10.667 -123 32s-59 48 -83 80c-2 3.33301 -4 3.33301 -6 0c-28 -33.333 -58.5 -60.333 -91.5 -81s-77.167 -31 -132.5 -31
c-52 0 -92.833 13 -122.5 39s-44.5 62 -44.5 108c0 50.667 20.5 90.834 61.5 120.501s102.833 47.834 185.5 54.501l98 7c12 1.33301 18 6.33301 18 15v29c0 39.333 -12 70.166 -36 92.499s-58.333 33.5 -103 33.5c-58.667 0 -108.667 -28.333 -150 -85
c-2.66699 -3.33301 -4.83398 -5.33301 -6.50098 -6s-4.16699 -0.333984 -7.5 0.999023l-39 17c-2 1.33301 -3.16699 3.16602 -3.5 5.49902s0.5 4.83301 2.5 7.5c21.333 36 50 63.5 86 82.5s78 28.5 126 28.5s86.5 -8.66699 115.5 -26s49.167 -44 60.5 -80
c20.667 34.667 47.5 61 80.5 79s71.5 27 115.5 27c47.333 0 88.666 -10.5 123.999 -31.5s62.833 -51.667 82.5 -92s29.5 -88.833 29.5 -145.5c0 -7.33301 -1.16699 -12.666 -3.5 -15.999s-7.16602 -5 -14.499 -5l-378 -1c-8 0 -13.333 -1.5 -16 -4.5zM557.002 465.501
c-26.667 -15.667 -47.832 -38 -63.499 -67s-23.5 -62.5 -23.5 -100.5l329 -1c7.33301 0 12 1.16699 14 3.5s3 6.5 3 12.5c0 31.333 -7.16699 60.5 -21.5 87.5s-34.5 48.5 -60.5 64.5s-55.333 24 -88 24s-62.334 -7.83301 -89.001 -23.5zM402.504 269.001
c-2.33301 2.66699 -6.50098 3.66699 -12.501 3l-82 -6c-131.333 -11.333 -197 -53 -197 -125c0 -29.333 9.83301 -53.166 29.5 -71.499s46.834 -27.5 81.501 -27.5c33.333 0 64 6 92 18s50.333 28.167 67 48.5s25 42.166 25 65.499v83c0 5.33301 -1.16699 9.33301 -3.5 12z
" />
    <glyph glyph-name="ccedilla" unicode="&#xe7;" horiz-adv-x="540" 
d="M507 115c-20.667 -36 -47.332 -64.999 -79.999 -86.999s-70.334 -34.333 -113.001 -37l-18 -44c-0.666992 -2.66699 0.666016 -4 3.99902 -4c28.667 -2 49.334 -10 62.001 -24s19 -30.333 19 -49c0 -24.667 -10 -43.667 -30 -57s-45.333 -20 -76 -20
c-32.667 0 -59.667 7 -81 21c-3.33301 2 -4.66602 4.66699 -3.99902 8l10 23c2 3.33301 4.66699 4 8 2c8.66699 -6 17.5 -10.667 26.5 -14s20.167 -5 33.5 -5c38.667 0 58 13.667 58 41c0 14.667 -6.33301 25.667 -19 33s-32.667 11.666 -60 12.999
c-5.33301 0 -7 1.66699 -5 5l30 71c-44 3.33301 -82.667 16.833 -116 40.5s-59.333 55.5 -78 95.5s-28 85.333 -28 136c0 53.333 10.5 101 31.5 143s50.167 74.833 87.5 98.5s79.666 35.5 126.999 35.5c88 0 155.667 -39 203 -117c2 -4 2.83301 -6.83301 2.5 -8.5
s-2.16602 -3.16699 -5.49902 -4.5l-42 -14c-0.666992 -0.666992 -2 -1 -4 -1c-2.66699 0 -5.33398 2 -8.00098 6c-24 30.667 -46.833 52.834 -68.5 66.501s-45.834 20.5 -72.501 20.5c-55.333 0 -99.666 -20.167 -132.999 -60.5s-50 -94.5 -50 -162.5
s16.667 -122.167 50 -162.5s78 -60.5 134 -60.5c32.667 0 61.5 8 86.5 24s47.833 40.333 68.5 73c4 5.33301 8 6.66602 12 3.99902l35 -16c4 -2 5 -6 3 -12z" />
    <glyph glyph-name="egrave" unicode="&#xe8;" horiz-adv-x="579" 
d="M144 139.5c16.667 -29.667 39.168 -53.165 67.501 -70.498s59.166 -26 92.499 -26c72 0 126.667 29 164 87c2 3.33301 4 5.16602 6 5.49902s4.33301 -0.166992 7 -1.5l34 -19c2 -1.33301 3.16699 -3 3.5 -5s-0.5 -4.33301 -2.5 -7
c-24.667 -38.667 -54.667 -67.167 -90 -85.5s-77.333 -27.5 -126 -27.5s-91.834 11.333 -129.501 34s-67.167 54.5 -88.5 95.5s-32 87.833 -32 140.5c0 56.667 10.833 106.167 32.5 148.5s51.334 74.833 89.001 97.5s80.167 34 127.5 34
c72.667 0 130.167 -23.833 172.5 -71.5s63.5 -113.5 63.5 -197.5v-6c0 -4.66699 -0.833008 -8.33398 -2.5 -11.001s-5.5 -4 -11.5 -4h-395c-4.66699 0 -7 -5 -7 -15c0 -34 8.33301 -65.833 25 -95.5zM451.001 297.002c6.66699 0 11.1641 0.999023 13.4971 2.99902
s3.5 5.66699 3.5 11c0 32 -6.83301 61.667 -20.5 89s-33.167 49 -58.5 65s-55 24 -89 24c-37.333 0 -69.666 -9.16699 -96.999 -27.5s-48.166 -42.166 -62.499 -71.499s-21.166 -60.333 -20.499 -93h331zM176.998 751.001l231 -95c4.66699 -2 6 -6 4 -12l-7 -20
c-1.33301 -3.33301 -3 -5.5 -5 -6.5s-5 -0.833008 -9 0.5l-228 73c-4.66699 2 -7.66699 4.16699 -9 6.5s-1.33301 5.5 0 9.5l13 40c2 4 5.33301 5.33301 10 4z" />
    <glyph glyph-name="eacute" unicode="&#xe9;" horiz-adv-x="579" 
d="M144 139.5c16.667 -29.667 39.168 -53.165 67.501 -70.498s59.166 -26 92.499 -26c72 0 126.667 29 164 87c2 3.33301 4 5.16602 6 5.49902s4.33301 -0.166992 7 -1.5l34 -19c2 -1.33301 3.16699 -3 3.5 -5s-0.5 -4.33301 -2.5 -7
c-24.667 -38.667 -54.667 -67.167 -90 -85.5s-77.333 -27.5 -126 -27.5s-91.834 11.333 -129.501 34s-67.167 54.5 -88.5 95.5s-32 87.833 -32 140.5c0 56.667 10.833 106.167 32.5 148.5s51.334 74.833 89.001 97.5s80.167 34 127.5 34
c72.667 0 130.167 -23.833 172.5 -71.5s63.5 -113.5 63.5 -197.5v-6c0 -4.66699 -0.833008 -8.33398 -2.5 -11.001s-5.5 -4 -11.5 -4h-395c-4.66699 0 -7 -5 -7 -15c0 -34 8.33301 -65.833 25 -95.5zM451.001 297.002c6.66699 0 11.1641 0.999023 13.4971 2.99902
s3.5 5.66699 3.5 11c0 32 -6.83301 61.667 -20.5 89s-33.167 49 -58.5 65s-55 24 -89 24c-37.333 0 -69.666 -9.16699 -96.999 -27.5s-48.166 -42.166 -62.499 -71.499s-21.166 -60.333 -20.499 -93h331zM426.998 707.001c0.666992 -1.33301 1.00098 -3.33301 1.00098 -6
c0 -4 -3.33301 -7.33301 -10 -10l-228 -73c-1.33301 -0.666992 -3.33301 -1 -6 -1c-4.66699 0 -7.33398 2.33301 -8.00098 7l-7 20l-1 4c0 4 1.66699 6.66699 5 8l230 95h3c3.33301 0 6 -1.33301 8 -4z" />
    <glyph glyph-name="ecircumflex" unicode="&#xea;" horiz-adv-x="579" 
d="M144 139.5c16.667 -29.667 39.168 -53.165 67.501 -70.498s59.166 -26 92.499 -26c72 0 126.667 29 164 87c2 3.33301 4 5.16602 6 5.49902s4.33301 -0.166992 7 -1.5l34 -19c2 -1.33301 3.16699 -3 3.5 -5s-0.5 -4.33301 -2.5 -7
c-24.667 -38.667 -54.667 -67.167 -90 -85.5s-77.333 -27.5 -126 -27.5s-91.834 11.333 -129.501 34s-67.167 54.5 -88.5 95.5s-32 87.833 -32 140.5c0 56.667 10.833 106.167 32.5 148.5s51.334 74.833 89.001 97.5s80.167 34 127.5 34
c72.667 0 130.167 -23.833 172.5 -71.5s63.5 -113.5 63.5 -197.5v-6c0 -4.66699 -0.833008 -8.33398 -2.5 -11.001s-5.5 -4 -11.5 -4h-395c-4.66699 0 -7 -5 -7 -15c0 -34 8.33301 -65.833 25 -95.5zM451.001 297.002c6.66699 0 11.1641 0.999023 13.4971 2.99902
s3.5 5.66699 3.5 11c0 32 -6.83301 61.667 -20.5 89s-33.167 49 -58.5 65s-55 24 -89 24c-37.333 0 -69.666 -9.16699 -96.999 -27.5s-48.166 -42.166 -62.499 -71.499s-21.166 -60.333 -20.499 -93h331zM307.998 692.001c-4.66699 4.66699 -8 7.00098 -10 7.00098
s-5.66699 -2.33301 -11 -7l-59 -49c-3.33301 -2.66699 -6 -4.5 -8 -5.5s-5 -1.5 -9 -1.5h-47c-4 0 -6.33301 1 -7 3s0.666016 4.66699 3.99902 8l102 87c6.66699 6.66699 14 10 22 10h31c4.66699 0 8.66699 -1.33301 12 -4s5.33301 -4.33398 6 -5.00098l100 -88
c8.66699 -7.33301 8.33398 -11 -0.999023 -11h-52c-6 0 -11.667 2.33301 -17 7z" />
    <glyph glyph-name="edieresis" unicode="&#xeb;" horiz-adv-x="579" 
d="M144 139.5c16.667 -29.667 39.168 -53.165 67.501 -70.498s59.166 -26 92.499 -26c72 0 126.667 29 164 87c2 3.33301 4 5.16602 6 5.49902s4.33301 -0.166992 7 -1.5l34 -19c2 -1.33301 3.16699 -3 3.5 -5s-0.5 -4.33301 -2.5 -7
c-24.667 -38.667 -54.667 -67.167 -90 -85.5s-77.333 -27.5 -126 -27.5s-91.834 11.333 -129.501 34s-67.167 54.5 -88.5 95.5s-32 87.833 -32 140.5c0 56.667 10.833 106.167 32.5 148.5s51.334 74.833 89.001 97.5s80.167 34 127.5 34
c72.667 0 130.167 -23.833 172.5 -71.5s63.5 -113.5 63.5 -197.5v-6c0 -4.66699 -0.833008 -8.33398 -2.5 -11.001s-5.5 -4 -11.5 -4h-395c-4.66699 0 -7 -5 -7 -15c0 -34 8.33301 -65.833 25 -95.5zM451.001 297.002c6.66699 0 11.1641 0.999023 13.4971 2.99902
s3.5 5.66699 3.5 11c0 32 -6.83301 61.667 -20.5 89s-33.167 49 -58.5 65s-55 24 -89 24c-37.333 0 -69.666 -9.16699 -96.999 -27.5s-48.166 -42.166 -62.499 -71.499s-21.166 -60.333 -20.499 -93h331zM266.998 651.001c0 -5.33301 -1 -9.00098 -3 -11.001s-6 -3 -12 -3
h-42c-5.33301 0 -8.83301 0.833008 -10.5 2.5s-2.5 4.83398 -2.5 9.50098v81c0 8 3.33301 12 10 12h50c6.66699 0 10 -3.66699 10 -11v-80zM398.998 651c0 -5.33301 -1.16797 -9.00098 -3.50098 -11.001s-6.16602 -3 -11.499 -3h-42c-5.33301 0 -8.83301 0.833008 -10.5 2.5
s-2.5 4.83398 -2.5 9.50098v81c0 8 3.33301 12 10 12h49c7.33301 0 11 -3.66699 11 -11v-80z" />
    <glyph glyph-name="igrave" unicode="&#xec;" 
d="M149 15c0 -6 -1 -10.001 -3 -12.001s-6.33301 -3 -13 -3h-37c-4.66699 0 -8 0.833008 -10 2.5s-3 4.83398 -3 9.50098v506c0 4.66699 0.833008 7.83398 2.5 9.50098s4.5 2.5 8.5 2.5h44c4 0 6.83301 -0.833008 8.5 -2.5s2.5 -4.83398 2.5 -9.50098v-503zM-4 750.999
l231 -95c4.66699 -2 6 -6 4 -12l-7 -20c-1.33301 -3.33301 -3 -5.5 -5 -6.5s-5 -0.833008 -9 0.5l-228 73c-4.66699 2 -7.66699 4.16699 -9 6.5s-1.33301 5.5 0 9.5l13 40c2 4 5.33301 5.33301 10 4z" />
    <glyph glyph-name="iacute" unicode="&#xed;" 
d="M149 15c0 -6 -1 -10.001 -3 -12.001s-6.33301 -3 -13 -3h-37c-4.66699 0 -8 0.833008 -10 2.5s-3 4.83398 -3 9.50098v506c0 4.66699 0.833008 7.83398 2.5 9.50098s4.5 2.5 8.5 2.5h44c4 0 6.83301 -0.833008 8.5 -2.5s2.5 -4.83398 2.5 -9.50098v-503zM246 706.999
c0.666992 -1.33301 1.00098 -3.33301 1.00098 -6c0 -4 -3.33301 -7.33301 -10 -10l-228 -73c-1.33301 -0.666992 -3.33301 -1 -6 -1c-4.66699 0 -7.33398 2.33301 -8.00098 7l-7 20l-1 4c0 4 1.66699 6.66699 5 8l230 95h3c3.33301 0 6 -1.33301 8 -4z" />
    <glyph glyph-name="icircumflex" unicode="&#xee;" 
d="M149 15c0 -6 -1 -10.001 -3 -12.001s-6.33301 -3 -13 -3h-37c-4.66699 0 -8 0.833008 -10 2.5s-3 4.83398 -3 9.50098v506c0 4.66699 0.833008 7.83398 2.5 9.50098s4.5 2.5 8.5 2.5h44c4 0 6.83301 -0.833008 8.5 -2.5s2.5 -4.83398 2.5 -9.50098v-503zM127 691.999
c-4.66699 4.66699 -8 7.00098 -10 7.00098s-5.66699 -2.33301 -11 -7l-59 -49c-3.33301 -2.66699 -6 -4.5 -8 -5.5s-5 -1.5 -9 -1.5h-47c-4 0 -6.33301 1 -7 3s0.666016 4.66699 3.99902 8l102 87c6.66699 6.66699 14 10 22 10h31c4.66699 0 8.66699 -1.33301 12 -4
s5.33301 -4.33398 6 -5.00098l100 -88c8.66699 -7.33301 8.33398 -11 -0.999023 -11h-52c-6 0 -11.667 2.33301 -17 7z" />
    <glyph glyph-name="idieresis" unicode="&#xef;" 
d="M149 15c0 -6 -1 -10.001 -3 -12.001s-6.33301 -3 -13 -3h-37c-4.66699 0 -8 0.833008 -10 2.5s-3 4.83398 -3 9.50098v506c0 4.66699 0.833008 7.83398 2.5 9.50098s4.5 2.5 8.5 2.5h44c4 0 6.83301 -0.833008 8.5 -2.5s2.5 -4.83398 2.5 -9.50098v-503zM86 650.999
c0 -5.33301 -1 -9.00098 -3 -11.001s-6 -3 -12 -3h-42c-5.33301 0 -8.83301 0.833008 -10.5 2.5s-2.5 4.83398 -2.5 9.50098v81c0 8 3.33301 12 10 12h50c6.66699 0 10 -3.66699 10 -11v-80zM218 650.998c0 -5.33301 -1.16797 -9.00098 -3.50098 -11.001
s-6.16602 -3 -11.499 -3h-42c-5.33301 0 -8.83301 0.833008 -10.5 2.5s-2.5 4.83398 -2.5 9.50098v81c0 8 3.33301 12 10 12h49c7.33301 0 11 -3.66699 11 -11v-80z" />
    <glyph glyph-name="eth" unicode="&#xf0;" horiz-adv-x="598" 
d="M517.5 119c-20.333 -40.667 -49.333 -72.334 -87 -95.001s-82.167 -34 -133.5 -34c-48 0 -90.833 11.167 -128.5 33.5s-66.834 53.333 -87.501 93s-31 84.834 -31 135.501c0 51.333 10.333 97.333 31 138s49.5 72.5 86.5 95.5s78.5 34.5 124.5 34.5
c58.667 0 107 -19 145 -57c-30.667 68.667 -81.667 127.334 -153 176.001l-157 -89c-1.33301 -0.666992 -3 -1 -5 -1c-3.33301 0 -6.33301 2.33301 -9 7l-10 15c-4.66699 6 -4.33398 10.333 0.999023 13l141 79c-32 18 -68 35 -108 51c-2.66699 1.33301 -4.16699 3 -4.5 5
s0.833984 4.33301 3.50098 7l29 21c1.33301 0.666992 2.83301 1.5 4.5 2.5s3.5 1.5 5.5 1.5c3.33301 0 6 -0.666992 8 -2c47.333 -18 86.333 -36.333 117 -55l99 56c2 0.666992 4 1 6 1s3.66699 -0.666992 5 -2l13 -25c2.66699 -4 2.33398 -7 -0.999023 -9l-83 -46
c72.667 -50 125.667 -109.167 159 -177.5s50 -145.833 50 -232.5c0 -52.667 -10.167 -99.334 -30.5 -140.001zM393.5 70.5c27 18.333 48.1689 43.498 63.502 75.498s23 68 23 108s-7.83301 76.333 -23.5 109s-37.167 58.334 -64.5 77.001s-58 28 -92 28
c-34.667 0 -65.834 -9.33301 -93.501 -28s-49.334 -44.334 -65.001 -77.001s-23.5 -69 -23.5 -109c0 -39.333 7.83301 -75.166 23.5 -107.499s37.5 -57.666 65.5 -75.999s59.333 -27.5 94 -27.5s65.5 9.16699 92.5 27.5z" />
    <glyph glyph-name="ntilde" unicode="&#xf1;" horiz-adv-x="581" 
d="M83 12v507c0 7.33301 3.33301 11 10 11h43c6.66699 0 10 -3.33301 10 -10v-59c0 -8 3 -9 9 -3c40 29.333 73.167 50.333 99.5 63s55.833 19 88.5 19c51.333 0 91 -13.5 119 -40.5s42 -63.167 42 -108.5v-378c0 -8.66699 -4 -13 -12 -13h-42c-8 0 -12 4 -12 12v361
c0 74.667 -37 112 -111 112c-30.667 0 -58.5 -6.33301 -83.5 -19s-56.5 -34.667 -94.5 -66v-388c0 -8 -4.33301 -12 -13 -12h-41c-8 0 -12 4 -12 12zM366 663c-12.667 0 -24.0049 1.16699 -34.0049 3.5s-21.333 5.83301 -34 10.5c-2 0.666992 -8.66699 2.66699 -20 6
s-22.666 5 -33.999 5s-20.666 -1.5 -27.999 -4.5s-13.833 -6.16699 -19.5 -9.5s-9.5 -5.66602 -11.5 -6.99902l-6 -3c-2.66699 0 -5 2.66699 -7 8l-8 22c-1.33301 3.33301 -1.83301 5.66602 -1.5 6.99902s1.83301 2.66602 4.5 3.99902c12 9.33301 23.333 16.5 34 21.5
s23.667 7.5 39 7.5c16.667 0 38.334 -4.66699 65.001 -14c2.66699 -0.666992 10.334 -3 23.001 -7s25.334 -6 38.001 -6c10.667 0 19.5 1.33301 26.5 4s16.5 7.33398 28.5 14.001c2.66699 2 5 3 7 3c2.66699 0 5 -2.33301 7 -7l9 -25l1 -4
c0 -3.33301 -2.33301 -6.33301 -7 -9c-20.667 -13.333 -44.667 -20 -72 -20z" />
    <glyph glyph-name="ograve" unicode="&#xf2;" horiz-adv-x="598" 
d="M168.5 24.5c-37.667 23 -66.834 55.001 -87.501 96.001s-31 88.167 -31 141.5c0 54 10.5 102.167 31.5 144.5s50.5 75.166 88.5 98.499s81.333 35 130 35s91.834 -11.667 129.501 -35s66.834 -56 87.501 -98s31 -89.667 31 -143s-10.333 -100.833 -31 -142.5
s-49.834 -74 -87.501 -97s-81.167 -34.5 -130.5 -34.5s-92.833 11.5 -130.5 34.5zM432.5 102.501c31.667 39.667 47.498 93.5 47.498 161.5s-16.167 122.333 -48.5 163s-76.166 61 -131.499 61c-56 0 -100.333 -20.333 -133 -61s-49 -95 -49 -163s16.333 -121.833 49 -161.5
s77.334 -59.5 134.001 -59.5c56 0 99.833 19.833 131.5 59.5zM179.998 751.001l231 -95c4.66699 -2 6 -6 4 -12l-7 -20c-1.33301 -3.33301 -3 -5.5 -5 -6.5s-5 -0.833008 -9 0.5l-228 73c-4.66699 2 -7.66699 4.16699 -9 6.5s-1.33301 5.5 0 9.5l13 40
c2 4 5.33301 5.33301 10 4z" />
    <glyph glyph-name="oacute" unicode="&#xf3;" horiz-adv-x="598" 
d="M168.5 24.5c-37.667 23 -66.834 55.001 -87.501 96.001s-31 88.167 -31 141.5c0 54 10.5 102.167 31.5 144.5s50.5 75.166 88.5 98.499s81.333 35 130 35s91.834 -11.667 129.501 -35s66.834 -56 87.501 -98s31 -89.667 31 -143s-10.333 -100.833 -31 -142.5
s-49.834 -74 -87.501 -97s-81.167 -34.5 -130.5 -34.5s-92.833 11.5 -130.5 34.5zM432.5 102.501c31.667 39.667 47.498 93.5 47.498 161.5s-16.167 122.333 -48.5 163s-76.166 61 -131.499 61c-56 0 -100.333 -20.333 -133 -61s-49 -95 -49 -163s16.333 -121.833 49 -161.5
s77.334 -59.5 134.001 -59.5c56 0 99.833 19.833 131.5 59.5zM429.998 707.001c0.666992 -1.33301 1.00098 -3.33301 1.00098 -6c0 -4 -3.33301 -7.33301 -10 -10l-228 -73c-1.33301 -0.666992 -3.33301 -1 -6 -1c-4.66699 0 -7.33398 2.33301 -8.00098 7l-7 20l-1 4
c0 4 1.66699 6.66699 5 8l230 95h3c3.33301 0 6 -1.33301 8 -4z" />
    <glyph glyph-name="ocircumflex" unicode="&#xf4;" horiz-adv-x="598" 
d="M168.5 24.5c-37.667 23 -66.834 55.001 -87.501 96.001s-31 88.167 -31 141.5c0 54 10.5 102.167 31.5 144.5s50.5 75.166 88.5 98.499s81.333 35 130 35s91.834 -11.667 129.501 -35s66.834 -56 87.501 -98s31 -89.667 31 -143s-10.333 -100.833 -31 -142.5
s-49.834 -74 -87.501 -97s-81.167 -34.5 -130.5 -34.5s-92.833 11.5 -130.5 34.5zM432.5 102.501c31.667 39.667 47.498 93.5 47.498 161.5s-16.167 122.333 -48.5 163s-76.166 61 -131.499 61c-56 0 -100.333 -20.333 -133 -61s-49 -95 -49 -163s16.333 -121.833 49 -161.5
s77.334 -59.5 134.001 -59.5c56 0 99.833 19.833 131.5 59.5zM310.998 692.001c-4.66699 4.66699 -8 7.00098 -10 7.00098s-5.66699 -2.33301 -11 -7l-59 -49c-3.33301 -2.66699 -6 -4.5 -8 -5.5s-5 -1.5 -9 -1.5h-47c-4 0 -6.33301 1 -7 3s0.666016 4.66699 3.99902 8
l102 87c6.66699 6.66699 14 10 22 10h31c4.66699 0 8.66699 -1.33301 12 -4s5.33301 -4.33398 6 -5.00098l100 -88c8.66699 -7.33301 8.33398 -11 -0.999023 -11h-52c-6 0 -11.667 2.33301 -17 7z" />
    <glyph glyph-name="otilde" unicode="&#xf5;" horiz-adv-x="598" 
d="M168.5 24.5c-37.667 23 -66.834 55.001 -87.501 96.001s-31 88.167 -31 141.5c0 54 10.5 102.167 31.5 144.5s50.5 75.166 88.5 98.499s81.333 35 130 35s91.834 -11.667 129.501 -35s66.834 -56 87.501 -98s31 -89.667 31 -143s-10.333 -100.833 -31 -142.5
s-49.834 -74 -87.501 -97s-81.167 -34.5 -130.5 -34.5s-92.833 11.5 -130.5 34.5zM432.5 102.501c31.667 39.667 47.498 93.5 47.498 161.5s-16.167 122.333 -48.5 163s-76.166 61 -131.499 61c-56 0 -100.333 -20.333 -133 -61s-49 -95 -49 -163s16.333 -121.833 49 -161.5
s77.334 -59.5 134.001 -59.5c56 0 99.833 19.833 131.5 59.5zM363.998 663.001c-12.667 0 -24.0049 1.16699 -34.0049 3.5s-21.333 5.83301 -34 10.5c-2 0.666992 -8.66699 2.66699 -20 6s-22.666 5 -33.999 5s-20.666 -1.5 -27.999 -4.5s-13.833 -6.16699 -19.5 -9.5
s-9.5 -5.66602 -11.5 -6.99902l-6 -3c-2.66699 0 -5 2.66699 -7 8l-8 22c-1.33301 3.33301 -1.83301 5.66602 -1.5 6.99902s1.83301 2.66602 4.5 3.99902c12 9.33301 23.333 16.5 34 21.5s23.667 7.5 39 7.5c16.667 0 38.334 -4.66699 65.001 -14
c2.66699 -0.666992 10.334 -3 23.001 -7s25.334 -6 38.001 -6c10.667 0 19.5 1.33301 26.5 4s16.5 7.33398 28.5 14.001c2.66699 2 5 3 7 3c2.66699 0 5 -2.33301 7 -7l9 -25l1 -4c0 -3.33301 -2.33301 -6.33301 -7 -9c-20.667 -13.333 -44.667 -20 -72 -20z" />
    <glyph glyph-name="odieresis" unicode="&#xf6;" horiz-adv-x="598" 
d="M168.5 24.5c-37.667 23 -66.834 55.001 -87.501 96.001s-31 88.167 -31 141.5c0 54 10.5 102.167 31.5 144.5s50.5 75.166 88.5 98.499s81.333 35 130 35s91.834 -11.667 129.501 -35s66.834 -56 87.501 -98s31 -89.667 31 -143s-10.333 -100.833 -31 -142.5
s-49.834 -74 -87.501 -97s-81.167 -34.5 -130.5 -34.5s-92.833 11.5 -130.5 34.5zM432.5 102.501c31.667 39.667 47.498 93.5 47.498 161.5s-16.167 122.333 -48.5 163s-76.166 61 -131.499 61c-56 0 -100.333 -20.333 -133 -61s-49 -95 -49 -163s16.333 -121.833 49 -161.5
s77.334 -59.5 134.001 -59.5c56 0 99.833 19.833 131.5 59.5zM269.998 651.001c0 -5.33301 -1 -9.00098 -3 -11.001s-6 -3 -12 -3h-42c-5.33301 0 -8.83301 0.833008 -10.5 2.5s-2.5 4.83398 -2.5 9.50098v81c0 8 3.33301 12 10 12h50c6.66699 0 10 -3.66699 10 -11v-80z
M401.998 651c0 -5.33301 -1.16797 -9.00098 -3.50098 -11.001s-6.16602 -3 -11.499 -3h-42c-5.33301 0 -8.83301 0.833008 -10.5 2.5s-2.5 4.83398 -2.5 9.50098v81c0 8 3.33301 12 10 12h49c7.33301 0 11 -3.66699 11 -11v-80z" />
    <glyph glyph-name="divide" unicode="&#xf7;" horiz-adv-x="551" 
d="M326 507c0 -4.66699 -1.16699 -8 -3.5 -10s-6.5 -3 -12.5 -3h-71c-8.66699 0 -13 4 -13 12v73c0 7.33301 3 11 9 11h82c6 0 9 -3.33301 9 -10v-73zM486 357c0 -7.33301 -4.66699 -11 -14 -11l-396 -1c-7.33301 0 -11 3.33301 -11 10v35c0 6.66699 2.33301 10 7 10h405
c6 0 9 -2.66699 9 -8v-35zM326 169c0 -4.66699 -1.16699 -8.00098 -3.5 -10.001s-6.5 -3 -12.5 -3h-71c-4.66699 0 -8 0.833008 -10 2.5s-3 4.83398 -3 9.50098v73c0 6.66699 3 10 9 10h82c6 0 9 -3 9 -9v-73z" />
    <glyph glyph-name="oslash" unicode="&#xf8;" horiz-adv-x="580" 
d="M560 499c0 -2.66699 -1.33105 -5.33301 -3.99805 -8l-57 -56c31.333 -48 47 -105 47 -171c0 -53.333 -10.333 -100.833 -31 -142.5s-49.834 -74 -87.501 -97s-81.167 -34.5 -130.5 -34.5c-36.667 0 -70.167 6.33301 -100.5 19s-56.5 31 -78.5 55l-60 -59
c-2.66699 -2.66699 -6.33398 -4 -11.001 -4c-3.33301 0 -6.33301 1.33301 -9 4l-13 14c-3.33301 4.66699 -5 8.33398 -5 11.001s1.66699 6.33398 5 11.001l64 62c-27.333 43.333 -41 96.333 -41 159c0 54 10.5 102.167 31.5 144.5s50.5 75.166 88.5 98.499s81.333 35 130 35
c34 0 65.5 -5.83301 94.5 -17.5s54.5 -28.5 76.5 -50.5l52 51c4 4 7.33301 6 10 6s5.66699 -1.66699 9 -5l16 -17c2.66699 -2.66699 4 -5.33398 4 -8.00098zM137.002 150.001l289 281c-32 38 -74.667 57 -128 57c-56 0 -100.333 -20.333 -133 -61s-49 -95 -49 -163
c0 -44 7 -82 21 -114zM453.002 390.001l-291 -283c33.333 -42.667 79 -64 137 -64c56 0 99.833 19.833 131.5 59.5s47.5 93.5 47.5 161.5c0 47.333 -8.33301 89.333 -25 126z" />
    <glyph glyph-name="ugrave" unicode="&#xf9;" horiz-adv-x="576" 
d="M339.5 69c28.333 16 57.502 39.3301 87.502 69.9971v379c0 8 4.33301 12 13 12h42c7.33301 0 11 -4 11 -12v-507c0 -7.33301 -3.33301 -11 -10 -11h-43c-6.66699 0 -10 3.33301 -10 10v61c0 3.33301 -0.666992 5.33301 -2 6s-3.66602 -0.333008 -6.99902 -3
c-36.667 -31.333 -69.334 -53.166 -98.001 -65.499s-57.334 -18.5 -86.001 -18.5c-46.667 0 -85.334 13.833 -116.001 41.5s-46 63.834 -46 108.501v377c0 8.66699 4.33301 13 13 13h42c7.33301 0 11 -4 11 -12v-356c0 -35.333 10 -63.666 30 -84.999s47 -32 81 -32
c30 0 59.167 8 87.5 24zM152.002 750.997l231 -95c4.66699 -2 6 -6 4 -12l-7 -20c-1.33301 -3.33301 -3 -5.5 -5 -6.5s-5 -0.833008 -9 0.5l-228 73c-4.66699 2 -7.66699 4.16699 -9 6.5s-1.33301 5.5 0 9.5l13 40c2 4 5.33301 5.33301 10 4z" />
    <glyph glyph-name="uacute" unicode="&#xfa;" horiz-adv-x="576" 
d="M339.5 69c28.333 16 57.502 39.3301 87.502 69.9971v379c0 8 4.33301 12 13 12h42c7.33301 0 11 -4 11 -12v-507c0 -7.33301 -3.33301 -11 -10 -11h-43c-6.66699 0 -10 3.33301 -10 10v61c0 3.33301 -0.666992 5.33301 -2 6s-3.66602 -0.333008 -6.99902 -3
c-36.667 -31.333 -69.334 -53.166 -98.001 -65.499s-57.334 -18.5 -86.001 -18.5c-46.667 0 -85.334 13.833 -116.001 41.5s-46 63.834 -46 108.501v377c0 8.66699 4.33301 13 13 13h42c7.33301 0 11 -4 11 -12v-356c0 -35.333 10 -63.666 30 -84.999s47 -32 81 -32
c30 0 59.167 8 87.5 24zM402.002 706.997c0.666992 -1.33301 1.00098 -3.33301 1.00098 -6c0 -4 -3.33301 -7.33301 -10 -10l-228 -73c-1.33301 -0.666992 -3.33301 -1 -6 -1c-4.66699 0 -7.33398 2.33301 -8.00098 7l-7 20l-1 4c0 4 1.66699 6.66699 5 8l230 95h3
c3.33301 0 6 -1.33301 8 -4z" />
    <glyph glyph-name="ucircumflex" unicode="&#xfb;" horiz-adv-x="576" 
d="M339.5 69c28.333 16 57.502 39.3301 87.502 69.9971v379c0 8 4.33301 12 13 12h42c7.33301 0 11 -4 11 -12v-507c0 -7.33301 -3.33301 -11 -10 -11h-43c-6.66699 0 -10 3.33301 -10 10v61c0 3.33301 -0.666992 5.33301 -2 6s-3.66602 -0.333008 -6.99902 -3
c-36.667 -31.333 -69.334 -53.166 -98.001 -65.499s-57.334 -18.5 -86.001 -18.5c-46.667 0 -85.334 13.833 -116.001 41.5s-46 63.834 -46 108.501v377c0 8.66699 4.33301 13 13 13h42c7.33301 0 11 -4 11 -12v-356c0 -35.333 10 -63.666 30 -84.999s47 -32 81 -32
c30 0 59.167 8 87.5 24zM283.002 691.997c-4.66699 4.66699 -8 7.00098 -10 7.00098s-5.66699 -2.33301 -11 -7l-59 -49c-3.33301 -2.66699 -6 -4.5 -8 -5.5s-5 -1.5 -9 -1.5h-47c-4 0 -6.33301 1 -7 3s0.666016 4.66699 3.99902 8l102 87c6.66699 6.66699 14 10 22 10h31
c4.66699 0 8.66699 -1.33301 12 -4s5.33301 -4.33398 6 -5.00098l100 -88c8.66699 -7.33301 8.33398 -11 -0.999023 -11h-52c-6 0 -11.667 2.33301 -17 7z" />
    <glyph glyph-name="udieresis" unicode="&#xfc;" horiz-adv-x="576" 
d="M339.5 69c28.333 16 57.502 39.3301 87.502 69.9971v379c0 8 4.33301 12 13 12h42c7.33301 0 11 -4 11 -12v-507c0 -7.33301 -3.33301 -11 -10 -11h-43c-6.66699 0 -10 3.33301 -10 10v61c0 3.33301 -0.666992 5.33301 -2 6s-3.66602 -0.333008 -6.99902 -3
c-36.667 -31.333 -69.334 -53.166 -98.001 -65.499s-57.334 -18.5 -86.001 -18.5c-46.667 0 -85.334 13.833 -116.001 41.5s-46 63.834 -46 108.501v377c0 8.66699 4.33301 13 13 13h42c7.33301 0 11 -4 11 -12v-356c0 -35.333 10 -63.666 30 -84.999s47 -32 81 -32
c30 0 59.167 8 87.5 24zM242.002 650.997c0 -5.33301 -1 -9.00098 -3 -11.001s-6 -3 -12 -3h-42c-5.33301 0 -8.83301 0.833008 -10.5 2.5s-2.5 4.83398 -2.5 9.50098v81c0 8 3.33301 12 10 12h50c6.66699 0 10 -3.66699 10 -11v-80zM374.002 650.996
c0 -5.33301 -1.16797 -9.00098 -3.50098 -11.001s-6.16602 -3 -11.499 -3h-42c-5.33301 0 -8.83301 0.833008 -10.5 2.5s-2.5 4.83398 -2.5 9.50098v81c0 8 3.33301 12 10 12h49c7.33301 0 11 -3.66699 11 -11v-80z" />
    <glyph glyph-name="yacute" unicode="&#xfd;" horiz-adv-x="521" 
d="M58 -163c-9.33301 1.33301 -14.001 4.66699 -14.001 10v29c0 4.66699 1.83301 7.83398 5.5 9.50098s11.5 2.5 23.5 2.5h62c16 0 30.833 6.33301 44.5 19s24.5 28.5 32.5 47.5s12 37.167 12 54.5c0 10.667 -1.33301 19.667 -4 27l-190 479
c-0.666992 1.33301 -1 3.33301 -1 6c0 6 3.66699 9 11 9h45c7.33301 0 12 -3.33301 14 -10l160 -411c2 -6 4.66699 -9 8 -9c4 0 7.33301 4.33301 10 13l156 408c3.33301 6 7.66602 9 12.999 9h36c4 0 6.83301 -1.33301 8.5 -4s1.83398 -5.33398 0.500977 -8.00098l-224 -577
c-16 -40 -36.5 -67.667 -61.5 -83s-57.833 -23 -98.5 -23c-23.333 0 -39.666 0.666992 -48.999 2zM395.999 707.001c0.666992 -1.33301 1.00098 -3.33301 1.00098 -6c0 -4 -3.33301 -7.33301 -10 -10l-228 -73c-1.33301 -0.666992 -3.33301 -1 -6 -1
c-4.66699 0 -7.33398 2.33301 -8.00098 7l-7 20l-1 4c0 4 1.66699 6.66699 5 8l230 95h3c3.33301 0 6 -1.33301 8 -4z" />
    <glyph glyph-name="thorn" unicode="&#xfe;" horiz-adv-x="592" 
d="M147 729l-0.00195312 -258c0 -6 1.33301 -9 4 -9s5.66699 1.66699 9 5l22.5 23c13 13.333 31.667 25 56 35s51.166 15 80.499 15c42.667 0 80.834 -10 114.501 -30s60.167 -50 79.5 -90s29 -88.667 29 -146s-9.66699 -107.5 -29 -150.5s-46.666 -76 -81.999 -99
s-76.333 -34.5 -123 -34.5c-30 0 -57.167 4.66699 -81.5 14s-45.166 21.333 -62.499 36c-5.33301 4 -9 6 -11 6c-2.66699 0 -4 -4.33301 -4 -13v-186c0 -8 -3.66699 -12 -11 -12h-45c-6.66699 0 -10 3.66699 -10 11v882c0 5.33301 1 9 3 11s5.66699 3 11 3h38
c8 0 12 -4.33301 12 -13zM218.998 59c23.333 -12 48.334 -17.998 75.001 -17.998c54 0 97.5 20.167 130.5 60.5s49.5 96.833 49.5 169.5c0 72 -16.5 126.333 -49.5 163s-74.167 55 -123.5 55c-28.667 0 -54.5 -6.33301 -77.5 -19s-41.167 -28.834 -54.5 -48.501
s-20 -38.834 -20 -57.501v-252c23.333 -23.333 46.666 -41 69.999 -53z" />
    <glyph glyph-name="ydieresis" unicode="&#xff;" horiz-adv-x="521" 
d="M58 -163c-9.33301 1.33301 -14.001 4.66699 -14.001 10v29c0 4.66699 1.83301 7.83398 5.5 9.50098s11.5 2.5 23.5 2.5h62c16 0 30.833 6.33301 44.5 19s24.5 28.5 32.5 47.5s12 37.167 12 54.5c0 10.667 -1.33301 19.667 -4 27l-190 479
c-0.666992 1.33301 -1 3.33301 -1 6c0 6 3.66699 9 11 9h45c7.33301 0 12 -3.33301 14 -10l160 -411c2 -6 4.66699 -9 8 -9c4 0 7.33301 4.33301 10 13l156 408c3.33301 6 7.66602 9 12.999 9h36c4 0 6.83301 -1.33301 8.5 -4s1.83398 -5.33398 0.500977 -8.00098l-224 -577
c-16 -40 -36.5 -67.667 -61.5 -83s-57.833 -23 -98.5 -23c-23.333 0 -39.666 0.666992 -48.999 2zM235.999 651.001c0 -5.33301 -1 -9.00098 -3 -11.001s-6 -3 -12 -3h-42c-5.33301 0 -8.83301 0.833008 -10.5 2.5s-2.5 4.83398 -2.5 9.50098v81c0 8 3.33301 12 10 12h50
c6.66699 0 10 -3.66699 10 -11v-80zM367.999 651c0 -5.33301 -1.16797 -9.00098 -3.50098 -11.001s-6.16602 -3 -11.499 -3h-42c-5.33301 0 -8.83301 0.833008 -10.5 2.5s-2.5 4.83398 -2.5 9.50098v81c0 8 3.33301 12 10 12h49c7.33301 0 11 -3.66699 11 -11v-80z" />
    <glyph glyph-name="Amacron" unicode="&#x100;" horiz-adv-x="716" 
d="M49.5 3.5c-1.66699 2.33301 -1.83496 5.83301 -0.501953 10.5l261 715c2 4.66699 4.33301 8 7 10s6.33398 3 11.001 3h60c11.333 0 18.333 -4.33301 21 -13l258 -715c0.666992 -1.33301 1 -3 1 -5c0 -6 -3 -9 -9 -9h-52c-8 0 -13 3 -15 9l-74 206
c-2 5.33301 -5.66699 8 -11 8h-304c-5.33301 0 -9 -2.66699 -11 -8l-76 -207c-1.33301 -5.33301 -5.66602 -8 -12.999 -8h-46c-3.33301 0 -5.83301 1.16699 -7.5 3.5zM484.999 284c6.66699 0 9.00098 3.66699 7.00098 11l-129 355c-2 6 -4.33301 9 -7 9
s-5.33398 -3.33301 -8.00098 -10l-131 -355c-1.33301 -2.66699 -2 -4.66699 -2 -6c0 -2.66699 2.66699 -4 8 -4h262zM496 896c0 -7.33301 -4.33301 -11 -13 -11h-256c-6 0 -9 3.66699 -9 11v32c0 6 2.33301 9 7 9h264c4.66699 0 7 -2.66699 7 -8v-33z" />
    <glyph glyph-name="amacron" unicode="&#x101;" horiz-adv-x="544" 
d="M309.5 9c-29.667 -12.667 -62.167 -19.002 -97.5 -19.002c-52.667 0 -94 13 -124 39s-45 61.333 -45 106c0 52 21.833 93 65.5 123s107.5 48 191.5 54l89 7c11.333 1.33301 17 6.33301 17 15v29c0 38.667 -12.167 69.334 -36.5 92.001s-57.166 34 -98.499 34
c-61.333 0 -112.333 -28.333 -153 -85c-2 -3.33301 -4 -5.33301 -6 -6s-4.33301 -0.333984 -7 0.999023l-41 17c-2.66699 1.33301 -4 3 -4 5c0 2.66699 1 5.33398 3 8.00098c20.667 34.667 49 61.834 85 81.501s78 29.5 126 29.5c62 0 110.167 -15.167 144.5 -45.5
s51.5 -72.5 51.5 -126.5v-355c0 -8.66699 -4 -13 -12 -13h-37c-8 -0 -12 4.33301 -12 13l-2 52c-1.33301 4.66699 -3 7 -5 7s-4.66699 -1.66699 -8 -5c-26.667 -26 -54.834 -45.333 -84.501 -58zM391 273.998l-74.999 -6c-137.333 -10 -206 -52 -206 -126
c0 -30.667 11 -55 33 -73s51.333 -27 88 -27c22 0 43.667 4 65 12s40.666 18.667 57.999 32c34.667 28.667 52 57 52 85v88c0 11.333 -5 16.333 -15 15zM410.001 683.998c0 -7.33301 -4.33301 -11 -13 -11h-256c-6 0 -9 3.66699 -9 11v32c0 6 2.33301 9 7 9h264
c4.66699 0 7 -2.66699 7 -8v-33z" />
    <glyph glyph-name="Abreve" unicode="&#x102;" horiz-adv-x="716" 
d="M49.5 3.5c-1.66699 2.33301 -1.83496 5.83301 -0.501953 10.5l261 715c2 4.66699 4.33301 8 7 10s6.33398 3 11.001 3h60c11.333 0 18.333 -4.33301 21 -13l258 -715c0.666992 -1.33301 1 -3 1 -5c0 -6 -3 -9 -9 -9h-52c-8 0 -13 3 -15 9l-74 206
c-2 5.33301 -5.66699 8 -11 8h-304c-5.33301 0 -9 -2.66699 -11 -8l-76 -207c-1.33301 -5.33301 -5.66602 -8 -12.999 -8h-46c-3.33301 0 -5.83301 1.16699 -7.5 3.5zM484.999 284c6.66699 0 9.00098 3.66699 7.00098 11l-129 355c-2 6 -4.33301 9 -7 9
s-5.33398 -3.33301 -8.00098 -10l-131 -355c-1.33301 -2.66699 -2 -4.66699 -2 -6c0 -2.66699 2.66699 -4 8 -4h262zM497 952c1.33301 -1.33301 1.33203 -4 -0.000976562 -8c-6.66699 -24 -22.667 -45.167 -48 -63.5s-56.666 -27.5 -93.999 -27.5
c-36.667 0 -66.834 9 -90.501 27s-39.5 39.667 -47.5 65v3c0 4 2 6 6 6h41c6 0 10.667 -2.66699 14 -8c10.667 -14 21.167 -24.833 31.5 -32.5s25.5 -11.5 45.5 -11.5c34.667 0 61.667 15 81 45c1.33301 2.66699 2.83301 4.5 4.5 5.5s3.83398 1.5 6.50098 1.5h42
c4 0 6.66699 -0.666992 8 -2z" />
    <glyph glyph-name="abreve" unicode="&#x103;" horiz-adv-x="544" 
d="M309.5 9c-29.667 -12.667 -62.167 -19.002 -97.5 -19.002c-52.667 0 -94 13 -124 39s-45 61.333 -45 106c0 52 21.833 93 65.5 123s107.5 48 191.5 54l89 7c11.333 1.33301 17 6.33301 17 15v29c0 38.667 -12.167 69.334 -36.5 92.001s-57.166 34 -98.499 34
c-61.333 0 -112.333 -28.333 -153 -85c-2 -3.33301 -4 -5.33301 -6 -6s-4.33301 -0.333984 -7 0.999023l-41 17c-2.66699 1.33301 -4 3 -4 5c0 2.66699 1 5.33398 3 8.00098c20.667 34.667 49 61.834 85 81.501s78 29.5 126 29.5c62 0 110.167 -15.167 144.5 -45.5
s51.5 -72.5 51.5 -126.5v-355c0 -8.66699 -4 -13 -12 -13h-37c-8 -0 -12 4.33301 -12 13l-2 52c-1.33301 4.66699 -3 7 -5 7s-4.66699 -1.66699 -8 -5c-26.667 -26 -54.834 -45.333 -84.501 -58zM391 273.998l-74.999 -6c-137.333 -10 -206 -52 -206 -126
c0 -30.667 11 -55 33 -73s51.333 -27 88 -27c22 0 43.667 4 65 12s40.666 18.667 57.999 32c34.667 28.667 52 57 52 85v88c0 11.333 -5 16.333 -15 15zM411.001 739.998c1.33301 -1.33301 1.33203 -4 -0.000976562 -8c-6.66699 -24 -22.667 -45.167 -48 -63.5
s-56.666 -27.5 -93.999 -27.5c-36.667 0 -66.834 9 -90.501 27s-39.5 39.667 -47.5 65v3c0 4 2 6 6 6h41c6 0 10.667 -2.66699 14 -8c10.667 -14 21.167 -24.833 31.5 -32.5s25.5 -11.5 45.5 -11.5c34.667 0 61.667 15 81 45c1.33301 2.66699 2.83301 4.5 4.5 5.5
s3.83398 1.5 6.50098 1.5h42c4 0 6.66699 -0.666992 8 -2z" />
    <glyph glyph-name="Aogonek" unicode="&#x104;" horiz-adv-x="716" 
d="M691 -119l-0.00292969 -24.999c0 -4.66699 -2 -8 -6 -10c-9.33301 -4 -21.666 -7.66699 -36.999 -11s-30.666 -5 -45.999 -5c-32 0 -56.167 7 -72.5 21s-24.5 33.333 -24.5 58c0 21.333 6.83301 39.666 20.5 54.999s36.834 28.333 69.501 39l-3 6l-74 206
c-2 5.33301 -5.66699 8 -11 8h-304c-5.33301 0 -9 -2.66699 -11 -8l-76 -207c-1.33301 -5.33301 -5.66602 -8 -12.999 -8h-46c-3.33301 0 -5.83301 1.16699 -7.5 3.5s-1.83398 5.83301 -0.500977 10.5l261 715c2 4.66699 4.33301 8 7 10s6.33398 3 11.001 3h60
c11.333 0 18.333 -4.33301 21 -13l258 -715c0.666992 -1.33301 1 -3 1 -5c0 -6 -2.66699 -9 -8 -9c-34 -15.333 -58.5 -29.5 -73.5 -42.5s-22.5 -28.167 -22.5 -45.5c0 -26.667 17.667 -40 53 -40c13.333 0 25.666 1.33301 36.999 4s20.333 5.66699 27 9
c6.66699 4 10 2.66699 10 -4zM491.997 295.001l-128.999 355c-2 6 -4.33301 9 -7 9s-5.33398 -3.33301 -8.00098 -10l-131 -355c-1.33301 -2.66699 -2 -4.66699 -2 -6c0 -2.66699 2.66699 -4 8 -4h262c6.66699 0 9 3.66699 7 11z" />
    <glyph glyph-name="aogonek" unicode="&#x105;" horiz-adv-x="544" 
d="M495 -117l-0.000976562 -25.002c0 -4.66699 -2 -8 -6 -10c-9.33301 -4 -21.666 -7.66699 -36.999 -11s-30.666 -5 -45.999 -5c-32 0 -56.167 7 -72.5 21s-24.5 33.333 -24.5 58c0 22 7.5 41 22.5 57s40.833 29.667 77.5 41v4l-2 52c-1.33301 4.66699 -3 7 -5 7
s-4.66699 -1.66699 -8 -5c-26.667 -26 -54.834 -45.333 -84.501 -58s-62.167 -19 -97.5 -19c-52.667 0 -94 13 -124 39s-45 61.333 -45 106c0 52 21.833 93 65.5 123s107.5 48 191.5 54l89 7c11.333 1.33301 17 6.33301 17 15v29c0 38.667 -12.167 69.334 -36.5 92.001
s-57.166 34 -98.499 34c-61.333 0 -112.333 -28.333 -153 -85c-2 -3.33301 -4 -5.33301 -6 -6s-4.33301 -0.333984 -7 0.999023l-41 17c-2.66699 1.33301 -4 3 -4 5c0 2.66699 1 5.33398 3 8.00098c20.667 34.667 49 61.834 85 81.501s78 29.5 126 29.5
c62 0 110.167 -15.167 144.5 -45.5s51.5 -72.5 51.5 -126.5v-355c0 -8.66699 -3.66699 -13 -11 -13c-32 -14.667 -55.167 -28.5 -69.5 -41.5s-21.5 -27.833 -21.5 -44.5c0 -26.667 17.667 -40 53 -40c13.333 0 25.666 1.33301 36.999 4s20.333 5.66699 27 9
c6.66699 4 10 2.66699 10 -4zM405.999 258.998c0 11.333 -4.99902 16.333 -14.999 15l-75 -6c-137.333 -10 -206 -52 -206 -126c0 -30.667 11 -55 33 -73s51.333 -27 88 -27c22 0 43.667 4 65 12s40.666 18.667 57.999 32c34.667 28.667 52 57 52 85v88z" />
    <glyph glyph-name="Cacute" unicode="&#x106;" horiz-adv-x="702" 
d="M498.5 724c39 -18.667 71.3389 -43.498 97.0059 -74.498s40.834 -64.167 45.501 -99.5l1 -5c0 -4 -2.66699 -6 -8 -6l-58 -5h-3c-2 0 -3.5 0.833008 -4.5 2.5s-1.5 3.83398 -1.5 6.50098c-10.667 45.333 -32.834 81.5 -66.501 108.5s-74.167 40.5 -121.5 40.5
c-74.667 0 -131.667 -27.333 -171 -82s-59 -135 -59 -241c0 -103.333 19.833 -182 59.5 -236s98.834 -81 177.501 -81c49.333 0 90.166 12 122.499 36s58.5 61.333 78.5 112c1.33301 2.66699 4.33301 3.66699 9 3l49 -13c3.33301 -1.33301 4.66602 -5 3.99902 -11
c-10.667 -34.667 -28.334 -66.334 -53.001 -95.001s-55.5 -51.5 -92.5 -68.5s-77.833 -25.5 -122.5 -25.5c-64.667 0 -120.334 15.167 -167.001 45.5s-82.334 74 -107.001 131s-37 124.833 -37 203.5c0 79.333 12.167 147.666 36.5 204.999s59.666 101.166 105.999 131.499
s101.166 45.5 164.499 45.5c42 0 82.5 -9.33301 121.5 -28zM506.006 919.002c0.666992 -1.33301 1.00098 -3.33301 1.00098 -6c0 -4 -3.33301 -7.33301 -10 -10l-228 -73c-1.33301 -0.666992 -3.33301 -1 -6 -1c-4.66699 0 -7.33398 2.33301 -8.00098 7l-7 20l-1 4
c0 4 1.66699 6.66699 5 8l230 95h3c3.33301 0 6 -1.33301 8 -4z" />
    <glyph glyph-name="cacute" unicode="&#x107;" horiz-adv-x="540" 
d="M499 423c2 -4 2.83398 -6.83203 2.50098 -8.49902s-2.16602 -3.16699 -5.49902 -4.5l-42 -14c-0.666992 -0.666992 -2 -1 -4 -1c-2.66699 0 -5.33398 2 -8.00098 6c-24 30.667 -46.833 52.834 -68.5 66.501s-45.834 20.5 -72.501 20.5
c-55.333 0 -99.666 -20.167 -132.999 -60.5s-50 -94.5 -50 -162.5s16.667 -122.167 50 -162.5s78 -60.5 134 -60.5c32.667 0 61.5 8 86.5 24s47.833 40.333 68.5 73c4 5.33301 8 6.66602 12 3.99902l35 -16c4 -2 5 -6 3 -12c-22 -38.667 -50.833 -69.167 -86.5 -91.5
s-77.167 -33.5 -124.5 -33.5c-48 0 -90.667 11.5 -128 34.5s-66.333 55.167 -87 96.5s-31 88.666 -31 141.999s10.5 101 31.5 143s50.167 74.833 87.5 98.5s79.666 35.5 126.999 35.5c88 0 155.667 -39 203 -117zM424.001 707.001
c0.666992 -1.33301 1.00098 -3.33301 1.00098 -6c0 -4 -3.33301 -7.33301 -10 -10l-228 -73c-1.33301 -0.666992 -3.33301 -1 -6 -1c-4.66699 0 -7.33398 2.33301 -8.00098 7l-7 20l-1 4c0 4 1.66699 6.66699 5 8l230 95h3c3.33301 0 6 -1.33301 8 -4z" />
    <glyph glyph-name="Ccircumflex" unicode="&#x108;" horiz-adv-x="702" 
d="M498.5 724c39 -18.667 71.3389 -43.498 97.0059 -74.498s40.834 -64.167 45.501 -99.5l1 -5c0 -4 -2.66699 -6 -8 -6l-58 -5h-3c-2 0 -3.5 0.833008 -4.5 2.5s-1.5 3.83398 -1.5 6.50098c-10.667 45.333 -32.834 81.5 -66.501 108.5s-74.167 40.5 -121.5 40.5
c-74.667 0 -131.667 -27.333 -171 -82s-59 -135 -59 -241c0 -103.333 19.833 -182 59.5 -236s98.834 -81 177.501 -81c49.333 0 90.166 12 122.499 36s58.5 61.333 78.5 112c1.33301 2.66699 4.33301 3.66699 9 3l49 -13c3.33301 -1.33301 4.66602 -5 3.99902 -11
c-10.667 -34.667 -28.334 -66.334 -53.001 -95.001s-55.5 -51.5 -92.5 -68.5s-77.833 -25.5 -122.5 -25.5c-64.667 0 -120.334 15.167 -167.001 45.5s-82.334 74 -107.001 131s-37 124.833 -37 203.5c0 79.333 12.167 147.666 36.5 204.999s59.666 101.166 105.999 131.499
s101.166 45.5 164.499 45.5c42 0 82.5 -9.33301 121.5 -28zM387.006 904.002c-4.66699 4.66699 -8 7.00098 -10 7.00098s-5.66699 -2.33301 -11 -7l-59 -49c-3.33301 -2.66699 -6 -4.5 -8 -5.5s-5 -1.5 -9 -1.5h-47c-4 0 -6.33301 1 -7 3s0.666016 4.66699 3.99902 8l102 87
c6.66699 6.66699 14 10 22 10h31c4.66699 0 8.66699 -1.33301 12 -4s5.33301 -4.33398 6 -5.00098l100 -88c8.66699 -7.33301 8.33398 -11 -0.999023 -11h-52c-6 0 -11.667 2.33301 -17 7z" />
    <glyph glyph-name="ccircumflex" unicode="&#x109;" horiz-adv-x="540" 
d="M499 423c2 -4 2.83398 -6.83203 2.50098 -8.49902s-2.16602 -3.16699 -5.49902 -4.5l-42 -14c-0.666992 -0.666992 -2 -1 -4 -1c-2.66699 0 -5.33398 2 -8.00098 6c-24 30.667 -46.833 52.834 -68.5 66.501s-45.834 20.5 -72.501 20.5
c-55.333 0 -99.666 -20.167 -132.999 -60.5s-50 -94.5 -50 -162.5s16.667 -122.167 50 -162.5s78 -60.5 134 -60.5c32.667 0 61.5 8 86.5 24s47.833 40.333 68.5 73c4 5.33301 8 6.66602 12 3.99902l35 -16c4 -2 5 -6 3 -12c-22 -38.667 -50.833 -69.167 -86.5 -91.5
s-77.167 -33.5 -124.5 -33.5c-48 0 -90.667 11.5 -128 34.5s-66.333 55.167 -87 96.5s-31 88.666 -31 141.999s10.5 101 31.5 143s50.167 74.833 87.5 98.5s79.666 35.5 126.999 35.5c88 0 155.667 -39 203 -117zM305.001 692.001c-4.66699 4.66699 -8 7.00098 -10 7.00098
s-5.66699 -2.33301 -11 -7l-59 -49c-3.33301 -2.66699 -6 -4.5 -8 -5.5s-5 -1.5 -9 -1.5h-47c-4 0 -6.33301 1 -7 3s0.666016 4.66699 3.99902 8l102 87c6.66699 6.66699 14 10 22 10h31c4.66699 0 8.66699 -1.33301 12 -4s5.33301 -4.33398 6 -5.00098l100 -88
c8.66699 -7.33301 8.33398 -11 -0.999023 -11h-52c-6 0 -11.667 2.33301 -17 7z" />
    <glyph glyph-name="Cdotaccent" unicode="&#x10a;" horiz-adv-x="702" 
d="M498.5 724c39 -18.667 71.3389 -43.498 97.0059 -74.498s40.834 -64.167 45.501 -99.5l1 -5c0 -4 -2.66699 -6 -8 -6l-58 -5h-3c-2 0 -3.5 0.833008 -4.5 2.5s-1.5 3.83398 -1.5 6.50098c-10.667 45.333 -32.834 81.5 -66.501 108.5s-74.167 40.5 -121.5 40.5
c-74.667 0 -131.667 -27.333 -171 -82s-59 -135 -59 -241c0 -103.333 19.833 -182 59.5 -236s98.834 -81 177.501 -81c49.333 0 90.166 12 122.499 36s58.5 61.333 78.5 112c1.33301 2.66699 4.33301 3.66699 9 3l49 -13c3.33301 -1.33301 4.66602 -5 3.99902 -11
c-10.667 -34.667 -28.334 -66.334 -53.001 -95.001s-55.5 -51.5 -92.5 -68.5s-77.833 -25.5 -122.5 -25.5c-64.667 0 -120.334 15.167 -167.001 45.5s-82.334 74 -107.001 131s-37 124.833 -37 203.5c0 79.333 12.167 147.666 36.5 204.999s59.666 101.166 105.999 131.499
s101.166 45.5 164.499 45.5c42 0 82.5 -9.33301 121.5 -28zM414.006 859.002c0 -5.33301 -1 -9.00098 -3 -11.001s-6 -3 -12 -3h-46c-4.66699 0 -8 0.833008 -10 2.5s-3 4.83398 -3 9.50098v85c0 4.66699 0.833008 7.83398 2.5 9.50098s4.5 2.5 8.5 2.5h53
c4 0 6.66699 -0.833008 8 -2.5s2 -4.83398 2 -9.50098v-83z" />
    <glyph glyph-name="cdotaccent" unicode="&#x10b;" horiz-adv-x="540" 
d="M499 423c2 -4 2.83398 -6.83203 2.50098 -8.49902s-2.16602 -3.16699 -5.49902 -4.5l-42 -14c-0.666992 -0.666992 -2 -1 -4 -1c-2.66699 0 -5.33398 2 -8.00098 6c-24 30.667 -46.833 52.834 -68.5 66.501s-45.834 20.5 -72.501 20.5
c-55.333 0 -99.666 -20.167 -132.999 -60.5s-50 -94.5 -50 -162.5s16.667 -122.167 50 -162.5s78 -60.5 134 -60.5c32.667 0 61.5 8 86.5 24s47.833 40.333 68.5 73c4 5.33301 8 6.66602 12 3.99902l35 -16c4 -2 5 -6 3 -12c-22 -38.667 -50.833 -69.167 -86.5 -91.5
s-77.167 -33.5 -124.5 -33.5c-48 0 -90.667 11.5 -128 34.5s-66.333 55.167 -87 96.5s-31 88.666 -31 141.999s10.5 101 31.5 143s50.167 74.833 87.5 98.5s79.666 35.5 126.999 35.5c88 0 155.667 -39 203 -117zM332.001 647.001c0 -5.33301 -1 -9.00098 -3 -11.001
s-6 -3 -12 -3h-46c-4.66699 0 -8 0.833008 -10 2.5s-3 4.83398 -3 9.50098v85c0 4.66699 0.833008 7.83398 2.5 9.50098s4.5 2.5 8.5 2.5h53c4 0 6.66699 -0.833008 8 -2.5s2 -4.83398 2 -9.50098v-83z" />
    <glyph glyph-name="Ccaron" unicode="&#x10c;" horiz-adv-x="702" 
d="M498.5 724c39 -18.667 71.3389 -43.498 97.0059 -74.498s40.834 -64.167 45.501 -99.5l1 -5c0 -4 -2.66699 -6 -8 -6l-58 -5h-3c-2 0 -3.5 0.833008 -4.5 2.5s-1.5 3.83398 -1.5 6.50098c-10.667 45.333 -32.834 81.5 -66.501 108.5s-74.167 40.5 -121.5 40.5
c-74.667 0 -131.667 -27.333 -171 -82s-59 -135 -59 -241c0 -103.333 19.833 -182 59.5 -236s98.834 -81 177.501 -81c49.333 0 90.166 12 122.499 36s58.5 61.333 78.5 112c1.33301 2.66699 4.33301 3.66699 9 3l49 -13c3.33301 -1.33301 4.66602 -5 3.99902 -11
c-10.667 -34.667 -28.334 -66.334 -53.001 -95.001s-55.5 -51.5 -92.5 -68.5s-77.833 -25.5 -122.5 -25.5c-64.667 0 -120.334 15.167 -167.001 45.5s-82.334 74 -107.001 131s-37 124.833 -37 203.5c0 79.333 12.167 147.666 36.5 204.999s59.666 101.166 105.999 131.499
s101.166 45.5 164.499 45.5c42 0 82.5 -9.33301 121.5 -28zM460.006 954.002l52.002 0.000976562c4.66699 0 7 -1 7 -3s-2 -4.66699 -6 -8l-100 -88c-1.33301 -0.666992 -3.5 -2.33398 -6.5 -5.00098s-6.83301 -4 -11.5 -4h-31c-6.66699 0 -14 3.33301 -22 10l-102 87
c-2.66699 2.66699 -4 5 -4 7c0 2.66699 2.33301 4 7 4h47c3.33301 0 6.16602 -0.5 8.49902 -1.5s5.16602 -2.5 8.49902 -4.5l59 -49c5.33301 -4.66699 9 -7 11 -7s5.33301 2.33301 10 7l56 49c6 4 11.667 6 17 6z" />
    <glyph glyph-name="ccaron" unicode="&#x10d;" horiz-adv-x="540" 
d="M499 423c2 -4 2.83398 -6.83203 2.50098 -8.49902s-2.16602 -3.16699 -5.49902 -4.5l-42 -14c-0.666992 -0.666992 -2 -1 -4 -1c-2.66699 0 -5.33398 2 -8.00098 6c-24 30.667 -46.833 52.834 -68.5 66.501s-45.834 20.5 -72.501 20.5
c-55.333 0 -99.666 -20.167 -132.999 -60.5s-50 -94.5 -50 -162.5s16.667 -122.167 50 -162.5s78 -60.5 134 -60.5c32.667 0 61.5 8 86.5 24s47.833 40.333 68.5 73c4 5.33301 8 6.66602 12 3.99902l35 -16c4 -2 5 -6 3 -12c-22 -38.667 -50.833 -69.167 -86.5 -91.5
s-77.167 -33.5 -124.5 -33.5c-48 0 -90.667 11.5 -128 34.5s-66.333 55.167 -87 96.5s-31 88.666 -31 141.999s10.5 101 31.5 143s50.167 74.833 87.5 98.5s79.666 35.5 126.999 35.5c88 0 155.667 -39 203 -117zM378.001 742.001l52.002 0.000976562c4.66699 0 7 -1 7 -3
s-2 -4.66699 -6 -8l-100 -88c-1.33301 -0.666992 -3.5 -2.33398 -6.5 -5.00098s-6.83301 -4 -11.5 -4h-31c-6.66699 0 -14 3.33301 -22 10l-102 87c-2.66699 2.66699 -4 5 -4 7c0 2.66699 2.33301 4 7 4h47c3.33301 0 6.16602 -0.5 8.49902 -1.5s5.16602 -2.5 8.49902 -4.5
l59 -49c5.33301 -4.66699 9 -7 11 -7s5.33301 2.33301 10 7l56 49c6 4 11.667 6 17 6z" />
    <glyph glyph-name="Dcaron" unicode="&#x10e;" horiz-adv-x="714" 
d="M256 741c135.333 -1.33301 234 -31.832 296 -91.499s93 -150.834 93 -273.501c0 -127.333 -33 -221.833 -99 -283.5s-166.667 -92.5 -302 -92.5h-128c-8 -0 -12 4.33301 -12 13v718c0 7.33301 4 11 12 11zM179 668.001l-0.000976562 -599.002c0 -6.66699 4 -10 12 -10h43
c80 0 144 10.333 192 31s83.333 53.834 106 99.501s34 106.834 34 183.501c0 78 -11.167 139 -33.5 183s-56.166 75.5 -101.499 94.5s-106 29.5 -182 31.5h-62c-5.33301 0 -8 -4.66699 -8 -14zM427.999 953.999l52.002 0.000976562c4.66699 0 7 -1 7 -3s-2 -4.66699 -6 -8
l-100 -88c-1.33301 -0.666992 -3.5 -2.33398 -6.5 -5.00098s-6.83301 -4 -11.5 -4h-31c-6.66699 0 -14 3.33301 -22 10l-102 87c-2.66699 2.66699 -4 5 -4 7c0 2.66699 2.33301 4 7 4h47c3.33301 0 6.16602 -0.5 8.49902 -1.5s5.16602 -2.5 8.49902 -4.5l59 -49
c5.33301 -4.66699 9 -7 11 -7s5.33301 2.33301 10 7l56 49c6 4 11.667 6 17 6z" />
    <glyph glyph-name="dcaron" unicode="&#x10f;" horiz-adv-x="666" 
d="M449 13l0.00292969 46.001c0 6 -1.33301 9 -4 9c-2 0 -4.66699 -1.66699 -8 -5c-20 -20 -41.833 -37.167 -65.5 -51.5s-55.167 -21.5 -94.5 -21.5c-42.667 0 -81.167 10 -115.5 30s-61.333 50 -81 90s-29.5 88.667 -29.5 146c0 56 10 105.5 30 148.5s48 76.333 84 100
s77.333 35.5 124 35.5c31.333 0 58.166 -4.83301 80.499 -14.5s43.166 -22.834 62.499 -39.501c5.33301 -3.33301 8.66602 -5 9.99902 -5c3.33301 0 5 4 5 12v237c0 8 3.66699 12 11 12h45c6.66699 0 10 -3.66699 10 -11v-717c0 -5.33301 -1 -9 -3 -11s-5.66699 -3 -11 -3
h-37c-8.66699 -0 -13 4.33301 -13 13zM377.003 470.501c-23.333 11.667 -48.332 17.501 -74.999 17.501c-35.333 0 -66.833 -9 -94.5 -27s-49.334 -44.167 -65.001 -78.5s-23.5 -75.166 -23.5 -122.499c0 -72 16.667 -126.5 50 -163.5s75.333 -55.5 126 -55.5
c27.333 0 52.666 6.66699 75.999 20s41.833 30.166 55.5 50.499s20.5 40.166 20.5 59.499v247c-23.333 23.333 -46.666 40.833 -69.999 52.5zM576.504 558.002c-1 2 -1.16797 4 -0.500977 6l30 71c1.33301 4 1.83301 6.66699 1.5 8s-1.83301 2.33301 -4.5 3l-7 1
c-3.33301 0.666992 -5.66602 1.66699 -6.99902 3s-2 3.33301 -2 6v78c0 5.33301 2.33301 8 7 8h52c4 0 6 -2.33301 6 -7v-88l-1 -5l-34 -78c-2 -6 -7.33301 -9 -16 -9h-19c-2.66699 0 -4.5 1 -5.5 3z" />
    <glyph glyph-name="Dcroat" unicode="&#x110;" horiz-adv-x="717" 
d="M555 649.5c62 -59.667 93 -150.833 93 -273.5c0 -127.333 -33 -221.833 -99 -283.5s-166.667 -92.5 -302 -92.5h-128c-8 -0 -12 4.33301 -12 13v330h-61c-4.66699 0 -8 1 -10 3s-3 5.33301 -3 10v34c0 7.33301 3 11 9 11h65v330c0 7.33301 4 11 12 11l140 -1
c135.333 -1.33301 234 -31.833 296 -91.5zM429 90.001c48 20.667 83.332 53.832 105.999 99.499s34 106.834 34 183.501c0 78 -11.167 139 -33.5 183s-56.166 75.5 -101.499 94.5s-106 29.5 -182 31.5h-62c-5.33301 0 -8 -4.66699 -8 -14v-267h166c6 0 9 -3.33301 9 -10v-34
c0 -9.33301 -5.66699 -14 -17 -14h-158v-274c0 -6.66699 4 -10 12 -10h43c80 0 144 10.333 192 31z" />
    <glyph glyph-name="dcroat" unicode="&#x111;" horiz-adv-x="606" 
d="M583 658l0.00292969 -27.999c0 -7.33301 -4.33301 -11 -13 -11h-57v-605c0 -5.33301 -1 -9 -3 -11s-5.66699 -3 -11 -3h-37c-8.66699 0 -13 4.33301 -13 13v46c0 6 -1.33301 9 -4 9c-2 0 -4.66699 -1.66699 -8 -5c-20 -20 -41.833 -37.167 -65.5 -51.5
s-55.167 -21.5 -94.5 -21.5c-42.667 0 -81.167 10 -115.5 30s-61.333 50 -81 90s-29.5 88.667 -29.5 146c0 56 10 105.5 30 148.5s48 76.333 84 100s77.333 35.5 124 35.5c31.333 0 58.166 -4.83301 80.499 -14.5s43.166 -22.834 62.499 -39.501
c5.33301 -3.33301 8.66602 -5 9.99902 -5c3.33301 0 5 4 5 12v126h-157c-4 0 -6.5 0.833008 -7.5 2.5s-1.5 4.5 -1.5 8.5v27c0 6 2 9 6 9h160v64c0 8 3.66699 12 11 12h45c6.66699 0 10 -3.66699 10 -11v-65h63c4.66699 0 7 -2.66699 7 -8zM447.003 418.001
c-23.333 23.333 -46.665 40.834 -69.998 52.501s-48.333 17.5 -75 17.5c-35.333 0 -66.833 -9 -94.5 -27s-49.334 -44.167 -65.001 -78.5s-23.5 -75.166 -23.5 -122.499c0 -72 16.667 -126.5 50 -163.5s75.333 -55.5 126 -55.5c27.333 0 52.666 6.66699 75.999 20
s41.833 30.166 55.5 50.499s20.5 40.166 20.5 59.499v247z" />
    <glyph glyph-name="Emacron" unicode="&#x112;" horiz-adv-x="622" 
d="M106.5 739.5c1.66699 1.66699 4.50195 2.49707 8.50195 2.49707h435c6 0 9 -3 9 -9l-1 -41c0 -4 -0.666992 -6.66699 -2 -8s-4 -2 -8 -2h-357c-4.66699 0 -7.83398 -0.666992 -9.50098 -2s-2.5 -4.33301 -2.5 -9v-257c0 -4 0.833008 -6.66699 2.5 -8s4.5 -2 8.5 -2h271
c3.33301 0 5.66602 -0.666992 6.99902 -2s2 -3.66602 2 -6.99902v-42c0 -3.33301 -0.666992 -5.5 -2 -6.5s-3.66602 -1.5 -6.99902 -1.5h-272c-3.33301 0 -5.83301 -0.666992 -7.5 -2s-2.5 -4 -2.5 -8v-265c0 -4 0.666992 -6.66699 2 -8s4 -2 8 -2h373
c4 0 6.83301 -0.5 8.5 -1.5s2.5 -3.5 2.5 -7.5v-42c0 -6 -3.33301 -9 -10 -9h-447c-4.66699 0 -7.83398 0.833008 -9.50098 2.5s-2.5 4.83398 -2.5 9.50098v718c0 4.66699 0.833008 7.83398 2.5 9.50098zM483.002 895.997c0 -7.33301 -4.33301 -11 -13 -11h-256
c-6 0 -9 3.66699 -9 11v32c0 6 2.33301 9 7 9h264c4.66699 0 7 -2.66699 7 -8v-33z" />
    <glyph glyph-name="emacron" unicode="&#x113;" horiz-adv-x="579" 
d="M144 139.5c16.667 -29.667 39.168 -53.165 67.501 -70.498s59.166 -26 92.499 -26c72 0 126.667 29 164 87c2 3.33301 4 5.16602 6 5.49902s4.33301 -0.166992 7 -1.5l34 -19c2 -1.33301 3.16699 -3 3.5 -5s-0.5 -4.33301 -2.5 -7
c-24.667 -38.667 -54.667 -67.167 -90 -85.5s-77.333 -27.5 -126 -27.5s-91.834 11.333 -129.501 34s-67.167 54.5 -88.5 95.5s-32 87.833 -32 140.5c0 56.667 10.833 106.167 32.5 148.5s51.334 74.833 89.001 97.5s80.167 34 127.5 34
c72.667 0 130.167 -23.833 172.5 -71.5s63.5 -113.5 63.5 -197.5v-6c0 -4.66699 -0.833008 -8.33398 -2.5 -11.001s-5.5 -4 -11.5 -4h-395c-4.66699 0 -7 -5 -7 -15c0 -34 8.33301 -65.833 25 -95.5zM451.001 297.002c6.66699 0 11.1641 0.999023 13.4971 2.99902
s3.5 5.66699 3.5 11c0 32 -6.83301 61.667 -20.5 89s-33.167 49 -58.5 65s-55 24 -89 24c-37.333 0 -69.666 -9.16699 -96.999 -27.5s-48.166 -42.166 -62.499 -71.499s-21.166 -60.333 -20.499 -93h331zM436.998 684.001c0 -7.33301 -4.33301 -11 -13 -11h-256
c-6 0 -9 3.66699 -9 11v32c0 6 2.33301 9 7 9h264c4.66699 0 7 -2.66699 7 -8v-33z" />
    <glyph glyph-name="Ebreve" unicode="&#x114;" horiz-adv-x="622" 
d="M106.5 739.5c1.66699 1.66699 4.50195 2.49707 8.50195 2.49707h435c6 0 9 -3 9 -9l-1 -41c0 -4 -0.666992 -6.66699 -2 -8s-4 -2 -8 -2h-357c-4.66699 0 -7.83398 -0.666992 -9.50098 -2s-2.5 -4.33301 -2.5 -9v-257c0 -4 0.833008 -6.66699 2.5 -8s4.5 -2 8.5 -2h271
c3.33301 0 5.66602 -0.666992 6.99902 -2s2 -3.66602 2 -6.99902v-42c0 -3.33301 -0.666992 -5.5 -2 -6.5s-3.66602 -1.5 -6.99902 -1.5h-272c-3.33301 0 -5.83301 -0.666992 -7.5 -2s-2.5 -4 -2.5 -8v-265c0 -4 0.666992 -6.66699 2 -8s4 -2 8 -2h373
c4 0 6.83301 -0.5 8.5 -1.5s2.5 -3.5 2.5 -7.5v-42c0 -6 -3.33301 -9 -10 -9h-447c-4.66699 0 -7.83398 0.833008 -9.50098 2.5s-2.5 4.83398 -2.5 9.50098v718c0 4.66699 0.833008 7.83398 2.5 9.50098zM484.002 951.997c1.33301 -1.33301 1.33203 -4 -0.000976562 -8
c-6.66699 -24 -22.667 -45.167 -48 -63.5s-56.666 -27.5 -93.999 -27.5c-36.667 0 -66.834 9 -90.501 27s-39.5 39.667 -47.5 65v3c0 4 2 6 6 6h41c6 0 10.667 -2.66699 14 -8c10.667 -14 21.167 -24.833 31.5 -32.5s25.5 -11.5 45.5 -11.5c34.667 0 61.667 15 81 45
c1.33301 2.66699 2.83301 4.5 4.5 5.5s3.83398 1.5 6.50098 1.5h42c4 0 6.66699 -0.666992 8 -2z" />
    <glyph glyph-name="ebreve" unicode="&#x115;" horiz-adv-x="579" 
d="M144 139.5c16.667 -29.667 39.168 -53.165 67.501 -70.498s59.166 -26 92.499 -26c72 0 126.667 29 164 87c2 3.33301 4 5.16602 6 5.49902s4.33301 -0.166992 7 -1.5l34 -19c2 -1.33301 3.16699 -3 3.5 -5s-0.5 -4.33301 -2.5 -7
c-24.667 -38.667 -54.667 -67.167 -90 -85.5s-77.333 -27.5 -126 -27.5s-91.834 11.333 -129.501 34s-67.167 54.5 -88.5 95.5s-32 87.833 -32 140.5c0 56.667 10.833 106.167 32.5 148.5s51.334 74.833 89.001 97.5s80.167 34 127.5 34
c72.667 0 130.167 -23.833 172.5 -71.5s63.5 -113.5 63.5 -197.5v-6c0 -4.66699 -0.833008 -8.33398 -2.5 -11.001s-5.5 -4 -11.5 -4h-395c-4.66699 0 -7 -5 -7 -15c0 -34 8.33301 -65.833 25 -95.5zM451.001 297.002c6.66699 0 11.1641 0.999023 13.4971 2.99902
s3.5 5.66699 3.5 11c0 32 -6.83301 61.667 -20.5 89s-33.167 49 -58.5 65s-55 24 -89 24c-37.333 0 -69.666 -9.16699 -96.999 -27.5s-48.166 -42.166 -62.499 -71.499s-21.166 -60.333 -20.499 -93h331zM437.998 740.001c1.33301 -1.33301 1.33203 -4 -0.000976562 -8
c-6.66699 -24 -22.667 -45.167 -48 -63.5s-56.666 -27.5 -93.999 -27.5c-36.667 0 -66.834 9 -90.501 27s-39.5 39.667 -47.5 65v3c0 4 2 6 6 6h41c6 0 10.667 -2.66699 14 -8c10.667 -14 21.167 -24.833 31.5 -32.5s25.5 -11.5 45.5 -11.5c34.667 0 61.667 15 81 45
c1.33301 2.66699 2.83301 4.5 4.5 5.5s3.83398 1.5 6.50098 1.5h42c4 0 6.66699 -0.666992 8 -2z" />
    <glyph glyph-name="Edotaccent" unicode="&#x116;" horiz-adv-x="622" 
d="M106.5 739.5c1.66699 1.66699 4.50195 2.49707 8.50195 2.49707h435c6 0 9 -3 9 -9l-1 -41c0 -4 -0.666992 -6.66699 -2 -8s-4 -2 -8 -2h-357c-4.66699 0 -7.83398 -0.666992 -9.50098 -2s-2.5 -4.33301 -2.5 -9v-257c0 -4 0.833008 -6.66699 2.5 -8s4.5 -2 8.5 -2h271
c3.33301 0 5.66602 -0.666992 6.99902 -2s2 -3.66602 2 -6.99902v-42c0 -3.33301 -0.666992 -5.5 -2 -6.5s-3.66602 -1.5 -6.99902 -1.5h-272c-3.33301 0 -5.83301 -0.666992 -7.5 -2s-2.5 -4 -2.5 -8v-265c0 -4 0.666992 -6.66699 2 -8s4 -2 8 -2h373
c4 0 6.83301 -0.5 8.5 -1.5s2.5 -3.5 2.5 -7.5v-42c0 -6 -3.33301 -9 -10 -9h-447c-4.66699 0 -7.83398 0.833008 -9.50098 2.5s-2.5 4.83398 -2.5 9.50098v718c0 4.66699 0.833008 7.83398 2.5 9.50098zM381.002 858.997c0 -5.33301 -1 -9.00098 -3 -11.001s-6 -3 -12 -3
h-46c-4.66699 0 -8 0.833008 -10 2.5s-3 4.83398 -3 9.50098v85c0 4.66699 0.833008 7.83398 2.5 9.50098s4.5 2.5 8.5 2.5h53c4 0 6.66699 -0.833008 8 -2.5s2 -4.83398 2 -9.50098v-83z" />
    <glyph glyph-name="edotaccent" unicode="&#x117;" horiz-adv-x="579" 
d="M144 139.5c16.667 -29.667 39.168 -53.165 67.501 -70.498s59.166 -26 92.499 -26c72 0 126.667 29 164 87c2 3.33301 4 5.16602 6 5.49902s4.33301 -0.166992 7 -1.5l34 -19c2 -1.33301 3.16699 -3 3.5 -5s-0.5 -4.33301 -2.5 -7
c-24.667 -38.667 -54.667 -67.167 -90 -85.5s-77.333 -27.5 -126 -27.5s-91.834 11.333 -129.501 34s-67.167 54.5 -88.5 95.5s-32 87.833 -32 140.5c0 56.667 10.833 106.167 32.5 148.5s51.334 74.833 89.001 97.5s80.167 34 127.5 34
c72.667 0 130.167 -23.833 172.5 -71.5s63.5 -113.5 63.5 -197.5v-6c0 -4.66699 -0.833008 -8.33398 -2.5 -11.001s-5.5 -4 -11.5 -4h-395c-4.66699 0 -7 -5 -7 -15c0 -34 8.33301 -65.833 25 -95.5zM451.001 297.002c6.66699 0 11.1641 0.999023 13.4971 2.99902
s3.5 5.66699 3.5 11c0 32 -6.83301 61.667 -20.5 89s-33.167 49 -58.5 65s-55 24 -89 24c-37.333 0 -69.666 -9.16699 -96.999 -27.5s-48.166 -42.166 -62.499 -71.499s-21.166 -60.333 -20.499 -93h331zM288.998 647.001c0 -5.33301 -1 -9.00098 -3 -11.001s-6 -3 -12 -3
h-46c-4.66699 0 -8 0.833008 -10 2.5s-3 4.83398 -3 9.50098v85c0 4.66699 0.833008 7.83398 2.5 9.50098s4.5 2.5 8.5 2.5h53c4 0 6.66699 -0.833008 8 -2.5s2 -4.83398 2 -9.50098v-83z" />
    <glyph glyph-name="Eogonek" unicode="&#x118;" horiz-adv-x="622" 
d="M594 -120l0.000976562 -25.0029c0 -4.66699 -2 -8 -6 -10c-9.33301 -4 -21.666 -7.66699 -36.999 -11s-30.666 -5 -45.999 -5c-32 0 -56.167 7 -72.5 21s-24.5 33.333 -24.5 58c0 20 6.33301 37.667 19 53s34 28.333 64 39h-375
c-4.66699 0 -7.83398 0.833008 -9.50098 2.5s-2.5 4.83398 -2.5 9.50098v718c0 4.66699 0.833008 7.83398 2.5 9.50098s4.5 2.5 8.5 2.5h435c6 0 9 -3 9 -9l-1 -41c0 -4 -0.666992 -6.66699 -2 -8s-4 -2 -8 -2h-357c-4.66699 0 -7.83398 -0.666992 -9.50098 -2
s-2.5 -4.33301 -2.5 -9v-257c0 -4 0.833008 -6.66699 2.5 -8s4.5 -2 8.5 -2h271c3.33301 0 5.66602 -0.666992 6.99902 -2s2 -3.66602 2 -6.99902v-42c0 -3.33301 -0.666992 -5.5 -2 -6.5s-3.66602 -1.5 -6.99902 -1.5h-272c-3.33301 0 -5.83301 -0.666992 -7.5 -2
s-2.5 -4 -2.5 -8v-265c0 -4 0.666992 -6.66699 2 -8s4 -2 8 -2h373c4 0 6.83301 -0.5 8.5 -1.5s2.5 -3.5 2.5 -7.5v-42c0 -5.33301 -2.66699 -8.33301 -8 -9c-34.667 -15.333 -59.667 -29.5 -75 -42.5s-23 -28.5 -23 -46.5c0 -26.667 17.667 -40 53 -40
c13.333 0 25.666 1.33301 36.999 4s20.333 5.66699 27 9c6.66699 4 10 2.66699 10 -4z" />
    <glyph glyph-name="eogonek" unicode="&#x119;" horiz-adv-x="579" 
d="M535 265c0 -4.66699 -0.833984 -8.33105 -2.50098 -10.998s-5.5 -4 -11.5 -4h-395c-4.66699 0 -7 -5 -7 -15c0 -34 8.33301 -65.833 25 -95.5s39.167 -53.167 67.5 -70.5s59.166 -26 92.499 -26c72 0 126.667 29 164 87c2 3.33301 4 5.16602 6 5.49902
s4.33301 -0.166992 7 -1.5l34 -19c2 -1.33301 3.16699 -3 3.5 -5s-0.5 -4.33301 -2.5 -7c-32 -49.333 -72 -82.333 -120 -99c-31.333 -14 -53.833 -27.333 -67.5 -40s-20.5 -27.334 -20.5 -44.001c0 -26.667 17.667 -40 53 -40c13.333 0 25.666 1.33301 36.999 4
s20.333 5.66699 27 9c6.66699 4 10 2.66699 10 -4v-25c0 -4.66699 -2 -8 -6 -10c-9.33301 -4 -21.666 -7.66699 -36.999 -11s-30.666 -5 -45.999 -5c-32 0 -56.167 7 -72.5 21s-24.5 33.333 -24.5 58c0 15.333 3.33301 29 10 41s17.667 22.667 33 32
c-47.333 1.33301 -89.333 13.5 -126 36.5s-65.167 54.667 -85.5 95s-30.5 86.5 -30.5 138.5c0 56.667 10.833 106.167 32.5 148.5s51.334 74.833 89.001 97.5s80.167 34 127.5 34c72.667 0 130.167 -23.833 172.5 -71.5s63.5 -113.5 63.5 -197.5v-6zM464.499 300.003
c2.33301 2 3.49707 5.66602 3.49707 10.999c0 32 -6.83301 61.667 -20.5 89s-33.167 49 -58.5 65s-55 24 -89 24c-37.333 0 -69.666 -9.16699 -96.999 -27.5s-48.166 -42.166 -62.499 -71.499s-21.166 -60.333 -20.499 -93h331c6.66699 0 11.167 1 13.5 3z" />
    <glyph glyph-name="Ecaron" unicode="&#x11a;" horiz-adv-x="622" 
d="M106.5 739.5c1.66699 1.66699 4.50195 2.49707 8.50195 2.49707h435c6 0 9 -3 9 -9l-1 -41c0 -4 -0.666992 -6.66699 -2 -8s-4 -2 -8 -2h-357c-4.66699 0 -7.83398 -0.666992 -9.50098 -2s-2.5 -4.33301 -2.5 -9v-257c0 -4 0.833008 -6.66699 2.5 -8s4.5 -2 8.5 -2h271
c3.33301 0 5.66602 -0.666992 6.99902 -2s2 -3.66602 2 -6.99902v-42c0 -3.33301 -0.666992 -5.5 -2 -6.5s-3.66602 -1.5 -6.99902 -1.5h-272c-3.33301 0 -5.83301 -0.666992 -7.5 -2s-2.5 -4 -2.5 -8v-265c0 -4 0.666992 -6.66699 2 -8s4 -2 8 -2h373
c4 0 6.83301 -0.5 8.5 -1.5s2.5 -3.5 2.5 -7.5v-42c0 -6 -3.33301 -9 -10 -9h-447c-4.66699 0 -7.83398 0.833008 -9.50098 2.5s-2.5 4.83398 -2.5 9.50098v718c0 4.66699 0.833008 7.83398 2.5 9.50098zM427.002 953.997l52.002 0.000976562c4.66699 0 7 -1 7 -3
s-2 -4.66699 -6 -8l-100 -88c-1.33301 -0.666992 -3.5 -2.33398 -6.5 -5.00098s-6.83301 -4 -11.5 -4h-31c-6.66699 0 -14 3.33301 -22 10l-102 87c-2.66699 2.66699 -4 5 -4 7c0 2.66699 2.33301 4 7 4h47c3.33301 0 6.16602 -0.5 8.49902 -1.5s5.16602 -2.5 8.49902 -4.5
l59 -49c5.33301 -4.66699 9 -7 11 -7s5.33301 2.33301 10 7l56 49c6 4 11.667 6 17 6z" />
    <glyph glyph-name="ecaron" unicode="&#x11b;" horiz-adv-x="579" 
d="M144 139.5c16.667 -29.667 39.168 -53.165 67.501 -70.498s59.166 -26 92.499 -26c72 0 126.667 29 164 87c2 3.33301 4 5.16602 6 5.49902s4.33301 -0.166992 7 -1.5l34 -19c2 -1.33301 3.16699 -3 3.5 -5s-0.5 -4.33301 -2.5 -7
c-24.667 -38.667 -54.667 -67.167 -90 -85.5s-77.333 -27.5 -126 -27.5s-91.834 11.333 -129.501 34s-67.167 54.5 -88.5 95.5s-32 87.833 -32 140.5c0 56.667 10.833 106.167 32.5 148.5s51.334 74.833 89.001 97.5s80.167 34 127.5 34
c72.667 0 130.167 -23.833 172.5 -71.5s63.5 -113.5 63.5 -197.5v-6c0 -4.66699 -0.833008 -8.33398 -2.5 -11.001s-5.5 -4 -11.5 -4h-395c-4.66699 0 -7 -5 -7 -15c0 -34 8.33301 -65.833 25 -95.5zM451.001 297.002c6.66699 0 11.1641 0.999023 13.4971 2.99902
s3.5 5.66699 3.5 11c0 32 -6.83301 61.667 -20.5 89s-33.167 49 -58.5 65s-55 24 -89 24c-37.333 0 -69.666 -9.16699 -96.999 -27.5s-48.166 -42.166 -62.499 -71.499s-21.166 -60.333 -20.499 -93h331zM380.998 742.001l52.002 0.000976562c4.66699 0 7 -1 7 -3
s-2 -4.66699 -6 -8l-100 -88c-1.33301 -0.666992 -3.5 -2.33398 -6.5 -5.00098s-6.83301 -4 -11.5 -4h-31c-6.66699 0 -14 3.33301 -22 10l-102 87c-2.66699 2.66699 -4 5 -4 7c0 2.66699 2.33301 4 7 4h47c3.33301 0 6.16602 -0.5 8.49902 -1.5s5.16602 -2.5 8.49902 -4.5
l59 -49c5.33301 -4.66699 9 -7 11 -7s5.33301 2.33301 10 7l56 49c6 4 11.667 6 17 6z" />
    <glyph glyph-name="Gcircumflex" unicode="&#x11c;" horiz-adv-x="735" 
d="M211.5 35.5c-45.667 30.333 -80.6621 73.833 -104.995 130.5s-36.5 124 -36.5 202c0 80 12.5 148.833 37.5 206.5s60.667 101.667 107 132s100.5 45.5 162.5 45.5c42.667 0 83.5 -9.16699 122.5 -27.5s71.167 -42.666 96.5 -72.999s40.333 -62.5 45 -96.5v-6
c0 -4 -2 -6.33301 -6 -7l-57 -9h-2c-3.33301 0 -5.66602 2.66699 -6.99902 8c-8 42.667 -29.833 78.5 -65.5 107.5s-78.167 43.5 -127.5 43.5c-73.333 0 -129.5 -27.5 -168.5 -82.5s-58.5 -133.5 -58.5 -235.5c0 -106.667 19.5 -187.167 58.5 -241.5
s95.833 -81.5 170.5 -81.5c44 0 81.667 10 113 30s55 45.167 71 75.5s24.667 61.166 26 92.499v67v2c0 5.33301 -3.33301 8 -10 8h-174c-6 0 -9 2.66699 -9 8v35c0 5.33301 2.33301 8 7 8h244c7.33301 0 11 -3.33301 11 -10v-355c0 -8 -3.66699 -12 -11 -12h-21
c-4.66699 0 -8.33398 0.666992 -11.001 2s-4.33398 4.33301 -5.00098 9l-6 98c-0.666992 3.33301 -1.83398 5 -3.50098 5s-3.5 -1.66699 -5.5 -5c-20.667 -35.333 -49.334 -64 -86.001 -86s-81.334 -33 -134.001 -33c-62.667 0 -116.834 15.167 -162.501 45.5zM385.005 904
c-4.66699 4.66699 -8 7.00098 -10 7.00098s-5.66699 -2.33301 -11 -7l-59 -49c-3.33301 -2.66699 -6 -4.5 -8 -5.5s-5 -1.5 -9 -1.5h-47c-4 0 -6.33301 1 -7 3s0.666016 4.66699 3.99902 8l102 87c6.66699 6.66699 14 10 22 10h31c4.66699 0 8.66699 -1.33301 12 -4
s5.33301 -4.33398 6 -5.00098l100 -88c8.66699 -7.33301 8.33398 -11 -0.999023 -11h-52c-6 0 -11.667 2.33301 -17 7z" />
    <glyph glyph-name="gcircumflex" unicode="&#x11d;" horiz-adv-x="594" 
d="M561 531.5c2.66699 -2.33301 4.00293 -6.16602 4.00293 -11.499v-25c0 -6 -1.33301 -10.5 -4 -13.5s-7.33398 -4.5 -14.001 -4.5c-21.333 0 -39 -3.33301 -53 -10c-8.66699 -4.66699 -14.5 -8.66699 -17.5 -12s-3.83301 -7 -2.5 -11
c1.33301 -2.66699 3.66602 -8 6.99902 -16s6 -16.833 8 -26.5s3 -20.167 3 -31.5c0 -47.333 -17.833 -86 -53.5 -116s-88.167 -45 -157.5 -45c-49.333 0 -84.833 -4.33301 -106.5 -13s-32.5 -19.334 -32.5 -32.001c0 -11.333 7.5 -19.5 22.5 -24.5s40.5 -8.5 76.5 -10.5
l125 -7c55.333 -3.33301 96.5 -16.833 123.5 -40.5s40.5 -55.834 40.5 -96.501c0 -50.667 -21.833 -90 -65.5 -118s-105.167 -42 -184.5 -42c-81.333 0 -143.5 12.5 -186.5 37.5s-64.5 60.5 -64.5 106.5c0 46.667 30.667 86 92 118c4 2 6 3.66699 6 5c0 2 -2 4 -6 6
c-28 12 -42 30.333 -42 55c0 14 6.16699 27.167 18.5 39.5s30.833 22.5 55.5 30.5c3.33301 1.33301 5 3 5 5c0 2.66699 -2 5 -6 7c-28 15.333 -48.833 34 -62.5 56s-20.5 48.333 -20.5 79c0 52.667 19.333 93.834 58 123.501s92.667 44.5 162 44.5
c62.667 0 111.667 -15 147 -45c3.33301 -2.66699 6.66602 -4 9.99902 -4c4 0 7.33301 1.33301 10 4c32.667 28 62.667 42 90 42c7.33301 0 12.333 -1.16699 15 -3.5zM429.003 371c0 38.667 -12.333 68.332 -37 88.999s-61.334 31 -110.001 31
c-47.333 0 -84.166 -10.667 -110.499 -32s-39.5 -50.666 -39.5 -87.999c0 -36.667 13 -65 39 -85s63 -30 111 -30c98 0 147 38.333 147 115zM190.003 72.998c-12 0.666992 -26.001 -3.16699 -42.001 -11.5s-29.667 -20 -41 -35s-17 -31.833 -17 -50.5c0 -34 17 -60 51 -78
s83.333 -27 148 -27c118 0 177 35.667 177 107c0 26 -8.16699 46.167 -24.5 60.5s-43.166 22.5 -80.499 24.5zM297.002 691.997c-4.66699 4.66699 -8 7.00098 -10 7.00098s-5.66699 -2.33301 -11 -7l-59 -49c-3.33301 -2.66699 -6 -4.5 -8 -5.5s-5 -1.5 -9 -1.5h-47
c-4 0 -6.33301 1 -7 3s0.666016 4.66699 3.99902 8l102 87c6.66699 6.66699 14 10 22 10h31c4.66699 0 8.66699 -1.33301 12 -4s5.33301 -4.33398 6 -5.00098l100 -88c8.66699 -7.33301 8.33398 -11 -0.999023 -11h-52c-6 0 -11.667 2.33301 -17 7z" />
    <glyph glyph-name="Gbreve" unicode="&#x11e;" horiz-adv-x="735" 
d="M211.5 35.5c-45.667 30.333 -80.6621 73.833 -104.995 130.5s-36.5 124 -36.5 202c0 80 12.5 148.833 37.5 206.5s60.667 101.667 107 132s100.5 45.5 162.5 45.5c42.667 0 83.5 -9.16699 122.5 -27.5s71.167 -42.666 96.5 -72.999s40.333 -62.5 45 -96.5v-6
c0 -4 -2 -6.33301 -6 -7l-57 -9h-2c-3.33301 0 -5.66602 2.66699 -6.99902 8c-8 42.667 -29.833 78.5 -65.5 107.5s-78.167 43.5 -127.5 43.5c-73.333 0 -129.5 -27.5 -168.5 -82.5s-58.5 -133.5 -58.5 -235.5c0 -106.667 19.5 -187.167 58.5 -241.5
s95.833 -81.5 170.5 -81.5c44 0 81.667 10 113 30s55 45.167 71 75.5s24.667 61.166 26 92.499v67v2c0 5.33301 -3.33301 8 -10 8h-174c-6 0 -9 2.66699 -9 8v35c0 5.33301 2.33301 8 7 8h244c7.33301 0 11 -3.33301 11 -10v-355c0 -8 -3.66699 -12 -11 -12h-21
c-4.66699 0 -8.33398 0.666992 -11.001 2s-4.33398 4.33301 -5.00098 9l-6 98c-0.666992 3.33301 -1.83398 5 -3.50098 5s-3.5 -1.66699 -5.5 -5c-20.667 -35.333 -49.334 -64 -86.001 -86s-81.334 -33 -134.001 -33c-62.667 0 -116.834 15.167 -162.501 45.5zM515.005 952
c1.33301 -1.33301 1.33203 -4 -0.000976562 -8c-6.66699 -24 -22.667 -45.167 -48 -63.5s-56.666 -27.5 -93.999 -27.5c-36.667 0 -66.834 9 -90.501 27s-39.5 39.667 -47.5 65v3c0 4 2 6 6 6h41c6 0 10.667 -2.66699 14 -8c10.667 -14 21.167 -24.833 31.5 -32.5
s25.5 -11.5 45.5 -11.5c34.667 0 61.667 15 81 45c1.33301 2.66699 2.83301 4.5 4.5 5.5s3.83398 1.5 6.50098 1.5h42c4 0 6.66699 -0.666992 8 -2z" />
    <glyph glyph-name="gbreve" unicode="&#x11f;" horiz-adv-x="594" 
d="M561 531.5c2.66699 -2.33301 4.00293 -6.16602 4.00293 -11.499v-25c0 -6 -1.33301 -10.5 -4 -13.5s-7.33398 -4.5 -14.001 -4.5c-21.333 0 -39 -3.33301 -53 -10c-8.66699 -4.66699 -14.5 -8.66699 -17.5 -12s-3.83301 -7 -2.5 -11
c1.33301 -2.66699 3.66602 -8 6.99902 -16s6 -16.833 8 -26.5s3 -20.167 3 -31.5c0 -47.333 -17.833 -86 -53.5 -116s-88.167 -45 -157.5 -45c-49.333 0 -84.833 -4.33301 -106.5 -13s-32.5 -19.334 -32.5 -32.001c0 -11.333 7.5 -19.5 22.5 -24.5s40.5 -8.5 76.5 -10.5
l125 -7c55.333 -3.33301 96.5 -16.833 123.5 -40.5s40.5 -55.834 40.5 -96.501c0 -50.667 -21.833 -90 -65.5 -118s-105.167 -42 -184.5 -42c-81.333 0 -143.5 12.5 -186.5 37.5s-64.5 60.5 -64.5 106.5c0 46.667 30.667 86 92 118c4 2 6 3.66699 6 5c0 2 -2 4 -6 6
c-28 12 -42 30.333 -42 55c0 14 6.16699 27.167 18.5 39.5s30.833 22.5 55.5 30.5c3.33301 1.33301 5 3 5 5c0 2.66699 -2 5 -6 7c-28 15.333 -48.833 34 -62.5 56s-20.5 48.333 -20.5 79c0 52.667 19.333 93.834 58 123.501s92.667 44.5 162 44.5
c62.667 0 111.667 -15 147 -45c3.33301 -2.66699 6.66602 -4 9.99902 -4c4 0 7.33301 1.33301 10 4c32.667 28 62.667 42 90 42c7.33301 0 12.333 -1.16699 15 -3.5zM429.003 371c0 38.667 -12.333 68.332 -37 88.999s-61.334 31 -110.001 31
c-47.333 0 -84.166 -10.667 -110.499 -32s-39.5 -50.666 -39.5 -87.999c0 -36.667 13 -65 39 -85s63 -30 111 -30c98 0 147 38.333 147 115zM190.003 72.998c-12 0.666992 -26.001 -3.16699 -42.001 -11.5s-29.667 -20 -41 -35s-17 -31.833 -17 -50.5c0 -34 17 -60 51 -78
s83.333 -27 148 -27c118 0 177 35.667 177 107c0 26 -8.16699 46.167 -24.5 60.5s-43.166 22.5 -80.499 24.5zM427.002 739.997c1.33301 -1.33301 1.33203 -4 -0.000976562 -8c-6.66699 -24 -22.667 -45.167 -48 -63.5s-56.666 -27.5 -93.999 -27.5
c-36.667 0 -66.834 9 -90.501 27s-39.5 39.667 -47.5 65v3c0 4 2 6 6 6h41c6 0 10.667 -2.66699 14 -8c10.667 -14 21.167 -24.833 31.5 -32.5s25.5 -11.5 45.5 -11.5c34.667 0 61.667 15 81 45c1.33301 2.66699 2.83301 4.5 4.5 5.5s3.83398 1.5 6.50098 1.5h42
c4 0 6.66699 -0.666992 8 -2z" />
    <glyph glyph-name="Gdotaccent" unicode="&#x120;" horiz-adv-x="735" 
d="M211.5 35.5c-45.667 30.333 -80.6621 73.833 -104.995 130.5s-36.5 124 -36.5 202c0 80 12.5 148.833 37.5 206.5s60.667 101.667 107 132s100.5 45.5 162.5 45.5c42.667 0 83.5 -9.16699 122.5 -27.5s71.167 -42.666 96.5 -72.999s40.333 -62.5 45 -96.5v-6
c0 -4 -2 -6.33301 -6 -7l-57 -9h-2c-3.33301 0 -5.66602 2.66699 -6.99902 8c-8 42.667 -29.833 78.5 -65.5 107.5s-78.167 43.5 -127.5 43.5c-73.333 0 -129.5 -27.5 -168.5 -82.5s-58.5 -133.5 -58.5 -235.5c0 -106.667 19.5 -187.167 58.5 -241.5
s95.833 -81.5 170.5 -81.5c44 0 81.667 10 113 30s55 45.167 71 75.5s24.667 61.166 26 92.499v67v2c0 5.33301 -3.33301 8 -10 8h-174c-6 0 -9 2.66699 -9 8v35c0 5.33301 2.33301 8 7 8h244c7.33301 0 11 -3.33301 11 -10v-355c0 -8 -3.66699 -12 -11 -12h-21
c-4.66699 0 -8.33398 0.666992 -11.001 2s-4.33398 4.33301 -5.00098 9l-6 98c-0.666992 3.33301 -1.83398 5 -3.50098 5s-3.5 -1.66699 -5.5 -5c-20.667 -35.333 -49.334 -64 -86.001 -86s-81.334 -33 -134.001 -33c-62.667 0 -116.834 15.167 -162.501 45.5zM412.005 859
c0 -5.33301 -1 -9.00098 -3 -11.001s-6 -3 -12 -3h-46c-4.66699 0 -8 0.833008 -10 2.5s-3 4.83398 -3 9.50098v85c0 4.66699 0.833008 7.83398 2.5 9.50098s4.5 2.5 8.5 2.5h53c4 0 6.66699 -0.833008 8 -2.5s2 -4.83398 2 -9.50098v-83z" />
    <glyph glyph-name="gdotaccent" unicode="&#x121;" horiz-adv-x="594" 
d="M561 531.5c2.66699 -2.33301 4.00293 -6.16602 4.00293 -11.499v-25c0 -6 -1.33301 -10.5 -4 -13.5s-7.33398 -4.5 -14.001 -4.5c-21.333 0 -39 -3.33301 -53 -10c-8.66699 -4.66699 -14.5 -8.66699 -17.5 -12s-3.83301 -7 -2.5 -11
c1.33301 -2.66699 3.66602 -8 6.99902 -16s6 -16.833 8 -26.5s3 -20.167 3 -31.5c0 -47.333 -17.833 -86 -53.5 -116s-88.167 -45 -157.5 -45c-49.333 0 -84.833 -4.33301 -106.5 -13s-32.5 -19.334 -32.5 -32.001c0 -11.333 7.5 -19.5 22.5 -24.5s40.5 -8.5 76.5 -10.5
l125 -7c55.333 -3.33301 96.5 -16.833 123.5 -40.5s40.5 -55.834 40.5 -96.501c0 -50.667 -21.833 -90 -65.5 -118s-105.167 -42 -184.5 -42c-81.333 0 -143.5 12.5 -186.5 37.5s-64.5 60.5 -64.5 106.5c0 46.667 30.667 86 92 118c4 2 6 3.66699 6 5c0 2 -2 4 -6 6
c-28 12 -42 30.333 -42 55c0 14 6.16699 27.167 18.5 39.5s30.833 22.5 55.5 30.5c3.33301 1.33301 5 3 5 5c0 2.66699 -2 5 -6 7c-28 15.333 -48.833 34 -62.5 56s-20.5 48.333 -20.5 79c0 52.667 19.333 93.834 58 123.501s92.667 44.5 162 44.5
c62.667 0 111.667 -15 147 -45c3.33301 -2.66699 6.66602 -4 9.99902 -4c4 0 7.33301 1.33301 10 4c32.667 28 62.667 42 90 42c7.33301 0 12.333 -1.16699 15 -3.5zM429.003 371c0 38.667 -12.333 68.332 -37 88.999s-61.334 31 -110.001 31
c-47.333 0 -84.166 -10.667 -110.499 -32s-39.5 -50.666 -39.5 -87.999c0 -36.667 13 -65 39 -85s63 -30 111 -30c98 0 147 38.333 147 115zM190.003 72.998c-12 0.666992 -26.001 -3.16699 -42.001 -11.5s-29.667 -20 -41 -35s-17 -31.833 -17 -50.5c0 -34 17 -60 51 -78
s83.333 -27 148 -27c118 0 177 35.667 177 107c0 26 -8.16699 46.167 -24.5 60.5s-43.166 22.5 -80.499 24.5zM324.002 646.997c0 -5.33301 -1 -9.00098 -3 -11.001s-6 -3 -12 -3h-46c-4.66699 0 -8 0.833008 -10 2.5s-3 4.83398 -3 9.50098v85
c0 4.66699 0.833008 7.83398 2.5 9.50098s4.5 2.5 8.5 2.5h53c4 0 6.66699 -0.833008 8 -2.5s2 -4.83398 2 -9.50098v-83z" />
    <glyph glyph-name="Gcommaaccent" unicode="&#x122;" horiz-adv-x="735" 
d="M211.5 35.5c-45.667 30.333 -80.6621 73.833 -104.995 130.5s-36.5 124 -36.5 202c0 80 12.5 148.833 37.5 206.5s60.667 101.667 107 132s100.5 45.5 162.5 45.5c42.667 0 83.5 -9.16699 122.5 -27.5s71.167 -42.666 96.5 -72.999s40.333 -62.5 45 -96.5v-6
c0 -4 -2 -6.33301 -6 -7l-57 -9h-2c-3.33301 0 -5.66602 2.66699 -6.99902 8c-8 42.667 -29.833 78.5 -65.5 107.5s-78.167 43.5 -127.5 43.5c-73.333 0 -129.5 -27.5 -168.5 -82.5s-58.5 -133.5 -58.5 -235.5c0 -106.667 19.5 -187.167 58.5 -241.5
s95.833 -81.5 170.5 -81.5c44 0 81.667 10 113 30s55 45.167 71 75.5s24.667 61.166 26 92.499v67v2c0 5.33301 -3.33301 8 -10 8h-174c-6 0 -9 2.66699 -9 8v35c0 5.33301 2.33301 8 7 8h244c7.33301 0 11 -3.33301 11 -10v-355c0 -8 -3.66699 -12 -11 -12h-21
c-4.66699 0 -8.33398 0.666992 -11.001 2s-4.33398 4.33301 -5.00098 9l-6 98c-0.666992 3.33301 -1.83398 5 -3.50098 5s-3.5 -1.66699 -5.5 -5c-20.667 -35.333 -49.334 -64 -86.001 -86s-81.334 -33 -134.001 -33c-62.667 0 -116.834 15.167 -162.501 45.5z
M343.505 -234.5c-1 2.33301 -0.832031 4.49902 0.500977 6.49902l26 53c2 2 3 4.33301 3 7c0 3.33301 -2.33301 5 -7 5h-9c-6.66699 0 -10 3.66699 -10 11v65c0 6.66699 3 10 9 10h53c5.33301 0 8 -2.66699 8 -8v-78c0 -1.33301 -0.333008 -2.66602 -1 -3.99902
s-1 -2.33301 -1 -3l-35 -60c-1.33301 -3.33301 -3.33301 -5.5 -6 -6.5s-6.33398 -1.5 -11.001 -1.5h-14c-2.66699 0 -4.5 1.16699 -5.5 3.5z" />
    <glyph glyph-name="gcommaaccent" unicode="&#x123;" horiz-adv-x="594" 
d="M249 635v78.001c0 3.33301 0.666992 5.66602 2 6.99902l34 60c3.33301 5.33301 9 8 17 8h14c2.66699 0 4.5 -1.16699 5.5 -3.5s0.833008 -4.5 -0.5 -6.5l-26 -53c-1.33301 -2.66699 -2 -4.66699 -2 -6c0 -4 2.33301 -6 7 -6h8c7.33301 0 11 -3.66699 11 -11v-65
c0 -6.66699 -3 -10 -9 -10h-53c-5.33301 0 -8 2.66699 -8 8zM561 531.501c2.66699 -2.33301 4.00293 -6.16602 4.00293 -11.499v-25c0 -6 -1.33301 -10.5 -4 -13.5s-7.33398 -4.5 -14.001 -4.5c-21.333 0 -39 -3.33301 -53 -10c-8.66699 -4.66699 -14.5 -8.66699 -17.5 -12
s-3.83301 -7 -2.5 -11c1.33301 -2.66699 3.66602 -8 6.99902 -16s6 -16.833 8 -26.5s3 -20.167 3 -31.5c0 -47.333 -17.833 -86 -53.5 -116s-88.167 -45 -157.5 -45c-49.333 0 -84.833 -4.33301 -106.5 -13s-32.5 -19.334 -32.5 -32.001c0 -11.333 7.5 -19.5 22.5 -24.5
s40.5 -8.5 76.5 -10.5l125 -7c55.333 -3.33301 96.5 -16.833 123.5 -40.5s40.5 -55.834 40.5 -96.501c0 -50.667 -21.833 -90 -65.5 -118s-105.167 -42 -184.5 -42c-81.333 0 -143.5 12.5 -186.5 37.5s-64.5 60.5 -64.5 106.5c0 46.667 30.667 86 92 118c4 2 6 3.66699 6 5
c0 2 -2 4 -6 6c-28 12 -42 30.333 -42 55c0 14 6.16699 27.167 18.5 39.5s30.833 22.5 55.5 30.5c3.33301 1.33301 5 3 5 5c0 2.66699 -2 5 -6 7c-28 15.333 -48.833 34 -62.5 56s-20.5 48.333 -20.5 79c0 52.667 19.333 93.834 58 123.501s92.667 44.5 162 44.5
c62.667 0 111.667 -15 147 -45c3.33301 -2.66699 6.66602 -4 9.99902 -4c4 0 7.33301 1.33301 10 4c32.667 28 62.667 42 90 42c7.33301 0 12.333 -1.16699 15 -3.5zM429.003 371.001c0 38.667 -12.333 68.332 -37 88.999s-61.334 31 -110.001 31
c-47.333 0 -84.166 -10.667 -110.499 -32s-39.5 -50.666 -39.5 -87.999c0 -36.667 13 -65 39 -85s63 -30 111 -30c98 0 147 38.333 147 115zM190.003 72.999c-12 0.666992 -26.001 -3.16699 -42.001 -11.5s-29.667 -20 -41 -35s-17 -31.833 -17 -50.5c0 -34 17 -60 51 -78
s83.333 -27 148 -27c118 0 177 35.667 177 107c0 26 -8.16699 46.167 -24.5 60.5s-43.166 22.5 -80.499 24.5z" />
    <glyph glyph-name="Hcircumflex" unicode="&#x124;" horiz-adv-x="731" 
d="M187 355c-2.66699 0 -4.66699 -0.832031 -6 -2.49902s-2 -3.5 -2 -5.5v-335c0 -8 -4.33301 -12 -13 -12h-50c-8 0 -12 4 -12 12v718c0 4.66699 0.833008 7.83398 2.5 9.50098s4.5 2.5 8.5 2.5h54c4 0 6.66699 -0.833008 8 -2.5s2 -4.83398 2 -9.50098v-303
c0 -4.66699 0.833008 -7.66699 2.5 -9s4.5 -2 8.5 -2h352c6.66699 0 10 3.33301 10 10v305c0 7.33301 3 11 9 11h55c4 0 6.83301 -0.833008 8.5 -2.5s2.5 -4.83398 2.5 -9.50098v-718c0 -8 -4 -12 -12 -12h-50c-8.66699 0 -13 4 -13 12v334c0 6 -3 9 -9 9h-356zM376 904.001
c-4.66699 4.66699 -8 7.00098 -10 7.00098s-5.66699 -2.33301 -11 -7l-59 -49c-3.33301 -2.66699 -6 -4.5 -8 -5.5s-5 -1.5 -9 -1.5h-47c-4 0 -6.33301 1 -7 3s0.666016 4.66699 3.99902 8l102 87c6.66699 6.66699 14 10 22 10h31c4.66699 0 8.66699 -1.33301 12 -4
s5.33301 -4.33398 6 -5.00098l100 -88c8.66699 -7.33301 8.33398 -11 -0.999023 -11h-52c-6 0 -11.667 2.33301 -17 7z" />
    <glyph glyph-name="hcircumflex" unicode="&#x125;" horiz-adv-x="581" 
d="M83 12v719.001c0 7.33301 3.33301 11 10 11h43c6.66699 0 10 -3.33301 10 -10v-270c0 -8 3 -9 9 -3c40 29.333 73.167 50.166 99.5 62.499s55.833 18.5 88.5 18.5c52 0 91.833 -13.5 119.5 -40.5s41.5 -63.5 41.5 -109.5v-377c0 -8.66699 -4 -13 -12 -13h-42
c-8 0 -12 4 -12 12v361c0 74.667 -37 112 -111 112c-30.667 0 -58.5 -6.33301 -83.5 -19s-56.5 -34.667 -94.5 -66v-388c0 -8 -4.33301 -12 -13 -12h-41c-8 0 -12 4 -12 12zM300 912.001c-4.66699 4.66699 -8 7.00098 -10 7.00098s-5.66699 -2.33301 -11 -7l-59 -49
c-3.33301 -2.66699 -6 -4.5 -8 -5.5s-5 -1.5 -9 -1.5h-47c-4 0 -6.33301 1 -7 3s0.666016 4.66699 3.99902 8l102 87c6.66699 6.66699 14 10 22 10h31c4.66699 0 8.66699 -1.33301 12 -4s5.33301 -4.33398 6 -5.00098l100 -88c8.66699 -7.33301 8.33398 -11 -0.999023 -11
h-52c-6 0 -11.667 2.33301 -17 7z" />
    <glyph glyph-name="Hbar" unicode="&#x126;" horiz-adv-x="722" 
d="M718 615v-27.999c0 -8.66699 -5.33301 -13 -16 -13h-72v-562c0 -8 -4 -12 -12 -12h-50c-8.66699 0 -13 4 -13 12v334c0 6 -3 9 -9 9h-356c-2.66699 0 -4.66699 -0.833008 -6 -2.5s-2 -3.5 -2 -5.5v-335c0 -8 -4.33301 -12 -13 -12h-50c-8 0 -12 4 -12 12v562h-91
c-8 0 -12 4 -12 12v28c0 7.33301 3 11 9 11h94v105c0 4.66699 0.833008 7.83398 2.5 9.50098s4.5 2.5 8.5 2.5h54c4 0 6.66699 -0.833008 8 -2.5s2 -4.83398 2 -9.50098v-105h373v106c0 7.33301 3 11 9 11h55c4 0 6.83301 -0.833008 8.5 -2.5s2.5 -4.83398 2.5 -9.50098
v-105h79c6 0 9 -3.33301 9 -10zM555 574.001h-373v-147c0 -4.66699 0.833008 -7.66699 2.5 -9s4.5 -2 8.5 -2h352c6.66699 0 10 3.33301 10 10v148z" />
    </font>
</defs>
</svg>
