<?xml version="1.0" standalone="no"?>
<!DOCTYPE svg PUBLIC "-//W3C//DTD SVG 1.1//EN" "http://www.w3.org/Graphics/SVG/1.1/DTD/svg11.dtd" >
<svg>
<metadata>
Created by FontForge 20090914 at Wed Jun 28 20:16:09 2017
 By www-data
Copyright (c) 2015, Impallari Type (www.impallari.com)
</metadata>
<defs>
<font id="LibreFranklin-Medium" horiz-adv-x="0" >
  <font-face 
    font-family="Libre Franklin Medium"
    font-weight="500"
    font-stretch="normal"
    units-per-em="1000"
    panose-1="0 0 6 0 0 0 0 0 0 0"
    ascent="800"
    descent="-200"
    x-height="529.999"
    cap-height="742"
    bbox="-378.765 -240.003 1312 964.272"
    underline-thickness="50"
    underline-position="-50"
    unicode-range="U+000D-U+FB02"
  />
<missing-glyph horiz-adv-x="685" 
d="M591 841.5c3.33301 -3.66699 5 -8.83301 5 -15.5v-962c0 -10.667 -2.66699 -18.167 -8 -22.5s-13.666 -6.5 -24.999 -6.5h-448c-10 0 -17 2 -21 6s-6 10.333 -6 19v964c0 7.33301 1.66699 13 5 17s8 6 14 6h471c5.33301 0 9.66602 -1.83301 12.999 -5.5zM540 792.001
c-2.66699 3.33301 -6.33301 5.00098 -11 5.00098h-353l368 -855v837c0 5.33301 -1.33301 9.66602 -4 12.999zM145.001 -109.998c3.33301 -3.33301 9.33301 -5.00098 18 -5.00098h344l-367 849v-828c0 -7.33301 1.66699 -12.666 5 -15.999z" />
    <glyph glyph-name="fi" unicode="fi" horiz-adv-x="633" 
d="M364 517l0.000976562 -52.002c0 -7.33301 -4.33301 -11 -13 -11h-104c-6 0 -9 -3 -9 -9v-429c0 -10.667 -4.33301 -16 -13 -16h-81c-8 0 -12 4.66699 -12 14v432c0 5.33301 -2.33301 8 -7 8h-90c-8 0 -12 3.66699 -12 11v52c0 8.66699 4.33301 13 13 13h86
c4 0 6.66699 0.833008 8 2.5s2 4.83398 2 9.50098v69c0 42 11.167 74.333 33.5 97s55.166 34 98.499 34h89c10 0 15 -5 15 -15l1 -47c0 -3.33301 -1.16699 -6.16602 -3.5 -8.49902s-5.5 -3.5 -9.5 -3.5h-64c-18.667 0 -32.667 -6 -42 -18s-14 -28.667 -14 -50v-61
c0 -6 3.33301 -9 10 -9h104c9.33301 0 14 -4.33301 14 -13zM565.001 635.998c0 -7.33301 -1.49902 -12.667 -4.49902 -16s-8.16699 -5 -15.5 -5h-74c-6.66699 0 -11.334 1.5 -14.001 4.5s-4 7.83301 -4 14.5v91c0 11.333 5 17 15 17h83c4 0 7.33301 -1.5 10 -4.5
s4 -6.83301 4 -11.5v-90zM562.002 18.9971c0 -7.33301 -1.49902 -12.332 -4.49902 -14.999s-8.16699 -4 -15.5 -4h-68c-6.66699 0 -11.334 1.16699 -14.001 3.5s-4 6.5 -4 12.5v499c0 5.33301 1 9.16602 3 11.499s5.66699 3.5 11 3.5h80c8 0 12 -4.66699 12 -14v-497z" />
    <glyph glyph-name="fl" unicode="fl" horiz-adv-x="634" 
d="M364 517l0.000976562 -52.002c0 -7.33301 -4.33301 -11 -13 -11h-104c-6 0 -9 -3 -9 -9v-429c0 -10.667 -4.33301 -16 -13 -16h-81c-8 0 -12 4.66699 -12 14v432c0 5.33301 -2.33301 8 -7 8h-90c-8 0 -12 3.66699 -12 11v52c0 8.66699 4.33301 13 13 13h86
c4 0 6.66699 0.833008 8 2.5s2 4.83398 2 9.50098v69c0 42 11.167 74.333 33.5 97s55.166 34 98.499 34h89c10 0 15 -5 15 -15l1 -47c0 -3.33301 -1.16699 -6.16602 -3.5 -8.49902s-5.5 -3.5 -9.5 -3.5h-64c-18.667 0 -32.667 -6 -42 -18s-14 -28.667 -14 -50v-61
c0 -6 3.33301 -9 10 -9h104c9.33301 0 14 -4.33301 14 -13zM563.001 18.998c0 -7.33301 -1.49902 -12.333 -4.49902 -15s-8.5 -4 -16.5 -4h-68c-6.66699 0 -11.334 1.16699 -14.001 3.5s-4 6.5 -4 12.5l2 711c0 10 4.33301 15 13 15h79c8.66699 0 13 -5 13 -15v-708z" />
    <glyph glyph-name=".notdef" horiz-adv-x="685" 
d="M591 841.5c3.33301 -3.66699 5 -8.83301 5 -15.5v-962c0 -10.667 -2.66699 -18.167 -8 -22.5s-13.666 -6.5 -24.999 -6.5h-448c-10 0 -17 2 -21 6s-6 10.333 -6 19v964c0 7.33301 1.66699 13 5 17s8 6 14 6h471c5.33301 0 9.66602 -1.83301 12.999 -5.5zM540 792.001
c-2.66699 3.33301 -6.33301 5.00098 -11 5.00098h-353l368 -855v837c0 5.33301 -1.33301 9.66602 -4 12.999zM145.001 -109.998c3.33301 -3.33301 9.33301 -5.00098 18 -5.00098h344l-367 849v-828c0 -7.33301 1.66699 -12.666 5 -15.999z" />
    <glyph glyph-name="uni0000" 
 />
    <glyph glyph-name="uni0000" 
 />
    <glyph glyph-name="nonmarkingreturn" unicode="&#xd;" horiz-adv-x="213" 
 />
    <glyph glyph-name="space" unicode=" " horiz-adv-x="212" 
 />
    <glyph glyph-name="exclam" unicode="!" horiz-adv-x="251" 
d="M161 213c-0.666992 -6 -2.33105 -10.168 -4.99805 -12.501s-7.66699 -3.5 -15 -3.5h-36c-6 0 -10 1 -12 3s-3.33301 5.66699 -4 11l-26 517v2c0 8 3.66699 12 11 12h102c3.33301 0 6.16602 -1.16699 8.49902 -3.5s3.16602 -5.16602 2.49902 -8.49902zM186.003 17.999
c0 -6.66699 -1.66797 -11.333 -5.00098 -14s-8.66602 -4 -15.999 -4h-85c-6 0 -10.333 1.33301 -13 4s-4 6.66699 -4 12v97c0 10 4 15 12 15h99c8 0 12 -4.33301 12 -13v-97z" />
    <glyph glyph-name="quotedbl" unicode="&#x22;" horiz-adv-x="428" 
d="M340 510c-1.33301 -6.66699 -3.16895 -11.167 -5.50195 -13.5s-7.16602 -3.5 -14.499 -3.5h-27c-6 0 -10 1 -12 3s-3.33301 5.66699 -4 11l-28 222v2c0 7.33301 3.66699 11 11 11h97c8.66699 0 12.334 -4 11.001 -12zM153.997 510
c-1.33301 -6.66699 -3.16895 -11.167 -5.50195 -13.5s-7.16602 -3.5 -14.499 -3.5h-27c-6 0 -10 1 -12 3s-3.33301 5.66699 -4 11l-28 222v2c0 7.33301 3.66699 11 11 11h97c8.66699 0 12.334 -4 11.001 -12z" />
    <glyph glyph-name="numbersign" unicode="#" horiz-adv-x="603" 
d="M575 499l-0.00292969 -34.002c0 -11.333 -6.66699 -17 -20 -17h-101l-22 -148h98c8 0 12 -3.66699 12 -11v-34c0 -11.333 -6.66699 -17 -20 -17h-99l-34 -221c-0.666992 -7.33301 -2.16699 -12.166 -4.5 -14.499s-6.83301 -3.16602 -13.5 -2.49902l-29 4
c-6.66699 1.33301 -11.167 2.83301 -13.5 4.5s-3.16602 4.83398 -2.49902 9.50098l33 220h-148l-33 -221c-1.33301 -7.33301 -3.16602 -12.166 -5.49902 -14.499s-6.5 -3.16602 -12.5 -2.49902l-30 4c-6 1.33301 -10.167 2.83301 -12.5 4.5
s-3.16602 4.83398 -2.49902 9.50098l33 220h-104c-6 0 -10 1.16699 -12 3.5s-3 6.16602 -3 11.499v34c0 8.66699 3.33301 13 10 13h118l23 148h-103c-6 0 -10 1.16699 -12 3.5s-3 6.16602 -3 11.499v34c0 8.66699 3.33301 13 10 13h117l33 219
c2.66699 9.33301 6.66699 13.666 12 12.999l39 -5c9.33301 -1.33301 13 -6.33301 11 -15l-32 -212h149l33 219c1.33301 9.33301 5.33301 13.666 12 12.999l39 -5c8 -1.33301 11.667 -6.33301 11 -15l-32 -212h99c8 0 12 -3.66699 12 -11zM390.997 447.998h-148l-22 -148h148
z" />
    <glyph glyph-name="dollar" unicode="$" horiz-adv-x="621" 
d="M557 94c-18 -29.333 -43.165 -52.8281 -75.498 -70.4951s-69.833 -27.5 -112.5 -29.5c-5.33301 -0.666992 -8.83301 -1.83398 -10.5 -3.50098s-2.5 -4.5 -2.5 -8.5v-50c0 -11.333 -5.66699 -17 -17 -17h-42c-10 0 -15 4.66699 -15 14v53
c0 4.66699 -0.666992 7.83398 -2 9.50098s-4 2.5 -8 2.5c-52.667 1.33301 -97.167 10.5 -133.5 27.5s-68.833 42.833 -97.5 77.5c-6 4.66699 -9 9.66699 -9 15c0 4 1.33301 7 4 9l41 42c5.33301 4 9.66602 6 12.999 6c4 0 7.66699 -1.66699 11 -5
c23.333 -28 48.333 -49.333 75 -64s58.334 -23.334 95.001 -26.001h4c3.33301 0 5.5 0.666992 6.5 2s1.5 3.66602 1.5 6.99902v222c0 5.33301 -1.33301 9.66602 -4 12.999s-7.33398 6.66602 -14.001 9.99902c-76.667 24 -130.834 52.5 -162.501 85.5
s-47.5 74.833 -47.5 125.5c0 53.333 19.167 98.5 57.5 135.5s90.5 59.833 156.5 68.5c3.33301 0 6.5 1.16699 9.5 3.5s4.5 5.16602 4.5 8.49902v46c0 3.33301 0.833008 6 2.5 8s3.83398 3 6.50098 3h50c8.66699 0 13 -5 13 -15v-46c0 -4 3.66699 -7 11 -9
c69.333 -10 129.333 -37.667 180 -83c4.66699 -3.33301 7 -7 7 -11c0 -2.66699 -1.66699 -5.66699 -5 -9l-40 -47c-3.33301 -3.33301 -6.33301 -5 -9 -5c-3.33301 0 -7.66602 2.66699 -12.999 8c-13.333 15.333 -30.5 28.5 -51.5 39.5s-43.833 18.833 -68.5 23.5l-4 1
c-4.66699 0 -7 -3 -7 -9v-225c0 -4 0.666992 -6.83301 2 -8.5s4.66602 -3.5 9.99902 -5.5l43 -13c55.333 -19.333 98.166 -46.5 128.499 -81.5s45.5 -76.833 45.5 -125.5c0 -36.667 -9 -69.667 -27 -99zM283.002 654.005c0 8 -4.00098 11 -12.001 9
c-37.333 -4.66699 -66.666 -17.167 -87.999 -37.5s-32 -45.5 -32 -75.5c0 -24 8.33301 -44.833 25 -62.5s45.667 -34.5 87 -50.5c2 -0.666992 4.66699 -1 8 -1c8 0 12 5.33301 12 16v202zM366.001 76.0049c36.667 2 65.999 12.833 87.999 32.5s33 44.167 33 73.5
c0 28 -9.16699 51.5 -27.5 70.5s-48.166 35.833 -89.499 50.5c-2 0.666992 -4.33301 1 -7 1s-4.5 -0.666992 -5.5 -2s-1.5 -4 -1.5 -8v-212c0 -4.66699 3.33301 -6.66699 10 -6z" />
    <glyph glyph-name="percent" unicode="%" horiz-adv-x="925" 
d="M319 726.5c26.667 -17.667 47.667 -42.667 63 -75s23 -69.166 23 -110.499s-7.5 -78 -22.5 -110s-35.833 -56.833 -62.5 -74.5s-57 -26.5 -91 -26.5s-64.5 8.83301 -91.5 26.5s-48.167 42.5 -63.5 74.5s-23 68.667 -23 110s7.66699 78.166 23 110.499
s36.5 57.333 63.5 75s57.5 26.5 91.5 26.5c33.333 0 63.333 -8.83301 90 -26.5zM254 6c-2 -4 -4.5 -6.66699 -7.5 -8s-7.16699 -2 -12.5 -2h-31c-8.66699 0 -13 3.66699 -13 11c0 4 1.33301 7.66699 4 11l481 724c2 3.33301 4.33301 5.5 7 6.5s6.33398 1.5 11.001 1.5h39
c4.66699 0 7.66699 -1.16699 9 -3.5s0.666016 -5.5 -2.00098 -9.5zM299.5 429c17 27.333 25.5 64.333 25.5 111c0 47.333 -8.5 85 -25.5 113s-40.833 42 -71.5 42s-54.5 -14 -71.5 -42s-25.5 -65.667 -25.5 -113c0 -46.667 8.5 -83.667 25.5 -111s40.833 -41 71.5 -41
s54.5 13.667 71.5 41zM788 386.5c26.667 -17.667 47.666 -42.667 62.999 -75s23 -69.166 23 -110.499s-7.5 -78 -22.5 -110s-35.833 -56.833 -62.5 -74.5s-57 -26.5 -91 -26.5s-64.667 8.83301 -92 26.5s-48.666 42.5 -63.999 74.5s-23 68.667 -23 110
s7.83301 78.166 23.5 110.499s37 57.333 64 75s57.5 26.5 91.5 26.5c33.333 0 63.333 -8.83301 90 -26.5zM767.999 89.5c17.333 27.667 26 64.5 26 110.5c0 46.667 -8.66699 84.167 -26 112.5s-41 42.5 -71 42.5s-53.667 -14.333 -71 -43s-26 -66 -26 -112
c0 -45.333 8.66699 -82 26 -110s41 -42 71 -42s53.667 13.833 71 41.5z" />
    <glyph glyph-name="ampersand" unicode="&#x26;" horiz-adv-x="797" 
d="M493 711c37.333 -28 55.9971 -65.002 55.9971 -111.002c0 -36.667 -14.333 -72.167 -43 -106.5s-70.667 -64.166 -126 -89.499c-5.33301 -2 -8 -4.33301 -8 -7c0 -1.33301 1.66699 -4.33301 5 -9l141 -162c3.33301 -4 6 -6 8 -6s5.66699 2.66699 11 8
c21.333 21.333 43.333 48.833 66 82.5s38 61.5 46 83.5c1.33301 4 3.83301 6.5 7.5 7.5s7.5 0.833008 11.5 -0.5l52 -17c4 -1.33301 7 -4 9 -8s2.33301 -7.66699 1 -11c-10 -27.333 -27.167 -59 -51.5 -95s-51.833 -71 -82.5 -105c-3.33301 -4.66699 -5 -7.66699 -5 -9
s1 -3 3 -5l4 -4c18 -15.333 41.333 -28.166 70 -38.499s57 -15.833 85 -16.5c10.667 0 16 -5 16 -15v-57c0 -7.33301 -1.5 -12.5 -4.5 -15.5s-7.83301 -4.5 -14.5 -4.5c-40 -0 -81.5 7.33301 -124.5 22s-79.167 33.334 -108.5 56.001
c-3.33301 2.66699 -6.66602 4 -9.99902 4c-4 0 -7.66699 -1.66699 -11 -5c-66 -54.667 -141.667 -82 -227 -82c-71.333 0 -127.333 17.5 -168 52.5s-61 82.5 -61 142.5c0 40 12.333 76.667 37 110s64.667 66.333 120 99c6.66699 4 10 7.66699 10 11s-2.66699 8 -8 14
c-43.333 45.333 -65 93.666 -65 144.999c0 34.667 9.33301 66 28 94s44.334 50 77.001 66s69.334 24 110.001 24c58.667 0 106.667 -14 144 -42zM272.497 651.498c-20.333 -21 -30.5 -46.167 -30.5 -75.5c0 -28 12.333 -55.333 37 -82l29 -34c2 -2 5 -3 9 -3
c2 0 5 0.666992 9 2c44 20.667 76 42.167 96 64.5s30 46.833 30 73.5c0 27.333 -9.33301 48.5 -28 63.5s-42 22.5 -70 22.5c-34 0 -61.167 -10.5 -81.5 -31.5zM265.997 342.998c-4 0 -8.33594 -1.33301 -13.0029 -4c-30.667 -15.333 -54.667 -35.5 -72 -60.5
s-26 -51.5 -26 -79.5c0 -34.667 12.833 -63.667 38.5 -87s57.834 -35 96.501 -35c24.667 0 49.834 5.16699 75.501 15.5s47.834 23.833 66.501 40.5c5.33301 5.33301 8 9.66602 8 12.999c0 2.66699 -1.66699 6.33398 -5 11.001l-154 177c-4.66699 6 -9.66699 9 -15 9z" />
    <glyph glyph-name="quotesingle" unicode="'" horiz-adv-x="242" 
d="M154 510c-1.33301 -6.66699 -3.16895 -11.167 -5.50195 -13.5s-7.16602 -3.5 -14.499 -3.5h-27c-6 0 -10 1 -12 3s-3.33301 5.66699 -4 11l-28 222v2c0 7.33301 3.66699 11 11 11h97c8.66699 0 12.334 -4 11.001 -12z" />
    <glyph glyph-name="parenleft" unicode="(" horiz-adv-x="294" 
d="M275.5 738.5c1 -2.33301 0.835938 -4.5 -0.49707 -6.5c-35.333 -69.333 -63.166 -142.333 -83.499 -219s-30.5 -153 -30.5 -229c0 -73.333 9 -145.333 27 -216s45 -144.667 81 -222c0.666992 -0.666992 1 -2 1 -4c0 -4.66699 -3 -7 -9 -7h-51
c-4.66699 0 -9.33398 2.66699 -14.001 8c-44.667 77.333 -78.334 150.333 -101.001 219s-34 143 -34 223s12.667 158.333 38 235s59.666 147.667 102.999 213c5.33301 6 11.666 9 18.999 9h47c4 0 6.5 -1.16699 7.5 -3.5z" />
    <glyph glyph-name="parenright" unicode=")" horiz-adv-x="294" 
d="M73 742c7.33301 0 13.6689 -3 19.002 -9c43.333 -65.333 77.666 -136.333 102.999 -213s38 -155 38 -235s-11.333 -154.333 -34 -223s-56.334 -141.667 -101.001 -219c-4.66699 -5.33301 -9.33398 -8 -14.001 -8h-51c-4 0 -6.66699 1.16699 -8 3.5
s-1.33301 4.83301 0 7.5c36 77.333 63 151.333 81 222s27 142.667 27 216c0 76 -10.167 152.333 -30.5 229s-48.166 149.667 -83.499 219c-0.666992 0.666992 -1 2 -1 4c0 4 2.66699 6 8 6h47z" />
    <glyph glyph-name="asterisk" unicode="*" horiz-adv-x="407" 
d="M211 510c-2 2.66699 -4.33105 2.66602 -6.99805 -0.000976562l-75 -121c-0.666992 -2.66699 -3 -4 -7 -4c-3.33301 0 -6.33301 1 -9 3l-41 28c-6 4.66699 -6.66699 9.66699 -2 15l87 107c1.33301 2 1.66602 3.83301 0.999023 5.5s-2.33398 2.83398 -5.00098 3.50098
l-119 34c-2.66699 0.666992 -4.5 2.33398 -5.5 5.00098s-0.833008 5.66699 0.5 9l16 44c2 6 6 7.66699 12 5l113 -46c6 -2 9 -0.333008 9 5l-9 129v2c0 2 1 3.83301 3 5.5s4.33301 2.5 7 2.5h55c6 0 9 -3.33301 9 -10l-9 -129c0 -6 2.33301 -8 7 -6l116 50
c2.66699 1.33301 4.66699 2 6 2c3.33301 0 6 -2.66699 8 -8l13 -43c0.666992 -1.33301 1 -3 1 -5c0 -4 -2.33301 -7 -7 -9l-117 -37c-2.66699 -0.666992 -4.16699 -1.83398 -4.5 -3.50098s0.5 -3.5 2.5 -5.5l82 -102c2 -2 3 -4.33301 3 -7c0 -3.33301 -2.33301 -7 -7 -11
l-37 -26c-2.66699 -2.66699 -6 -4 -10 -4s-7 1.66699 -9 5z" />
    <glyph glyph-name="plus" unicode="+" horiz-adv-x="565" 
d="M509 402v-52.999c0 -6 -1.5 -10.167 -4.5 -12.5s-8.16699 -3.5 -15.5 -3.5h-165v-174c0 -7.33301 -4 -11 -12 -11h-52c-11.333 0 -17 6.33301 -17 19v165h-170c-6 0 -10 1.16699 -12 3.5s-3 6.16602 -3 11.499v52c0 9.33301 3.33301 14 10 14h175v170
c0 6 1 10.167 3 12.5s5.66699 3.5 11 3.5h53c8.66699 0 13 -3.66699 13 -11v-175h174c8 0 12 -3.66699 12 -11z" />
    <glyph glyph-name="comma" unicode="," horiz-adv-x="225" 
d="M43.5 -142c-1.66699 3.33301 -1.5 7 0.5 11l46 112c2 4 3 7.33301 3 10c0 6 -3.66699 9 -11 9h-15c-10.667 0 -16 4.66699 -16 14v101c0 8.66699 4 13 12 13h100c7.33301 0 11 -4 11 -12v-93c0 -4 -0.666992 -8.66699 -2 -14l-81 -143c-6.66699 -8.66699 -15 -13 -25 -13
h-14c-4 0 -6.83301 1.66699 -8.5 5z" />
    <glyph glyph-name="hyphen" unicode="-" horiz-adv-x="381" 
d="M323 240c0 -10.667 -6.66797 -16 -20.001 -16h-230c-5.33301 0 -9.16602 1 -11.499 3s-3.5 5.66699 -3.5 11v53c0 9.33301 3.66699 14 11 14h242c8 0 12 -3.66699 12 -11v-54z" />
    <glyph glyph-name="period" unicode="." horiz-adv-x="222" 
d="M172 18c0 -6.66699 -1.66602 -11.333 -4.99902 -14s-9 -4 -17 -4h-85c-11.333 -0 -17 5.33301 -17 16v99c0 4.66699 1.16699 8.16699 3.5 10.5s5.16602 3.5 8.49902 3.5h100c8 0 12 -4.33301 12 -13v-98z" />
    <glyph glyph-name="slash" unicode="/" horiz-adv-x="349" 
d="M10 -24l251 755c2 7.33301 7 11 15 11h51c8 0 12 -3 12 -9c0 -4 -0.666992 -7.33301 -2 -10l-245 -743c-3.33301 -10 -10.333 -15 -21 -15h-51c-8.66699 0 -12 3.66699 -10 11z" />
    <glyph glyph-name="zero" unicode="0" horiz-adv-x="694" 
d="M496 706.5c43.333 -30.333 77.334 -74.335 102.001 -132.002s37 -126.167 37 -205.5c0 -78.667 -12.333 -146.5 -37 -203.5s-58.667 -100.333 -102 -130s-93 -44.5 -149 -44.5s-105.667 14.833 -149 44.5s-77.333 72.834 -102 129.501s-37 124.334 -37 203.001
c0 79.333 12.5 148 37.5 206s59.333 102.167 103 132.5s93.167 45.5 148.5 45.5s104.666 -15.167 147.999 -45.5zM470.001 149.498c28 46.333 42.001 119.5 42.001 219.5c0 196.667 -55 295 -165 295c-52.667 0 -93.334 -24 -122.001 -72s-43 -122.333 -43 -223
c0 -99.333 14.333 -172.333 43 -219s69.667 -70 123 -70s94 23.167 122 69.5z" />
    <glyph glyph-name="one" unicode="1" horiz-adv-x="479" 
d="M440 81l0.00195312 -67.999c0 -4 -1.33301 -7.16699 -4 -9.5s-6.33398 -3.5 -11.001 -3.5h-364c-9.33301 0 -14 4 -14 12v69c0 7.33301 4.33301 11 13 11h119c6 0 9 2 9 6v509c0 4.66699 -0.833008 7.66699 -2.5 9s-4.5 1.33301 -8.5 0l-115 -40
c-1.33301 -0.666992 -3 -1 -5 -1c-7.33301 0 -11 5 -11 15v48c0 5.33301 0.666992 9 2 11s4.33301 4.33301 9 7l155 77c7.33301 3.33301 13.166 5.66602 17.499 6.99902s9.83301 2 16.5 2h51c8 0 12 -4.66699 12 -14v-627c0 -6 2.33301 -9 7 -9h110
c9.33301 0 14 -3.66699 14 -11z" />
    <glyph glyph-name="two" unicode="2" horiz-adv-x="613" 
d="M283 314c40 36.667 70.833 67.332 92.5 91.999s37 47.5 46 68.5s13.5 43.167 13.5 66.5c0 37.333 -13.333 66.666 -40 87.999s-58.667 32 -96 32c-30 0 -59.167 -8.16699 -87.5 -24.5s-53.5 -41.833 -75.5 -76.5c-2 -4 -5.66699 -6 -11 -6c-3.33301 0 -7 1 -11 3l-58 32
c-6 5.33301 -9 10 -9 14c0 4.66699 1.33301 8.66699 4 12c30.667 46 68 80.333 112 103s92.333 34 145 34c46 0 87.5 -8.16699 124.5 -24.5s66.333 -40.666 88 -72.999s32.5 -71.166 32.5 -116.499c0 -42 -11.5 -81.167 -34.5 -117.5s-63.167 -80.5 -120.5 -132.5l-197 -175
c-3.33301 -3.33301 -5 -5.66602 -5 -6.99902c0 -3.33301 3.66699 -5 11 -5h339c10 0 15 -4.33301 15 -13v-74c0 -9.33301 -5 -14 -15 -14h-482c-7.33301 0 -12.333 1.16699 -15 3.5s-4 6.83301 -4 13.5v53c0 6.66699 2 13.167 6 19.5s13 15.166 27 26.499z" />
    <glyph glyph-name="three" unicode="3" horiz-adv-x="649" 
d="M70 642c0 2.66699 1.00293 6.00293 3.00293 10.0029c29.333 32.667 64.666 57.5 105.999 74.5s86 25.5 134 25.5c52.667 0 98.5 -8.16699 137.5 -24.5s69 -38.833 90 -67.5s31.5 -61.334 31.5 -98.001c0 -35.333 -10.833 -67.333 -32.5 -96s-51.834 -49.667 -90.501 -63
c-8 -2.66699 -12 -5.33398 -12 -8.00098s3.66699 -5 11 -7c43.333 -12.667 78.666 -35 105.999 -67s41 -69.667 41 -113c0 -66.667 -25.167 -119.667 -75.5 -159s-123.5 -59 -219.5 -59c-52.667 0 -101.167 9.5 -145.5 28.5s-81.833 46.833 -112.5 83.5
c-2.66699 4 -4 7 -4 9c0 4 2.66699 8 8 12l54 40c4.66699 3.33301 8 5 10 5c1.33301 0 4 -1.33301 8 -4c30 -30.667 59.5 -52.5 88.5 -65.5s62.833 -19.5 101.5 -19.5c52.667 0 93.834 11.5 123.501 34.5s44.5 53.5 44.5 91.5c0 41.333 -16.833 74.166 -50.5 98.499
s-74.5 36.833 -122.5 37.5l-87 1c-9.33301 0 -14 3.66699 -14 11v65c0 6 4.66699 9.66699 14 11l70 2c48 0.666992 88 12.667 120 36s48 53 48 89c0 30.667 -13.333 56.5 -40 77.5s-60.334 31.5 -101.001 31.5c-32.667 0 -63 -6.33301 -91 -19s-55.333 -31.667 -82 -57
c-4 -4 -7.33301 -6 -10 -6s-6 2 -10 6l-47 45c-2 3.33301 -3 6 -3 8z" />
    <glyph glyph-name="four" unicode="4" horiz-adv-x="661" 
d="M391 739.5c4 1.66699 9.66699 2.5 17 2.5h86c8.66699 0 13 -4.66699 13 -14v-440c0 -6.66699 3 -10 9 -10h90c10 0 15 -4 15 -12v-60c0 -10 -5 -15 -15 -15h-89c-6.66699 0 -10 -3.33301 -10 -10v-164c0 -6 -1.5 -10.333 -4.5 -13s-7.83301 -4 -14.5 -4h-87
c-10.667 -0 -16 5.33301 -16 16v168c0 4.66699 -3.33301 7 -10 7h-316c-11.333 0 -17 5 -17 15v61c0 9.33301 6.33301 22 19 38l318 424c4 5.33301 8 8.83301 12 10.5zM375 278c2.66699 0 4.83203 0.666992 6.49902 2s2.5 3 2.5 5v307c0 8.66699 -1.33301 13 -4 13
c-1.33301 0 -4.66602 -3 -9.99902 -9l-224 -305c-2 -2.66699 -3 -5 -3 -7c0 -4 3.33301 -6 10 -6h222z" />
    <glyph glyph-name="five" unicode="5" horiz-adv-x="661" 
d="M550 742c8 0 13.0039 -1 15.0039 -3s2.66699 -6.66699 2 -14l-4 -68c-0.666992 -6 -2 -9.83301 -4 -11.5s-6 -2.5 -12 -2.5h-333c-8.66699 0 -13.334 -4 -14.001 -12l-15 -189v-4c0 -3.33301 1.16699 -5.83301 3.5 -7.5s5.16602 -1.83398 8.49902 -0.500977
c34 14.667 61.5 25.334 82.5 32.001s46.5 10 76.5 10c47.333 0 90.166 -8.5 128.499 -25.5s68.833 -42.667 91.5 -77s34 -76.5 34 -126.5c0 -52 -12.333 -97.167 -37 -135.5s-58.834 -67.5 -102.501 -87.5s-93.834 -30 -150.501 -30c-55.333 0 -106.5 9.5 -153.5 28.5
s-85.5 45.833 -115.5 80.5c-4 5.33301 -6 9.66602 -6 12.999c0 4.66699 2.66699 8.66699 8 12l55 42c3.33301 2 6 3 8 3c4 0 8 -2 12 -6c30.667 -29.333 58.5 -50.833 83.5 -64.5s56.5 -20.5 94.5 -20.5c58 0 103.333 14.833 136 44.5s49 68.5 49 116.5
c0 46 -14.667 81.667 -44 107s-67.333 38 -114 38c-28.667 0 -54.5 -4.5 -77.5 -13.5s-49.833 -22.167 -80.5 -39.5c-5.33301 -2.66699 -9 -4 -11 -4c-1.33301 0 -4.66602 1.66699 -9.99902 5l-62 35c-3.33301 1.33301 -5.83301 2.83301 -7.5 4.5s-2.5 3.83398 -2.5 6.50098
l2 14l27 333c0.666992 7.33301 2.5 12 5.5 14s10.167 3 21.5 3h412z" />
    <glyph glyph-name="six" unicode="6" horiz-adv-x="669" 
d="M499 719c36 -21.333 62.3301 -46.9971 78.9971 -76.9971l2 -8c0 -4.66699 -2.33301 -8 -7 -10l-73 -27c-1.33301 -0.666992 -3 -1 -5 -1c-4.66699 0 -8.66699 3 -12 9c-14.667 19.333 -30.667 33.833 -48 43.5s-38.666 14.5 -63.999 14.5
c-63.333 0 -111.166 -22.333 -143.499 -67s-48.5 -103.334 -48.5 -176.001c0 -8.66699 0.5 -14.834 1.5 -18.501s3.16699 -5.5 6.5 -5.5c0.666992 0 4.33398 1.33301 11.001 4c33.333 15.333 62.5 26.833 87.5 34.5s54.167 11.5 87.5 11.5c50 0 93.667 -9.33301 131 -28
s66 -44.5 86 -77.5s30 -70.5 30 -112.5c0 -46 -11.833 -87 -35.5 -123s-56 -64 -97 -84s-86.167 -30 -135.5 -30c-60 0 -112 14.667 -156 44s-77.833 71.5 -101.5 126.5s-35.5 120.5 -35.5 196.5c0 80.667 12.667 150.667 38 210s61.333 104.666 108 135.999
s101.667 47 165 47c50 0 93 -10.667 129 -32zM270.997 350.003c-30 -8 -54.001 -18 -72.001 -30c-7.33301 -5.33301 -12.166 -10.5 -14.499 -15.5s-3.5 -13.167 -3.5 -24.5c0 -32.667 6.5 -64.667 19.5 -96s32.167 -57.333 57.5 -78s56 -31 92 -31c28 0 53.5 6.5 76.5 19.5
s41.167 31 54.5 54s20 48.167 20 75.5c0 40 -13.667 73 -41 99s-63 39 -107 39c-24.667 0 -52 -4 -82 -12z" />
    <glyph glyph-name="seven" unicode="7" horiz-adv-x="606" 
d="M546 742c6 0 10.667 -1.50098 14 -4.50098s5 -6.5 5 -10.5l-2 -42c0 -10.667 -6 -24.667 -18 -42c-40.667 -61.333 -79.5 -131.666 -116.5 -210.999s-67.833 -156 -92.5 -230s-40 -134 -46 -180c-0.666992 -14.667 -6.33398 -22 -17.001 -22h-104
c-12.667 0 -17.334 6.66699 -14.001 20c22.667 86 56.334 180.5 101.001 283.5s103.334 211.5 176.001 325.5c2 3.33301 3 6.33301 3 9c0 3.33301 -3.33301 5 -10 5h-372c-10 0 -14.667 5 -14 15l7 73c0.666992 7.33301 7 11 19 11h481z" />
    <glyph glyph-name="eight" unicode="8" horiz-adv-x="673" 
d="M466 726c38.667 -17.333 68.666 -41.667 89.999 -73s32 -66.666 32 -105.999c0 -30 -7.83301 -57 -23.5 -81s-40.834 -47.667 -75.501 -71c-5.33301 -3.33301 -8 -6.33301 -8 -9s2.33301 -5 7 -7c46 -20 79.667 -44.667 101 -74s32 -64 32 -104
c0 -43.333 -12 -80.833 -36 -112.5s-58 -56 -102 -73s-94.667 -25.5 -152 -25.5c-84.667 0 -152 17.167 -202 51.5s-75 81.833 -75 142.5c0 35.333 9 66.5 27 93.5s47.333 53.167 88 78.5c8 5.33301 12 9 12 11c0 2.66699 -3.66699 6 -11 10c-30 18 -53.5 39.5 -70.5 64.5
s-25.5 55.5 -25.5 91.5c0 40.667 10.833 77.667 32.5 111s52.334 59.666 92.001 78.999s84.834 29 135.501 29c49.333 0 93.333 -8.66699 132 -26zM230.999 632.999c-28 -23.333 -41.999 -52.666 -41.999 -87.999c0 -26.667 7.66699 -48.834 23 -66.501
s38.333 -30.167 69 -37.5l95 -23c12.667 -3.33301 27.667 1.16699 45 13.5s32.166 29.333 44.499 51s18.5 43.167 18.5 64.5c0 35.333 -13.333 64.333 -40 87s-62.667 34 -108 34c-42 0 -77 -11.667 -105 -35zM457.5 106.499c29.667 21.667 44.499 50.832 44.499 87.499
c0 28 -7.66699 50.833 -23 68.5s-40.333 30.834 -75 39.501l-119 31c-2 0.666992 -5.33301 1 -10 1c-14.667 0 -31.167 -6.16699 -49.5 -18.5s-33.833 -28.833 -46.5 -49.5s-19 -43 -19 -67c0 -39.333 15 -70 45 -92s74 -33 132 -33c50.667 0 90.834 10.833 120.501 32.5z
" />
    <glyph glyph-name="nine" unicode="9" horiz-adv-x="666" 
d="M167 23c-36.667 21.333 -63.9951 46.998 -81.9951 76.998c-1.33301 4 -2 7 -2 9c0 4 2.33301 7 7 9l73 27c1.33301 0.666992 3 1 5 1c4 0 8 -2.66699 12 -8c14.667 -19.333 31.167 -34 49.5 -44s41.5 -15 69.5 -15c61.333 0 108 22.333 140 67s48 103.334 48 176.001
c0 16 -2.66699 24 -8 24c-0.666992 0 -4.33398 -1.33301 -11.001 -4c-32.667 -15.333 -61.334 -26.833 -86.001 -34.5s-53.334 -11.5 -86.001 -11.5c-50 0 -93.667 9.33301 -131 28s-66 44.5 -86 77.5s-30 70.5 -30 112.5c0 46 11.833 87 35.5 123s56 64 97 84
s86.5 30 136.5 30c59.333 0 110.666 -14.667 153.999 -44s76.666 -71.5 99.999 -126.5s35 -120.5 35 -196.5c0 -80.667 -12.5 -150.667 -37.5 -210s-60.667 -104.666 -107 -135.999s-100.833 -47 -163.5 -47c-51.333 0 -95.333 10.667 -132 32zM397.005 392.998
c29.333 8.66699 53 19.667 71 33c7.33301 5.33301 12.166 10.5 14.499 15.5s3.5 13.167 3.5 24.5c0 32 -6.33301 63.5 -19 94.5s-31.667 56.5 -57 76.5s-55.666 30 -90.999 30c-28 0 -53.5 -6.5 -76.5 -19.5s-41 -30.833 -54 -53.5s-19.5 -47.667 -19.5 -75
c0 -40 13.5 -73.167 40.5 -99.5s61.833 -39.5 104.5 -39.5c26 0 53.667 4.33301 83 13z" />
    <glyph glyph-name="colon" unicode=":" horiz-adv-x="222" 
d="M172 401c0 -6.66699 -1.66602 -11.333 -4.99902 -14s-9 -4 -17 -4h-85c-11.333 0 -17 5.33301 -17 16v97c0 4.66699 1.16699 8.16699 3.5 10.5s5.16602 3.5 8.49902 3.5h100c8 0 12 -4.33301 12 -13v-96zM172.001 21.001c0 -6.66699 -1.66699 -11.333 -5 -14
s-9 -4 -17 -4h-85c-11.333 0 -17 5.66699 -17 17v96c0 10 4 15 12 15h100c8 0 12 -4.33301 12 -13v-97z" />
    <glyph glyph-name="semicolon" unicode=";" horiz-adv-x="238" 
d="M48 396l0.000976562 99.001c0 4.66699 1.16699 8.16699 3.5 10.5s5.16602 3.5 8.49902 3.5h100c8 0 12 -4.33301 12 -13v-98c0 -6.66699 -1.66699 -11.334 -5 -14.001s-9 -4 -17 -4h-85c-11.333 0 -17 5.33301 -17 16zM43.501 -142.999c-1.66699 3.33301 -1.5 7 0.5 11
l46 113c2 4 3 7.33301 3 10c0 6 -3.66699 9 -11 9h-15c-10.667 0 -16 4.66699 -16 14v101c0 8.66699 4 13 12 13h100c7.33301 0 11 -4 11 -12v-93c0 -4 -0.666992 -8.66699 -2 -14l-81 -144c-6 -8.66699 -14.333 -13 -25 -13h-14c-4 0 -6.83301 1.66699 -8.5 5z" />
    <glyph glyph-name="less" unicode="&#x3c;" horiz-adv-x="554" 
d="M490 162c0 -12.667 -5 -18.999 -15 -18.999c-4 0 -7.33301 0.666992 -10 2l-399 156c-10.667 3.33301 -16 10 -16 20v66c0 5.33301 1.33301 9.66602 4 12.999s6.66699 6 12 8l399 157c5.33301 1.33301 8.66602 2 9.99902 2c4.66699 0 8.5 -1.5 11.5 -4.5
s4.5 -7.16699 4.5 -12.5v-55c0 -6 -2.16699 -11 -6.5 -15s-11.166 -8 -20.499 -12l-291 -114l291 -113c10 -4.66699 16.833 -8.66699 20.5 -12s5.5 -8.33301 5.5 -15v-52z" />
    <glyph glyph-name="equal" unicode="=" horiz-adv-x="565" 
d="M509 448c0 -11.333 -6.66602 -17.001 -19.999 -17.001h-416c-6 0 -10 1 -12 3s-3 5.66699 -3 11v53c0 8.66699 3.33301 13 10 13l429 1c3.33301 0 6.16602 -1.16699 8.49902 -3.5s3.5 -5.16602 3.5 -8.49902v-52zM509.001 218.999c0 -6 -1.5 -10.167 -4.5 -12.5
s-8.16699 -3.5 -15.5 -3.5l-416 -1c-6 0 -10 1.16699 -12 3.5s-3 5.83301 -3 10.5v53c0 9.33301 3.33301 14 10 14h429c8 0 12 -4 12 -12v-52z" />
    <glyph glyph-name="greater" unicode="&#x3e;" horiz-adv-x="554" 
d="M70 229.5c4 3.66699 10.999 7.5 20.999 11.5l291 113l-292 114c-9.33301 3.33301 -16 7.16602 -20 11.499s-6 9.5 -6 15.5v55c0 5.33301 1.33301 9.5 4 12.5s6.33398 4.5 11.001 4.5c2.66699 0 6 -0.666992 10 -2l399 -157c11.333 -4.66699 17 -11.667 17 -21v-66
c0 -10 -5.66699 -16.667 -17 -20l-399 -156c-2 -1.33301 -5.33301 -2 -10 -2c-10 0 -15 6.33301 -15 19v52c0 6.66699 2 11.834 6 15.501z" />
    <glyph glyph-name="question" unicode="?" horiz-adv-x="527" 
d="M22 612c21.333 44 53.334 78.333 96.001 103s91.667 37 147 37c45.333 0 85.5 -7.66699 120.5 -23s62 -36.5 81 -63.5s28.5 -57.5 28.5 -91.5c0 -36.667 -8.5 -68 -25.5 -94s-42.5 -55.333 -76.5 -88c-33.333 -32 -58.5 -60.833 -75.5 -86.5s-25.5 -56.167 -25.5 -91.5
c0 -4 -1.33301 -7.5 -4 -10.5s-6 -4.5 -10 -4.5h-59c-10.667 0 -16 5.66699 -16 17c0 31.333 5 59.5 15 84.5s22 46.667 36 65s32.333 39.5 55 63.5c26.667 28.667 46.5 53.167 59.5 73.5s19.5 42.833 19.5 67.5c0 31.333 -11.5 56.5 -34.5 75.5s-52.833 28.5 -89.5 28.5
c-32 0 -62.333 -8.66699 -91 -26s-48.334 -39 -59.001 -65c-1.33301 -3.33301 -3 -5.5 -5 -6.5s-5.33301 -1.16699 -10 -0.5l-71 20c-6.66699 2.66699 -8.66699 8 -6 16zM309.001 18c0 -6.66699 -1.66797 -11.333 -5.00098 -14s-8.66602 -4 -15.999 -4h-86
c-6 -0 -10.167 1.33301 -12.5 4s-3.5 6.66699 -3.5 12v97c0 10 4 15 12 15h99c8 0 12 -4.33301 12 -13v-97z" />
    <glyph glyph-name="at" unicode="@" horiz-adv-x="834" 
d="M558 -95c-38.667 -12 -80.3271 -18.0029 -124.994 -18.0029c-79.333 0 -148.333 16.667 -207 50s-103.5 78.333 -134.5 135s-46.5 119.667 -46.5 189c0 72 16.833 138.667 50.5 200s81.167 110 142.5 146s131.666 54 210.999 54c62 0 120 -11.667 174 -35
s97.833 -59.166 131.5 -107.499s50.5 -108.166 50.5 -179.499c0 -50 -8.33301 -94.5 -25 -133.5s-39.834 -69.5 -69.501 -91.5s-62.834 -33 -99.501 -33c-50.667 0 -81.334 17 -92.001 51c-2 4.66699 -3.66699 7 -5 7s-3.66602 -2 -6.99902 -6
c-34.667 -44 -80.667 -66 -138 -66c-26 0 -50 7.16699 -72 21.5s-39.5 34.666 -52.5 60.999s-19.5 56.833 -19.5 91.5c0 42 8.16699 80.833 24.5 116.5s39.5 64.167 69.5 85.5s64 32 102 32c49.333 0 87 -20 113 -60c2 -1.33301 3.66699 -1.66602 5 -0.999023
s2.33301 2.33398 3 5.00098l6 24c0.666992 4 3.66699 6 9 6h53c5.33301 0 7.66602 -2.33301 6.99902 -7l-37 -219c-2 -10.667 -3 -20 -3 -28c0 -30.667 13.333 -46 40 -46c20.667 0 39.667 7.33301 57 22s31.166 36 41.499 64s15.5 60.667 15.5 98
c0 60 -13.333 109.667 -40 149s-61.334 67.833 -104.001 85.5s-88.667 26.5 -138 26.5c-69.333 0 -128.833 -14.833 -178.5 -44.5s-87.167 -69.834 -112.5 -120.501s-38 -106.667 -38 -168c0 -60.667 12.833 -114.334 38.5 -161.001s63 -83.167 112 -109.5
s107.833 -39.5 176.5 -39.5c39.333 0 70.833 4.5 94.5 13.5s50.5 23.167 80.5 42.5c3.33301 2.66699 7 4 11 4s7 -1.66699 9 -5l23 -32c2 -3.33301 3 -5.66602 3 -6.99902c0 -3.33301 -3.33301 -7.66602 -10 -12.999c-28 -20.667 -61.333 -37 -100 -49zM329.507 168.997
c13.667 -20 32.833 -30.001 57.5 -30.001c23.333 0 44.5 7.33301 63.5 22s34.167 34.167 45.5 58.5s17 49.833 17 76.5c0 33.333 -8.33301 59.5 -25 78.5s-37 28.5 -61 28.5c-34 0 -62.167 -14.667 -84.5 -44s-33.5 -65.666 -33.5 -108.999c0 -34 6.83301 -61 20.5 -81z" />
    <glyph glyph-name="A" unicode="A" horiz-adv-x="741" 
d="M41 12l2 9l255 705c2 6 4.66699 10.167 8 12.5s8 3.5 14 3.5h101c12.667 0 21 -5.66699 25 -17l253 -705c0.666992 -1.33301 1 -3.66602 1 -6.99902c0 -8.66699 -3.66699 -13 -11 -13h-95c-8.66699 0 -14.334 4 -17.001 12l-64 178
c-1.33301 3.33301 -2.66602 5.66602 -3.99902 6.99902s-4 2 -8 2h-277c-6 0 -10 -2.66699 -12 -8l-65 -181c-2 -6.66699 -7.66699 -10 -17 -10h-77c-8 0 -12 4 -12 12zM470 293c4.66699 0 7.5 1.16699 8.5 3.5s0.833008 5.83301 -0.5 10.5l-108 300
c-2 4.66699 -4.33301 7 -7 7s-5 -2.66699 -7 -8l-111 -300l-1 -6c0 -4.66699 3 -7 9 -7h217z" />
    <glyph glyph-name="B" unicode="B" horiz-adv-x="707" 
d="M92 4c-2.66699 2.66699 -3.99902 6.00098 -3.99902 10.001v711c0 11.333 5.33301 17 16 17h243c92 0 162.667 -16.5 212 -49.5s74 -80.833 74 -143.5c0 -39.333 -10.333 -72.5 -31 -99.5s-54 -48.833 -100 -65.5c-2.66699 -0.666992 -4 -2.16699 -4 -4.5
s1.33301 -3.83301 4 -4.5c49.333 -13.333 86.5 -34.333 111.5 -63s37.5 -66.334 37.5 -113.001c0 -66.667 -25 -116.5 -75 -149.5s-123.333 -49.5 -220 -49.5h-253c-4.66699 -0 -8.33398 1.33301 -11.001 4zM361.001 419.001c42 0 77.667 9.33301 107 28s44 48 44 88
s-14.5 70.333 -43.5 91s-68.833 31 -119.5 31h-125c-10 0 -15 -4.33301 -15 -13v-211c0 -9.33301 3.66699 -14 11 -14h141zM351.001 85.001c116 0 174 40.333 174 121c0 42 -15 73.333 -45 94s-69.667 31 -119 31h-136c-6 0 -10.167 -1 -12.5 -3s-3.5 -5.33301 -3.5 -10
v-218c0 -10 3.66699 -15 11 -15h131z" />
    <glyph glyph-name="C" unicode="C" horiz-adv-x="712" 
d="M509 723.5c40.667 -19 74.334 -44.5 101.001 -76.5s43 -67 49 -105c0.666992 -2.66699 1 -6 1 -10c0 -3.33301 -0.666992 -5.5 -2 -6.5s-4 -1.83301 -8 -2.5l-93 -6h-3c-4 0 -7 3.66699 -9 11c-9.33301 41.333 -28.166 74.333 -56.499 99s-63.5 37 -105.5 37
c-64.667 0 -113.834 -24.167 -147.501 -72.5s-50.5 -121.5 -50.5 -219.5c0 -97.333 16.833 -170 50.5 -218s84.167 -72 151.5 -72c45.333 0 83.166 11 113.499 33s54.833 57.333 73.5 106c0.666992 4.66699 5.66699 6.33398 15 5.00098l71 -17c6 -1.33301 8.33301 -7 7 -17
c-9.33301 -32 -26.166 -63.333 -50.499 -94s-56.5 -56.334 -96.5 -77.001s-86 -31 -138 -31c-66.667 0 -124.334 15.667 -173.001 47s-86 75.833 -112 133.5s-39 125.167 -39 202.5c0 78 12.833 145.5 38.5 202.5s62.667 100.667 111 131s105.5 45.5 171.5 45.5
c46 0 89.333 -9.5 130 -28.5z" />
    <glyph glyph-name="D" unicode="D" horiz-adv-x="731" 
d="M283 741c134 -2.66699 232.501 -34.665 295.501 -95.998s94.5 -151.333 94.5 -270c0 -122.667 -33.333 -215.834 -100 -279.501s-166.334 -95.5 -299.001 -95.5h-168c-12 0 -18 6 -18 18v709c0 5.33301 1.33301 9.16602 4 11.499s7 3.5 13 3.5
c80 0 139.333 -0.333008 178 -1zM209.001 639.002l-0.00292969 -539.001c0 -4.66699 0.833008 -7.83398 2.5 -9.50098s4.83398 -2.5 9.50098 -2.5h33c68.667 0 124.334 9.33301 167.001 28s74.334 49 95.001 91s31 97.667 31 167c0 68 -9.5 121.833 -28.5 161.5
s-47.833 68.334 -86.5 86.001s-89.667 27.834 -153 30.501l-62 1c-5.33301 0 -8 -4.66699 -8 -14z" />
    <glyph glyph-name="E" unicode="E" horiz-adv-x="636" 
d="M91 738.5c2 2.33301 5.66699 3.50195 11 3.50195h466c8 0 12 -4.33301 12 -13l-1 -63c0 -10 -5 -15 -15 -15h-340c-10 0 -15 -4.33301 -15 -13v-206c0 -8.66699 4.33301 -13 13 -13h244c8.66699 0 13 -4 13 -12v-67c0 -7.33301 -4.33301 -11 -13 -11h-245
c-8 0 -12 -3.66699 -12 -11v-216c0 -4 0.833008 -6.83301 2.5 -8.5s4.16699 -2.5 7.5 -2.5h359c5.33301 0 9 -0.833008 11 -2.5s3 -4.83398 3 -9.50098v-66c0 -8.66699 -4.66699 -13 -14 -13h-473c-6.66699 0 -11.167 1.16699 -13.5 3.5s-3.5 6.5 -3.5 12.5v711
c0 5.33301 1 9.16602 3 11.499z" />
    <glyph glyph-name="F" unicode="F" horiz-adv-x="611" 
d="M102 742h457.001c8 0 12 -4.33301 12 -13l-1 -63c0 -10 -5 -15 -15 -15h-331c-5.33301 0 -9.16602 -1 -11.499 -3s-3.5 -5.33301 -3.5 -10v-218c0 -8 4.33301 -12 13 -12h251c8 0 12 -4 12 -12v-66c0 -4 -0.833008 -6.83301 -2.5 -8.5s-4.83398 -2.5 -9.50098 -2.5h-252
c-8 0 -12 -4 -12 -12v-291c0 -6 -1.33301 -10.167 -4 -12.5s-7.33398 -3.5 -14.001 -3.5h-86c-6.66699 0 -11.167 1.16699 -13.5 3.5s-3.5 6.5 -3.5 12.5v711c0 10 4.66699 15 14 15z" />
    <glyph glyph-name="G" unicode="G" horiz-adv-x="743" 
d="M207 36c-48 30.667 -84.834 74.4971 -110.501 131.497s-38.5 123.833 -38.5 200.5c0 78.667 13.333 147 40 205s64.5 102.333 113.5 133s105.833 46 170.5 46c47.333 0 91.333 -9.5 132 -28.5s74 -44.167 100 -75.5s42 -64.666 48 -99.999
c0.666992 -2.66699 1 -5.66699 1 -9s-0.833008 -5.66602 -2.5 -6.99902s-4.16699 -2.33301 -7.5 -3l-91 -14h-2c-3.33301 0 -5.66602 1 -6.99902 3s-2.33301 5 -3 9c-7.33301 38.667 -26.333 71 -57 97s-68.334 39 -113.001 39c-63.333 0 -111.666 -24.167 -144.999 -72.5
s-50 -120.5 -50 -216.5c0 -196.667 66 -295 198 -295c36.667 0 68 7.83301 94 23.5s46.167 35.667 60.5 60s22.833 49.833 25.5 76.5l1 50v4c0 5.33301 -3.33301 8 -10 8h-150c-4.66699 0 -7.83398 0.833008 -9.50098 2.5s-2.5 4.83398 -2.5 9.50098v53
c0 7.33301 3.66699 11 11 11l254 -1c13.333 0 20 -5.33301 20 -16v-347c0 -8.66699 -4.33301 -13 -13 -13h-26c-5.33301 -0 -9.66602 0.833008 -12.999 2.5s-6 5.16699 -8 10.5l-16 86c-2 6 -5.33301 6 -10 0c-48 -72.667 -119.667 -109 -215 -109
c-64.667 0 -121 15.333 -169 46z" />
    <glyph glyph-name="H" unicode="H" horiz-adv-x="740" 
d="M219 338c-2.66699 0 -5 -1 -7 -3s-3 -4.33301 -3 -7v-311c0 -11.333 -6.33301 -17 -19 -17h-85c-6 -0 -10.333 1.33301 -13 4s-4 6.66699 -4 12v711c0 10 4.66699 15 14 15h94c8.66699 0 13 -5 13 -15v-281c0 -5.33301 1 -9 3 -11s5.33301 -3 10 -3h297
c8 0 12 4.33301 12 13v283c0 9.33301 4 14 12 14h96c8.66699 0 13 -5 13 -15v-711c0 -5.33301 -1.16699 -9.33301 -3.5 -12s-6.83301 -4 -13.5 -4h-84c-7.33301 0 -12.5 1.16699 -15.5 3.5s-4.5 6.83301 -4.5 13.5v310c0 7.33301 -3.66699 11 -11 11h-301z" />
    <glyph glyph-name="I" unicode="I" horiz-adv-x="298" 
d="M196 742c8.66699 0 13.001 -5 13.001 -15v-708c0 -7.33301 -1.5 -12.333 -4.5 -15s-8.5 -4 -16.5 -4h-82c-6.66699 0 -11.334 1.16699 -14.001 3.5s-4 6.5 -4 12.5v711c0 10 4.66699 15 14 15h94z" />
    <glyph glyph-name="J" unicode="J" horiz-adv-x="427" 
d="M300.5 34.5c-28.333 -29.667 -72.5 -44.5 -132.5 -44.5c-32 0 -70 6.66699 -114 20c-12 2 -17 9.66699 -15 23l9 65c1.33301 10 6 14 14 12l17.5 -7c8.33301 -3.33301 17.5 -6 27.5 -8s20.667 -3 32 -3c30 0 51.333 8 64 24s19 44.333 19 85v526c0 10 4.33301 15 13 15
h96c8 0 12 -5 12 -15v-555c0 -62 -14.167 -107.833 -42.5 -137.5z" />
    <glyph glyph-name="K" unicode="K" horiz-adv-x="714" 
d="M676 8c0 -5.33301 -3.33203 -7.99902 -9.99902 -7.99902h-104c-10 0 -17 3.66699 -21 11l-202 352c-1.33301 3.33301 -3.33301 5 -6 5c-2 0 -5.33301 -2.33301 -10 -7l-107 -123c-4.66699 -5.33301 -7 -11.666 -7 -18.999v-202c0 -11.333 -6.33301 -17 -19 -17h-85
c-6 0 -10.333 1.16699 -13 3.5s-4 6.5 -4 12.5v712c0 9.33301 4.33301 14 13 14h96c8 0 12 -4.33301 12 -13v-346c0 -5.33301 1 -8 3 -8c1.33301 0 3.66602 1.66699 6.99902 5l301 351c4 4 7.5 6.83301 10.5 8.5s7.83301 2.5 14.5 2.5h85c4 0 7.33301 -0.833008 10 -2.5
s4 -3.83398 4 -6.50098s-1.33301 -5.33398 -4 -8.00098l-220 -249c-2.66699 -4 -4 -6.66699 -4 -8c0 -2 1 -5 3 -9l254 -442c2 -2.66699 3 -5.66699 3 -9z" />
    <glyph glyph-name="L" unicode="L" horiz-adv-x="610" 
d="M102 742l94 0.000976562c8.66699 0 13 -5 13 -15v-625c0 -4 0.833008 -6.83301 2.5 -8.5s4.16699 -2.5 7.5 -2.5h338c4.66699 0 8.16699 -0.833008 10.5 -2.5s3.5 -4.83398 3.5 -9.50098v-66c0 -8.66699 -4.66699 -13 -14 -13h-452c-6 -0 -10.333 1.33301 -13 4
s-4 6.66699 -4 12v711c0 10 4.66699 15 14 15z" />
    <glyph glyph-name="M" unicode="M" horiz-adv-x="919" 
d="M88 17l-0.000976562 710.001c0 5.33301 1 9.16602 3 11.499s5.66699 3.5 11 3.5h131c6 0 10.333 -0.833008 13 -2.5s4.66699 -4.83398 6 -9.50098l200 -525c2 -6 4.33301 -9 7 -9c2 0 4.66699 3.33301 8 10l197 520c4 10.667 10 16 18 16h136c8.66699 0 13 -5 13 -15
v-709c0 -6.66699 -1.33301 -11.334 -4 -14.001s-7.33398 -4 -14.001 -4h-86c-6 0 -10.333 1.16699 -13 3.5s-4 6.5 -4 12.5v548c0 3.33301 -0.666992 4.83301 -2 4.5s-2.66602 -2.16602 -3.99902 -5.49902l-206 -549c-3.33301 -9.33301 -9.66602 -14 -18.999 -14h-60
c-10 0 -17 4.33301 -21 13l-202 544c-1.33301 4.66699 -2.83301 6.83398 -4.5 6.50098s-2.5 -2.5 -2.5 -6.5v-543c0 -5.33301 -1 -9 -3 -11s-6 -3 -12 -3h-70c-10.667 0 -16 5.66699 -16 17z" />
    <glyph glyph-name="N" unicode="N" horiz-adv-x="757" 
d="M658 742c7.33301 0 11.002 -4.33105 11.002 -12.998v-716c0 -4 -1.33301 -7.16699 -4 -9.5s-6.33398 -3.5 -11.001 -3.5h-65c-5.33301 0 -9.5 0.5 -12.5 1.5s-6.16699 3.83301 -9.5 8.5l-365 524c-2.66699 4.66699 -5.16699 6.66699 -7.5 6s-3.5 -3 -3.5 -7v-519
c0 -9.33301 -5.33301 -14 -16 -14h-71c-10.667 0 -16 4.66699 -16 14v713c0 5.33301 1.16699 9.16602 3.5 11.499s6.16602 3.5 11.499 3.5h78c6 0 10.5 -0.833008 13.5 -2.5s5.83301 -4.83398 8.5 -9.50098l350 -507c4 -4.66699 7 -7 9 -7c4 0 6 3 6 9v503
c0 9.33301 4.66699 14 14 14h76z" />
    <glyph glyph-name="O" unicode="O" horiz-adv-x="767" 
d="M210 34.5c-48.667 29.667 -85.998 72.832 -111.998 129.499s-39 124.667 -39 204c0 80 13.167 148.833 39.5 206.5s64 101.667 113 132s106.833 45.5 173.5 45.5c66 0 123.167 -15.167 171.5 -45.5s85.666 -74.166 111.999 -131.499s39.5 -126 39.5 -206
c0 -79.333 -13 -147.333 -39 -204s-63.333 -100 -112 -130s-106.334 -45 -173.001 -45c-67.333 0 -125.333 14.833 -174 44.5zM533.502 148.998c32.333 46.667 48.5 119.667 48.5 219c0 100.667 -16.333 175.167 -49 223.5s-82 72.5 -148 72.5
c-66.667 0 -116.667 -24.167 -150 -72.5s-50 -122.833 -50 -223.5c0 -98.667 16.5 -171.5 49.5 -218.5s83.167 -70.5 150.5 -70.5c66.667 0 116.167 23.333 148.5 70z" />
    <glyph glyph-name="P" unicode="P" horiz-adv-x="698" 
d="M576.5 358c-48.333 -37.333 -112.833 -56 -193.5 -56h-164c-6.66699 0 -10 -3.33301 -10 -10v-275c0 -11.333 -6 -17 -18 -17h-87c-10.667 0 -16 5 -16 15v712c0 5.33301 1 9.16602 3 11.499s5.66699 3.5 11 3.5h267c84 0 151.667 -18.5 203 -55.5s77 -92.167 77 -165.5
c0 -71.333 -24.167 -125.666 -72.5 -162.999zM362 653h-138.002c-5.33301 0 -9.16602 -1 -11.499 -3s-3.5 -5.66699 -3.5 -11v-233c0 -10 3.66699 -15 11 -15h149c48.667 0 86.834 11.167 114.501 33.5s41.5 55.5 41.5 99.5c0 86 -54.333 129 -163 129z" />
    <glyph glyph-name="Q" unicode="Q" horiz-adv-x="768" 
d="M98.5 575.5c26.333 57.667 63.8311 101.501 112.498 131.501s106.334 45 173.001 45s124.334 -15 173.001 -45s86.167 -73.833 112.5 -131.5s39.5 -126.5 39.5 -206.5c0 -148 -44.333 -254.333 -133 -319c-3.33301 -1.33301 -5 -4 -5 -8c0 -8 5.83301 -17.5 17.5 -28.5
s27 -21.167 46 -30.5s38.167 -15.333 57.5 -18c7.33301 -0.666992 11 -4.33398 11 -11.001v-58c0 -8 -2.16699 -13.333 -6.5 -16s-12.166 -4 -23.499 -4c-74 0 -139.667 39 -197 117c-3.33301 4.66699 -8.33301 6 -15 4c-23.333 -4.66699 -49 -7 -77 -7
c-66.667 0 -124.334 14.667 -173.001 44s-86.167 72.5 -112.5 129.5s-39.5 125.5 -39.5 205.5s13.167 148.833 39.5 206.5zM233.998 149.001c32.667 -46.667 82.667 -69.999 150 -69.999s117.333 23.333 150 70s49 119.667 49 219s-16.5 173.5 -49.5 222.5
s-82.833 73.5 -149.5 73.5c-67.333 0 -117.333 -24.5 -150 -73.5s-49 -123.5 -49 -223.5c0 -98.667 16.333 -171.334 49 -218.001z" />
    <glyph glyph-name="R" unicode="R" horiz-adv-x="704" 
d="M643 13c0 -3.33301 -1.33203 -6.33008 -3.99902 -8.99707s-6 -4 -10 -4h-97c-8 0 -14 4.66699 -18 14l-122 304c-2.66699 8 -11 12 -25 12h-146c-8 0 -12 -3.66699 -12 -11v-301c0 -6.66699 -1.5 -11.334 -4.5 -14.001s-7.83301 -4 -14.5 -4h-85
c-6 0 -10.333 1.33301 -13 4s-4 6.66699 -4 12v711c0 5.33301 1 9.16602 3 11.499s5.66699 3.5 11 3.5h289c82.667 0 146.667 -16.833 192 -50.5s68 -82.167 68 -145.5c0 -51.333 -13.833 -93.333 -41.5 -126s-61.834 -55.334 -102.501 -68.001
c-4 -1.33301 -5.33301 -5.33301 -4 -12l138 -319c1.33301 -4 2 -6.66699 2 -8zM486.501 445.003c26.333 20 39.501 50.668 39.501 92.001c0 40 -12.167 70 -36.5 90s-59.5 30 -105.5 30h-159c-6 0 -10.167 -0.833008 -12.5 -2.5s-3.5 -4.83398 -3.5 -9.50098v-216
c0 -9.33301 3.66699 -14 11 -14h147c53.333 0 93.166 10 119.499 30z" />
    <glyph glyph-name="S" unicode="S" horiz-adv-x="652" 
d="M430 644c-26 12.667 -57.667 19.001 -95 19.001c-47.333 0 -84.166 -9.83301 -110.499 -29.5s-39.5 -46.834 -39.5 -81.501c0 -46 32.667 -80 98 -102l150 -47c113.333 -35.333 170 -102 170 -200c0 -66 -24.5 -118 -73.5 -156s-116.167 -57 -201.5 -57
c-63.333 0 -119.333 11 -168 33s-86.334 53.333 -113.001 94c-2.66699 5.33301 -4 8.66602 -4 9.99902c0 5.33301 3.33301 10.333 10 15l49 34c6 4 11.333 6 16 6s8.66699 -2.33301 12 -7c27.333 -35.333 54.5 -60.333 81.5 -75s63.5 -22 109.5 -22c52 0 92.667 9 122 27
s44 46 44 84c0 24 -7.5 44.167 -22.5 60.5s-42.167 31.5 -81.5 45.5l-151 49c-54 18 -94.5 44.333 -121.5 79s-40.5 73.334 -40.5 116.001c0 42 11 79.167 33 111.5s52.833 57.333 92.5 75s85.5 26.5 137.5 26.5c51.333 0 97.833 -9 139.5 -27s75.834 -42.667 102.501 -74
c3.33301 -3.33301 5 -7 5 -11s-1.66699 -7.33301 -5 -10l-57 -44c-2.66699 -2 -5.33398 -3 -8.00098 -3c-2 0 -6 3 -12 9c-19.333 22 -42 39.333 -68 52z" />
    <glyph glyph-name="T" unicode="T" horiz-adv-x="656" 
d="M39 728c0 9.33301 5 13.999 15 13.999h549c9.33301 0 14 -4.66699 14 -14v-64c0 -8 -4.66699 -12 -14 -12h-198c-4 0 -6.66699 -0.666992 -8 -2s-2 -3.66602 -2 -6.99902v-628c0 -10 -4.66699 -15 -14 -15h-94c-8.66699 0 -13 4.66699 -13 14v627
c0 4.66699 -0.833008 7.66699 -2.5 9s-4.5 2 -8.5 2h-210c-9.33301 0 -14 4 -14 12v64z" />
    <glyph glyph-name="U" unicode="U" horiz-adv-x="713" 
d="M563 53.5c-46.667 -42.333 -115.667 -63.5 -207 -63.5c-96.667 0 -167 23.167 -211 69.5s-66 117.5 -66 213.5v453c0 10.667 4.33301 16 13 16h95c8.66699 0 13 -5 13 -15v-475c0 -114.667 55 -172 165 -172c112 0 168 58.333 168 175v472c0 10 4 15 12 15h76
c8 0 12 -4.66699 12 -14v-472c0 -92.667 -23.333 -160.167 -70 -202.5z" />
    <glyph glyph-name="V" unicode="V" horiz-adv-x="715" 
d="M672.5 737c2.33301 -3.33301 2.83203 -7.33203 1.49902 -11.999l-250 -708c-2 -6 -5 -10.333 -9 -13s-9.33301 -4 -16 -4h-85c-14 0 -23 5.33301 -27 16l-245 708c-0.666992 1.33301 -1 3.33301 -1 6c0 3.33301 1.16699 6.16602 3.5 8.49902s5.5 3.5 9.5 3.5h94
c9.33301 0 15 -4.33301 17 -13l195 -575c2 -5.33301 4 -8 6 -8c2.66699 0 5.33398 3 8.00098 9l194 574c2.66699 8.66699 8.66699 13 18 13h76c4.66699 0 8.16699 -1.66699 10.5 -5z" />
    <glyph glyph-name="W" unicode="W" horiz-adv-x="1057" 
d="M1012.5 736c3 -4 3.5 -9.33301 1.5 -16l-205 -703c-2 -6 -4.83301 -10.333 -8.5 -13s-8.83398 -4 -15.501 -4h-76c-14 -0 -22.333 5.33301 -25 16l-150 526c-0.666992 4.66699 -2 7 -4 7c-0.666992 0 -2 -2.66699 -4 -8l-152 -524c-1.33301 -6 -3.83301 -10.333 -7.5 -13
s-9.16699 -4 -16.5 -4h-78c-12.667 -0 -21 5.33301 -25 16l-203 704c-0.666992 2 -1 4.33301 -1 7c0 10 6 15 18 15h83c6 0 10.5 -1 13.5 -3s5.16699 -5.33301 6.5 -10l153 -543c2 -7.33301 4 -11 6 -11s4 3.33301 6 10l154 544c2.66699 8.66699 9.66699 13 21 13h72
c6.66699 0 11.334 -1 14.001 -3s4.66699 -5.33301 6 -10l154 -547c2 -5.33301 4 -8 6 -8c2.66699 0 4.66699 2.66699 6 8l153 547c2 8.66699 8.66699 13 20 13h63c6.66699 0 11.5 -2 14.5 -6z" />
    <glyph glyph-name="X" unicode="X" horiz-adv-x="701" 
d="M661 9c0 -6 -5.33203 -9 -15.999 -9h-95c-10 0 -17.333 3.66699 -22 11l-174 267c-4 7.33301 -8 11 -12 11c-2.66699 0 -6.66699 -4 -12 -12l-172 -266c-4.66699 -7.33301 -12.334 -11 -23.001 -11h-79c-10 0 -15 3 -15 9c0 4.66699 2.33301 10.667 7 18l224 337
c3.33301 5.33301 5 9.66602 5 12.999c0 4.66699 -2 9.33398 -6 14.001l-219 332c-2 3.33301 -3 6.33301 -3 9c0 6.66699 3.66699 10 11 10h101c6 0 10.5 -0.833008 13.5 -2.5s5.83301 -4.5 8.5 -8.5l159 -247c2.66699 -4.66699 5.66699 -7 9 -7c4 0 7.33301 2.33301 10 7
l159 247c2 4 4.5 6.83301 7.5 8.5s7.5 2.5 13.5 2.5h88c6.66699 0 10 -2.33301 10 -7c0 -2.66699 -1.33301 -6 -4 -10l-215 -323c-2.66699 -3.33301 -4 -7.33301 -4 -12c0 -3.33301 1.33301 -7.33301 4 -12l233 -351c5.33301 -8.66699 8 -14.667 8 -18z" />
    <glyph glyph-name="Y" unicode="Y" horiz-adv-x="694" 
d="M655 737.5c2 -3 1.66602 -6.83301 -1.00098 -11.5l-237 -394c-2.66699 -4.66699 -4.5 -9.33398 -5.5 -14.001s-1.5 -13 -1.5 -25v-273c0 -7.33301 -1.66699 -12.5 -5 -15.5s-9 -4.5 -17 -4.5h-81c-11.333 0 -17 5.66699 -17 17v275c0 6.66699 -0.666992 11.834 -2 15.501
s-3.66602 8.5 -6.99902 14.5l-240 401c-2 3.33301 -3 6.33301 -3 9c0 6.66699 5 10 15 10h96c6.66699 0 11.5 -1 14.5 -3s6.16699 -5.66699 9.5 -11l174 -301c4 -7.33301 7.66699 -11 11 -11c4 0 7.33301 3 10 9l173 303c2.66699 6 5.5 9.83301 8.5 11.5
s7.83301 2.5 14.5 2.5h80c5.33301 0 9 -1.5 11 -4.5z" />
    <glyph glyph-name="Z" unicode="Z" horiz-adv-x="647" 
d="M46.5 3c-2.33301 2 -3.50098 5.66699 -3.50098 11v28c0 6 0.833008 10.833 2.5 14.5s5.16699 9.16699 10.5 16.5l374 567c1.33301 2.66699 2 4.66699 2 6c0 2.66699 -2.66699 4 -8 4h-348c-4.66699 0 -8 1 -10 3s-3 5.66699 -3 11v66c0 8 3.33301 12 10 12h517
c7.33301 0 11 -4 11 -12v-31c0 -4.66699 -0.833008 -8.66699 -2.5 -12s-4.16699 -7.33301 -7.5 -12l-381 -573l-2 -5c0 -1.33301 0.833008 -2.5 2.5 -3.5s3.5 -1.5 5.5 -1.5h370c8.66699 0 13 -3.66699 13 -11v-68c0 -8.66699 -4.66699 -13 -14 -13h-527
c-5.33301 0 -9.16602 1 -11.499 3z" />
    <glyph glyph-name="bracketleft" unicode="[" horiz-adv-x="296" 
d="M84.5 739c2.33301 2 6.5 3.00195 12.5 3.00195h174c6.66699 0 10 -2.66699 10 -8v-49c0 -6 -3.33301 -9 -10 -9h-84c-9.33301 0 -14 -5.33301 -14 -16l-1 -747c0 -4.66699 0.833008 -7.83398 2.5 -9.50098s4.83398 -2.5 9.50098 -2.5h84c8 0 12 -3.66699 12 -11v-43
c0 -4.66699 -0.833008 -7.83398 -2.5 -9.50098s-4.83398 -2.5 -9.50098 -2.5h-169c-11.333 0 -17 5 -17 15l-1 879c0 4.66699 1.16699 8 3.5 10z" />
    <glyph glyph-name="backslash" unicode="\" horiz-adv-x="349" 
d="M256 -20l-245 743.001c-1.33301 5.33301 -2 8.66602 -2 9.99902c0 6 4 9 12 9h51c8.66699 0 14 -3.66699 16 -11l250 -755l1 -4c0 -4.66699 -3.33301 -7 -10 -7h-52c-10.667 0 -17.667 5 -21 15z" />
    <glyph glyph-name="bracketright" unicode="]" horiz-adv-x="296" 
d="M214 -150c0 -10 -5.66699 -15.002 -17 -15.002h-169c-4.66699 0 -7.83398 0.833008 -9.50098 2.5s-2.5 4.83398 -2.5 9.50098v43c0 7.33301 4 11 12 11h84c4.66699 0 7.83398 0.833008 9.50098 2.5s2.5 4.83398 2.5 9.50098l-1 747c0 10.667 -4.66699 16 -14 16h-84
c-6.66699 0 -10 3 -10 9v49c0 5.33301 3.33301 8 10 8h174c6 0 10.167 -1 12.5 -3s3.5 -5.33301 3.5 -10z" />
    <glyph glyph-name="asciicircum" unicode="^" horiz-adv-x="476" 
d="M244 403c-2 4.66699 -4.66895 7.00098 -8.00195 7.00098c-2.66699 0 -5 -2.33301 -7 -7l-106 -264c-1.33301 -3.33301 -3.33301 -5.5 -6 -6.5s-6.33398 -1.5 -11.001 -1.5h-52c-6 0 -9 2.66699 -9 8c0 3.33301 0.666992 6 2 8l147 357
c4.66699 11.333 10.834 20.166 18.501 26.499s15.834 9.5 24.501 9.5c8 0 15.833 -3 23.5 -9s13.834 -15 18.501 -27l149 -360c1.33301 -4 2 -6.33301 2 -7c0 -4.66699 -4 -7 -12 -7h-50c-10 0 -16 2.66699 -18 8z" />
    <glyph glyph-name="underscore" unicode="_" horiz-adv-x="526" 
d="M469 -109c0 -6 -1.49902 -10.168 -4.49902 -12.501s-8.16699 -3.5 -15.5 -3.5l-376 -1c-6 0 -10 1.16699 -12 3.5s-3 5.83301 -3 10.5v54c0 8.66699 3.33301 13 10 13l389 1c3.33301 0 6.16602 -1.16699 8.49902 -3.5s3.5 -5.16602 3.5 -8.49902v-53z" />
    <glyph glyph-name="grave" unicode="`" horiz-adv-x="292" 
d="M34 751c2.66699 1.33301 5.66699 1.33398 9 0.000976562l232 -97c3.33301 -1.33301 5.5 -3.33301 6.5 -6s0.5 -6 -1.5 -10l-9 -26c-1.33301 -4.66699 -3.33301 -7.66699 -6 -9s-6.66699 -1.33301 -12 0l-230 69c-6 2 -9.83301 4.5 -11.5 7.5
s-1.83398 7.16699 -0.500977 12.5l18 52c0.666992 3.33301 2.33398 5.66602 5.00098 6.99902z" />
    <glyph glyph-name="a" unicode="a" horiz-adv-x="552" 
d="M202 -10c-51.333 0 -91.834 13.166 -121.501 39.499s-44.5 61.5 -44.5 105.5c0 54 23.5 97 70.5 129s113.833 50 200.5 54l65 5c10.667 1.33301 16 6.33301 16 15v25c0 32.667 -10 58.5 -30 77.5s-47.333 28.5 -82 28.5c-54.667 0 -98.334 -24.667 -131.001 -74
c-2 -4 -4.16699 -6.5 -6.5 -7.5s-5.83301 -0.833008 -10.5 0.5l-68 20c-4 1.33301 -6 4 -6 8c0 2.66699 1 6.33398 3 11.001c18.667 36 47.167 63.833 85.5 83.5s84.5 29.5 138.5 29.5c70 0 122.333 -15 157 -45s52 -71.667 52 -125v-353
c0 -6.66699 -1.16699 -11.167 -3.5 -13.5s-6.16602 -3.5 -11.499 -3.5h-67c-9.33301 0 -14.666 6.66699 -15.999 20l-2 38c-1.33301 5.33301 -3.33301 8 -6 8c-2 0 -5.66699 -2 -11 -6c-48.667 -46.667 -105.667 -70 -171 -70zM373.999 263.999l-54.001 -3.99902
c-55.333 -3.33301 -99.166 -14.5 -131.499 -33.5s-48.5 -45.167 -48.5 -78.5c0 -26 9.33301 -46.5 28 -61.5s43.667 -22.5 75 -22.5c36 0 70 12.333 102 37c28.667 23.333 43 46.666 43 69.999v78c0 10.667 -4.66699 15.667 -14 15z" />
    <glyph glyph-name="b" unicode="b" horiz-adv-x="602" 
d="M88 0c-6.66699 0 -11.334 1.33203 -14.001 3.99902s-4 7.33398 -4 14.001v709c0 10 4.66699 15 14 15h80c8 0 12 -5 12 -15v-242c0 -7.33301 1.66699 -11 5 -11c2.66699 0 6.33398 1.66699 11.001 5c42.667 40.667 93.667 61 153 61c69.333 0 122.166 -25 158.499 -75
s54.5 -115.667 54.5 -197c0 -86 -20 -153.833 -60 -203.5s-96 -74.5 -168 -74.5c-38 0 -70.5 8 -97.5 24s-48.167 34.333 -63.5 55c-3.33301 3.33301 -5.66602 5 -6.99902 5s-2.66602 -2.66699 -3.99902 -8l-8 -49c-1.33301 -6 -3.33301 -10.333 -6 -13
s-7.33398 -4 -14.001 -4h-42zM176 179.999c0 -22 6.16797 -42.167 18.501 -60.5s28.5 -32.666 48.5 -42.999s41 -15.5 63 -15.5c43.333 0 78 17 104 51s39 85.333 39 154c0 65.333 -11.833 115.166 -35.5 149.499s-57.834 51.5 -102.501 51.5
c-26.667 0 -51.5 -6.16699 -74.5 -18.5s-43.167 -28.5 -60.5 -48.5v-220z" />
    <glyph glyph-name="c" unicode="c" horiz-adv-x="545" 
d="M429 503c36 -24.667 62.999 -56.6699 80.999 -96.0029c1.33301 -2.66699 2 -5.66699 2 -9c0 -4 -3 -6.66699 -9 -8l-71 -12h-3c-4 0 -7.33301 2.66699 -10 8c-18.667 27.333 -36.667 47.5 -54 60.5s-38.333 19.5 -63 19.5c-46.667 0 -83.667 -17.667 -111 -53
s-41 -84.666 -41 -147.999c0 -64 14 -113.667 42 -149s66 -53 114 -53c30 0 55.833 7.66699 77.5 23s41.834 38.333 60.501 69c2 2.66699 4 4.33398 6 5.00098s4.66699 0.333984 8 -0.999023l53 -16c6 -2 7.33301 -7 4 -15c-18.667 -39.333 -46.167 -72.166 -82.5 -98.499
s-81.5 -39.5 -135.5 -39.5c-49.333 0 -93.333 11.5 -132 34.5s-68.834 55.167 -90.501 96.5s-32.5 88.666 -32.5 141.999s11 101 33 143s52.333 74.833 91 98.5s82.334 35.5 131.001 35.5c52 0 96 -12.333 132 -37z" />
    <glyph glyph-name="d" unicode="d" horiz-adv-x="602" 
d="M428 16l0.000976562 38.002c0 6 -1.66699 9 -5 9c-2 0 -4.66699 -1.66699 -8 -5c-20 -19.333 -41.667 -35.5 -65 -48.5s-53 -19.5 -89 -19.5c-42 0 -79.5 10.167 -112.5 30.5s-58.833 50.666 -77.5 90.999s-28 89.166 -28 146.499c0 55.333 9.83301 104.333 29.5 147
s47 75.834 82 99.501s74.167 35.5 117.5 35.5c28.667 0 54 -4.66699 76 -14s42.667 -22.333 62 -39c3.33301 -3.33301 6.66602 -5 9.99902 -5c4 0 6 4 6 12v233c0 10 4.33301 15 13 15h80c4 0 7.16699 -1.33301 9.5 -4s3.5 -6.33398 3.5 -11.001v-710
c0 -6 -1.5 -10.333 -4.5 -13s-7.83301 -4 -14.5 -4h-69c-10.667 -0 -16 5.33301 -16 16zM367.001 452.002c-19.333 10 -40.665 15 -63.998 15c-45.333 0 -82 -17.667 -110 -53s-42 -86.333 -42 -153s13.667 -116.5 41 -149.5s62.666 -49.5 105.999 -49.5
c23.333 0 44.666 5.5 63.999 16.5s34.833 25 46.5 42s17.5 34.167 17.5 51.5v234c-20 20.667 -39.667 36 -59 46z" />
    <glyph glyph-name="e" unicode="e" horiz-adv-x="582" 
d="M172.5 146.5c14.333 -24.333 33.8359 -43.6689 58.5029 -58.002s51.667 -21.5 81 -21.5c30.667 0 58 6.33301 82 19s46 32.334 66 59.001c2 2.66699 4.33301 4 7 4c3.33301 0 6 -0.666992 8 -2l51 -24c3.33301 -2 5 -4.66699 5 -8c0 -2 -1 -4.66699 -3 -8
c-28 -41.333 -60 -71.166 -96 -89.499s-79.667 -27.5 -131 -27.5c-50 0 -94.667 11.333 -134 34s-70 54.5 -92 95.5s-33 87.5 -33 139.5c0 56 11.333 105.333 34 148s53.5 75.5 92.5 98.5s82.5 34.5 130.5 34.5c49.333 0 92.666 -10.833 129.999 -32.5
s66.166 -53.167 86.499 -94.5s30.5 -90.333 30.5 -147v-4c0 -6 -0.833008 -10.5 -2.5 -13.5s-5.83398 -4.5 -12.501 -4.5h-370c-6.66699 0 -10 -5.33301 -10 -16c0 -30 7.16699 -57.167 21.5 -81.5zM424.003 306.997c6.66699 0 11.166 0.999023 13.499 2.99902
s3.5 5.66699 3.5 11c0 26 -5.5 50.333 -16.5 73s-27 40.834 -48 54.501s-45.833 20.5 -74.5 20.5c-30 0 -56.333 -7.5 -79 -22.5s-40.167 -34.667 -52.5 -59s-18.166 -50.833 -17.499 -79.5z" />
    <glyph glyph-name="f" unicode="f" horiz-adv-x="386" 
d="M364 517l0.000976562 -52.002c0 -7.33301 -4.33301 -11 -13 -11h-104c-6 0 -9 -3 -9 -9v-429c0 -10.667 -4.33301 -16 -13 -16h-81c-8 0 -12 4.66699 -12 14v432c0 5.33301 -2.33301 8 -7 8h-90c-8 0 -12 3.66699 -12 11v52c0 8.66699 4.33301 13 13 13h86
c4 0 6.66699 0.833008 8 2.5s2 4.83398 2 9.50098v69c0 42 11.167 74.333 33.5 97s55.166 34 98.499 34h89c10 0 15 -5 15 -15l1 -47c0 -3.33301 -1.16699 -6.16602 -3.5 -8.49902s-5.5 -3.5 -9.5 -3.5h-64c-18.667 0 -32.667 -6 -42 -18s-14 -28.667 -14 -50v-61
c0 -6 3.33301 -9 10 -9h104c9.33301 0 14 -4.33301 14 -13z" />
    <glyph glyph-name="g" unicode="g" horiz-adv-x="611" 
d="M586 525v-45.001c0 -13.333 -5.66699 -20 -17 -20c-10.667 0 -20.667 -0.333008 -30 -1s-17.333 -2 -24 -4c-8.66699 -2.66699 -14.5 -5.83398 -17.5 -9.50098s-3.83301 -8.16699 -2.5 -13.5c0.666992 -2 3.16699 -8.66699 7.5 -20s6.5 -25 6.5 -41
c0 -47.333 -19.167 -86.166 -57.5 -116.499s-93.833 -45.5 -166.5 -45.5c-44 0 -76 -3.66699 -96 -11s-30 -17 -30 -29c0 -10 6.33301 -17.167 19 -21.5s34 -7.16602 64 -8.49902l133 -8c60 -3.33301 104.833 -17.333 134.5 -42s44.5 -57.667 44.5 -99
c0 -51.333 -23.167 -91.666 -69.5 -120.999s-111.833 -44 -196.5 -44c-88 0 -154.833 11.667 -200.5 35s-68.5 57.333 -68.5 102c0 22.667 8 42.667 24 60s39.333 33 70 47c8 4 8 7.66699 0 11c-33.333 15.333 -50 36.666 -50 63.999c0 16 7.5 31 22.5 45
s35.833 25.667 62.5 35c4 1.33301 6 3 6 5c0 2.66699 -2 5 -6 7c-30 15.333 -52.333 34 -67 56s-22 48.333 -22 79c0 52 20.5 92.833 61.5 122.5s98.833 44.5 173.5 44.5c65.333 0 116.333 -15 153 -45c4.66699 -3.33301 8.33398 -5 11.001 -5c4 0 8 2 12 6
c12.667 13.333 28.167 24.833 46.5 34.5s35.166 14.5 50.499 14.5c12.667 0 19 -6 19 -18zM379.5 295.499c21 17.667 31.501 42.833 31.501 75.5c0 33.333 -10.667 59.333 -32 78s-52.666 28 -93.999 28c-40.667 0 -72.334 -9.5 -95.001 -28.5s-34 -44.833 -34 -77.5
c0 -32 11.167 -57 33.5 -75s54.166 -27 95.499 -27c42 0 73.5 8.83301 94.5 26.5zM201.001 53.998c-12.667 0.666992 -26.167 -2.33398 -40.5 -9.00098s-26.333 -16.167 -36 -28.5s-14.5 -26.166 -14.5 -41.499c0 -60.667 62.667 -91 188 -91c52 0 91.667 7.5 119 22.5
s41 37.5 41 67.5c0 43.333 -31.333 67 -94 71z" />
    <glyph glyph-name="h" unicode="h" horiz-adv-x="588" 
d="M74.5 4c-2.33301 2.66699 -3.5 6.66602 -3.5 11.999v711c0 10 4 15 12 15h79c8 0 12 -4.33301 12 -13v-264c0 -8 3.33301 -9 10 -3c35.333 28 66.333 48 93 60s55.667 18 87 18c51.333 0 90.666 -13.667 117.999 -41s41 -65 41 -113v-368c0 -12 -5.66699 -18 -17 -18h-74
c-10 0 -15 5.33301 -15 16v350c0 30 -7.66699 53.167 -23 69.5s-38.666 24.5 -69.999 24.5c-26 0 -49.5 -5.66699 -70.5 -17s-46.5 -30.666 -76.5 -57.999v-368c0 -11.333 -6.33301 -17 -19 -17h-71c-6 -0 -10.167 1.33301 -12.5 4z" />
    <glyph glyph-name="i" unicode="i" horiz-adv-x="247" 
d="M179 636c0 -7.33301 -1.49902 -12.667 -4.49902 -16s-8.16699 -5 -15.5 -5h-74c-6.66699 0 -11.334 1.5 -14.001 4.5s-4 7.83301 -4 14.5v91c0 11.333 5 17 15 17h83c4 0 7.33301 -1.5 10 -4.5s4 -6.83301 4 -11.5v-90zM176.001 18.999
c0 -7.33301 -1.49902 -12.332 -4.49902 -14.999s-8.16699 -4 -15.5 -4h-68c-6.66699 0 -11.334 1.16699 -14.001 3.5s-4 6.5 -4 12.5v499c0 5.33301 1 9.16602 3 11.499s5.66699 3.5 11 3.5h80c8 0 12 -4.66699 12 -14v-497z" />
    <glyph glyph-name="j" unicode="j" horiz-adv-x="247" 
d="M180 636c0 -7.33301 -1.50098 -12.667 -4.50098 -16s-8.5 -5 -16.5 -5h-74c-11.333 0 -17 6.33301 -17 19v91c0 11.333 5 17 15 17h82c4.66699 0 8.33398 -1.5 11.001 -4.5s4 -6.83301 4 -11.5v-90zM141.499 -133.501c-23.667 -24.333 -62.8311 -36.5 -117.498 -36.5
c-16.667 0 -30.334 0.333008 -41.001 1s-17.5 2.16699 -20.5 4.5s-4.5 5.83301 -4.5 10.5l-1 54c0 8 4 13 12 15l48 3c19.333 1.33301 33.166 7 41.499 17s12.5 27.667 12.5 53v527c0 10 4.66699 15 14 15h80c8 0 12 -4.66699 12 -14v-534
c0 -52.667 -11.833 -91.167 -35.5 -115.5z" />
    <glyph glyph-name="k" unicode="k" horiz-adv-x="576" 
d="M552 10c0 -6.66699 -4.33301 -10.001 -13 -10.001h-89c-9.33301 0 -16 5 -20 15l-137 242c-2 4 -4 6 -6 6s-4.33301 -1.33301 -7 -4l-95 -95c-5.33301 -4.66699 -8 -11.667 -8 -21v-124c0 -7.33301 -1.5 -12.333 -4.5 -15s-8.16699 -4 -15.5 -4h-69
c-6.66699 0 -11.167 1.16699 -13.5 3.5s-3.5 6.5 -3.5 12.5v711c0 10 4.33301 15 13 15h80c8.66699 0 13 -5 13 -15v-447c0 -6 1.33301 -9 4 -9c1.33301 0 3.66602 1.66699 6.99902 5l228 241c8.66699 8.66699 16.334 13 23.001 13h75c9.33301 0 14 -2.66699 14 -8
c0 -4 -2.33301 -8.33301 -7 -13l-152 -155c-3.33301 -3.33301 -5 -6.66602 -5 -9.99902c0 -2 1 -5.66699 3 -11l183 -314c1.33301 -2 2 -5 2 -9z" />
    <glyph glyph-name="l" unicode="l" horiz-adv-x="248" 
d="M177 19c0 -7.33301 -1.49902 -12.333 -4.49902 -15s-8.5 -4 -16.5 -4h-68c-6.66699 0 -11.334 1.16699 -14.001 3.5s-4 6.5 -4 12.5l2 711c0 10 4.33301 15 13 15h79c8.66699 0 13 -5 13 -15v-708z" />
    <glyph glyph-name="m" unicode="m" horiz-adv-x="910" 
d="M70 16l0.00292969 499.003c0 10 4.33301 15 13 15h78c8 0 12 -4.33301 12 -13v-55c0 -4 1 -6.33301 3 -7s4.33301 0.666016 7 3.99902c33.333 28 63.166 48.5 89.499 61.5s54.833 19.5 85.5 19.5c36.667 0 67 -8.33301 91 -25s41 -38.334 51 -65.001
c1.33301 -2 2.66602 -3 3.99902 -3c2.66699 0 5.66699 1.66699 9 5c31.333 28.667 61.333 50.5 90 65.5s58.667 22.5 90 22.5c48 0 85.5 -13.833 112.5 -41.5s40.5 -65.5 40.5 -113.5v-367c0 -12 -6 -18 -18 -18h-74c-5.33301 0 -9 1.16699 -11 3.5s-3 6.5 -3 12.5v350
c0 30 -7.33301 53.167 -22 69.5s-36.667 24.5 -66 24.5c-40 0 -82.667 -21 -128 -63c-4.66699 -4.66699 -8 -9.16699 -10 -13.5s-3 -9.5 -3 -15.5v-350c0 -12 -6 -18 -18 -18h-73c-10 0 -15 5.33301 -15 16v350c0 30 -7.16699 53.167 -21.5 69.5s-36.5 24.5 -66.5 24.5
c-24 0 -46.333 -5.83301 -67 -17.5s-45.334 -30.834 -74.001 -57.501v-368c0 -6 -1.5 -10.333 -4.5 -13s-7.83301 -4 -14.5 -4h-71c-10.667 -0 -16 5.33301 -16 16z" />
    <glyph glyph-name="n" unicode="n" horiz-adv-x="588" 
d="M70 16l-0.000976562 499.003c0 10 4.33301 15 13 15h79c8 0 12 -4.33301 12 -13v-55c0 -4 0.833008 -6.33301 2.5 -7s4.16699 0.666016 7.5 3.99902c34.667 28 65.334 48.5 92.001 61.5s55.667 19.5 87 19.5c50 0 89.167 -13.833 117.5 -41.5s42.5 -64.834 42.5 -111.501
v-369c0 -12 -5.66699 -18 -17 -18h-74c-10 0 -15 5.33301 -15 16v350c0 30 -7.83301 53.167 -23.5 69.5s-39.167 24.5 -70.5 24.5c-25.333 0 -48.833 -5.83301 -70.5 -17.5s-47.167 -30.834 -76.5 -57.501v-368c0 -6 -1.5 -10.333 -4.5 -13s-7.83301 -4 -14.5 -4h-71
c-10.667 -0 -16 5.33301 -16 16z" />
    <glyph glyph-name="o" unicode="o" horiz-adv-x="599" 
d="M164.5 24.5c-39 23 -69.167 55.167 -90.5 96.5s-32 88.333 -32 141c0 54 11 102.167 33 144.5s52.5 75.166 91.5 98.499s83.5 35 133.5 35c50.667 0 95.5 -11.833 134.5 -35.5s69.167 -56.5 90.5 -98.5s32 -89.667 32 -143c0 -52.667 -10.833 -99.667 -32.5 -141
s-52 -73.666 -91 -96.999s-83.833 -35 -134.5 -35s-95.5 11.5 -134.5 34.5zM410 117.5c26 35 39.001 84.167 39.001 147.5s-13.167 112.833 -39.5 148.5s-62.833 53.5 -109.5 53.5s-83.334 -17.833 -110.001 -53.5s-40 -85.167 -40 -148.5
c0 -62.667 13.333 -111.667 40 -147s63.667 -53 111 -53c46.667 0 83 17.5 109 52.5z" />
    <glyph glyph-name="p" unicode="p" horiz-adv-x="601" 
d="M176 514l0.00195312 -39.001c0 -5.33301 1.33301 -8 4 -8c1.33301 0 4.33301 1.66699 9 5c20 20 41.167 36.333 63.5 49s52.166 19 89.499 19c41.333 0 78.166 -10 110.499 -30s57.833 -50 76.5 -90s28 -89.333 28 -148c0 -60 -9.33301 -111.167 -28 -153.5
s-45 -74.333 -79 -96s-73.333 -32.5 -118 -32.5c-54 0 -100.333 16.667 -139 50c-5.33301 4.66699 -9.33301 7 -12 7c-3.33301 0 -5 -4.33301 -5 -13v-185c0 -9.33301 -4 -14 -12 -14h-81c-8.66699 0 -13 4.66699 -13 14v663c0 6.66699 1.5 11.334 4.5 14.001
s7.83301 4 14.5 4h70c11.333 0 17 -5.33301 17 -16zM234.502 77.499c19.667 -10.333 41.167 -15.502 64.5 -15.502c46 0 82.5 17.833 109.5 53.5s40.5 87.834 40.5 156.501c0 66.667 -13.333 116 -40 148s-61.667 48 -105 48c-24 0 -45.833 -5.16699 -65.5 -15.5
s-35 -23.666 -46 -39.999s-16.5 -32.5 -16.5 -48.5v-241c19.333 -20 38.833 -35.167 58.5 -45.5z" />
    <glyph glyph-name="q" unicode="q" horiz-adv-x="602" 
d="M515 530c6.66699 0 11.1641 -1.33203 13.4971 -3.99902s3.5 -7.33398 3.5 -14.001v-662c0 -10 -4.33301 -15 -13 -15h-81c-8 0 -12 5 -12 15v182c0 9.33301 -1.66699 14 -5 14c-2 0 -5.66699 -2 -11 -6c-19.333 -14.667 -41.166 -26.667 -65.499 -36
s-50.166 -14 -77.499 -14c-69.333 0 -123.833 24.667 -163.5 74s-59.5 116.666 -59.5 201.999c0 83.333 20.167 149.833 60.5 199.5s95.833 74.5 166.5 74.5c42 0 75.5 -7.16699 100.5 -21.5s46.5 -31.833 64.5 -52.5c2.66699 -2.66699 5 -4 7 -4
c2.66699 0 4.33398 2.33301 5.00098 7l8 43c1.33301 6.66699 3.5 11.334 6.5 14.001s7.5 4 13.5 4h39zM425.997 349.001c0 21.333 -5.5 41.499 -16.5 60.499s-26.333 34 -46 45s-41.5 16.5 -65.5 16.5c-43.333 0 -78.5 -17.167 -105.5 -51.5s-40.5 -85.166 -40.5 -152.499
c0 -66.667 13.167 -117.5 39.5 -152.5s61.833 -52.5 106.5 -52.5c24.667 0 48.167 5.16699 70.5 15.5s41.5 24.833 57.5 43.5v228z" />
    <glyph glyph-name="r" unicode="r" horiz-adv-x="396" 
d="M70 16l0.00292969 499.001c0 10 4.33301 15 13 15h77c8 0 12 -4.33301 12 -13v-63c0 -4 1.16699 -6.33301 3.5 -7s4.83301 0.666016 7.5 3.99902c24.667 28.667 50.167 50.667 76.5 66s52.166 23 77.499 23c23.333 0 35 -4.66699 35 -14v-78
c0 -8 -3.66699 -11.333 -11 -10c-12.667 3.33301 -30.334 5 -53.001 5c-18.667 0 -38.334 -5.16699 -59.001 -15.5s-38 -23.833 -52 -40.5s-21 -33.667 -21 -51v-319c0 -11.333 -6.33301 -17 -19 -17h-71c-10.667 -0 -16 5.33301 -16 16z" />
    <glyph glyph-name="s" unicode="s" horiz-adv-x="518" 
d="M336 452.5c-22.667 11.667 -49.001 17.499 -79.001 17.499c-33.333 0 -60.666 -6.83301 -81.999 -20.5s-32 -32.167 -32 -55.5c0 -13.333 5.33301 -25.333 16 -36s30 -20 58 -28l123 -35c46.667 -12 81.167 -30.5 103.5 -55.5s33.5 -54.5 33.5 -88.5
c0 -32 -9.5 -60.167 -28.5 -84.5s-45.5 -43.166 -79.5 -56.499s-72.333 -20 -115 -20c-53.333 0 -100.333 10.167 -141 30.5s-69.667 46.833 -87 79.5c-2 3.33301 -3 6.33301 -3 9c0 4 1.66699 7 5 9l49 26c4 2 7.33301 3 10 3c3.33301 0 6 -1.33301 8 -4
c35.333 -53.333 87.666 -80 156.999 -80c36.667 0 67 6.83301 91 20.5s36 32.167 36 55.5c0 16.667 -6.83301 30.834 -20.5 42.501s-36.167 21.5 -67.5 29.5l-102 26c-49.333 12 -85.333 29.667 -108 53s-34 52.666 -34 87.999c0 32 8.83301 60.167 26.5 84.5
s42.334 43.333 74.001 57s68.5 20.5 110.5 20.5c45.333 0 86 -8.66699 122 -26s63 -40 81 -68c2.66699 -4 4 -7.33301 4 -10s-1.66699 -5 -5 -7l-52 -27c-1.33301 -0.666992 -3.33301 -1 -6 -1c-4 0 -7.66699 1.66699 -11 5c-14 19.333 -32.333 34.833 -55 46.5z" />
    <glyph glyph-name="t" unicode="t" horiz-adv-x="401" 
d="M236 454c-6 0 -9 -3.33301 -9 -10v-293c0 -28 5.16699 -47.333 15.5 -58s26.833 -16 49.5 -16h64c8 0 12 -4 12 -12v-43c0 -9.33301 -5 -15 -15 -17c-21.333 -3.33301 -55.333 -5 -102 -5c-44 0 -76.667 10.167 -98 30.5s-32 51.833 -32 94.5v317c0 8 -3.33301 12 -10 12
h-75c-8.66699 0 -13 4 -13 12v53c0 7.33301 4 11 12 11h80c5.33301 0 8 3 8 9l12 157c1.33301 9.33301 5.33301 14 12 14h69c8.66699 0 13 -5.33301 13 -16v-155c0 -6 3 -9 9 -9h120c8 0 12 -3.66699 12 -11v-53c0 -8 -4.66699 -12 -14 -12h-120z" />
    <glyph glyph-name="u" unicode="u" horiz-adv-x="583" 
d="M407 149v364c0 11.333 6.33301 17 19 17h72c10.667 0 16 -5.33301 16 -16l-2 -500c0 -9.33301 -4 -14 -12 -14h-78c-8 -0 -12 4.33301 -12 13v56c0 8 -3.33301 9 -10 3c-32.667 -30 -63 -51.167 -91 -63.5s-57.333 -18.5 -88 -18.5c-46 0 -83.667 14.167 -113 42.5
s-44 65.833 -44 112.5v367c0 12 6 18 18 18h73c10 0 15 -5.33301 15 -16v-347c0 -29.333 8.33301 -52.833 25 -70.5s39 -26.5 67 -26.5c46 0 94.333 26.333 145 79z" />
    <glyph glyph-name="v" unicode="v" horiz-adv-x="555" 
d="M528 524.5c2 -3.66699 2.33301 -7.5 1 -11.5l-202 -496c-4 -11.333 -12.667 -17 -26 -17h-47c-13.333 -0 -22.333 5.33301 -27 16l-201 496c-0.666992 1.33301 -1 3 -1 5c0 4 1.33301 7.16699 4 9.5s6 3.5 10 3.5h83c9.33301 0 15 -4.33301 17 -13l144 -362
c2 -6.66699 4.33301 -10 7 -10s5.66699 3.66699 9 11l142 362c4.66699 8 10.667 12 18 12h59c4.66699 0 8 -1.83301 10 -5.5z" />
    <glyph glyph-name="w" unicode="w" horiz-adv-x="803" 
d="M773.5 524.5c2.33301 -3.66699 2.50195 -7.5 0.501953 -11.5l-156 -499c-1.33301 -5.33301 -3.5 -9 -6.5 -11s-7.16699 -3 -12.5 -3h-59c-12.667 0 -20.334 5 -23.001 15l-108 343c-2 6 -4.33301 9 -7 9c-2 0 -4 -3 -6 -9l-105 -344c-1.33301 -5.33301 -3.5 -9 -6.5 -11
s-7.16699 -3 -12.5 -3h-62c-12 0 -19.333 5 -22 15l-159 497c-0.666992 1.33301 -1 3 -1 5c0 3.33301 1.16699 6.33301 3.5 9s5.5 4 9.5 4h78c8.66699 0 14.667 -4.33301 18 -13l110 -356c2 -6 4.33301 -9 7 -9s5 3.33301 7 10l108 356c2 8 7.66699 12 17 12h58
c9.33301 0 15 -4.33301 17 -13l112 -356c2 -6 4.33301 -9 7 -9s5 3.33301 7 10l106 356c3.33301 8 9.66602 12 18.999 12h51c4.66699 0 8.16699 -1.83301 10.5 -5.5z" />
    <glyph glyph-name="x" unicode="x" horiz-adv-x="559" 
d="M535 7c0 -4.66699 -4.66895 -7 -14.002 -7h-88c-11.333 0 -19.666 3.66699 -24.999 11l-129 179c-4 6 -7.33301 9 -10 9c-1.33301 0 -4.66602 -3 -9.99902 -9l-134 -179c-4 -7.33301 -12 -11 -24 -11h-58c-11.333 -0 -17 3.33301 -17 10
c0 5.33301 2.66699 11.666 8 18.999l177 225c3.33301 5.33301 5 9.33301 5 12c0 4 -2 8.33301 -6 13l-170 231c-2 3.33301 -3 6 -3 8c0 8 4.66699 12 14 12h83c6 0 10.667 -0.833008 14 -2.5s6.66602 -4.5 9.99902 -8.5l122 -167c2.66699 -4 5.33398 -6 8.00098 -6s5 2 7 6
l118 167c2.66699 4 5.66699 6.83301 9 8.5s8.33301 2.5 15 2.5h64c8 0 12 -2.66699 12 -8c0 -2 -1.33301 -5 -4 -9l-163 -218c-3.33301 -4 -5 -8 -5 -12c0 -3.33301 1.66699 -7.66602 5 -12.999l180 -245c6 -8 9 -14 9 -18z" />
    <glyph glyph-name="y" unicode="y" horiz-adv-x="541" 
d="M58.5 -162.5c-9 1.66699 -13.499 5.83398 -13.499 12.501v51c0 9.33301 9.33301 14 28 14h65c14.667 0 28.5 5 41.5 15s23.167 22.667 30.5 38s11 30.333 11 45c0 8.66699 -1.33301 16 -4 22l-191 476c-0.666992 1.33301 -1 3.66602 -1 6.99902c0 8 4.66699 12 14 12h82
c4 0 7.66699 -1.16699 11 -3.5s5.33301 -5.5 6 -9.5l138 -360c2 -6 4.33301 -9 7 -9c4 0 7.33301 4 10 12l136 358c3.33301 8 8.66602 12 15.999 12h59c4.66699 0 8.16699 -1.83301 10.5 -5.5s2.5 -7.5 0.5 -11.5l-215 -545c-14 -36 -29.667 -63.5 -47 -82.5
s-37.5 -32.167 -60.5 -39.5s-51.833 -11 -86.5 -11c-22.667 0 -38.5 0.833008 -47.5 2.5z" />
    <glyph glyph-name="z" unicode="z" horiz-adv-x="493" 
d="M32 3c-2 2 -3 5.66699 -3 11v33c0 6 0.833008 11 2.5 15s5.16699 9.66699 10.5 17l277 369l3 6c0 3.33301 -3 5 -9 5h-249c-5.33301 0 -8.83301 1 -10.5 3s-2.5 5.66699 -2.5 11v45c0 8 3.66699 12 11 12h384c7.33301 0 11 -3.66699 11 -11v-36
c0 -8.66699 -3.66699 -18.667 -11 -30l-279 -369c-2 -2.66699 -3 -5 -3 -7c0 -3.33301 2.66699 -5 8 -5h276c8.66699 0 13 -4 13 -12v-46c0 -9.33301 -5 -14 -15 -14h-403c-5.33301 0 -9 1 -11 3z" />
    <glyph glyph-name="braceleft" unicode="{" horiz-adv-x="324" 
d="M155.5 712.5c26.333 19.667 59.168 29.5049 98.501 29.5049h45c4 0 6.66699 -0.5 8 -1.5s2 -3.16699 2 -6.5v-49c0 -6 -3.33301 -9 -10 -9h-28c-24.667 0 -41.5 -4.33301 -50.5 -13s-13.5 -22 -13.5 -40v-215c-0.666992 -35.333 -10.834 -62.5 -30.501 -81.5
s-43.5 -29.833 -71.5 -32.5c-4 -0.666992 -6.16699 -1.83398 -6.5 -3.50098s1.83398 -2.83398 6.50098 -3.50098c28.667 -2.66699 52.667 -12.834 72 -30.501s29.333 -45.834 30 -84.501v-217c0 -19.333 4.66699 -33.166 14 -41.499s26.333 -12.5 51 -12.5h25
c8 0 12 -3.66699 12 -11v-43c0 -4.66699 -0.833008 -7.83398 -2.5 -9.50098s-4.83398 -2.5 -9.50098 -2.5h-41c-41.333 0 -75 9.83301 -101 29.5s-39 46.5 -39 80.5v219c0 26 -9.5 48.5 -28.5 67.5s-45.833 28.5 -80.5 28.5c-4.66699 0 -7 4 -7 12v38c-0 8 2.33301 12 7 12
c36.667 0 64 8.66699 82 26s27 41.666 27 72.999v212c0 33.333 13.167 59.833 39.5 79.5z" />
    <glyph glyph-name="bar" unicode="|" horiz-adv-x="258" 
d="M105 -165c-6 0 -10.167 1.33301 -12.5 4s-3.5 7 -3.5 13l-1 980c0 10 4.66699 15 14 15h53c10 0 15 -4.66699 15 -14v-986c0 -8 -4.33301 -12 -13 -12h-52z" />
    <glyph glyph-name="braceright" unicode="}" horiz-adv-x="324" 
d="M208 421c0 -31.333 9.00195 -55.6709 27.002 -73.0039s45.333 -26 82 -26c4.66699 0 7 -4 7 -12v-38c0 -8 -2.33301 -12 -7 -12c-34.667 0 -61.5 -9.5 -80.5 -28.5s-28.5 -41.5 -28.5 -67.5v-219c0 -34 -13 -60.833 -39 -80.5s-59.667 -29.5 -101 -29.5h-41
c-4.66699 0 -7.83398 0.833008 -9.50098 2.5s-2.5 4.83398 -2.5 9.50098v43c0 7.33301 4 11 12 11h25c24.667 0 41.667 4.16699 51 12.5s14 22.166 14 41.499v217c0.666992 38.667 10.667 66.834 30 84.501s43.333 27.834 72 30.501
c4.66699 0.666992 6.83398 1.83398 6.50098 3.50098s-2.5 2.83398 -6.5 3.50098c-28 2.66699 -51.833 13.5 -71.5 32.5s-29.834 46.167 -30.501 81.5v215c0 18 -4.5 31.333 -13.5 40s-25.833 13 -50.5 13h-28c-6.66699 0 -10 3 -10 9v49c0 3.33301 0.666992 5.5 2 6.5
s4 1.5 8 1.5h45c39.333 0 72.166 -9.83301 98.499 -29.5s39.5 -46.167 39.5 -79.5v-212z" />
    <glyph glyph-name="asciitilde" unicode="~" horiz-adv-x="581" 
d="M465 327.5c-22 -11 -46.999 -16.5 -74.999 -16.5c-18.667 0 -35.5 2.33301 -50.5 7s-32.833 12 -53.5 22c-18.667 8.66699 -34 15.167 -46 19.5s-25.333 6.5 -40 6.5c-22 0 -40.833 -4.5 -56.5 -13.5s-31.834 -21.833 -48.501 -38.5c-2 -2.66699 -4.33301 -4 -7 -4
c-2 0 -4 1.66699 -6 5l-22 40c-1.33301 2.66699 -2 4.66699 -2 6c0 4 2.33301 7.33301 7 10c22.667 22 44 38.5 64 49.5s43.333 16.5 70 16.5c18 0 34.333 -2.33301 49 -7s32.334 -12 53.001 -22c19.333 -8.66699 35.166 -15.167 47.499 -19.5s25.833 -6.5 40.5 -6.5
c36.667 0 68 15.667 94 47c3.33301 4 6.33301 6 9 6s5.66699 -2.66699 9 -8l19 -35c1.33301 -2.66699 2 -5 2 -7c0 -4 -1.66699 -8.33301 -5 -13c-12.667 -18.667 -30 -33.5 -52 -44.5z" />
    <glyph glyph-name="uni00A0" unicode="&#xa0;" horiz-adv-x="213" 
 />
    <glyph glyph-name="exclamdown" unicode="&#xa1;" horiz-adv-x="251" 
d="M175 402l-99 0.000976562c-8 0 -12 5 -12 15v97c0 6 1.33301 10.167 4 12.5s7 3.5 13 3.5h85c8 0 13.5 -1.33301 16.5 -4s4.5 -7.33398 4.5 -14.001v-97c0 -8.66699 -4 -13 -12 -13zM188 -154.999c0 -2.66699 -1.00293 -5 -3.00293 -7s-4.66699 -3 -8 -3h-102
c-8 0 -11.667 4.66699 -11 14l27 470c0.666992 5.33301 1.83398 9 3.50098 11s5.5 3 11.5 3h37c6.66699 0 11.334 -1.16699 14.001 -3.5s4.33398 -6.5 5.00098 -12.5l26 -470v-2z" />
    <glyph glyph-name="cent" unicode="&#xa2;" horiz-adv-x="558" 
d="M515 239c-16.667 -34.667 -40.333 -64.6719 -71 -90.0049s-68.334 -40.666 -113.001 -45.999v-83c0 -13.333 -6.66699 -20 -20 -20h-37c-6.66699 0 -11.334 1.5 -14.001 4.5s-4 7.5 -4 13.5v86c-42.667 6 -80.167 21 -112.5 45s-57.333 55.333 -75 94
s-26.5 82.334 -26.5 131.001s9 92.667 27 132s43.167 71.333 75.5 96s69.5 40 111.5 46v77c0 6 1.33301 10.333 4 13s7.33398 4 14.001 4h42c10 0 15 -5 15 -15v-78c42.667 -5.33301 79.167 -20 109.5 -44s53.5 -53 69.5 -87c1.33301 -2.66699 2 -5.66699 2 -9
c0 -4 -3 -6.66699 -9 -8l-71 -12h-3c-4 0 -7.33301 2.66699 -10 8c-18.667 27.333 -36.667 47.5 -54 60.5s-38.333 19.5 -63 19.5c-46.667 0 -83.667 -17.667 -111 -53s-41 -84.666 -41 -147.999c0 -64 14 -113.667 42 -149s66 -53 114 -53c30 0 55.833 7.66699 77.5 23
s41.834 38.333 60.501 69c2 2.66699 4 4.33398 6 5.00098s4.66699 0.333984 8 -0.999023l53 -16c6 -2 7.33301 -7 4 -15z" />
    <glyph glyph-name="sterling" unicode="&#xa3;" horiz-adv-x="625" 
d="M12 13l0.00390625 67c0 6.66699 3.33301 10 10 10h28c27.333 0 49.5 11 66.5 33s25.5 55.333 25.5 100c0 22 -3.66699 62.333 -11 121c-0.666992 5.33301 -3.33398 8 -8.00098 8h-89c-5.33301 0 -8 3 -8 9v47c0 6 2.66699 9 8 9h74c6.66699 0 9.66699 3 9 9l-13 77
c-3.33301 18.667 -5 35.334 -5 50.001c0 40.667 10 76 30 106s46.667 53 80 69s69.666 24 108.999 24c45.333 0 88.166 -10.833 128.499 -32.5s68.166 -50.5 83.499 -86.5c0.666992 -0.666992 1 -2 1 -4c0 -4 -3.33301 -7 -10 -9l-70 -22
c-1.33301 -0.666992 -3.33301 -1 -6 -1c-4.66699 0 -8 1.66699 -10 5c-20 40.667 -54.333 61 -103 61c-32.667 0 -59.834 -9.83301 -81.501 -29.5s-32.5 -46.167 -32.5 -79.5c0 -36 7 -78.667 21 -128c1.33301 -6 4.33301 -9 9 -9h147c5.33301 0 8 -2.33301 8 -7v-49
c0 -6 -2.66699 -9 -8 -9h-135c-6.66699 0 -9.66699 -2.66699 -9 -8c3.33301 -26.667 5 -49.334 5 -68.001c0 -8.66699 -0.666992 -21.667 -2 -39c-3.33301 -59.333 -19.666 -104.666 -48.999 -135.999c-6.66699 -6.66699 -5.66699 -10 3 -10h157c32.667 0 59 5.66699 79 17
s35.333 29.666 46 54.999c2 7.33301 7.33301 10 16 8l63 -16c10 -2 13.667 -7 11 -15c-14.667 -45.333 -40 -80 -76 -104s-80.333 -36 -133 -36h-347c-8 -0 -12 4.33301 -12 13z" />
    <glyph glyph-name="currency" unicode="&#xa4;" horiz-adv-x="549" 
d="M166 204c-4 1.33301 -6.33398 2 -7.00098 2c-2.66699 0 -5 -1.33301 -7 -4l-47 -47c-2.66699 -2.66699 -5.66699 -4 -9 -4c-4 0 -7.66699 1.66699 -11 5l-30 31c-2.66699 2.66699 -4 5.66699 -4 9s1.33301 6.33301 4 9l47 47c2 3.33301 3 6 3 8
c0 3.33301 -1 6.33301 -3 9c-19.333 31.333 -29 66 -29 104c0 39.333 10.333 75 31 107c2.66699 6 2.33398 10.667 -0.999023 14l-47 47c-2.66699 2.66699 -4 5.66699 -4 9c0 4 1.33301 7.33301 4 10l31 31c2.66699 3.33301 5.66699 5 9 5s6.33301 -1.66699 9 -5l48 -47
c2.66699 -2.66699 4.66699 -4 6 -4c2 0 4.66699 1 8 3c32.667 20.667 68 31 106 31c39.333 0 75.666 -11 108.999 -33c5.33301 -2 9.33301 -1.66699 12 1l49 50c4.66699 3.33301 8.66699 3.33301 12 0l37 -39c4 -4 4 -8 0 -12l-49 -49
c-3.33301 -3.33301 -3.66602 -7 -0.999023 -11c21.333 -33.333 32 -69.333 32 -108c0 -41.333 -10.667 -77.333 -32 -108c-2 -4.66699 -2 -8 0 -10l50 -50c4 -4 4.33301 -8 1 -12l-37 -38c-4 -4 -8 -4 -12 0l-49 49c-4 3.33301 -7.66699 4 -11 2
c-34.667 -22.667 -71 -34 -109 -34c-40 0 -76.333 10.667 -109 32zM337.499 266c19 11.333 34 26.5 45 45.5s16.5 39.5 16.5 61.5s-5.5 42.5 -16.5 61.5s-26 34.167 -45 45.5s-39.833 17 -62.5 17c-23.333 0 -44.333 -5.66699 -63 -17s-33.5 -26.5 -44.5 -45.5
s-16.5 -39.5 -16.5 -61.5s5.5 -42.5 16.5 -61.5s25.833 -34.167 44.5 -45.5s39.667 -17 63 -17c22.667 0 43.5 5.66699 62.5 17z" />
    <glyph glyph-name="yen" unicode="&#xa5;" horiz-adv-x="624" 
d="M621 737.5c2 -3 1.66406 -6.83203 -1.00293 -11.499l-229 -377h131c7.33301 0 11 -4 11 -12v-36c0 -6 -1.5 -10.167 -4.5 -12.5s-7.83301 -3.5 -14.5 -3.5h-137v-88h145c7.33301 0 11 -4 11 -12v-36c0 -6 -1.5 -10.167 -4.5 -12.5s-7.83301 -3.5 -14.5 -3.5h-137v-113
c0 -7.33301 -1.66699 -12.5 -5 -15.5s-9 -4.5 -17 -4.5h-81c-11.333 0 -17 5.66699 -17 17v115h-141c-6 0 -10 1 -12 3s-3 5.66699 -3 11v36c0 9.33301 3.66699 14 11 14h145v88h-141c-6 0 -10 1.16699 -12 3.5s-3 6.16602 -3 11.499v36c0 8.66699 3.66699 13 11 13h121
l-224 375c-2 3.33301 -3 6.33301 -3 9c0 6.66699 5 10 15 10h99c6.66699 0 11.334 -0.833008 14.001 -2.5s6 -5.5 10 -11.5l173 -302c0.666992 -0.666992 1.83398 -2.5 3.50098 -5.5s3.5 -4.5 5.5 -4.5c2.66699 0 5.33398 3 8.00098 9l175 303
c2.66699 6 5.5 9.83301 8.5 11.5s8.16699 2.5 15.5 2.5h77c5.33301 0 9 -1.5 11 -4.5z" />
    <glyph glyph-name="brokenbar" unicode="&#xa6;" horiz-adv-x="258" 
d="M105 435c-6 0 -10.167 1.33301 -12.5 4s-3.5 6.66699 -3.5 12l-1 381c0 10 4.66699 15 14 15h53c10 0 15 -4.66699 15 -14v-386c0 -8 -4.33301 -12 -13 -12h-52zM105 -165c-6 0 -10.167 1.33301 -12.5 4s-3.5 7 -3.5 13l-1 380c0 10 4.66699 15 14 15h53
c10 0 15 -4.33301 15 -13v-387c0 -8 -4.33301 -12 -13 -12h-52z" />
    <glyph glyph-name="section" unicode="&#xa7;" horiz-adv-x="494" 
d="M437.5 150c15 -20.667 22.499 -44.666 22.499 -71.999c0 -45.333 -18.5 -82.166 -55.5 -110.499s-87.167 -42.5 -150.5 -42.5c-48.667 0 -92.667 9.83301 -132 29.5s-67.666 44.834 -84.999 75.501c-5.33301 10 -5.33301 15.667 0 17l52 27c2.66699 1.33301 5 2 7 2
c3.33301 0 6.66602 -2 9.99902 -6c16.667 -22.667 37.334 -40.667 62.001 -54s53.334 -20 86.001 -20s59 6 79 18s30 29.333 30 52c0 17.333 -7 33.166 -21 47.499s-38.667 28.166 -74 41.499l-87 33c-48.667 18.667 -84 40.167 -106 64.5s-33 53.833 -33 88.5
c0 30.667 9 57.5 27 80.5s42 40.833 72 53.5c-36 19.333 -60.833 39.333 -74.5 60s-20.5 44 -20.5 70c0 27.333 8.16699 52.166 24.5 74.499s39.333 40 69 53s63.834 19.5 102.501 19.5c43.333 0 82.166 -9 116.499 -27s60.166 -40.333 77.499 -67c2 -4 3 -7.33301 3 -10
c0 -2 -1.33301 -4.33301 -4 -7l-50 -26c-2.66699 -1.33301 -5 -2 -7 -2c-4 0 -8 2 -12 6c-34 41.333 -73.667 62 -119 62c-32 0 -57.167 -6 -75.5 -18s-27.5 -28 -27.5 -48c0 -14.667 5.5 -28.167 16.5 -40.5s31.167 -24.5 60.5 -36.5l82 -32c54 -22 93 -46 117 -72
s36 -57.333 36 -94c0 -56.667 -29.667 -100.667 -89 -132c32 -18 55.5 -37.333 70.5 -58zM339.999 266.501c16.667 15 25 33.167 25 54.5c0 20.667 -5.83301 38.5 -17.5 53.5s-34.5 29.167 -68.5 42.5l-53 21c-26.667 -2.66699 -48.834 -12 -66.501 -28s-26.5 -34 -26.5 -54
c0 -18.667 5.83301 -34 17.5 -46s34.834 -25 69.501 -39l59 -24c24 -2 44.333 4.5 61 19.5z" />
    <glyph glyph-name="dieresis" unicode="&#xa8;" horiz-adv-x="284" 
d="M110 642c0 -6 -1.5 -10.332 -4.5 -12.999s-7.83301 -4 -14.5 -4h-65c-6 0 -10.167 1.16699 -12.5 3.5s-3.5 6.16602 -3.5 11.499v88c0 9.33301 4 14 12 14h76c8 0 12 -4.33301 12 -13v-87zM274 642.001c0 -6 -1.5 -10.332 -4.5 -12.999s-7.83301 -4 -14.5 -4h-65
c-6 0 -10.167 1.16699 -12.5 3.5s-3.5 6.16602 -3.5 11.499v88c0 9.33301 4 14 12 14h76c8 0 12 -4.33301 12 -13v-87z" />
    <glyph glyph-name="copyright" unicode="&#xa9;" horiz-adv-x="830" 
d="M223.5 41c-58.333 34 -104.5 80.167 -138.5 138.5s-51 122.166 -51 191.499c0 68.667 17 132.167 51 190.5s80.167 104.666 138.5 138.999s122.166 51.5 191.499 51.5c68.667 0 132.167 -17.167 190.5 -51.5s104.666 -80.666 138.999 -138.999s51.5 -121.833 51.5 -190.5
c0 -69.333 -17.167 -133.166 -51.5 -191.499s-80.666 -104.5 -138.999 -138.5s-121.833 -51 -190.5 -51c-69.333 0 -133.166 17 -191.499 51zM571 97c46.667 26 83.667 62.668 111 110.001s41 102 41 164c0 61.333 -13.667 115.833 -41 163.5s-64.5 84.667 -111.5 111
s-98.833 39.5 -155.5 39.5c-58 0 -110.5 -13.167 -157.5 -39.5s-83.833 -63.333 -110.5 -111s-40 -102.167 -40 -163.5c0 -62 13.333 -116.833 40 -164.5s63.5 -84.334 110.5 -110.001s99.5 -38.5 157.5 -38.5c57.333 0 109.333 13 156 39zM519 557.501
c28 -20.333 49.999 -46.165 65.999 -77.498c0.666992 -1.33301 1 -3 1 -5c0 -3.33301 -2.33301 -5.66602 -7 -6.99902l-60 -12h-2c-4 0 -6.66699 2.33301 -8 7c-10.667 20 -23 35.333 -37 46s-31 16 -51 16c-33.333 0 -60.333 -13.5 -81 -40.5s-31 -63.833 -31 -110.5
c0 -48 10.5 -85.333 31.5 -112s49.167 -40 84.5 -40c44 0 79 24 105 72c2 3.33301 6 4 12 2l41 -13c2.66699 -0.666992 4.33398 -1.83398 5.00098 -3.50098s0.333984 -4.5 -0.999023 -8.5c-14.667 -30.667 -36.334 -56.834 -65.001 -78.501s-63.667 -32.5 -105 -32.5
c-38 0 -72 8.83301 -102 26.5s-53.333 42.667 -70 75s-25 69.166 -25 110.499c0 42 8.5 79.333 25.5 112s40.5 58.167 70.5 76.5s63.667 27.5 101 27.5c40 0 74 -10.167 102 -30.5z" />
    <glyph glyph-name="ordfeminine" unicode="&#xaa;" horiz-adv-x="398" 
d="M326 640l-0.00585938 -167.002c0 -10 0.5 -18.333 1.5 -25s3.16699 -14.667 6.5 -24c0.666992 -0.666992 1 -2 1 -4c0 -5.33301 -5.66699 -8 -17 -8h-45c-6.66699 0 -10.667 3.33301 -12 10l-4 24c-1.33301 3.33301 -2.66602 5 -3.99902 5c-2 0 -4.66699 -1.33301 -8 -4
c-17.333 -14.667 -33.5 -25.167 -48.5 -31.5s-32.167 -9.5 -51.5 -9.5c-34 0 -60.667 8.33301 -80 25s-29 39.334 -29 68.001c0 66 56 103.667 168 113l41 4c7.33301 0 11 3 11 9v14c0 40 -23 60 -69 60c-17.333 0 -32.166 -3 -44.499 -9s-23.166 -16.667 -32.499 -32
c-1.33301 -2.66699 -2.66602 -4.16699 -3.99902 -4.5s-3.66602 -0.166016 -6.99902 0.500977l-48 12c-1.33301 0.666992 -2.33301 2.5 -3 5.5s-0.333984 5.5 0.999023 7.5c12.667 23.333 30.334 41 53.001 53s52.334 18 89.001 18c90 0 135 -36.667 135 -110z
M125.494 468.998c11.667 -8.66699 27.167 -13 46.5 -13c23.333 0 44.333 7.66699 63 23c14 12.667 21 25.667 21 39v43c0 4 -0.833008 7 -2.5 9s-4.5 2.66699 -8.5 2l-35 -4c-32 -2.66699 -57 -9.5 -75 -20.5s-27 -25.833 -27 -44.5c0 -14 5.83301 -25.333 17.5 -34z" />
    <glyph glyph-name="guillemotleft" unicode="&#xab;" horiz-adv-x="459" 
d="M224 79c0.666992 -0.666992 1 -1.66699 1 -3c0 -3.33301 -4 -5 -12 -5h-37c-5.33301 0 -9 2 -11 6l-119 167c-3.33301 5.33301 -5 9.66602 -5 12.999c0 2.66699 1.33301 6.66699 4 12l120 177c2 2.66699 4 4.33398 6 5.00098s4 1 6 1h39c8 0 10.667 -3.66699 8 -11
l-91 -175c-1.33301 -4 -2 -7.33301 -2 -10c0 -1.33301 0.666992 -4 2 -8zM408 79c0.666992 -0.666992 1 -1.66699 1 -3c0 -3.33301 -4 -5 -12 -5h-37c-5.33301 0 -9 2 -11 6l-119 167c-3.33301 5.33301 -5 9.66602 -5 12.999c0 2.66699 1.33301 6.66699 4 12l120 177
c2 2.66699 3.83301 4.33398 5.5 5.00098s3.5 1 5.5 1h40c8 0 10.667 -3.66699 8 -11l-91 -175c-1.33301 -4 -2 -7.33301 -2 -10c0 -1.33301 0.666992 -4 2 -8z" />
    <glyph glyph-name="logicalnot" unicode="&#xac;" horiz-adv-x="565" 
d="M509 402v-203c0 -5.33301 -1.33301 -9.16602 -4 -11.499s-7 -3.5 -13 -3.5h-57c-5.33301 0 -9 1 -11 3s-3 5 -3 9l-1 137l-347 -1c-6 0 -10 1.16699 -12 3.5s-3 6.16602 -3 11.499v52c0 9.33301 3.33301 14 10 14h429c8 0 12 -3.66699 12 -11z" />
    <glyph glyph-name="uni00AD" unicode="&#xad;" horiz-adv-x="381" 
d="M323 240c0 -10.667 -6.66797 -16 -20.001 -16h-230c-5.33301 0 -9.16602 1 -11.499 3s-3.5 5.66699 -3.5 11v53c0 9.33301 3.66699 14 11 14h242c8 0 12 -3.66699 12 -11v-54z" />
    <glyph glyph-name="registered" unicode="&#xae;" horiz-adv-x="545" 
d="M153 307c-36.667 21.333 -65.6699 50.166 -87.0029 86.499s-32 76.166 -32 119.499s10.667 83.333 32 120s50.333 65.667 87 87s76.667 32 120 32c42.667 0 82.334 -10.667 119.001 -32s65.667 -50.333 87 -87s32 -76.667 32 -120s-10.667 -83.166 -32 -119.499
s-50.166 -65.166 -86.499 -86.499s-76.166 -32 -119.499 -32s-83.333 10.667 -120 32zM406.997 376.5c34 34.333 50.999 79.833 50.999 136.5c0 37.333 -7.83301 70.333 -23.5 99s-37.5 50.834 -65.5 66.501s-60 23.5 -96 23.5c-55.333 0 -100.166 -17.333 -134.499 -52
s-51.5 -80.334 -51.5 -137.001c0 -57.333 17 -103 51 -137s79 -51 135 -51c55.333 0 100 17.167 134 51.5zM365.496 395.5c-1 -1.66699 -2.5 -2.49902 -4.5 -2.49902h-39c-2.66699 0 -4.66699 1.66699 -6 5l-36 99c-0.666992 0.666992 -1.33398 1.5 -2.00098 2.5
s-3 1.5 -7 1.5h-40c-2.66699 0 -4 -1.33301 -4 -4v-98c0 -4 -2 -6 -6 -6h-36c-3.33301 0 -5 1.66699 -5 5v227c0 3.33301 1.33301 5 4 5h104c26 0 46.333 -5.33301 61 -16s22 -25.667 22 -45c0 -30.667 -15.333 -51.334 -46 -62.001c-0.666992 0 -1.16699 -0.5 -1.5 -1.5
s-0.166016 -1.83301 0.500977 -2.5l42 -103c0.666992 -1.33301 0.5 -2.83301 -0.5 -4.5zM321.996 565.001c0 19.333 -14 29 -42 29h-48h-2.5c-1 0 -1.66699 -0.333008 -2 -1s-0.5 -1.66699 -0.5 -3v-49c0 -2.66699 1.33301 -4 4 -4h51c26.667 0 40 9.33301 40 28z" />
    <glyph glyph-name="macron" unicode="&#xaf;" horiz-adv-x="338" 
d="M328 672c0 -10 -6 -15 -18 -15h-287c-8.66699 0 -13 4.66699 -13 14v47c0 8 3.33301 12 10 12h298c6.66699 0 10 -3.66699 10 -11v-47z" />
    <glyph glyph-name="degree" unicode="&#xb0;" horiz-adv-x="464" 
d="M373.5 610c-14.333 -24.667 -33.833 -44 -58.5 -58s-52.334 -21 -83.001 -21s-58.5 7 -83.5 21s-44.5 33.333 -58.5 58s-21 52.667 -21 84s7 59.5 21 84.5s33.333 44.5 58 58.5s52.667 21 84 21c30.667 0 58.334 -7 83.001 -21s44.167 -33.5 58.5 -58.5
s21.5 -53.167 21.5 -84.5s-7.16699 -59.333 -21.5 -84zM298.5 763c-17 18 -39.833 26.999 -68.5 26.999c-28 0 -50.5 -8.83301 -67.5 -26.5s-25.5 -40.5 -25.5 -68.5c0 -29.333 8.33301 -53.166 25 -71.499s39.667 -27.5 69 -27.5c28 0 50.5 9 67.5 27s25.5 41.333 25.5 70
s-8.5 52 -25.5 70z" />
    <glyph glyph-name="plusminus" unicode="&#xb1;" horiz-adv-x="565" 
d="M505.5 490.5c2.33301 -2.33301 3.50098 -5.16699 3.50098 -8.5v-52c0 -11.333 -6.66699 -17 -20 -17h-166v-173c0 -8 -4 -12 -12 -12h-51c-11.333 0 -17 6.33301 -17 19v166h-170c-6 0 -10 1 -12 3s-3 5.66699 -3 11v53c0 8.66699 3.33301 13 10 13h175v170
c0 6 1 10.167 3 12.5s5.66699 3.5 11 3.5h53c8.66699 0 13 -3.66699 13 -11v-174h174c3.33301 0 6.16602 -1.16699 8.49902 -3.5zM509.001 123.999v-52c0 -6 -1.5 -10.167 -4.5 -12.5s-8.16699 -3.5 -15.5 -3.5l-416 -1c-6 0 -10 1 -12 3s-3 5.66699 -3 11v53
c0 8.66699 3.33301 13 10 13l429 1c8 0 12 -4 12 -12z" />
    <glyph glyph-name="uni00B2" unicode="&#xb2;" horiz-adv-x="452" 
d="M196 582c37.333 33.333 62.667 60.001 76 80.001s20 40.667 20 62c0 23.333 -8.5 41.833 -25.5 55.5s-37.167 20.5 -60.5 20.5c-18.667 0 -37 -5.16699 -55 -15.5s-33.667 -26.5 -47 -48.5c-2 -4.66699 -6.66699 -5.33398 -14 -2.00098l-37 20c-6 5.33301 -7 11 -3 17
c19.333 29.333 42.833 51 70.5 65s58.167 21 91.5 21c44.667 0 81.5 -11.833 110.5 -35.5s43.5 -56.834 43.5 -99.501c0 -26 -7.33301 -50.5 -22 -73.5s-40 -50.833 -76 -83.5l-124 -110c-2.66699 -2 -3.66699 -3.66699 -3 -5s3 -2 7 -2h213c6.66699 0 10 -3 10 -9v-46
c0 -6 -3.33301 -9 -10 -9h-303c-4.66699 0 -7.83398 0.833008 -9.50098 2.5s-2.5 4.5 -2.5 8.5v33c0 4.66699 1.33301 8.83398 4 12.501s8.33398 9.16699 17.001 16.5z" />
    <glyph glyph-name="uni00B3" unicode="&#xb3;" horiz-adv-x="467" 
d="M74 794c18 20.667 39.9971 36.3311 65.9971 46.998s54.333 16 85 16c50 0 89.667 -11.167 119 -33.5s44 -51.166 44 -86.499c0 -22 -7 -42 -21 -60s-33 -31.333 -57 -40c-4.66699 -2 -7 -3.66699 -7 -5c0 -2 2.33301 -3.33301 7 -4c26.667 -8 48.667 -22 66 -42
s26 -43.667 26 -71c0 -42 -15.667 -75.333 -47 -100s-77.333 -37 -138 -37c-33.333 0 -64 6 -92 18s-51.667 29.333 -71 52c-1.33301 2.66699 -2 4.66699 -2 6c0 3.33301 1.66699 5.66602 5 6.99902l34 26c2.66699 2 4.83398 2.83301 6.50098 2.5
s3.16699 -1.16602 4.5 -2.49902c18.667 -19.333 37.167 -33 55.5 -41s39.833 -12 64.5 -12c32.667 0 58.334 7.16699 77.001 21.5s28 33.5 28 57.5c0 26 -10.5 46.667 -31.5 62s-46.5 23 -76.5 23l-55 1c-6 0 -9 2.33301 -9 7v41c0 3.33301 3 5.66602 9 6.99902l44 1
c30.667 0.666992 56 8.33398 76 23.001s30 33.334 30 56.001c0 19.333 -8.5 35.5 -25.5 48.5s-38.167 19.5 -63.5 19.5c-40 0 -76.333 -16 -109 -48c-2.66699 -2.66699 -4.66699 -4 -6 -4s-3.66602 1.33301 -6.99902 4l-29 29c-2.66699 4 -2.66699 7.66699 0 11z" />
    <glyph glyph-name="acute" unicode="&#xb4;" horiz-adv-x="292" 
d="M280 692c1.33301 -4 2 -6.33398 2 -7.00098c0 -5.33301 -4.66699 -9.66602 -14 -12.999l-229 -69c-2 -0.666992 -4.33301 -1 -7 -1c-5.33301 0 -9 3.33301 -11 10l-10 26c-0.666992 1.33301 -1 3.33301 -1 6c0 6 2 9.33301 6 10l233 97l4 1c4.66699 0 8 -2.66699 10 -8z
" />
    <glyph glyph-name="paragraph" unicode="&#xb6;" horiz-adv-x="574" 
d="M455 678c-5.33301 0 -8.00195 -2.66895 -8.00195 -8.00195v-745c0 -6.66699 -2.66699 -10 -8 -10h-50c-6.66699 0 -10 3.33301 -10 10v746c0 2 -0.833008 3.66699 -2.5 5s-3.83398 2 -6.50098 2h-37c-4.66699 0 -7 -2.66699 -7 -8v-745c0 -6.66699 -3.33301 -10 -10 -10
h-50c-6.66699 0 -10 3.33301 -10 10v375c0 4 -2 6 -6 6c-41.333 1.33301 -77.666 11.333 -108.999 30s-55.666 43.834 -72.999 75.501s-26 67.5 -26 107.5s9 76.833 27 110.5s44.833 60.834 80.5 81.501s78.5 31 128.5 31h223c6 0 9 -2.66699 9 -8v-49
c0 -2.66699 -0.666992 -4.5 -2 -5.5s-3.66602 -1.5 -6.99902 -1.5h-46z" />
    <glyph glyph-name="periodcentered" unicode="&#xb7;" horiz-adv-x="216" 
d="M169 331c0 -6.66699 -1.5 -11.332 -4.5 -13.999s-7.83301 -4 -14.5 -4h-90c-6 0 -10 1.16699 -12 3.5s-3 6.16602 -3 11.499v92c0 9.33301 3.66699 14 11 14h103c6.66699 0 10 -4 10 -12v-91z" />
    <glyph glyph-name="cedilla" unicode="&#xb8;" horiz-adv-x="234" 
d="M191.5 -191.5c-21.667 -14.333 -48.835 -21.499 -81.502 -21.499c-37.333 0 -69 7.66699 -95 23c-4 2 -5.66699 5.33301 -5 10l13 29c0.666992 1.33301 1.83398 2.16602 3.50098 2.49902s3.5 0.166016 5.5 -0.500977c20.667 -13.333 42.334 -20 65.001 -20
c36.667 0 55 12.333 55 37c0 14 -6.66699 24.667 -20 32s-34.333 11.333 -63 12c-6.66699 0 -8.66699 2.33301 -6 7l36 86h54l-22 -55c-2 -4 -0.666992 -6 4 -6c30.667 -1.33301 53.167 -9.33301 67.5 -24s21.5 -32 21.5 -52c0 -25.333 -10.833 -45.166 -32.5 -59.499z" />
    <glyph glyph-name="uni00B9" unicode="&#xb9;" horiz-adv-x="367" 
d="M283 431v-43.001c0 -5.33301 -3.33301 -8 -10 -8h-229c-5.33301 0 -8 2.66699 -8 8v43c0 4.66699 2.66699 7 8 7h75c3.33301 0 5 1.33301 5 4v320c0 2.66699 -0.5 4.33398 -1.5 5.00098s-2.83301 0.666992 -5.5 0l-72 -25l-3 -1c-4.66699 0 -7 3.33301 -7 10v30
c0 3.33301 0.666992 5.83301 2 7.5s3 3.16699 5 4.5l97 48c8.66699 4 16 6 22 6h32c4.66699 0 7 -3 7 -9v-394c0 -4 1.66699 -6 5 -6h69c6 0 9 -2.33301 9 -7z" />
    <glyph glyph-name="ordmasculine" unicode="&#xba;" horiz-adv-x="407" 
d="M321.5 703c29.667 -32 44.5 -74 44.5 -126c0 -50 -14.667 -90.833 -44 -122.5s-69 -47.5 -119 -47.5c-49.333 0 -88.5 15.833 -117.5 47.5s-43.5 72.5 -43.5 122.5c0 52 15 94 45 126s68.667 48 116 48c49.333 0 88.833 -16 118.5 -48zM139.5 668
c-14.333 -20.667 -21.5 -50 -21.5 -88c0 -38.667 7.16699 -68.334 21.5 -89.001s35.5 -31 63.5 -31c28.667 0 50.334 10.333 65.001 31s22 50.334 22 89.001c0 38 -7.33301 67.333 -22 88s-36.334 31 -65.001 31c-28 0 -49.167 -10.333 -63.5 -31z" />
    <glyph glyph-name="guillemotright" unicode="&#xbb;" horiz-adv-x="458" 
d="M143 257c0 4 -0.666992 7.00098 -2 9.00098l-90 175c-0.666992 1.33301 -1 3 -1 5c0 4 3 6 9 6h39c2 0 3.83301 -0.333008 5.5 -1s3.5 -2.33398 5.5 -5.00098l121 -177c2 -4 3 -8 3 -12s-1.33301 -8.33301 -4 -13l-119 -167c-2 -4 -6 -6 -12 -6h-37
c-9.33301 0 -13 2.66699 -11 8l91 169c1.33301 2 2 5 2 9zM327 257.001c0 4 -0.666992 7 -2 9l-90 175c-0.666992 1.33301 -1 3 -1 5c0 4 3 6 9 6h39c2 0 3.83301 -0.333008 5.5 -1s3.5 -2.33398 5.5 -5.00098l121 -177c2.66699 -5.33301 4 -9.33301 4 -12
c0 -3.33301 -1.66699 -7.66602 -5 -12.999l-119 -167c-2 -4 -6 -6 -12 -6h-37c-9.33301 0 -13 2.66699 -11 8l91 169c1.33301 2 2 5 2 9z" />
    <glyph glyph-name="onequarter" unicode="&#xbc;" horiz-adv-x="907" 
d="M249 327v-43.001c0 -5.33301 -3.33301 -8 -10 -8h-229c-5.33301 0 -8 2.66699 -8 8v43c0 4.66699 2.66699 7 8 7h75c3.33301 0 5 1.33301 5 4v320c0 2.66699 -0.5 4.33398 -1.5 5.00098s-2.83301 0.666992 -5.5 0l-72 -25l-3 -1c-4.66699 0 -7 3.33301 -7 10v30
c0 3.33301 0.666992 5.83301 2 7.5s3 3.16699 5 4.5l97 48c8.66699 4 16 6 22 6h32c4.66699 0 7 -3 7 -9v-394c0 -4 1.66699 -6 5 -6h69c6 0 9 -2.33301 9 -7zM210 5.99902c-2 -4 -4.5 -6.66699 -7.5 -8s-7.16699 -2 -12.5 -2h-31c-8.66699 0 -13 3.66699 -13 11
c0 4 1.33301 7.66699 4 11l481 724c2 3.33301 4.33301 5.5 7 6.5s6.33398 1.5 11.001 1.5h39c4.66699 0 7.66699 -1.16699 9 -3.5s0.666016 -5.5 -2.00098 -9.5zM737 465.499c2.66699 1 6.33301 1.5 11 1.5h54c5.33301 0 8 -3 8 -9v-277c0 -4 2 -6 6 -6h56
c6.66699 0 10 -2.66699 10 -8v-37c0 -6.66699 -3.33301 -10 -10 -10h-56c-4 0 -6 -2 -6 -6v-103c0 -4 -0.833008 -6.83301 -2.5 -8.5s-4.83398 -2.5 -9.50098 -2.5h-55c-6.66699 0 -10 3.33301 -10 10v106c0 2.66699 -2 4 -6 4h-199c-7.33301 0 -11 3.33301 -11 10v38
c0 5.33301 4 13.333 12 24l200 267c2.66699 3.33301 5.33398 5.5 8.00098 6.5zM726.999 174.999c1.33301 0 2.66699 0.333008 4 1s2 1.66699 2 3v193c0 5.33301 -1 8 -3 8c-1.33301 0 -3.33301 -1.66699 -6 -5l-141 -192c-4 -5.33301 -2.66699 -8 4 -8h140z" />
    <glyph glyph-name="onehalf" unicode="&#xbd;" horiz-adv-x="963" 
d="M249 327v-43.001c0 -5.33301 -3.33301 -8 -10 -8h-229c-5.33301 0 -8 2.66699 -8 8v43c0 4.66699 2.66699 7 8 7h75c3.33301 0 5 1.33301 5 4v320c0 2.66699 -0.5 4.33398 -1.5 5.00098s-2.83301 0.666992 -5.5 0l-72 -25l-3 -1c-4.66699 0 -7 3.33301 -7 10v30
c0 3.33301 0.666992 5.83301 2 7.5s3 3.16699 5 4.5l97 48c8.66699 4 16 6 22 6h32c4.66699 0 7 -3 7 -9v-394c0 -4 1.66699 -6 5 -6h69c6 0 9 -2.33301 9 -7zM269 5.99902c-2 -4 -4.5 -6.66699 -7.5 -8s-7.16699 -2 -12.5 -2h-31c-8.66699 0 -13 3.66699 -13 11
c0 4 1.33301 7.66699 4 11l481 724c2 3.33301 4.33301 5.5 7 6.5s6.33398 1.5 11.001 1.5h39c4.66699 0 7.66699 -1.16699 9 -3.5s0.666016 -5.5 -2.00098 -9.5zM740 197.999c37.333 33.333 62.667 60.001 76 80.001s20 40.667 20 62c0 23.333 -8.5 41.833 -25.5 55.5
s-37.167 20.5 -60.5 20.5c-18.667 0 -37 -5.16699 -55 -15.5s-33.667 -26.5 -47 -48.5c-2 -4.66699 -6.66699 -5.33398 -14 -2.00098l-37 20c-6 5.33301 -7 11 -3 17c19.333 29.333 42.833 51 70.5 65s58.167 21 91.5 21c44.667 0 81.5 -11.833 110.5 -35.5
s43.5 -56.834 43.5 -99.501c0 -26 -7.33301 -50.5 -22 -73.5s-40 -50.833 -76 -83.5l-124 -110c-2.66699 -2 -3.66699 -3.66699 -3 -5s3 -2 7 -2h213c6.66699 0 10 -3 10 -9v-46c0 -6 -3.33301 -9 -10 -9h-303c-4.66699 0 -7.83398 0.833008 -9.50098 2.5s-2.5 4.5 -2.5 8.5
v33c0 4.66699 1.33301 8.83398 4 12.501s8.33398 9.16699 17.001 16.5z" />
    <glyph glyph-name="threequarters" unicode="&#xbe;" horiz-adv-x="957" 
d="M40 689c18 20.667 39.9971 36.3311 65.9971 46.998s54.333 16 85 16c50 0 89.667 -11.167 119 -33.5s44 -51.166 44 -86.499c0 -22 -7 -42 -21 -60s-33 -31.333 -57 -40c-4.66699 -2 -7 -3.66699 -7 -5c0 -2 2.33301 -3.33301 7 -4c26.667 -8 48.667 -22 66 -42
s26 -43.667 26 -71c0 -42 -15.667 -75.333 -47 -100s-77.333 -37 -138 -37c-33.333 0 -64 6 -92 18s-51.667 29.333 -71 52c-1.33301 2.66699 -2 4.66699 -2 6c0 3.33301 1.66699 5.66602 5 6.99902l34 26c2.66699 2 4.83398 2.83301 6.50098 2.5
s3.16699 -1.16602 4.5 -2.49902c18.667 -19.333 37.167 -33 55.5 -41s39.833 -12 64.5 -12c32.667 0 58.334 7.16699 77.001 21.5s28 33.5 28 57.5c0 26 -10.5 46.667 -31.5 62s-46.5 23 -76.5 23l-55 1c-6 0 -9 2.33301 -9 7v41c0 3.33301 3 5.66602 9 6.99902l44 1
c30.667 0.666992 56 8.33398 76 23.001s30 33.334 30 56.001c0 19.333 -8.5 35.5 -25.5 48.5s-38.167 19.5 -63.5 19.5c-40 0 -76.333 -16 -109 -48c-2.66699 -2.66699 -4.66699 -4 -6 -4s-3.66602 1.33301 -6.99902 4l-29 29c-2.66699 4 -2.66699 7.66699 0 11z
M309.997 5.99707c-2 -4 -4.5 -6.66699 -7.5 -8s-7.16699 -2 -12.5 -2h-31c-8.66699 0 -13 3.66699 -13 11c0 4 1.33301 7.66699 4 11l481 724c2 3.33301 4.33301 5.5 7 6.5s6.33398 1.5 11.001 1.5h39c4.66699 0 7.66699 -1.16699 9 -3.5s0.666016 -5.5 -2.00098 -9.5z
M782.997 465.497c2.66699 1 6.33301 1.5 11 1.5h54c5.33301 0 8 -3 8 -9v-277c0 -4 2 -6 6 -6h56c6.66699 0 10 -2.66699 10 -8v-37c0 -6.66699 -3.33301 -10 -10 -10h-56c-4 0 -6 -2 -6 -6v-103c0 -4 -0.833008 -6.83301 -2.5 -8.5s-4.83398 -2.5 -9.50098 -2.5h-55
c-6.66699 0 -10 3.33301 -10 10v106c0 2.66699 -2 4 -6 4h-199c-7.33301 0 -11 3.33301 -11 10v38c0 5.33301 4 13.333 12 24l200 267c2.66699 3.33301 5.33398 5.5 8.00098 6.5zM772.996 174.997c1.33301 0 2.66699 0.333008 4 1s2 1.66699 2 3v193c0 5.33301 -1 8 -3 8
c-1.33301 0 -3.33301 -1.66699 -6 -5l-141 -192c-4 -5.33301 -2.66699 -8 4 -8h140z" />
    <glyph glyph-name="questiondown" unicode="&#xbf;" horiz-adv-x="522" 
d="M213 512c0 6.66699 1.66797 11.333 5.00098 14s8.66602 4 15.999 4h85c6.66699 0 11.167 -1.16699 13.5 -3.5s3.5 -6.5 3.5 -12.5v-97c0 -10 -4 -15 -12 -15h-100c-7.33301 0 -11 4.33301 -11 13v97zM500.001 -25.501c0.666992 -3 0.332031 -6.16406 -1.00098 -9.49707
c-21.333 -44 -53.166 -78.333 -95.499 -103s-91.166 -37 -146.499 -37c-48 0 -89.333 7.5 -124 22.5s-61 36 -79 63s-27 57.833 -27 92.5c0 24.667 4.66699 46.5 14 65.5s20.833 35.333 34.5 49s31.5 29.167 53.5 46.5c22 18 39.667 33.5 53 46.5s24.5 28.667 33.5 47
s13.5 39.166 13.5 62.499c0 4 1.5 7.5 4.5 10.5s6.5 4.5 10.5 4.5h59c10 0 15 -5.66699 15 -17c0 -30 -5 -56.333 -15 -79s-22 -41.834 -36 -57.501s-32.333 -33.167 -55 -52.5c-26.667 -23.333 -46.334 -43.5 -59.001 -60.5s-19 -37.5 -19 -61.5
c0 -30.667 11.5 -55.334 34.5 -74.001s52.833 -28 89.5 -28c30.667 0 60.5 8.5 89.5 25.5s49.167 38.167 60.5 63.5c1.33301 3.33301 3 5.5 5 6.5s5.33301 0.833008 10 -0.5l70 -19c4 -1.33301 6.33301 -3.5 7 -6.5z" />
    <glyph glyph-name="Agrave" unicode="&#xc0;" horiz-adv-x="741" 
d="M41 12l2 9l255 705c2 6 4.66699 10.167 8 12.5s8 3.5 14 3.5h101c12.667 0 21 -5.66699 25 -17l253 -705c0.666992 -1.33301 1 -3.66602 1 -6.99902c0 -8.66699 -3.66699 -13 -11 -13h-95c-8.66699 0 -14.334 4 -17.001 12l-64 178
c-1.33301 3.33301 -2.66602 5.66602 -3.99902 6.99902s-4 2 -8 2h-277c-6 0 -10 -2.66699 -12 -8l-65 -181c-2 -6.66699 -7.66699 -10 -17 -10h-77c-8 0 -12 4 -12 12zM470 293c4.66699 0 7.5 1.16699 8.5 3.5s0.833008 5.83301 -0.5 10.5l-108 300
c-2 4.66699 -4.33301 7 -7 7s-5 -2.66699 -7 -8l-111 -300l-1 -6c0 -4.66699 3 -7 9 -7h217zM247 963c2.66699 1.33301 5.66699 1.33398 9 0.000976562l232 -97c3.33301 -1.33301 5.5 -3.33301 6.5 -6s0.5 -6 -1.5 -10l-9 -26c-1.33301 -4.66699 -3.33301 -7.66699 -6 -9
s-6.66699 -1.33301 -12 0l-230 69c-6 2 -9.83301 4.5 -11.5 7.5s-1.83398 7.16699 -0.500977 12.5l18 52c0.666992 3.33301 2.33398 5.66602 5.00098 6.99902z" />
    <glyph glyph-name="Aacute" unicode="&#xc1;" horiz-adv-x="741" 
d="M41 12l2 9l255 705c2 6 4.66699 10.167 8 12.5s8 3.5 14 3.5h101c12.667 0 21 -5.66699 25 -17l253 -705c0.666992 -1.33301 1 -3.66602 1 -6.99902c0 -8.66699 -3.66699 -13 -11 -13h-95c-8.66699 0 -14.334 4 -17.001 12l-64 178
c-1.33301 3.33301 -2.66602 5.66602 -3.99902 6.99902s-4 2 -8 2h-277c-6 0 -10 -2.66699 -12 -8l-65 -181c-2 -6.66699 -7.66699 -10 -17 -10h-77c-8 0 -12 4 -12 12zM470 293c4.66699 0 7.5 1.16699 8.5 3.5s0.833008 5.83301 -0.5 10.5l-108 300
c-2 4.66699 -4.33301 7 -7 7s-5 -2.66699 -7 -8l-111 -300l-1 -6c0 -4.66699 3 -7 9 -7h217zM503 904c1.33301 -4 2 -6.33398 2 -7.00098c0 -5.33301 -4.66699 -9.66602 -14 -12.999l-229 -69c-2 -0.666992 -4.33301 -1 -7 -1c-5.33301 0 -9 3.33301 -11 10l-10 26
c-0.666992 1.33301 -1 3.33301 -1 6c0 6 2 9.33301 6 10l233 97l4 1c4.66699 0 8 -2.66699 10 -8z" />
    <glyph glyph-name="Acircumflex" unicode="&#xc2;" horiz-adv-x="741" 
d="M41 12l2 9l255 705c2 6 4.66699 10.167 8 12.5s8 3.5 14 3.5h101c12.667 0 21 -5.66699 25 -17l253 -705c0.666992 -1.33301 1 -3.66602 1 -6.99902c0 -8.66699 -3.66699 -13 -11 -13h-95c-8.66699 0 -14.334 4 -17.001 12l-64 178
c-1.33301 3.33301 -2.66602 5.66602 -3.99902 6.99902s-4 2 -8 2h-277c-6 0 -10 -2.66699 -12 -8l-65 -181c-2 -6.66699 -7.66699 -10 -17 -10h-77c-8 0 -12 4 -12 12zM470 293c4.66699 0 7.5 1.16699 8.5 3.5s0.833008 5.83301 -0.5 10.5l-108 300
c-2 4.66699 -4.33301 7 -7 7s-5 -2.66699 -7 -8l-111 -300l-1 -6c0 -4.66699 3 -7 9 -7h217zM380 894c-6 6 -10 9 -12 9c-2.66699 0 -7 -3 -13 -9l-55 -51c-4 -3.33301 -7 -5.33301 -9 -6s-5.66699 -1 -11 -1h-62c-5.33301 0 -8 1.66699 -8 5c0 2 1.66699 4.66699 5 8
l105 98c4 4 7.83301 7 11.5 9s8.83398 3 15.501 3h49c4.66699 0 8.66699 -1.16699 12 -3.5s6.33301 -4.83301 9 -7.5l104 -99c4 -4 6 -7 6 -9c0 -2.66699 -2.66699 -4 -8 -4h-67c-8.66699 0 -15.334 2.33301 -20.001 7z" />
    <glyph glyph-name="Atilde" unicode="&#xc3;" horiz-adv-x="741" 
d="M41 12l2 9l255 705c2 6 4.66699 10.167 8 12.5s8 3.5 14 3.5h101c12.667 0 21 -5.66699 25 -17l253 -705c0.666992 -1.33301 1 -3.66602 1 -6.99902c0 -8.66699 -3.66699 -13 -11 -13h-95c-8.66699 0 -14.334 4 -17.001 12l-64 178
c-1.33301 3.33301 -2.66602 5.66602 -3.99902 6.99902s-4 2 -8 2h-277c-6 0 -10 -2.66699 -12 -8l-65 -181c-2 -6.66699 -7.66699 -10 -17 -10h-77c-8 0 -12 4 -12 12zM470 293c4.66699 0 7.5 1.16699 8.5 3.5s0.833008 5.83301 -0.5 10.5l-108 300
c-2 4.66699 -4.33301 7 -7 7s-5 -2.66699 -7 -8l-111 -300l-1 -6c0 -4.66699 3 -7 9 -7h217zM438 859c-12.667 0 -24.165 1.16895 -34.498 3.50195s-22.833 5.83301 -37.5 10.5c-10 3.33301 -20.333 6.16602 -31 8.49902s-21 3.5 -31 3.5
c-12.667 0 -23.334 -1.66699 -32.001 -5s-18.667 -9 -30 -17c-2.66699 -2 -5.33398 -3 -8.00098 -3c-3.33301 0 -6 3 -8 9l-11 32c-0.666992 2 -1 4.33301 -1 7c0 3.33301 1.66699 6.66602 5 9.99902c12.667 10.667 25.167 18.667 37.5 24s26.833 8 43.5 8
c12 0 24.5 -1.5 37.5 -4.5s25.167 -6.5 36.5 -10.5c4 -1.33301 12.667 -3.83301 26 -7.5s26 -5.5 38 -5.5c20.667 0 41 7 61 21c2.66699 2 5.66699 3 9 3c4 0 7 -3 9 -9l10 -37c0.666992 -1.33301 1 -3.33301 1 -6c0 -4 -3 -8 -9 -12c-24 -15.333 -51 -23 -81 -23z" />
    <glyph glyph-name="Adieresis" unicode="&#xc4;" horiz-adv-x="741" 
d="M41 12l2 9l255 705c2 6 4.66699 10.167 8 12.5s8 3.5 14 3.5h101c12.667 0 21 -5.66699 25 -17l253 -705c0.666992 -1.33301 1 -3.66602 1 -6.99902c0 -8.66699 -3.66699 -13 -11 -13h-95c-8.66699 0 -14.334 4 -17.001 12l-64 178
c-1.33301 3.33301 -2.66602 5.66602 -3.99902 6.99902s-4 2 -8 2h-277c-6 0 -10 -2.66699 -12 -8l-65 -181c-2 -6.66699 -7.66699 -10 -17 -10h-77c-8 0 -12 4 -12 12zM470 293c4.66699 0 7.5 1.16699 8.5 3.5s0.833008 5.83301 -0.5 10.5l-108 300
c-2 4.66699 -4.33301 7 -7 7s-5 -2.66699 -7 -8l-111 -300l-1 -6c0 -4.66699 3 -7 9 -7h217zM336 854c0 -6 -1.5 -10.332 -4.5 -12.999s-7.83301 -4 -14.5 -4h-65c-6 0 -10.167 1.16699 -12.5 3.5s-3.5 6.16602 -3.5 11.499v88c0 9.33301 4 14 12 14h76
c8 0 12 -4.33301 12 -13v-87zM500 854.001c0 -6 -1.5 -10.332 -4.5 -12.999s-7.83301 -4 -14.5 -4h-65c-6 0 -10.167 1.16699 -12.5 3.5s-3.5 6.16602 -3.5 11.499v88c0 9.33301 4 14 12 14h76c8 0 12 -4.33301 12 -13v-87z" />
    <glyph glyph-name="Aring" unicode="&#xc5;" horiz-adv-x="741" 
d="M41 12l2 9l255 705c2 6 4.66699 10.167 8 12.5s8 3.5 14 3.5h101c12.667 0 21 -5.66699 25 -17l253 -705c0.666992 -1.33301 1 -3.66602 1 -6.99902c0 -8.66699 -3.66699 -13 -11 -13h-95c-8.66699 0 -14.334 4 -17.001 12l-64 178
c-1.33301 3.33301 -2.66602 5.66602 -3.99902 6.99902s-4 2 -8 2h-277c-6 0 -10 -2.66699 -12 -8l-65 -181c-2 -6.66699 -7.66699 -10 -17 -10h-77c-8 0 -12 4 -12 12zM470 293c4.66699 0 7.5 1.16699 8.5 3.5s0.833008 5.83301 -0.5 10.5l-108 300
c-2 4.66699 -4.33301 7 -7 7s-5 -2.66699 -7 -8l-111 -300l-1 -6c0 -4.66699 3 -7 9 -7h217zM444 780.5c-20.667 -20.333 -46 -30.501 -76 -30.501s-55.333 10.5 -76 31.5s-31 46.833 -31 77.5c0 28.667 10.5 53 31.5 73s46.167 30 75.5 30c30 0 55.333 -10.167 76 -30.5
s31 -45.166 31 -74.499c0 -30.667 -10.333 -56.167 -31 -76.5zM405.5 894.999c-10.333 10 -23.166 14.999 -38.499 14.999c-14.667 0 -27.5 -5.16699 -38.5 -15.5s-16.5 -23.166 -16.5 -38.499c0 -14.667 5.5 -27.5 16.5 -38.5s23.833 -16.5 38.5 -16.5
c15.333 0 28.166 5.5 38.499 16.5s15.5 23.833 15.5 38.5c0 16 -5.16699 29 -15.5 39z" />
    <glyph glyph-name="AE" unicode="&#xc6;" horiz-adv-x="1031" 
d="M984 88.5c2 -1.66699 3.00195 -4.83398 3.00195 -9.50098v-66c0 -8.66699 -4.66699 -13 -14 -13h-456c-6 0 -10.167 1.16699 -12.5 3.5s-3.5 6.5 -3.5 12.5v175c0 5.33301 -2.66699 8 -8 8h-232c-6.66699 0 -11.667 -2.66699 -15 -8l-100 -181
c-3.33301 -6.66699 -9 -10 -17 -10h-78c-2.66699 0 -5 0.833008 -7 2.5s-3 3.83398 -3 6.50098c0 4.66699 1.33301 8.66699 4 12l388 705c3.33301 6 6.66602 10.167 9.99902 12.5s8 3.5 14 3.5h506c8 0 12 -4.33301 12 -13l-1 -63c0 -10 -5 -15 -15 -15h-323
c-5.33301 0 -9 -1 -11 -3s-3 -5.33301 -3 -10v-206c0 -8.66699 4 -13 12 -13h233c8 0 12 -4 12 -12v-67c0 -7.33301 -4 -11 -12 -11h-233c-4.66699 0 -7.83398 -0.833008 -9.50098 -2.5s-2.5 -4.5 -2.5 -8.5v-216c0 -4.66699 0.666992 -7.66699 2 -9s4 -2 8 -2h341
c5.33301 0 9 -0.833008 11 -2.5zM501.002 306l-0.000976562 313c-0.666992 10 -3.66699 15 -9 15s-10.666 -5 -15.999 -15l-176 -313c-2.66699 -5.33301 -4 -8.33301 -4 -9c0 -2.66699 2.66699 -4 8 -4h184c8.66699 0 13 4.33301 13 13z" />
    <glyph glyph-name="Ccedilla" unicode="&#xc7;" horiz-adv-x="712" 
d="M667 192c-8.66699 -30 -24.333 -59.834 -47 -89.501s-52.334 -54.834 -89.001 -75.501s-78.667 -32.667 -126 -36l-16 -41c-2 -4 -0.666992 -6 4 -6c30.667 -1.33301 53.167 -9.33301 67.5 -24s21.5 -32 21.5 -52c0 -25.333 -10.833 -45.166 -32.5 -59.499
s-48.834 -21.5 -81.501 -21.5c-37.333 0 -69 7.66699 -95 23c-4 2 -5.66699 5.33301 -5 10l13 29c0.666992 1.33301 1.83398 2.16602 3.50098 2.49902s3.5 0.166016 5.5 -0.500977c20.667 -13.333 42.334 -20 65.001 -20c36.667 0 55 12.333 55 37
c0 14 -6.66699 24.667 -20 32s-34.333 11.333 -63 12c-6.66699 0 -8.66699 2.33301 -6 7l30 72c-60.667 4.66699 -113 23.334 -157 56.001s-77.667 76.834 -101 132.501s-35 120.167 -35 193.5c0 78 12.833 145.5 38.5 202.5s62.667 100.667 111 131s105.5 45.5 171.5 45.5
c46 0 89.333 -9.5 130 -28.5s74.334 -44.5 101.001 -76.5s43 -67 49 -105c0.666992 -2.66699 1 -6 1 -10c0 -3.33301 -0.666992 -5.5 -2 -6.5s-4 -1.83301 -8 -2.5l-93 -6h-3c-4 0 -7 3.66699 -9 11c-9.33301 41.333 -28.166 74.333 -56.499 99s-63.5 37 -105.5 37
c-64.667 0 -113.834 -24.167 -147.501 -72.5s-50.5 -121.5 -50.5 -219.5c0 -97.333 16.833 -170 50.5 -218s84.167 -72 151.5 -72c45.333 0 83.166 11 113.499 33s54.833 57.333 73.5 106c0.666992 4.66699 5.66699 6.33398 15 5.00098l71 -17c6 -1.33301 8.33301 -7 7 -17z
" />
    <glyph glyph-name="Egrave" unicode="&#xc8;" horiz-adv-x="636" 
d="M91 738.5c2 2.33301 5.66699 3.50195 11 3.50195h466c8 0 12 -4.33301 12 -13l-1 -63c0 -10 -5 -15 -15 -15h-340c-10 0 -15 -4.33301 -15 -13v-206c0 -8.66699 4.33301 -13 13 -13h244c8.66699 0 13 -4 13 -12v-67c0 -7.33301 -4.33301 -11 -13 -11h-245
c-8 0 -12 -3.66699 -12 -11v-216c0 -4 0.833008 -6.83301 2.5 -8.5s4.16699 -2.5 7.5 -2.5h359c5.33301 0 9 -0.833008 11 -2.5s3 -4.83398 3 -9.50098v-66c0 -8.66699 -4.66699 -13 -14 -13h-473c-6.66699 0 -11.167 1.16699 -13.5 3.5s-3.5 6.5 -3.5 12.5v711
c0 5.33301 1 9.16602 3 11.499zM219 963.002c2.66699 1.33301 5.66699 1.33398 9 0.000976562l232 -97c3.33301 -1.33301 5.5 -3.33301 6.5 -6s0.5 -6 -1.5 -10l-9 -26c-1.33301 -4.66699 -3.33301 -7.66699 -6 -9s-6.66699 -1.33301 -12 0l-230 69
c-6 2 -9.83301 4.5 -11.5 7.5s-1.83398 7.16699 -0.500977 12.5l18 52c0.666992 3.33301 2.33398 5.66602 5.00098 6.99902z" />
    <glyph glyph-name="Eacute" unicode="&#xc9;" horiz-adv-x="636" 
d="M91 738.5c2 2.33301 5.66699 3.50195 11 3.50195h466c8 0 12 -4.33301 12 -13l-1 -63c0 -10 -5 -15 -15 -15h-340c-10 0 -15 -4.33301 -15 -13v-206c0 -8.66699 4.33301 -13 13 -13h244c8.66699 0 13 -4 13 -12v-67c0 -7.33301 -4.33301 -11 -13 -11h-245
c-8 0 -12 -3.66699 -12 -11v-216c0 -4 0.833008 -6.83301 2.5 -8.5s4.16699 -2.5 7.5 -2.5h359c5.33301 0 9 -0.833008 11 -2.5s3 -4.83398 3 -9.50098v-66c0 -8.66699 -4.66699 -13 -14 -13h-473c-6.66699 0 -11.167 1.16699 -13.5 3.5s-3.5 6.5 -3.5 12.5v711
c0 5.33301 1 9.16602 3 11.499zM475 904.002c1.33301 -4 2 -6.33398 2 -7.00098c0 -5.33301 -4.66699 -9.66602 -14 -12.999l-229 -69c-2 -0.666992 -4.33301 -1 -7 -1c-5.33301 0 -9 3.33301 -11 10l-10 26c-0.666992 1.33301 -1 3.33301 -1 6c0 6 2 9.33301 6 10l233 97
l4 1c4.66699 0 8 -2.66699 10 -8z" />
    <glyph glyph-name="Ecircumflex" unicode="&#xca;" horiz-adv-x="636" 
d="M91 738.5c2 2.33301 5.66699 3.50195 11 3.50195h466c8 0 12 -4.33301 12 -13l-1 -63c0 -10 -5 -15 -15 -15h-340c-10 0 -15 -4.33301 -15 -13v-206c0 -8.66699 4.33301 -13 13 -13h244c8.66699 0 13 -4 13 -12v-67c0 -7.33301 -4.33301 -11 -13 -11h-245
c-8 0 -12 -3.66699 -12 -11v-216c0 -4 0.833008 -6.83301 2.5 -8.5s4.16699 -2.5 7.5 -2.5h359c5.33301 0 9 -0.833008 11 -2.5s3 -4.83398 3 -9.50098v-66c0 -8.66699 -4.66699 -13 -14 -13h-473c-6.66699 0 -11.167 1.16699 -13.5 3.5s-3.5 6.5 -3.5 12.5v711
c0 5.33301 1 9.16602 3 11.499zM352 894.002c-6 6 -10 9 -12 9c-2.66699 0 -7 -3 -13 -9l-55 -51c-4 -3.33301 -7 -5.33301 -9 -6s-5.66699 -1 -11 -1h-62c-5.33301 0 -8 1.66699 -8 5c0 2 1.66699 4.66699 5 8l105 98c4 4 7.83301 7 11.5 9s8.83398 3 15.501 3h49
c4.66699 0 8.66699 -1.16699 12 -3.5s6.33301 -4.83301 9 -7.5l104 -99c4 -4 6 -7 6 -9c0 -2.66699 -2.66699 -4 -8 -4h-67c-8.66699 0 -15.334 2.33301 -20.001 7z" />
    <glyph glyph-name="Edieresis" unicode="&#xcb;" horiz-adv-x="636" 
d="M91 738.5c2 2.33301 5.66699 3.50195 11 3.50195h466c8 0 12 -4.33301 12 -13l-1 -63c0 -10 -5 -15 -15 -15h-340c-10 0 -15 -4.33301 -15 -13v-206c0 -8.66699 4.33301 -13 13 -13h244c8.66699 0 13 -4 13 -12v-67c0 -7.33301 -4.33301 -11 -13 -11h-245
c-8 0 -12 -3.66699 -12 -11v-216c0 -4 0.833008 -6.83301 2.5 -8.5s4.16699 -2.5 7.5 -2.5h359c5.33301 0 9 -0.833008 11 -2.5s3 -4.83398 3 -9.50098v-66c0 -8.66699 -4.66699 -13 -14 -13h-473c-6.66699 0 -11.167 1.16699 -13.5 3.5s-3.5 6.5 -3.5 12.5v711
c0 5.33301 1 9.16602 3 11.499zM308 854.002c0 -6 -1.5 -10.332 -4.5 -12.999s-7.83301 -4 -14.5 -4h-65c-6 0 -10.167 1.16699 -12.5 3.5s-3.5 6.16602 -3.5 11.499v88c0 9.33301 4 14 12 14h76c8 0 12 -4.33301 12 -13v-87zM472 854.003c0 -6 -1.5 -10.332 -4.5 -12.999
s-7.83301 -4 -14.5 -4h-65c-6 0 -10.167 1.16699 -12.5 3.5s-3.5 6.16602 -3.5 11.499v88c0 9.33301 4 14 12 14h76c8 0 12 -4.33301 12 -13v-87z" />
    <glyph glyph-name="Igrave" unicode="&#xcc;" horiz-adv-x="298" 
d="M196 742c8.66699 0 13.001 -5 13.001 -15v-708c0 -7.33301 -1.5 -12.333 -4.5 -15s-8.5 -4 -16.5 -4h-82c-6.66699 0 -11.334 1.16699 -14.001 3.5s-4 6.5 -4 12.5v711c0 10 4.66699 15 14 15h94zM29.001 963c2.66699 1.33301 5.66699 1.33398 9 0.000976562l232 -97
c3.33301 -1.33301 5.5 -3.33301 6.5 -6s0.5 -6 -1.5 -10l-9 -26c-1.33301 -4.66699 -3.33301 -7.66699 -6 -9s-6.66699 -1.33301 -12 0l-230 69c-6 2 -9.83301 4.5 -11.5 7.5s-1.83398 7.16699 -0.500977 12.5l18 52c0.666992 3.33301 2.33398 5.66602 5.00098 6.99902z" />
    <glyph glyph-name="Iacute" unicode="&#xcd;" horiz-adv-x="298" 
d="M196 742c8.66699 0 13.001 -5 13.001 -15v-708c0 -7.33301 -1.5 -12.333 -4.5 -15s-8.5 -4 -16.5 -4h-82c-6.66699 0 -11.334 1.16699 -14.001 3.5s-4 6.5 -4 12.5v711c0 10 4.66699 15 14 15h94zM285.001 904c1.33301 -4 2 -6.33398 2 -7.00098
c0 -5.33301 -4.66699 -9.66602 -14 -12.999l-229 -69c-2 -0.666992 -4.33301 -1 -7 -1c-5.33301 0 -9 3.33301 -11 10l-10 26c-0.666992 1.33301 -1 3.33301 -1 6c0 6 2 9.33301 6 10l233 97l4 1c4.66699 0 8 -2.66699 10 -8z" />
    <glyph glyph-name="Icircumflex" unicode="&#xce;" horiz-adv-x="298" 
d="M196 742c8.66699 0 13.001 -5 13.001 -15v-708c0 -7.33301 -1.5 -12.333 -4.5 -15s-8.5 -4 -16.5 -4h-82c-6.66699 0 -11.334 1.16699 -14.001 3.5s-4 6.5 -4 12.5v711c0 10 4.66699 15 14 15h94zM162.001 894c-6 6 -10 9 -12 9c-2.66699 0 -7 -3 -13 -9l-55 -51
c-4 -3.33301 -7 -5.33301 -9 -6s-5.66699 -1 -11 -1h-62c-5.33301 0 -8 1.66699 -8 5c0 2 1.66699 4.66699 5 8l105 98c4 4 7.83301 7 11.5 9s8.83398 3 15.501 3h49c4.66699 0 8.66699 -1.16699 12 -3.5s6.33301 -4.83301 9 -7.5l104 -99c4 -4 6 -7 6 -9
c0 -2.66699 -2.66699 -4 -8 -4h-67c-8.66699 0 -15.334 2.33301 -20.001 7z" />
    <glyph glyph-name="Idieresis" unicode="&#xcf;" horiz-adv-x="298" 
d="M196 742c8.66699 0 13.001 -5 13.001 -15v-708c0 -7.33301 -1.5 -12.333 -4.5 -15s-8.5 -4 -16.5 -4h-82c-6.66699 0 -11.334 1.16699 -14.001 3.5s-4 6.5 -4 12.5v711c0 10 4.66699 15 14 15h94zM118.001 854c0 -6 -1.5 -10.332 -4.5 -12.999s-7.83301 -4 -14.5 -4h-65
c-6 0 -10.167 1.16699 -12.5 3.5s-3.5 6.16602 -3.5 11.499v88c0 9.33301 4 14 12 14h76c8 0 12 -4.33301 12 -13v-87zM282.001 854.001c0 -6 -1.5 -10.332 -4.5 -12.999s-7.83301 -4 -14.5 -4h-65c-6 0 -10.167 1.16699 -12.5 3.5s-3.5 6.16602 -3.5 11.499v88
c0 9.33301 4 14 12 14h76c8 0 12 -4.33301 12 -13v-87z" />
    <glyph glyph-name="Eth" unicode="&#xd0;" horiz-adv-x="739" 
d="M586.5 645c63 -61.333 94.501 -151.331 94.501 -269.998c0 -122.667 -33.333 -215.834 -100 -279.501s-166.334 -95.5 -299.001 -95.5h-168c-12 0 -18 6 -18 18v310h-49c-6 0 -10.333 1.33301 -13 4s-4 6.66699 -4 12v52c0 10 4 15 12 15h54v316
c0 5.33301 1.33301 9.16602 4 11.499s7 3.5 13 3.5c80 0 139.333 -0.333008 178 -1c134 -2.66699 232.5 -34.667 295.5 -96zM429.001 116.002c42.667 18.667 74.3301 49 94.9971 91s31 97.667 31 167c0 68 -9.5 121.833 -28.5 161.5s-47.833 68.334 -86.5 86.001
s-89.667 27.834 -153 30.501l-62 1c-5.33301 0 -8 -4.66699 -8 -14v-228h151c7.33301 0 11 -4.33301 11 -13v-52c0 -6.66699 -1.66699 -11.334 -5 -14.001s-8.66602 -4 -15.999 -4h-141v-228c0 -4.66699 0.833008 -7.83398 2.5 -9.50098s4.83398 -2.5 9.50098 -2.5h33
c68.667 0 124.334 9.33301 167.001 28z" />
    <glyph glyph-name="Ntilde" unicode="&#xd1;" horiz-adv-x="757" 
d="M658 742c7.33301 0 11.002 -4.33105 11.002 -12.998v-716c0 -4 -1.33301 -7.16699 -4 -9.5s-6.33398 -3.5 -11.001 -3.5h-65c-5.33301 0 -9.5 0.5 -12.5 1.5s-6.16699 3.83301 -9.5 8.5l-365 524c-2.66699 4.66699 -5.16699 6.66699 -7.5 6s-3.5 -3 -3.5 -7v-519
c0 -9.33301 -5.33301 -14 -16 -14h-71c-10.667 0 -16 4.66699 -16 14v713c0 5.33301 1.16699 9.16602 3.5 11.499s6.16602 3.5 11.499 3.5h78c6 0 10.5 -0.833008 13.5 -2.5s5.83301 -4.83398 8.5 -9.50098l350 -507c4 -4.66699 7 -7 9 -7c4 0 6 3 6 9v503
c0 9.33301 4.66699 14 14 14h76zM458.002 859.002c-12.667 0 -24.165 1.16895 -34.498 3.50195s-22.833 5.83301 -37.5 10.5c-10 3.33301 -20.333 6.16602 -31 8.49902s-21 3.5 -31 3.5c-12.667 0 -23.334 -1.66699 -32.001 -5s-18.667 -9 -30 -17
c-2.66699 -2 -5.33398 -3 -8.00098 -3c-3.33301 0 -6 3 -8 9l-11 32c-0.666992 2 -1 4.33301 -1 7c0 3.33301 1.66699 6.66602 5 9.99902c12.667 10.667 25.167 18.667 37.5 24s26.833 8 43.5 8c12 0 24.5 -1.5 37.5 -4.5s25.167 -6.5 36.5 -10.5
c4 -1.33301 12.667 -3.83301 26 -7.5s26 -5.5 38 -5.5c20.667 0 41 7 61 21c2.66699 2 5.66699 3 9 3c4 0 7 -3 9 -9l10 -37c0.666992 -1.33301 1 -3.33301 1 -6c0 -4 -3 -8 -9 -12c-24 -15.333 -51 -23 -81 -23z" />
    <glyph glyph-name="Ograve" unicode="&#xd2;" horiz-adv-x="767" 
d="M210 34.5c-48.667 29.667 -85.998 72.832 -111.998 129.499s-39 124.667 -39 204c0 80 13.167 148.833 39.5 206.5s64 101.667 113 132s106.833 45.5 173.5 45.5c66 0 123.167 -15.167 171.5 -45.5s85.666 -74.166 111.999 -131.499s39.5 -126 39.5 -206
c0 -79.333 -13 -147.333 -39 -204s-63.333 -100 -112 -130s-106.334 -45 -173.001 -45c-67.333 0 -125.333 14.833 -174 44.5zM533.502 148.998c32.333 46.667 48.5 119.667 48.5 219c0 100.667 -16.333 175.167 -49 223.5s-82 72.5 -148 72.5
c-66.667 0 -116.667 -24.167 -150 -72.5s-50 -122.833 -50 -223.5c0 -98.667 16.5 -171.5 49.5 -218.5s83.167 -70.5 150.5 -70.5c66.667 0 116.167 23.333 148.5 70zM263.002 962.998c2.66699 1.33301 5.66699 1.33398 9 0.000976562l232 -97
c3.33301 -1.33301 5.5 -3.33301 6.5 -6s0.5 -6 -1.5 -10l-9 -26c-1.33301 -4.66699 -3.33301 -7.66699 -6 -9s-6.66699 -1.33301 -12 0l-230 69c-6 2 -9.83301 4.5 -11.5 7.5s-1.83398 7.16699 -0.500977 12.5l18 52c0.666992 3.33301 2.33398 5.66602 5.00098 6.99902z" />
    <glyph glyph-name="Oacute" unicode="&#xd3;" horiz-adv-x="767" 
d="M210 34.5c-48.667 29.667 -85.998 72.832 -111.998 129.499s-39 124.667 -39 204c0 80 13.167 148.833 39.5 206.5s64 101.667 113 132s106.833 45.5 173.5 45.5c66 0 123.167 -15.167 171.5 -45.5s85.666 -74.166 111.999 -131.499s39.5 -126 39.5 -206
c0 -79.333 -13 -147.333 -39 -204s-63.333 -100 -112 -130s-106.334 -45 -173.001 -45c-67.333 0 -125.333 14.833 -174 44.5zM533.502 148.998c32.333 46.667 48.5 119.667 48.5 219c0 100.667 -16.333 175.167 -49 223.5s-82 72.5 -148 72.5
c-66.667 0 -116.667 -24.167 -150 -72.5s-50 -122.833 -50 -223.5c0 -98.667 16.5 -171.5 49.5 -218.5s83.167 -70.5 150.5 -70.5c66.667 0 116.167 23.333 148.5 70zM519.002 903.998c1.33301 -4 2 -6.33398 2 -7.00098c0 -5.33301 -4.66699 -9.66602 -14 -12.999l-229 -69
c-2 -0.666992 -4.33301 -1 -7 -1c-5.33301 0 -9 3.33301 -11 10l-10 26c-0.666992 1.33301 -1 3.33301 -1 6c0 6 2 9.33301 6 10l233 97l4 1c4.66699 0 8 -2.66699 10 -8z" />
    <glyph glyph-name="Ocircumflex" unicode="&#xd4;" horiz-adv-x="767" 
d="M210 34.5c-48.667 29.667 -85.998 72.832 -111.998 129.499s-39 124.667 -39 204c0 80 13.167 148.833 39.5 206.5s64 101.667 113 132s106.833 45.5 173.5 45.5c66 0 123.167 -15.167 171.5 -45.5s85.666 -74.166 111.999 -131.499s39.5 -126 39.5 -206
c0 -79.333 -13 -147.333 -39 -204s-63.333 -100 -112 -130s-106.334 -45 -173.001 -45c-67.333 0 -125.333 14.833 -174 44.5zM533.502 148.998c32.333 46.667 48.5 119.667 48.5 219c0 100.667 -16.333 175.167 -49 223.5s-82 72.5 -148 72.5
c-66.667 0 -116.667 -24.167 -150 -72.5s-50 -122.833 -50 -223.5c0 -98.667 16.5 -171.5 49.5 -218.5s83.167 -70.5 150.5 -70.5c66.667 0 116.167 23.333 148.5 70zM396.002 893.998c-6 6 -10 9 -12 9c-2.66699 0 -7 -3 -13 -9l-55 -51c-4 -3.33301 -7 -5.33301 -9 -6
s-5.66699 -1 -11 -1h-62c-5.33301 0 -8 1.66699 -8 5c0 2 1.66699 4.66699 5 8l105 98c4 4 7.83301 7 11.5 9s8.83398 3 15.501 3h49c4.66699 0 8.66699 -1.16699 12 -3.5s6.33301 -4.83301 9 -7.5l104 -99c4 -4 6 -7 6 -9c0 -2.66699 -2.66699 -4 -8 -4h-67
c-8.66699 0 -15.334 2.33301 -20.001 7z" />
    <glyph glyph-name="Otilde" unicode="&#xd5;" horiz-adv-x="767" 
d="M210 34.5c-48.667 29.667 -85.998 72.832 -111.998 129.499s-39 124.667 -39 204c0 80 13.167 148.833 39.5 206.5s64 101.667 113 132s106.833 45.5 173.5 45.5c66 0 123.167 -15.167 171.5 -45.5s85.666 -74.166 111.999 -131.499s39.5 -126 39.5 -206
c0 -79.333 -13 -147.333 -39 -204s-63.333 -100 -112 -130s-106.334 -45 -173.001 -45c-67.333 0 -125.333 14.833 -174 44.5zM533.502 148.998c32.333 46.667 48.5 119.667 48.5 219c0 100.667 -16.333 175.167 -49 223.5s-82 72.5 -148 72.5
c-66.667 0 -116.667 -24.167 -150 -72.5s-50 -122.833 -50 -223.5c0 -98.667 16.5 -171.5 49.5 -218.5s83.167 -70.5 150.5 -70.5c66.667 0 116.167 23.333 148.5 70zM454.002 858.998c-12.667 0 -24.165 1.16895 -34.498 3.50195s-22.833 5.83301 -37.5 10.5
c-10 3.33301 -20.333 6.16602 -31 8.49902s-21 3.5 -31 3.5c-12.667 0 -23.334 -1.66699 -32.001 -5s-18.667 -9 -30 -17c-2.66699 -2 -5.33398 -3 -8.00098 -3c-3.33301 0 -6 3 -8 9l-11 32c-0.666992 2 -1 4.33301 -1 7c0 3.33301 1.66699 6.66602 5 9.99902
c12.667 10.667 25.167 18.667 37.5 24s26.833 8 43.5 8c12 0 24.5 -1.5 37.5 -4.5s25.167 -6.5 36.5 -10.5c4 -1.33301 12.667 -3.83301 26 -7.5s26 -5.5 38 -5.5c20.667 0 41 7 61 21c2.66699 2 5.66699 3 9 3c4 0 7 -3 9 -9l10 -37c0.666992 -1.33301 1 -3.33301 1 -6
c0 -4 -3 -8 -9 -12c-24 -15.333 -51 -23 -81 -23z" />
    <glyph glyph-name="Odieresis" unicode="&#xd6;" horiz-adv-x="767" 
d="M210 34.5c-48.667 29.667 -85.998 72.832 -111.998 129.499s-39 124.667 -39 204c0 80 13.167 148.833 39.5 206.5s64 101.667 113 132s106.833 45.5 173.5 45.5c66 0 123.167 -15.167 171.5 -45.5s85.666 -74.166 111.999 -131.499s39.5 -126 39.5 -206
c0 -79.333 -13 -147.333 -39 -204s-63.333 -100 -112 -130s-106.334 -45 -173.001 -45c-67.333 0 -125.333 14.833 -174 44.5zM533.502 148.998c32.333 46.667 48.5 119.667 48.5 219c0 100.667 -16.333 175.167 -49 223.5s-82 72.5 -148 72.5
c-66.667 0 -116.667 -24.167 -150 -72.5s-50 -122.833 -50 -223.5c0 -98.667 16.5 -171.5 49.5 -218.5s83.167 -70.5 150.5 -70.5c66.667 0 116.167 23.333 148.5 70zM352.002 853.998c0 -6 -1.5 -10.332 -4.5 -12.999s-7.83301 -4 -14.5 -4h-65
c-6 0 -10.167 1.16699 -12.5 3.5s-3.5 6.16602 -3.5 11.499v88c0 9.33301 4 14 12 14h76c8 0 12 -4.33301 12 -13v-87zM516.002 853.999c0 -6 -1.5 -10.332 -4.5 -12.999s-7.83301 -4 -14.5 -4h-65c-6 0 -10.167 1.16699 -12.5 3.5s-3.5 6.16602 -3.5 11.499v88
c0 9.33301 4 14 12 14h76c8 0 12 -4.33301 12 -13v-87z" />
    <glyph glyph-name="multiply" unicode="&#xd7;" horiz-adv-x="551" 
d="M485 221c2.66699 -2 4.00098 -4.66602 4.00098 -7.99902c0 -2.66699 -1.33301 -5.33398 -4 -8.00098l-37 -38c-3.33301 -3.33301 -7 -5 -11 -5c-5.33301 0 -10.333 2.33301 -15 7l-146 147l-152 -152c-2.66699 -2.66699 -5.33398 -4 -8.00098 -4
c-1.33301 0 -4 1.33301 -8 4l-37 37c-4 4 -6 7.66699 -6 11c0 4 2.66699 8.66699 8 14l146 146l-150 150c-4 4 -6 7.66699 -6 11c0 2.66699 2 6 6 10l37 38c6 6 11.667 6.66699 17 2l153 -153l149 150c5.33301 4 9.33301 6 12 6c4 0 7.33301 -2 10 -6l37 -37
c6 -6 6.66699 -11.667 2 -17l-153 -153z" />
    <glyph glyph-name="Oslash" unicode="&#xd8;" horiz-adv-x="740" 
d="M726 701c0 -3.33301 -1.33105 -6.33203 -3.99805 -8.99902l-81 -88c36 -62.667 54 -141 54 -235c0 -79.333 -13 -147.333 -39 -204s-63.333 -100 -112 -130s-106.334 -45 -173.001 -45c-92 0 -166.333 27.667 -223 83l-66 -72c-4.66699 -5.33301 -9.33398 -8 -14.001 -8
c-5.33301 0 -10.333 2.33301 -15 7l-26 26c-6 6 -9 10.667 -9 14s1.66699 6.66602 5 9.99902l77 84c-36.667 61.333 -55 139.333 -55 234c0 80 13.167 148.833 39.5 206.5s64 101.667 113 132s106.833 45.5 173.5 45.5c92 0 166.333 -29 223 -87l71 77c4 4.66699 8 7 12 7
c3.33301 0 6 -1 8 -3l37 -36c2.66699 -2.66699 4 -5.66699 4 -9zM195.002 230.001l324.001 360c-32 48.667 -81.333 73 -148 73s-116.334 -24 -149.001 -72s-49 -122.333 -49 -223c0 -56 7.33301 -102 22 -138zM545.003 507.001l-323.001 -357.999c32 -46 82 -69 150 -69
c66.667 0 115.834 23.167 147.501 69.5s47.5 119.166 47.5 218.499c0 56.667 -7.33301 103 -22 139z" />
    <glyph glyph-name="Ugrave" unicode="&#xd9;" horiz-adv-x="713" 
d="M563 53.5c-46.667 -42.333 -115.667 -63.5 -207 -63.5c-96.667 0 -167 23.167 -211 69.5s-66 117.5 -66 213.5v453c0 10.667 4.33301 16 13 16h95c8.66699 0 13 -5 13 -15v-475c0 -114.667 55 -172 165 -172c112 0 168 58.333 168 175v472c0 10 4 15 12 15h76
c8 0 12 -4.66699 12 -14v-472c0 -92.667 -23.333 -160.167 -70 -202.5zM244 963c2.66699 1.33301 5.66699 1.33398 9 0.000976562l232 -97c3.33301 -1.33301 5.5 -3.33301 6.5 -6s0.5 -6 -1.5 -10l-9 -26c-1.33301 -4.66699 -3.33301 -7.66699 -6 -9
s-6.66699 -1.33301 -12 0l-230 69c-6 2 -9.83301 4.5 -11.5 7.5s-1.83398 7.16699 -0.500977 12.5l18 52c0.666992 3.33301 2.33398 5.66602 5.00098 6.99902z" />
    <glyph glyph-name="Uacute" unicode="&#xda;" horiz-adv-x="713" 
d="M563 53.5c-46.667 -42.333 -115.667 -63.5 -207 -63.5c-96.667 0 -167 23.167 -211 69.5s-66 117.5 -66 213.5v453c0 10.667 4.33301 16 13 16h95c8.66699 0 13 -5 13 -15v-475c0 -114.667 55 -172 165 -172c112 0 168 58.333 168 175v472c0 10 4 15 12 15h76
c8 0 12 -4.66699 12 -14v-472c0 -92.667 -23.333 -160.167 -70 -202.5zM500 904c1.33301 -4 2 -6.33398 2 -7.00098c0 -5.33301 -4.66699 -9.66602 -14 -12.999l-229 -69c-2 -0.666992 -4.33301 -1 -7 -1c-5.33301 0 -9 3.33301 -11 10l-10 26
c-0.666992 1.33301 -1 3.33301 -1 6c0 6 2 9.33301 6 10l233 97l4 1c4.66699 0 8 -2.66699 10 -8z" />
    <glyph glyph-name="Ucircumflex" unicode="&#xdb;" horiz-adv-x="713" 
d="M563 53.5c-46.667 -42.333 -115.667 -63.5 -207 -63.5c-96.667 0 -167 23.167 -211 69.5s-66 117.5 -66 213.5v453c0 10.667 4.33301 16 13 16h95c8.66699 0 13 -5 13 -15v-475c0 -114.667 55 -172 165 -172c112 0 168 58.333 168 175v472c0 10 4 15 12 15h76
c8 0 12 -4.66699 12 -14v-472c0 -92.667 -23.333 -160.167 -70 -202.5zM377 894c-6 6 -10 9 -12 9c-2.66699 0 -7 -3 -13 -9l-55 -51c-4 -3.33301 -7 -5.33301 -9 -6s-5.66699 -1 -11 -1h-62c-5.33301 0 -8 1.66699 -8 5c0 2 1.66699 4.66699 5 8l105 98
c4 4 7.83301 7 11.5 9s8.83398 3 15.501 3h49c4.66699 0 8.66699 -1.16699 12 -3.5s6.33301 -4.83301 9 -7.5l104 -99c4 -4 6 -7 6 -9c0 -2.66699 -2.66699 -4 -8 -4h-67c-8.66699 0 -15.334 2.33301 -20.001 7z" />
    <glyph glyph-name="Udieresis" unicode="&#xdc;" horiz-adv-x="713" 
d="M563 53.5c-46.667 -42.333 -115.667 -63.5 -207 -63.5c-96.667 0 -167 23.167 -211 69.5s-66 117.5 -66 213.5v453c0 10.667 4.33301 16 13 16h95c8.66699 0 13 -5 13 -15v-475c0 -114.667 55 -172 165 -172c112 0 168 58.333 168 175v472c0 10 4 15 12 15h76
c8 0 12 -4.66699 12 -14v-472c0 -92.667 -23.333 -160.167 -70 -202.5zM333 854c0 -6 -1.5 -10.332 -4.5 -12.999s-7.83301 -4 -14.5 -4h-65c-6 0 -10.167 1.16699 -12.5 3.5s-3.5 6.16602 -3.5 11.499v88c0 9.33301 4 14 12 14h76c8 0 12 -4.33301 12 -13v-87zM497 854.001
c0 -6 -1.5 -10.332 -4.5 -12.999s-7.83301 -4 -14.5 -4h-65c-6 0 -10.167 1.16699 -12.5 3.5s-3.5 6.16602 -3.5 11.499v88c0 9.33301 4 14 12 14h76c8 0 12 -4.33301 12 -13v-87z" />
    <glyph glyph-name="Yacute" unicode="&#xdd;" horiz-adv-x="694" 
d="M655 737.5c2 -3 1.66602 -6.83301 -1.00098 -11.5l-237 -394c-2.66699 -4.66699 -4.5 -9.33398 -5.5 -14.001s-1.5 -13 -1.5 -25v-273c0 -7.33301 -1.66699 -12.5 -5 -15.5s-9 -4.5 -17 -4.5h-81c-11.333 0 -17 5.66699 -17 17v275c0 6.66699 -0.666992 11.834 -2 15.501
s-3.66602 8.5 -6.99902 14.5l-240 401c-2 3.33301 -3 6.33301 -3 9c0 6.66699 5 10 15 10h96c6.66699 0 11.5 -1 14.5 -3s6.16699 -5.66699 9.5 -11l174 -301c4 -7.33301 7.66699 -11 11 -11c4 0 7.33301 3 10 9l173 303c2.66699 6 5.5 9.83301 8.5 11.5
s7.83301 2.5 14.5 2.5h80c5.33301 0 9 -1.5 11 -4.5zM484.999 904c1.33301 -4 2 -6.33398 2 -7.00098c0 -5.33301 -4.66699 -9.66602 -14 -12.999l-229 -69c-2 -0.666992 -4.33301 -1 -7 -1c-5.33301 0 -9 3.33301 -11 10l-10 26c-0.666992 1.33301 -1 3.33301 -1 6
c0 6 2 9.33301 6 10l233 97l4 1c4.66699 0 8 -2.66699 10 -8z" />
    <glyph glyph-name="Thorn" unicode="&#xde;" horiz-adv-x="703" 
d="M581.5 221c-48.333 -36.667 -112.833 -55 -193.5 -55h-169c-6.66699 0 -10 -3.33301 -10 -10v-139c0 -11.333 -6 -17 -18 -17h-87c-10.667 0 -16 5 -16 15v712c0 10 4.66699 15 14 15h94c8.66699 0 13 -5 13 -15v-128c0 -5.33301 2.66699 -8 8 -8h157
c83.333 0 150.833 -17.667 202.5 -53s77.5 -87 77.5 -155c0 -71.333 -24.167 -125.333 -72.5 -162zM368 501l-144.002 -0.000976562c-5.33301 0 -9.16602 -1 -11.499 -3s-3.5 -5.33301 -3.5 -10v-218c0 -10 3.66699 -15 11 -15h154c48.667 0 86.834 10.833 114.501 32.5
s41.5 53.834 41.5 96.501c0 78 -54 117 -162 117z" />
    <glyph glyph-name="germandbls" unicode="&#xdf;" horiz-adv-x="621" 
d="M465 701.5c31.333 -27 46.9971 -61.8242 46.9971 -104.491c0 -34.667 -10.167 -61.834 -30.5 -81.501s-52.166 -39.5 -95.499 -59.5c-20 -10.667 -33.333 -19 -40 -25s-10 -14.333 -10 -25c0 -10 3.33301 -17.333 10 -22s19.667 -10.334 39 -17.001
c42 -16 75.333 -30.5 100 -43.5s46.667 -32.333 66 -58s29 -58.5 29 -98.5c0 -56 -19 -99.5 -57 -130.5s-87.333 -46.5 -148 -46.5c-24.667 0 -48.334 2.66699 -71.001 8s-42 12.666 -58 21.999c-7.33301 3.33301 -9 8 -5 14l26 51c2.66699 5.33301 7.66699 6.33301 15 3
c13.333 -8 26.666 -14.167 39.999 -18.5s29 -6.5 47 -6.5c34.667 0 62.334 8.16699 83.001 24.5s31 39.166 31 68.499c0 20.667 -5.16699 37.667 -15.5 51s-23.666 24.166 -39.999 32.499s-38.166 17.166 -65.499 26.499c-34 12.667 -60.667 27.5 -80 44.5
s-29 41.833 -29 74.5c0 24.667 6.5 45.5 19.5 62.5s33.5 33.833 61.5 50.5c4.66699 3.33301 15 10.166 31 20.499s28 21.666 36 33.999s12 26.166 12 41.499c0 22.667 -8.5 40.667 -25.5 54s-40.167 20 -69.5 20c-38.667 0 -69.167 -11.5 -91.5 -34.5
s-33.5 -55.833 -33.5 -98.5v-520c0.666992 -1.33301 1 -3.33301 1 -6c0 -6 -3.66699 -9 -11 -9h-82c-3.33301 0 -6.16602 1.16699 -8.49902 3.5s-3.5 5.5 -3.5 9.5v417c0 6.66699 -2.66699 10 -8 10h-47c-8.66699 0 -13 3.66699 -13 11v52c0 8.66699 4.66699 13 14 13h44
c6.66699 0 10 4 10 12c1.33301 64 22 115.667 62 155s98 59 174 59c62 0 108.667 -13.5 140 -40.5z" />
    <glyph glyph-name="agrave" unicode="&#xe0;" horiz-adv-x="552" 
d="M202 -10c-51.333 0 -91.834 13.166 -121.501 39.499s-44.5 61.5 -44.5 105.5c0 54 23.5 97 70.5 129s113.833 50 200.5 54l65 5c10.667 1.33301 16 6.33301 16 15v25c0 32.667 -10 58.5 -30 77.5s-47.333 28.5 -82 28.5c-54.667 0 -98.334 -24.667 -131.001 -74
c-2 -4 -4.16699 -6.5 -6.5 -7.5s-5.83301 -0.833008 -10.5 0.5l-68 20c-4 1.33301 -6 4 -6 8c0 2.66699 1 6.33398 3 11.001c18.667 36 47.167 63.833 85.5 83.5s84.5 29.5 138.5 29.5c70 0 122.333 -15 157 -45s52 -71.667 52 -125v-353
c0 -6.66699 -1.16699 -11.167 -3.5 -13.5s-6.16602 -3.5 -11.499 -3.5h-67c-9.33301 0 -14.666 6.66699 -15.999 20l-2 38c-1.33301 5.33301 -3.33301 8 -6 8c-2 0 -5.66699 -2 -11 -6c-48.667 -46.667 -105.667 -70 -171 -70zM373.999 263.999l-54.001 -3.99902
c-55.333 -3.33301 -99.166 -14.5 -131.499 -33.5s-48.5 -45.167 -48.5 -78.5c0 -26 9.33301 -46.5 28 -61.5s43.667 -22.5 75 -22.5c36 0 70 12.333 102 37c28.667 23.333 43 46.666 43 69.999v78c0 10.667 -4.66699 15.667 -14 15zM156.998 751
c2.66699 1.33301 5.66699 1.33398 9 0.000976562l232 -97c3.33301 -1.33301 5.5 -3.33301 6.5 -6s0.5 -6 -1.5 -10l-9 -26c-1.33301 -4.66699 -3.33301 -7.66699 -6 -9s-6.66699 -1.33301 -12 0l-230 69c-6 2 -9.83301 4.5 -11.5 7.5s-1.83398 7.16699 -0.500977 12.5l18 52
c0.666992 3.33301 2.33398 5.66602 5.00098 6.99902z" />
    <glyph glyph-name="aacute" unicode="&#xe1;" horiz-adv-x="552" 
d="M202 -10c-51.333 0 -91.834 13.166 -121.501 39.499s-44.5 61.5 -44.5 105.5c0 54 23.5 97 70.5 129s113.833 50 200.5 54l65 5c10.667 1.33301 16 6.33301 16 15v25c0 32.667 -10 58.5 -30 77.5s-47.333 28.5 -82 28.5c-54.667 0 -98.334 -24.667 -131.001 -74
c-2 -4 -4.16699 -6.5 -6.5 -7.5s-5.83301 -0.833008 -10.5 0.5l-68 20c-4 1.33301 -6 4 -6 8c0 2.66699 1 6.33398 3 11.001c18.667 36 47.167 63.833 85.5 83.5s84.5 29.5 138.5 29.5c70 0 122.333 -15 157 -45s52 -71.667 52 -125v-353
c0 -6.66699 -1.16699 -11.167 -3.5 -13.5s-6.16602 -3.5 -11.499 -3.5h-67c-9.33301 0 -14.666 6.66699 -15.999 20l-2 38c-1.33301 5.33301 -3.33301 8 -6 8c-2 0 -5.66699 -2 -11 -6c-48.667 -46.667 -105.667 -70 -171 -70zM373.999 263.999l-54.001 -3.99902
c-55.333 -3.33301 -99.166 -14.5 -131.499 -33.5s-48.5 -45.167 -48.5 -78.5c0 -26 9.33301 -46.5 28 -61.5s43.667 -22.5 75 -22.5c36 0 70 12.333 102 37c28.667 23.333 43 46.666 43 69.999v78c0 10.667 -4.66699 15.667 -14 15zM412.998 692
c1.33301 -4 2 -6.33398 2 -7.00098c0 -5.33301 -4.66699 -9.66602 -14 -12.999l-229 -69c-2 -0.666992 -4.33301 -1 -7 -1c-5.33301 0 -9 3.33301 -11 10l-10 26c-0.666992 1.33301 -1 3.33301 -1 6c0 6 2 9.33301 6 10l233 97l4 1c4.66699 0 8 -2.66699 10 -8z" />
    <glyph glyph-name="acircumflex" unicode="&#xe2;" horiz-adv-x="552" 
d="M202 -10c-51.333 0 -91.834 13.166 -121.501 39.499s-44.5 61.5 -44.5 105.5c0 54 23.5 97 70.5 129s113.833 50 200.5 54l65 5c10.667 1.33301 16 6.33301 16 15v25c0 32.667 -10 58.5 -30 77.5s-47.333 28.5 -82 28.5c-54.667 0 -98.334 -24.667 -131.001 -74
c-2 -4 -4.16699 -6.5 -6.5 -7.5s-5.83301 -0.833008 -10.5 0.5l-68 20c-4 1.33301 -6 4 -6 8c0 2.66699 1 6.33398 3 11.001c18.667 36 47.167 63.833 85.5 83.5s84.5 29.5 138.5 29.5c70 0 122.333 -15 157 -45s52 -71.667 52 -125v-353
c0 -6.66699 -1.16699 -11.167 -3.5 -13.5s-6.16602 -3.5 -11.499 -3.5h-67c-9.33301 0 -14.666 6.66699 -15.999 20l-2 38c-1.33301 5.33301 -3.33301 8 -6 8c-2 0 -5.66699 -2 -11 -6c-48.667 -46.667 -105.667 -70 -171 -70zM373.999 263.999l-54.001 -3.99902
c-55.333 -3.33301 -99.166 -14.5 -131.499 -33.5s-48.5 -45.167 -48.5 -78.5c0 -26 9.33301 -46.5 28 -61.5s43.667 -22.5 75 -22.5c36 0 70 12.333 102 37c28.667 23.333 43 46.666 43 69.999v78c0 10.667 -4.66699 15.667 -14 15zM289.998 682c-6 6 -10 9 -12 9
c-2.66699 0 -7 -3 -13 -9l-55 -51c-4 -3.33301 -7 -5.33301 -9 -6s-5.66699 -1 -11 -1h-62c-5.33301 0 -8 1.66699 -8 5c0 2 1.66699 4.66699 5 8l105 98c4 4 7.83301 7 11.5 9s8.83398 3 15.501 3h49c4.66699 0 8.66699 -1.16699 12 -3.5s6.33301 -4.83301 9 -7.5l104 -99
c4 -4 6 -7 6 -9c0 -2.66699 -2.66699 -4 -8 -4h-67c-8.66699 0 -15.334 2.33301 -20.001 7z" />
    <glyph glyph-name="atilde" unicode="&#xe3;" horiz-adv-x="552" 
d="M202 -10c-51.333 0 -91.834 13.166 -121.501 39.499s-44.5 61.5 -44.5 105.5c0 54 23.5 97 70.5 129s113.833 50 200.5 54l65 5c10.667 1.33301 16 6.33301 16 15v25c0 32.667 -10 58.5 -30 77.5s-47.333 28.5 -82 28.5c-54.667 0 -98.334 -24.667 -131.001 -74
c-2 -4 -4.16699 -6.5 -6.5 -7.5s-5.83301 -0.833008 -10.5 0.5l-68 20c-4 1.33301 -6 4 -6 8c0 2.66699 1 6.33398 3 11.001c18.667 36 47.167 63.833 85.5 83.5s84.5 29.5 138.5 29.5c70 0 122.333 -15 157 -45s52 -71.667 52 -125v-353
c0 -6.66699 -1.16699 -11.167 -3.5 -13.5s-6.16602 -3.5 -11.499 -3.5h-67c-9.33301 0 -14.666 6.66699 -15.999 20l-2 38c-1.33301 5.33301 -3.33301 8 -6 8c-2 0 -5.66699 -2 -11 -6c-48.667 -46.667 -105.667 -70 -171 -70zM373.999 263.999l-54.001 -3.99902
c-55.333 -3.33301 -99.166 -14.5 -131.499 -33.5s-48.5 -45.167 -48.5 -78.5c0 -26 9.33301 -46.5 28 -61.5s43.667 -22.5 75 -22.5c36 0 70 12.333 102 37c28.667 23.333 43 46.666 43 69.999v78c0 10.667 -4.66699 15.667 -14 15zM347.998 647
c-12.667 0 -24.165 1.16895 -34.498 3.50195s-22.833 5.83301 -37.5 10.5c-10 3.33301 -20.333 6.16602 -31 8.49902s-21 3.5 -31 3.5c-12.667 0 -23.334 -1.66699 -32.001 -5s-18.667 -9 -30 -17c-2.66699 -2 -5.33398 -3 -8.00098 -3c-3.33301 0 -6 3 -8 9l-11 32
c-0.666992 2 -1 4.33301 -1 7c0 3.33301 1.66699 6.66602 5 9.99902c12.667 10.667 25.167 18.667 37.5 24s26.833 8 43.5 8c12 0 24.5 -1.5 37.5 -4.5s25.167 -6.5 36.5 -10.5c4 -1.33301 12.667 -3.83301 26 -7.5s26 -5.5 38 -5.5c20.667 0 41 7 61 21
c2.66699 2 5.66699 3 9 3c4 0 7 -3 9 -9l10 -37c0.666992 -1.33301 1 -3.33301 1 -6c0 -4 -3 -8 -9 -12c-24 -15.333 -51 -23 -81 -23z" />
    <glyph glyph-name="adieresis" unicode="&#xe4;" horiz-adv-x="552" 
d="M202 -10c-51.333 0 -91.834 13.166 -121.501 39.499s-44.5 61.5 -44.5 105.5c0 54 23.5 97 70.5 129s113.833 50 200.5 54l65 5c10.667 1.33301 16 6.33301 16 15v25c0 32.667 -10 58.5 -30 77.5s-47.333 28.5 -82 28.5c-54.667 0 -98.334 -24.667 -131.001 -74
c-2 -4 -4.16699 -6.5 -6.5 -7.5s-5.83301 -0.833008 -10.5 0.5l-68 20c-4 1.33301 -6 4 -6 8c0 2.66699 1 6.33398 3 11.001c18.667 36 47.167 63.833 85.5 83.5s84.5 29.5 138.5 29.5c70 0 122.333 -15 157 -45s52 -71.667 52 -125v-353
c0 -6.66699 -1.16699 -11.167 -3.5 -13.5s-6.16602 -3.5 -11.499 -3.5h-67c-9.33301 0 -14.666 6.66699 -15.999 20l-2 38c-1.33301 5.33301 -3.33301 8 -6 8c-2 0 -5.66699 -2 -11 -6c-48.667 -46.667 -105.667 -70 -171 -70zM373.999 263.999l-54.001 -3.99902
c-55.333 -3.33301 -99.166 -14.5 -131.499 -33.5s-48.5 -45.167 -48.5 -78.5c0 -26 9.33301 -46.5 28 -61.5s43.667 -22.5 75 -22.5c36 0 70 12.333 102 37c28.667 23.333 43 46.666 43 69.999v78c0 10.667 -4.66699 15.667 -14 15zM245.998 642
c0 -6 -1.5 -10.332 -4.5 -12.999s-7.83301 -4 -14.5 -4h-65c-6 0 -10.167 1.16699 -12.5 3.5s-3.5 6.16602 -3.5 11.499v88c0 9.33301 4 14 12 14h76c8 0 12 -4.33301 12 -13v-87zM409.998 642.001c0 -6 -1.5 -10.332 -4.5 -12.999s-7.83301 -4 -14.5 -4h-65
c-6 0 -10.167 1.16699 -12.5 3.5s-3.5 6.16602 -3.5 11.499v88c0 9.33301 4 14 12 14h76c8 0 12 -4.33301 12 -13v-87z" />
    <glyph glyph-name="aring" unicode="&#xe5;" horiz-adv-x="552" 
d="M202 -10c-51.333 0 -91.834 13.166 -121.501 39.499s-44.5 61.5 -44.5 105.5c0 54 23.5 97 70.5 129s113.833 50 200.5 54l65 5c10.667 1.33301 16 6.33301 16 15v25c0 32.667 -10 58.5 -30 77.5s-47.333 28.5 -82 28.5c-54.667 0 -98.334 -24.667 -131.001 -74
c-2 -4 -4.16699 -6.5 -6.5 -7.5s-5.83301 -0.833008 -10.5 0.5l-68 20c-4 1.33301 -6 4 -6 8c0 2.66699 1 6.33398 3 11.001c18.667 36 47.167 63.833 85.5 83.5s84.5 29.5 138.5 29.5c70 0 122.333 -15 157 -45s52 -71.667 52 -125v-353
c0 -6.66699 -1.16699 -11.167 -3.5 -13.5s-6.16602 -3.5 -11.499 -3.5h-67c-9.33301 0 -14.666 6.66699 -15.999 20l-2 38c-1.33301 5.33301 -3.33301 8 -6 8c-2 0 -5.66699 -2 -11 -6c-48.667 -46.667 -105.667 -70 -171 -70zM373.999 263.999l-54.001 -3.99902
c-55.333 -3.33301 -99.166 -14.5 -131.499 -33.5s-48.5 -45.167 -48.5 -78.5c0 -26 9.33301 -46.5 28 -61.5s43.667 -22.5 75 -22.5c36 0 70 12.333 102 37c28.667 23.333 43 46.666 43 69.999v78c0 10.667 -4.66699 15.667 -14 15zM354.998 620.5
c-20.667 -20.333 -46 -30.501 -76 -30.501s-55.333 10.5 -76 31.5s-31 46.833 -31 77.5c0 28.667 10.5 53 31.5 73s46.167 30 75.5 30c30 0 55.333 -10.167 76 -30.5s31 -45.166 31 -74.499c0 -30.667 -10.333 -56.167 -31 -76.5zM316.498 734.999
c-10.333 10 -23.166 14.999 -38.499 14.999c-14.667 0 -27.5 -5.16699 -38.5 -15.5s-16.5 -23.166 -16.5 -38.499c0 -14.667 5.5 -27.5 16.5 -38.5s23.833 -16.5 38.5 -16.5c15.333 0 28.166 5.5 38.499 16.5s15.5 23.833 15.5 38.5c0 16 -5.16699 29 -15.5 39z" />
    <glyph glyph-name="ae" unicode="&#xe6;" horiz-adv-x="924" 
d="M496.5 239c-2.33301 -2.66699 -3.5 -8.66211 -3.5 -17.9951c0 -26.667 7.16699 -51.834 21.5 -75.501s33.666 -42.667 57.999 -57s51.166 -21.5 80.499 -21.5c34 0 61.833 6.66699 83.5 20s43.167 32.666 64.5 57.999c2.66699 2.66699 4.83398 4.16699 6.50098 4.5
s4.5 -0.5 8.5 -2.5l51 -24c3.33301 -2 5 -4.66699 5 -8c0 -2 -1 -4.66699 -3 -8c-50 -78 -126.333 -117 -229 -117c-82 0 -150.667 34.333 -206 103c-2.66699 2.66699 -5 2.66699 -7 0c-28.667 -32 -60 -57.167 -94 -75.5s-76.667 -27.5 -128 -27.5
c-53.333 0 -94.833 13.333 -124.5 40s-44.5 63 -44.5 109c0 52 21.667 93.333 65 124s108 48.667 194 54l75 6c12 1.33301 18 6.33301 18 15v25c0 33.333 -9.83301 59.333 -29.5 78s-48.167 28 -85.5 28c-52.667 0 -95.334 -24.667 -128.001 -74
c-2.66699 -4.66699 -5 -7.33398 -7 -8.00098s-5.66699 -0.333984 -11 0.999023l-67 20c-3.33301 1.33301 -5 4.66602 -5 9.99902c0 2 0.666992 5 2 9c21.333 37.333 50 65.5 86 84.5s81.667 28.5 137 28.5c47.333 0 85.666 -7.16699 114.999 -21.5s51 -35.833 65 -64.5
c20.667 28 46.334 49.333 77.001 64s65 22 103 22c48.667 0 91.667 -10.833 129 -32.5s66.333 -53.167 87 -94.5s31 -90.333 31 -147c0 -8 -1.16699 -13.667 -3.5 -17s-7.16602 -5 -14.499 -5l-358 -1c-7.33301 0 -12.166 -1.33301 -14.499 -4zM537 425.505
c-28 -29 -42.001 -68.166 -42.001 -117.499l270 -1c7.33301 0 12 1.16699 14 3.5s3 6.5 3 12.5c0 25.333 -5.83301 49.166 -17.5 71.499s-28.167 40.333 -49.5 54s-45.666 20.5 -72.999 20.5c-42 0 -77 -14.5 -105 -43.5zM384.499 257.506
c-2.33301 2.33301 -6.5 3.16699 -12.5 2.5l-62 -4c-52.667 -4 -94 -15.5 -124 -34.5s-45 -44.5 -45 -76.5c0 -25.333 8.33301 -45.5 25 -60.5s40 -22.5 70 -22.5c27.333 0 52.5 4.83301 75.5 14.5s41.5 22.667 55.5 39s21 34.5 21 54.5v75c0 6 -1.16699 10.167 -3.5 12.5z
" />
    <glyph glyph-name="ccedilla" unicode="&#xe7;" horiz-adv-x="545" 
d="M515 128c-17.333 -36 -42.3359 -66.8359 -75.0029 -92.5029s-72.667 -40.5 -120 -44.5l-16 -41c-2 -4 -0.666992 -6 4 -6c30.667 -1.33301 53.167 -9.33301 67.5 -24s21.5 -32 21.5 -52c0 -25.333 -10.833 -45.166 -32.5 -59.499s-48.834 -21.5 -81.501 -21.5
c-37.333 0 -69 7.66699 -95 23c-4 2 -5.66699 5.33301 -5 10l13 29c0.666992 1.33301 1.83398 2.16602 3.50098 2.49902s3.5 0.166016 5.5 -0.500977c20.667 -13.333 42.334 -20 65.001 -20c36.667 0 55 12.333 55 37c0 14 -6.66699 24.667 -20 32s-34.333 11.333 -63 12
c-6.66699 0 -8.66699 2.33301 -6 7l30 73c-44 4.66699 -83 18.834 -117 42.501s-60.333 55.167 -79 94.5s-28 84 -28 134c0 53.333 11 101 33 143s52.333 74.833 91 98.5s82.334 35.5 131.001 35.5c52 0 96 -12.333 132 -37s63 -56.667 81 -96
c1.33301 -2.66699 2 -5.66699 2 -9c0 -4 -3 -6.66699 -9 -8l-71 -12h-3c-4 0 -7.33301 2.66699 -10 8c-18.667 27.333 -36.667 47.5 -54 60.5s-38.333 19.5 -63 19.5c-46.667 0 -83.667 -17.667 -111 -53s-41 -84.666 -41 -147.999c0 -64 14 -113.667 42 -149
s66 -53 114 -53c30 0 55.833 7.66699 77.5 23s41.834 38.333 60.501 69c2 2.66699 4 4.33398 6 5.00098s4.66699 0.333984 8 -0.999023l53 -16c6 -2 7.33301 -7 4 -15z" />
    <glyph glyph-name="egrave" unicode="&#xe8;" horiz-adv-x="582" 
d="M172.5 146.5c14.333 -24.333 33.8359 -43.6689 58.5029 -58.002s51.667 -21.5 81 -21.5c30.667 0 58 6.33301 82 19s46 32.334 66 59.001c2 2.66699 4.33301 4 7 4c3.33301 0 6 -0.666992 8 -2l51 -24c3.33301 -2 5 -4.66699 5 -8c0 -2 -1 -4.66699 -3 -8
c-28 -41.333 -60 -71.166 -96 -89.499s-79.667 -27.5 -131 -27.5c-50 0 -94.667 11.333 -134 34s-70 54.5 -92 95.5s-33 87.5 -33 139.5c0 56 11.333 105.333 34 148s53.5 75.5 92.5 98.5s82.5 34.5 130.5 34.5c49.333 0 92.666 -10.833 129.999 -32.5
s66.166 -53.167 86.499 -94.5s30.5 -90.333 30.5 -147v-4c0 -6 -0.833008 -10.5 -2.5 -13.5s-5.83398 -4.5 -12.501 -4.5h-370c-6.66699 0 -10 -5.33301 -10 -16c0 -30 7.16699 -57.167 21.5 -81.5zM424.003 306.997c6.66699 0 11.166 0.999023 13.499 2.99902
s3.5 5.66699 3.5 11c0 26 -5.5 50.333 -16.5 73s-27 40.834 -48 54.501s-45.833 20.5 -74.5 20.5c-30 0 -56.333 -7.5 -79 -22.5s-40.167 -34.667 -52.5 -59s-18.166 -50.833 -17.499 -79.5zM177.002 750.996c2.66699 1.33301 5.66699 1.33398 9 0.000976562l232 -97
c3.33301 -1.33301 5.5 -3.33301 6.5 -6s0.5 -6 -1.5 -10l-9 -26c-1.33301 -4.66699 -3.33301 -7.66699 -6 -9s-6.66699 -1.33301 -12 0l-230 69c-6 2 -9.83301 4.5 -11.5 7.5s-1.83398 7.16699 -0.500977 12.5l18 52c0.666992 3.33301 2.33398 5.66602 5.00098 6.99902z" />
    <glyph glyph-name="eacute" unicode="&#xe9;" horiz-adv-x="582" 
d="M172.5 146.5c14.333 -24.333 33.8359 -43.6689 58.5029 -58.002s51.667 -21.5 81 -21.5c30.667 0 58 6.33301 82 19s46 32.334 66 59.001c2 2.66699 4.33301 4 7 4c3.33301 0 6 -0.666992 8 -2l51 -24c3.33301 -2 5 -4.66699 5 -8c0 -2 -1 -4.66699 -3 -8
c-28 -41.333 -60 -71.166 -96 -89.499s-79.667 -27.5 -131 -27.5c-50 0 -94.667 11.333 -134 34s-70 54.5 -92 95.5s-33 87.5 -33 139.5c0 56 11.333 105.333 34 148s53.5 75.5 92.5 98.5s82.5 34.5 130.5 34.5c49.333 0 92.666 -10.833 129.999 -32.5
s66.166 -53.167 86.499 -94.5s30.5 -90.333 30.5 -147v-4c0 -6 -0.833008 -10.5 -2.5 -13.5s-5.83398 -4.5 -12.501 -4.5h-370c-6.66699 0 -10 -5.33301 -10 -16c0 -30 7.16699 -57.167 21.5 -81.5zM424.003 306.997c6.66699 0 11.166 0.999023 13.499 2.99902
s3.5 5.66699 3.5 11c0 26 -5.5 50.333 -16.5 73s-27 40.834 -48 54.501s-45.833 20.5 -74.5 20.5c-30 0 -56.333 -7.5 -79 -22.5s-40.167 -34.667 -52.5 -59s-18.166 -50.833 -17.499 -79.5zM433.002 691.996c1.33301 -4 2 -6.33398 2 -7.00098
c0 -5.33301 -4.66699 -9.66602 -14 -12.999l-229 -69c-2 -0.666992 -4.33301 -1 -7 -1c-5.33301 0 -9 3.33301 -11 10l-10 26c-0.666992 1.33301 -1 3.33301 -1 6c0 6 2 9.33301 6 10l233 97l4 1c4.66699 0 8 -2.66699 10 -8z" />
    <glyph glyph-name="ecircumflex" unicode="&#xea;" horiz-adv-x="582" 
d="M172.5 146.5c14.333 -24.333 33.8359 -43.6689 58.5029 -58.002s51.667 -21.5 81 -21.5c30.667 0 58 6.33301 82 19s46 32.334 66 59.001c2 2.66699 4.33301 4 7 4c3.33301 0 6 -0.666992 8 -2l51 -24c3.33301 -2 5 -4.66699 5 -8c0 -2 -1 -4.66699 -3 -8
c-28 -41.333 -60 -71.166 -96 -89.499s-79.667 -27.5 -131 -27.5c-50 0 -94.667 11.333 -134 34s-70 54.5 -92 95.5s-33 87.5 -33 139.5c0 56 11.333 105.333 34 148s53.5 75.5 92.5 98.5s82.5 34.5 130.5 34.5c49.333 0 92.666 -10.833 129.999 -32.5
s66.166 -53.167 86.499 -94.5s30.5 -90.333 30.5 -147v-4c0 -6 -0.833008 -10.5 -2.5 -13.5s-5.83398 -4.5 -12.501 -4.5h-370c-6.66699 0 -10 -5.33301 -10 -16c0 -30 7.16699 -57.167 21.5 -81.5zM424.003 306.997c6.66699 0 11.166 0.999023 13.499 2.99902
s3.5 5.66699 3.5 11c0 26 -5.5 50.333 -16.5 73s-27 40.834 -48 54.501s-45.833 20.5 -74.5 20.5c-30 0 -56.333 -7.5 -79 -22.5s-40.167 -34.667 -52.5 -59s-18.166 -50.833 -17.499 -79.5zM310.002 681.996c-6 6 -10 9 -12 9c-2.66699 0 -7 -3 -13 -9l-55 -51
c-4 -3.33301 -7 -5.33301 -9 -6s-5.66699 -1 -11 -1h-62c-5.33301 0 -8 1.66699 -8 5c0 2 1.66699 4.66699 5 8l105 98c4 4 7.83301 7 11.5 9s8.83398 3 15.501 3h49c4.66699 0 8.66699 -1.16699 12 -3.5s6.33301 -4.83301 9 -7.5l104 -99c4 -4 6 -7 6 -9
c0 -2.66699 -2.66699 -4 -8 -4h-67c-8.66699 0 -15.334 2.33301 -20.001 7z" />
    <glyph glyph-name="edieresis" unicode="&#xeb;" horiz-adv-x="582" 
d="M172.5 146.5c14.333 -24.333 33.8359 -43.6689 58.5029 -58.002s51.667 -21.5 81 -21.5c30.667 0 58 6.33301 82 19s46 32.334 66 59.001c2 2.66699 4.33301 4 7 4c3.33301 0 6 -0.666992 8 -2l51 -24c3.33301 -2 5 -4.66699 5 -8c0 -2 -1 -4.66699 -3 -8
c-28 -41.333 -60 -71.166 -96 -89.499s-79.667 -27.5 -131 -27.5c-50 0 -94.667 11.333 -134 34s-70 54.5 -92 95.5s-33 87.5 -33 139.5c0 56 11.333 105.333 34 148s53.5 75.5 92.5 98.5s82.5 34.5 130.5 34.5c49.333 0 92.666 -10.833 129.999 -32.5
s66.166 -53.167 86.499 -94.5s30.5 -90.333 30.5 -147v-4c0 -6 -0.833008 -10.5 -2.5 -13.5s-5.83398 -4.5 -12.501 -4.5h-370c-6.66699 0 -10 -5.33301 -10 -16c0 -30 7.16699 -57.167 21.5 -81.5zM424.003 306.997c6.66699 0 11.166 0.999023 13.499 2.99902
s3.5 5.66699 3.5 11c0 26 -5.5 50.333 -16.5 73s-27 40.834 -48 54.501s-45.833 20.5 -74.5 20.5c-30 0 -56.333 -7.5 -79 -22.5s-40.167 -34.667 -52.5 -59s-18.166 -50.833 -17.499 -79.5zM266.002 641.996c0 -6 -1.5 -10.332 -4.5 -12.999s-7.83301 -4 -14.5 -4h-65
c-6 0 -10.167 1.16699 -12.5 3.5s-3.5 6.16602 -3.5 11.499v88c0 9.33301 4 14 12 14h76c8 0 12 -4.33301 12 -13v-87zM430.002 641.997c0 -6 -1.5 -10.332 -4.5 -12.999s-7.83301 -4 -14.5 -4h-65c-6 0 -10.167 1.16699 -12.5 3.5s-3.5 6.16602 -3.5 11.499v88
c0 9.33301 4 14 12 14h76c8 0 12 -4.33301 12 -13v-87z" />
    <glyph glyph-name="igrave" unicode="&#xec;" horiz-adv-x="247" 
d="M176 19c0 -7.33301 -1.49902 -12.332 -4.49902 -14.999s-8.16699 -4 -15.5 -4h-68c-6.66699 0 -11.334 1.16699 -14.001 3.5s-4 6.5 -4 12.5v499c0 5.33301 1 9.16602 3 11.499s5.66699 3.5 11 3.5h80c8 0 12 -4.66699 12 -14v-497zM3.00098 751.001
c2.66699 1.33301 5.66699 1.33398 9 0.000976562l232 -97c3.33301 -1.33301 5.5 -3.33301 6.5 -6s0.5 -6 -1.5 -10l-9 -26c-1.33301 -4.66699 -3.33301 -7.66699 -6 -9s-6.66699 -1.33301 -12 0l-230 69c-6 2 -9.83301 4.5 -11.5 7.5s-1.83398 7.16699 -0.500977 12.5l18 52
c0.666992 3.33301 2.33398 5.66602 5.00098 6.99902z" />
    <glyph glyph-name="iacute" unicode="&#xed;" horiz-adv-x="247" 
d="M176 19c0 -7.33301 -1.49902 -12.332 -4.49902 -14.999s-8.16699 -4 -15.5 -4h-68c-6.66699 0 -11.334 1.16699 -14.001 3.5s-4 6.5 -4 12.5v499c0 5.33301 1 9.16602 3 11.499s5.66699 3.5 11 3.5h80c8 0 12 -4.66699 12 -14v-497zM259.001 692.001
c1.33301 -4 2 -6.33398 2 -7.00098c0 -5.33301 -4.66699 -9.66602 -14 -12.999l-229 -69c-2 -0.666992 -4.33301 -1 -7 -1c-5.33301 0 -9 3.33301 -11 10l-10 26c-0.666992 1.33301 -1 3.33301 -1 6c0 6 2 9.33301 6 10l233 97l4 1c4.66699 0 8 -2.66699 10 -8z" />
    <glyph glyph-name="icircumflex" unicode="&#xee;" horiz-adv-x="247" 
d="M176 19c0 -7.33301 -1.49902 -12.332 -4.49902 -14.999s-8.16699 -4 -15.5 -4h-68c-6.66699 0 -11.334 1.16699 -14.001 3.5s-4 6.5 -4 12.5v499c0 5.33301 1 9.16602 3 11.499s5.66699 3.5 11 3.5h80c8 0 12 -4.66699 12 -14v-497zM136.001 682.001c-6 6 -10 9 -12 9
c-2.66699 0 -7 -3 -13 -9l-55 -51c-4 -3.33301 -7 -5.33301 -9 -6s-5.66699 -1 -11 -1h-62c-5.33301 0 -8 1.66699 -8 5c0 2 1.66699 4.66699 5 8l105 98c4 4 7.83301 7 11.5 9s8.83398 3 15.501 3h49c4.66699 0 8.66699 -1.16699 12 -3.5s6.33301 -4.83301 9 -7.5l104 -99
c4 -4 6 -7 6 -9c0 -2.66699 -2.66699 -4 -8 -4h-67c-8.66699 0 -15.334 2.33301 -20.001 7z" />
    <glyph glyph-name="idieresis" unicode="&#xef;" horiz-adv-x="247" 
d="M176 19c0 -7.33301 -1.49902 -12.332 -4.49902 -14.999s-8.16699 -4 -15.5 -4h-68c-6.66699 0 -11.334 1.16699 -14.001 3.5s-4 6.5 -4 12.5v499c0 5.33301 1 9.16602 3 11.499s5.66699 3.5 11 3.5h80c8 0 12 -4.66699 12 -14v-497zM92.001 642.001
c0 -6 -1.5 -10.332 -4.5 -12.999s-7.83301 -4 -14.5 -4h-65c-6 0 -10.167 1.16699 -12.5 3.5s-3.5 6.16602 -3.5 11.499v88c0 9.33301 4 14 12 14h76c8 0 12 -4.33301 12 -13v-87zM256.001 642.002c0 -6 -1.5 -10.332 -4.5 -12.999s-7.83301 -4 -14.5 -4h-65
c-6 0 -10.167 1.16699 -12.5 3.5s-3.5 6.16602 -3.5 11.499v88c0 9.33301 4 14 12 14h76c8 0 12 -4.33301 12 -13v-87z" />
    <glyph glyph-name="eth" unicode="&#xf0;" horiz-adv-x="599" 
d="M525.5 121.5c-21 -41.667 -51.168 -73.998 -90.501 -96.998s-85 -34.5 -137 -34.5c-50 0 -94.333 11.167 -133 33.5s-68.834 53.5 -90.501 93.5s-32.5 85 -32.5 135c0 51.333 10.833 97.333 32.5 138s51.667 72.5 90 95.5s81.5 34.5 129.5 34.5
c42 0 76.333 -12.667 103 -38c-26.667 54.667 -69.334 102 -128.001 142l-138 -78c-4 -1.33301 -6.33301 -2 -7 -2c-3.33301 0 -6.66602 2.66699 -9.99902 8l-12 18c-2 3.33301 -3 6 -3 8c0 3.33301 1.66699 5.66602 5 6.99902l120 68c-35.333 18.667 -68.666 34 -99.999 46
c-3.33301 1.33301 -5.16602 3 -5.49902 5s0.833984 4.33301 3.50098 7l46 36c1.33301 0.666992 2.83301 1.5 4.5 2.5s3.5 1.5 5.5 1.5c3.33301 0 6.33301 -0.666992 9 -2c42 -14 81.333 -31 118 -51l92 52c1.33301 0.666992 3 1 5 1c3.33301 0 6 -1 8 -3l15 -28
c3.33301 -4 2.66602 -7.66699 -2.00098 -11l-72 -40c70 -48 121.833 -106.167 155.5 -174.5s50.5 -144.5 50.5 -228.5c0 -54.667 -10.5 -102.834 -31.5 -144.501zM408.499 117.502c27 35 40.501 80.834 40.501 137.501c0 57.333 -13.667 103.666 -41 138.999
s-63.333 53 -108 53c-29.333 0 -55.333 -8.16699 -78 -24.5s-40.334 -39 -53.001 -68s-19 -62.167 -19 -99.5c0 -56.667 14 -102.5 42 -137.5s64.333 -52.5 109 -52.5s80.5 17.5 107.5 52.5z" />
    <glyph glyph-name="ntilde" unicode="&#xf1;" horiz-adv-x="588" 
d="M70 16l-0.000976562 499.003c0 10 4.33301 15 13 15h79c8 0 12 -4.33301 12 -13v-55c0 -4 0.833008 -6.33301 2.5 -7s4.16699 0.666016 7.5 3.99902c34.667 28 65.334 48.5 92.001 61.5s55.667 19.5 87 19.5c50 0 89.167 -13.833 117.5 -41.5s42.5 -64.834 42.5 -111.501
v-369c0 -12 -5.66699 -18 -17 -18h-74c-10 0 -15 5.33301 -15 16v350c0 30 -7.83301 53.167 -23.5 69.5s-39.167 24.5 -70.5 24.5c-25.333 0 -48.833 -5.83301 -70.5 -17.5s-47.167 -30.834 -76.5 -57.501v-368c0 -6 -1.5 -10.333 -4.5 -13s-7.83301 -4 -14.5 -4h-71
c-10.667 -0 -16 5.33301 -16 16zM371.999 647.003c-12.667 0 -24.165 1.16895 -34.498 3.50195s-22.833 5.83301 -37.5 10.5c-10 3.33301 -20.333 6.16602 -31 8.49902s-21 3.5 -31 3.5c-12.667 0 -23.334 -1.66699 -32.001 -5s-18.667 -9 -30 -17
c-2.66699 -2 -5.33398 -3 -8.00098 -3c-3.33301 0 -6 3 -8 9l-11 32c-0.666992 2 -1 4.33301 -1 7c0 3.33301 1.66699 6.66602 5 9.99902c12.667 10.667 25.167 18.667 37.5 24s26.833 8 43.5 8c12 0 24.5 -1.5 37.5 -4.5s25.167 -6.5 36.5 -10.5
c4 -1.33301 12.667 -3.83301 26 -7.5s26 -5.5 38 -5.5c20.667 0 41 7 61 21c2.66699 2 5.66699 3 9 3c4 0 7 -3 9 -9l10 -37c0.666992 -1.33301 1 -3.33301 1 -6c0 -4 -3 -8 -9 -12c-24 -15.333 -51 -23 -81 -23z" />
    <glyph glyph-name="ograve" unicode="&#xf2;" horiz-adv-x="599" 
d="M164.5 24.5c-39 23 -69.167 55.167 -90.5 96.5s-32 88.333 -32 141c0 54 11 102.167 33 144.5s52.5 75.166 91.5 98.499s83.5 35 133.5 35c50.667 0 95.5 -11.833 134.5 -35.5s69.167 -56.5 90.5 -98.5s32 -89.667 32 -143c0 -52.667 -10.833 -99.667 -32.5 -141
s-52 -73.666 -91 -96.999s-83.833 -35 -134.5 -35s-95.5 11.5 -134.5 34.5zM410 117.5c26 35 39.001 84.167 39.001 147.5s-13.167 112.833 -39.5 148.5s-62.833 53.5 -109.5 53.5s-83.334 -17.833 -110.001 -53.5s-40 -85.167 -40 -148.5
c0 -62.667 13.333 -111.667 40 -147s63.667 -53 111 -53c46.667 0 83 17.5 109 52.5zM179.001 751c2.66699 1.33301 5.66699 1.33398 9 0.000976562l232 -97c3.33301 -1.33301 5.5 -3.33301 6.5 -6s0.5 -6 -1.5 -10l-9 -26c-1.33301 -4.66699 -3.33301 -7.66699 -6 -9
s-6.66699 -1.33301 -12 0l-230 69c-6 2 -9.83301 4.5 -11.5 7.5s-1.83398 7.16699 -0.500977 12.5l18 52c0.666992 3.33301 2.33398 5.66602 5.00098 6.99902z" />
    <glyph glyph-name="oacute" unicode="&#xf3;" horiz-adv-x="599" 
d="M164.5 24.5c-39 23 -69.167 55.167 -90.5 96.5s-32 88.333 -32 141c0 54 11 102.167 33 144.5s52.5 75.166 91.5 98.499s83.5 35 133.5 35c50.667 0 95.5 -11.833 134.5 -35.5s69.167 -56.5 90.5 -98.5s32 -89.667 32 -143c0 -52.667 -10.833 -99.667 -32.5 -141
s-52 -73.666 -91 -96.999s-83.833 -35 -134.5 -35s-95.5 11.5 -134.5 34.5zM410 117.5c26 35 39.001 84.167 39.001 147.5s-13.167 112.833 -39.5 148.5s-62.833 53.5 -109.5 53.5s-83.334 -17.833 -110.001 -53.5s-40 -85.167 -40 -148.5
c0 -62.667 13.333 -111.667 40 -147s63.667 -53 111 -53c46.667 0 83 17.5 109 52.5zM435.001 692c1.33301 -4 2 -6.33398 2 -7.00098c0 -5.33301 -4.66699 -9.66602 -14 -12.999l-229 -69c-2 -0.666992 -4.33301 -1 -7 -1c-5.33301 0 -9 3.33301 -11 10l-10 26
c-0.666992 1.33301 -1 3.33301 -1 6c0 6 2 9.33301 6 10l233 97l4 1c4.66699 0 8 -2.66699 10 -8z" />
    <glyph glyph-name="ocircumflex" unicode="&#xf4;" horiz-adv-x="599" 
d="M164.5 24.5c-39 23 -69.167 55.167 -90.5 96.5s-32 88.333 -32 141c0 54 11 102.167 33 144.5s52.5 75.166 91.5 98.499s83.5 35 133.5 35c50.667 0 95.5 -11.833 134.5 -35.5s69.167 -56.5 90.5 -98.5s32 -89.667 32 -143c0 -52.667 -10.833 -99.667 -32.5 -141
s-52 -73.666 -91 -96.999s-83.833 -35 -134.5 -35s-95.5 11.5 -134.5 34.5zM410 117.5c26 35 39.001 84.167 39.001 147.5s-13.167 112.833 -39.5 148.5s-62.833 53.5 -109.5 53.5s-83.334 -17.833 -110.001 -53.5s-40 -85.167 -40 -148.5
c0 -62.667 13.333 -111.667 40 -147s63.667 -53 111 -53c46.667 0 83 17.5 109 52.5zM312.001 682c-6 6 -10 9 -12 9c-2.66699 0 -7 -3 -13 -9l-55 -51c-4 -3.33301 -7 -5.33301 -9 -6s-5.66699 -1 -11 -1h-62c-5.33301 0 -8 1.66699 -8 5c0 2 1.66699 4.66699 5 8l105 98
c4 4 7.83301 7 11.5 9s8.83398 3 15.501 3h49c4.66699 0 8.66699 -1.16699 12 -3.5s6.33301 -4.83301 9 -7.5l104 -99c4 -4 6 -7 6 -9c0 -2.66699 -2.66699 -4 -8 -4h-67c-8.66699 0 -15.334 2.33301 -20.001 7z" />
    <glyph glyph-name="otilde" unicode="&#xf5;" horiz-adv-x="599" 
d="M164.5 24.5c-39 23 -69.167 55.167 -90.5 96.5s-32 88.333 -32 141c0 54 11 102.167 33 144.5s52.5 75.166 91.5 98.499s83.5 35 133.5 35c50.667 0 95.5 -11.833 134.5 -35.5s69.167 -56.5 90.5 -98.5s32 -89.667 32 -143c0 -52.667 -10.833 -99.667 -32.5 -141
s-52 -73.666 -91 -96.999s-83.833 -35 -134.5 -35s-95.5 11.5 -134.5 34.5zM410 117.5c26 35 39.001 84.167 39.001 147.5s-13.167 112.833 -39.5 148.5s-62.833 53.5 -109.5 53.5s-83.334 -17.833 -110.001 -53.5s-40 -85.167 -40 -148.5
c0 -62.667 13.333 -111.667 40 -147s63.667 -53 111 -53c46.667 0 83 17.5 109 52.5zM370.001 647c-12.667 0 -24.165 1.16895 -34.498 3.50195s-22.833 5.83301 -37.5 10.5c-10 3.33301 -20.333 6.16602 -31 8.49902s-21 3.5 -31 3.5
c-12.667 0 -23.334 -1.66699 -32.001 -5s-18.667 -9 -30 -17c-2.66699 -2 -5.33398 -3 -8.00098 -3c-3.33301 0 -6 3 -8 9l-11 32c-0.666992 2 -1 4.33301 -1 7c0 3.33301 1.66699 6.66602 5 9.99902c12.667 10.667 25.167 18.667 37.5 24s26.833 8 43.5 8
c12 0 24.5 -1.5 37.5 -4.5s25.167 -6.5 36.5 -10.5c4 -1.33301 12.667 -3.83301 26 -7.5s26 -5.5 38 -5.5c20.667 0 41 7 61 21c2.66699 2 5.66699 3 9 3c4 0 7 -3 9 -9l10 -37c0.666992 -1.33301 1 -3.33301 1 -6c0 -4 -3 -8 -9 -12c-24 -15.333 -51 -23 -81 -23z" />
    <glyph glyph-name="odieresis" unicode="&#xf6;" horiz-adv-x="599" 
d="M164.5 24.5c-39 23 -69.167 55.167 -90.5 96.5s-32 88.333 -32 141c0 54 11 102.167 33 144.5s52.5 75.166 91.5 98.499s83.5 35 133.5 35c50.667 0 95.5 -11.833 134.5 -35.5s69.167 -56.5 90.5 -98.5s32 -89.667 32 -143c0 -52.667 -10.833 -99.667 -32.5 -141
s-52 -73.666 -91 -96.999s-83.833 -35 -134.5 -35s-95.5 11.5 -134.5 34.5zM410 117.5c26 35 39.001 84.167 39.001 147.5s-13.167 112.833 -39.5 148.5s-62.833 53.5 -109.5 53.5s-83.334 -17.833 -110.001 -53.5s-40 -85.167 -40 -148.5
c0 -62.667 13.333 -111.667 40 -147s63.667 -53 111 -53c46.667 0 83 17.5 109 52.5zM268.001 642c0 -6 -1.5 -10.332 -4.5 -12.999s-7.83301 -4 -14.5 -4h-65c-6 0 -10.167 1.16699 -12.5 3.5s-3.5 6.16602 -3.5 11.499v88c0 9.33301 4 14 12 14h76c8 0 12 -4.33301 12 -13
v-87zM432.001 642.001c0 -6 -1.5 -10.332 -4.5 -12.999s-7.83301 -4 -14.5 -4h-65c-6 0 -10.167 1.16699 -12.5 3.5s-3.5 6.16602 -3.5 11.499v88c0 9.33301 4 14 12 14h76c8 0 12 -4.33301 12 -13v-87z" />
    <glyph glyph-name="divide" unicode="&#xf7;" horiz-adv-x="566" 
d="M347 514c0 -6 -1.5 -10.3311 -4.5 -12.998s-8.16699 -4 -15.5 -4h-91c-6 0 -10 1.16699 -12 3.5s-3 6.16602 -3 11.499v93c0 8.66699 3.66699 13 11 13h104c4 0 6.83301 -0.833008 8.5 -2.5s2.5 -4.83398 2.5 -9.50098v-92zM509 349.002c0 -6 -1.5 -10.166 -4.5 -12.499
s-8.16699 -3.5 -15.5 -3.5l-416 -1c-6 0 -10 1.16699 -12 3.5s-3 6.16602 -3 11.499v52c0 9.33301 3.33301 14 10 14h429c8 0 12 -3.66699 12 -11v-53zM347 145.003c0 -6.66699 -1.5 -11.332 -4.5 -13.999s-8.16699 -4 -15.5 -4h-91c-6 0 -10 1.16699 -12 3.5
s-3 6.16602 -3 11.499v93c0 9.33301 3.66699 14 11 14h104c7.33301 0 11 -4 11 -12v-92z" />
    <glyph glyph-name="oslash" unicode="&#xf8;" horiz-adv-x="587" 
d="M567 493c0 -4 -1.66699 -7.33496 -5 -10.002l-53 -51c31.333 -48 47 -104.333 47 -169c0 -52.667 -10.833 -99.667 -32.5 -141s-52 -73.666 -91 -96.999s-83.833 -35 -134.5 -35c-36 0 -69 5.66699 -99 17s-56 28 -78 50l-52 -50c-6 -4.66699 -10.667 -7 -14 -7
c-4 0 -8.33301 2.33301 -13 7l-15 16c-4.66699 4.66699 -7 9.33398 -7 14.001c0 4 2 8 6 12l57 55c-28 44.667 -42 97.334 -42 158.001c0 54 11 102.167 33 144.5s52.5 75.166 91.5 98.499s83.5 35 133.5 35c68.667 0 126 -21 172 -63l47 45c6 4.66699 10.667 7 14 7
s6.33301 -1.66699 9 -5l22 -22c2.66699 -2.66699 4 -5.66699 4 -9zM160 177.998l247.001 238c-26 34 -62 51 -108 51c-46.667 0 -83.334 -17.833 -110.001 -53.5s-40 -85.167 -40 -148.5c0 -32 3.66699 -61 11 -87zM435.001 359.998l-248.001 -239
c26.667 -37.333 64.334 -56 113.001 -56c46.667 0 83 17.5 109 52.5s39 84.167 39 147.5c0 37.333 -4.33301 69 -13 95z" />
    <glyph glyph-name="ugrave" unicode="&#xf9;" horiz-adv-x="583" 
d="M407 149v364c0 11.333 6.33301 17 19 17h72c10.667 0 16 -5.33301 16 -16l-2 -500c0 -9.33301 -4 -14 -12 -14h-78c-8 -0 -12 4.33301 -12 13v56c0 8 -3.33301 9 -10 3c-32.667 -30 -63 -51.167 -91 -63.5s-57.333 -18.5 -88 -18.5c-46 0 -83.667 14.167 -113 42.5
s-44 65.833 -44 112.5v367c0 12 6 18 18 18h73c10 0 15 -5.33301 15 -16v-347c0 -29.333 8.33301 -52.833 25 -70.5s39 -26.5 67 -26.5c46 0 94.333 26.333 145 79zM159 751c2.66699 1.33301 5.66699 1.33398 9 0.000976562l232 -97c3.33301 -1.33301 5.5 -3.33301 6.5 -6
s0.5 -6 -1.5 -10l-9 -26c-1.33301 -4.66699 -3.33301 -7.66699 -6 -9s-6.66699 -1.33301 -12 0l-230 69c-6 2 -9.83301 4.5 -11.5 7.5s-1.83398 7.16699 -0.500977 12.5l18 52c0.666992 3.33301 2.33398 5.66602 5.00098 6.99902z" />
    <glyph glyph-name="uacute" unicode="&#xfa;" horiz-adv-x="583" 
d="M407 149v364c0 11.333 6.33301 17 19 17h72c10.667 0 16 -5.33301 16 -16l-2 -500c0 -9.33301 -4 -14 -12 -14h-78c-8 -0 -12 4.33301 -12 13v56c0 8 -3.33301 9 -10 3c-32.667 -30 -63 -51.167 -91 -63.5s-57.333 -18.5 -88 -18.5c-46 0 -83.667 14.167 -113 42.5
s-44 65.833 -44 112.5v367c0 12 6 18 18 18h73c10 0 15 -5.33301 15 -16v-347c0 -29.333 8.33301 -52.833 25 -70.5s39 -26.5 67 -26.5c46 0 94.333 26.333 145 79zM415 692c1.33301 -4 2 -6.33398 2 -7.00098c0 -5.33301 -4.66699 -9.66602 -14 -12.999l-229 -69
c-2 -0.666992 -4.33301 -1 -7 -1c-5.33301 0 -9 3.33301 -11 10l-10 26c-0.666992 1.33301 -1 3.33301 -1 6c0 6 2 9.33301 6 10l233 97l4 1c4.66699 0 8 -2.66699 10 -8z" />
    <glyph glyph-name="ucircumflex" unicode="&#xfb;" horiz-adv-x="583" 
d="M407 149v364c0 11.333 6.33301 17 19 17h72c10.667 0 16 -5.33301 16 -16l-2 -500c0 -9.33301 -4 -14 -12 -14h-78c-8 -0 -12 4.33301 -12 13v56c0 8 -3.33301 9 -10 3c-32.667 -30 -63 -51.167 -91 -63.5s-57.333 -18.5 -88 -18.5c-46 0 -83.667 14.167 -113 42.5
s-44 65.833 -44 112.5v367c0 12 6 18 18 18h73c10 0 15 -5.33301 15 -16v-347c0 -29.333 8.33301 -52.833 25 -70.5s39 -26.5 67 -26.5c46 0 94.333 26.333 145 79zM292 682c-6 6 -10 9 -12 9c-2.66699 0 -7 -3 -13 -9l-55 -51c-4 -3.33301 -7 -5.33301 -9 -6
s-5.66699 -1 -11 -1h-62c-5.33301 0 -8 1.66699 -8 5c0 2 1.66699 4.66699 5 8l105 98c4 4 7.83301 7 11.5 9s8.83398 3 15.501 3h49c4.66699 0 8.66699 -1.16699 12 -3.5s6.33301 -4.83301 9 -7.5l104 -99c4 -4 6 -7 6 -9c0 -2.66699 -2.66699 -4 -8 -4h-67
c-8.66699 0 -15.334 2.33301 -20.001 7z" />
    <glyph glyph-name="udieresis" unicode="&#xfc;" horiz-adv-x="583" 
d="M407 149v364c0 11.333 6.33301 17 19 17h72c10.667 0 16 -5.33301 16 -16l-2 -500c0 -9.33301 -4 -14 -12 -14h-78c-8 -0 -12 4.33301 -12 13v56c0 8 -3.33301 9 -10 3c-32.667 -30 -63 -51.167 -91 -63.5s-57.333 -18.5 -88 -18.5c-46 0 -83.667 14.167 -113 42.5
s-44 65.833 -44 112.5v367c0 12 6 18 18 18h73c10 0 15 -5.33301 15 -16v-347c0 -29.333 8.33301 -52.833 25 -70.5s39 -26.5 67 -26.5c46 0 94.333 26.333 145 79zM248 642c0 -6 -1.5 -10.332 -4.5 -12.999s-7.83301 -4 -14.5 -4h-65c-6 0 -10.167 1.16699 -12.5 3.5
s-3.5 6.16602 -3.5 11.499v88c0 9.33301 4 14 12 14h76c8 0 12 -4.33301 12 -13v-87zM412 642.001c0 -6 -1.5 -10.332 -4.5 -12.999s-7.83301 -4 -14.5 -4h-65c-6 0 -10.167 1.16699 -12.5 3.5s-3.5 6.16602 -3.5 11.499v88c0 9.33301 4 14 12 14h76c8 0 12 -4.33301 12 -13
v-87z" />
    <glyph glyph-name="yacute" unicode="&#xfd;" horiz-adv-x="541" 
d="M58.5 -162.5c-9 1.66699 -13.499 5.83398 -13.499 12.501v51c0 9.33301 9.33301 14 28 14h65c14.667 0 28.5 5 41.5 15s23.167 22.667 30.5 38s11 30.333 11 45c0 8.66699 -1.33301 16 -4 22l-191 476c-0.666992 1.33301 -1 3.66602 -1 6.99902c0 8 4.66699 12 14 12h82
c4 0 7.66699 -1.16699 11 -3.5s5.33301 -5.5 6 -9.5l138 -360c2 -6 4.33301 -9 7 -9c4 0 7.33301 4 10 12l136 358c3.33301 8 8.66602 12 15.999 12h59c4.66699 0 8.16699 -1.83301 10.5 -5.5s2.5 -7.5 0.5 -11.5l-215 -545c-14 -36 -29.667 -63.5 -47 -82.5
s-37.5 -32.167 -60.5 -39.5s-51.833 -11 -86.5 -11c-22.667 0 -38.5 0.833008 -47.5 2.5zM418.001 692c1.33301 -4 2 -6.33398 2 -7.00098c0 -5.33301 -4.66699 -9.66602 -14 -12.999l-229 -69c-2 -0.666992 -4.33301 -1 -7 -1c-5.33301 0 -9 3.33301 -11 10l-10 26
c-0.666992 1.33301 -1 3.33301 -1 6c0 6 2 9.33301 6 10l233 97l4 1c4.66699 0 8 -2.66699 10 -8z" />
    <glyph glyph-name="thorn" unicode="&#xfe;" horiz-adv-x="599" 
d="M176 726l0.00195312 -251.001c0 -5.33301 1.33301 -8 4 -8c1.33301 0 4.33301 1.66699 9 5c20 20 41.167 36.333 63.5 49s52.166 19 89.499 19c41.333 0 78.166 -10 110.499 -30s57.833 -50 76.5 -90s28 -89.333 28 -148c0 -60 -9.33301 -111.167 -28 -153.5
s-45 -74.333 -79 -96s-73.333 -32.5 -118 -32.5c-54 0 -100.333 16.667 -139 50c-5.33301 4.66699 -9.33301 7 -12 7c-3.33301 0 -5 -4.33301 -5 -13v-185c0 -9.33301 -4 -14 -12 -14h-81c-8.66699 0 -13 4.66699 -13 14v875c0 6.66699 1.5 11.334 4.5 14.001
s7.83301 4 14.5 4h70c11.333 0 17 -5.33301 17 -16zM234.502 77.499c19.667 -10.333 41.167 -15.502 64.5 -15.502c46 0 82.5 17.833 109.5 53.5s40.5 87.834 40.5 156.501c0 66.667 -13.333 116 -40 148s-61.667 48 -105 48c-24 0 -45.833 -5.16699 -65.5 -15.5
s-35 -23.666 -46 -39.999s-16.5 -32.5 -16.5 -48.5v-241c19.333 -20 38.833 -35.167 58.5 -45.5z" />
    <glyph glyph-name="ydieresis" unicode="&#xff;" horiz-adv-x="541" 
d="M58.5 -162.5c-9 1.66699 -13.499 5.83398 -13.499 12.501v51c0 9.33301 9.33301 14 28 14h65c14.667 0 28.5 5 41.5 15s23.167 22.667 30.5 38s11 30.333 11 45c0 8.66699 -1.33301 16 -4 22l-191 476c-0.666992 1.33301 -1 3.66602 -1 6.99902c0 8 4.66699 12 14 12h82
c4 0 7.66699 -1.16699 11 -3.5s5.33301 -5.5 6 -9.5l138 -360c2 -6 4.33301 -9 7 -9c4 0 7.33301 4 10 12l136 358c3.33301 8 8.66602 12 15.999 12h59c4.66699 0 8.16699 -1.83301 10.5 -5.5s2.5 -7.5 0.5 -11.5l-215 -545c-14 -36 -29.667 -63.5 -47 -82.5
s-37.5 -32.167 -60.5 -39.5s-51.833 -11 -86.5 -11c-22.667 0 -38.5 0.833008 -47.5 2.5zM251.001 642c0 -6 -1.5 -10.332 -4.5 -12.999s-7.83301 -4 -14.5 -4h-65c-6 0 -10.167 1.16699 -12.5 3.5s-3.5 6.16602 -3.5 11.499v88c0 9.33301 4 14 12 14h76
c8 0 12 -4.33301 12 -13v-87zM415.001 642.001c0 -6 -1.5 -10.332 -4.5 -12.999s-7.83301 -4 -14.5 -4h-65c-6 0 -10.167 1.16699 -12.5 3.5s-3.5 6.16602 -3.5 11.499v88c0 9.33301 4 14 12 14h76c8 0 12 -4.33301 12 -13v-87z" />
    <glyph glyph-name="Amacron" unicode="&#x100;" horiz-adv-x="741" 
d="M41 12l2 9l255 705c2 6 4.66699 10.167 8 12.5s8 3.5 14 3.5h101c12.667 0 21 -5.66699 25 -17l253 -705c0.666992 -1.33301 1 -3.66602 1 -6.99902c0 -8.66699 -3.66699 -13 -11 -13h-95c-8.66699 0 -14.334 4 -17.001 12l-64 178
c-1.33301 3.33301 -2.66602 5.66602 -3.99902 6.99902s-4 2 -8 2h-277c-6 0 -10 -2.66699 -12 -8l-65 -181c-2 -6.66699 -7.66699 -10 -17 -10h-77c-8 0 -12 4 -12 12zM470 293c4.66699 0 7.5 1.16699 8.5 3.5s0.833008 5.83301 -0.5 10.5l-108 300
c-2 4.66699 -4.33301 7 -7 7s-5 -2.66699 -7 -8l-111 -300l-1 -6c0 -4.66699 3 -7 9 -7h217zM528 884c0 -10 -6 -15 -18 -15h-287c-8.66699 0 -13 4.66699 -13 14v47c0 8 3.33301 12 10 12h298c6.66699 0 10 -3.66699 10 -11v-47z" />
    <glyph glyph-name="amacron" unicode="&#x101;" horiz-adv-x="552" 
d="M202 -10c-51.333 0 -91.834 13.166 -121.501 39.499s-44.5 61.5 -44.5 105.5c0 54 23.5 97 70.5 129s113.833 50 200.5 54l65 5c10.667 1.33301 16 6.33301 16 15v25c0 32.667 -10 58.5 -30 77.5s-47.333 28.5 -82 28.5c-54.667 0 -98.334 -24.667 -131.001 -74
c-2 -4 -4.16699 -6.5 -6.5 -7.5s-5.83301 -0.833008 -10.5 0.5l-68 20c-4 1.33301 -6 4 -6 8c0 2.66699 1 6.33398 3 11.001c18.667 36 47.167 63.833 85.5 83.5s84.5 29.5 138.5 29.5c70 0 122.333 -15 157 -45s52 -71.667 52 -125v-353
c0 -6.66699 -1.16699 -11.167 -3.5 -13.5s-6.16602 -3.5 -11.499 -3.5h-67c-9.33301 0 -14.666 6.66699 -15.999 20l-2 38c-1.33301 5.33301 -3.33301 8 -6 8c-2 0 -5.66699 -2 -11 -6c-48.667 -46.667 -105.667 -70 -171 -70zM373.999 263.999l-54.001 -3.99902
c-55.333 -3.33301 -99.166 -14.5 -131.499 -33.5s-48.5 -45.167 -48.5 -78.5c0 -26 9.33301 -46.5 28 -61.5s43.667 -22.5 75 -22.5c36 0 70 12.333 102 37c28.667 23.333 43 46.666 43 69.999v78c0 10.667 -4.66699 15.667 -14 15zM437.998 672c0 -10 -6 -15 -18 -15h-287
c-8.66699 0 -13 4.66699 -13 14v47c0 8 3.33301 12 10 12h298c6.66699 0 10 -3.66699 10 -11v-47z" />
    <glyph glyph-name="Abreve" unicode="&#x102;" horiz-adv-x="741" 
d="M41 12l2 9l255 705c2 6 4.66699 10.167 8 12.5s8 3.5 14 3.5h101c12.667 0 21 -5.66699 25 -17l253 -705c0.666992 -1.33301 1 -3.66602 1 -6.99902c0 -8.66699 -3.66699 -13 -11 -13h-95c-8.66699 0 -14.334 4 -17.001 12l-64 178
c-1.33301 3.33301 -2.66602 5.66602 -3.99902 6.99902s-4 2 -8 2h-277c-6 0 -10 -2.66699 -12 -8l-65 -181c-2 -6.66699 -7.66699 -10 -17 -10h-77c-8 0 -12 4 -12 12zM470 293c4.66699 0 7.5 1.16699 8.5 3.5s0.833008 5.83301 -0.5 10.5l-108 300
c-2 4.66699 -4.33301 7 -7 7s-5 -2.66699 -7 -8l-111 -300l-1 -6c0 -4.66699 3 -7 9 -7h217zM526 951c1.33301 -2 1.33301 -5.33203 0 -9.99902c-8.66699 -29.333 -27.167 -53.833 -55.5 -73.5s-62.5 -29.5 -102.5 -29.5c-39.333 0 -72.833 9.66699 -100.5 29
s-46.167 44.666 -55.5 75.999v4c0 4.66699 2.33301 7 7 7h52c4.66699 0 8 -0.666992 10 -2s4.33301 -4 7 -8c22 -30 48.667 -45 80 -45c18 0 34.167 4.5 48.5 13.5s25.5 19.833 33.5 32.5c2.66699 4 4.83398 6.5 6.50098 7.5s4.16699 1.5 7.5 1.5h52
c5.33301 0 8.66602 -1 9.99902 -3z" />
    <glyph glyph-name="abreve" unicode="&#x103;" horiz-adv-x="552" 
d="M202 -10c-51.333 0 -91.834 13.166 -121.501 39.499s-44.5 61.5 -44.5 105.5c0 54 23.5 97 70.5 129s113.833 50 200.5 54l65 5c10.667 1.33301 16 6.33301 16 15v25c0 32.667 -10 58.5 -30 77.5s-47.333 28.5 -82 28.5c-54.667 0 -98.334 -24.667 -131.001 -74
c-2 -4 -4.16699 -6.5 -6.5 -7.5s-5.83301 -0.833008 -10.5 0.5l-68 20c-4 1.33301 -6 4 -6 8c0 2.66699 1 6.33398 3 11.001c18.667 36 47.167 63.833 85.5 83.5s84.5 29.5 138.5 29.5c70 0 122.333 -15 157 -45s52 -71.667 52 -125v-353
c0 -6.66699 -1.16699 -11.167 -3.5 -13.5s-6.16602 -3.5 -11.499 -3.5h-67c-9.33301 0 -14.666 6.66699 -15.999 20l-2 38c-1.33301 5.33301 -3.33301 8 -6 8c-2 0 -5.66699 -2 -11 -6c-48.667 -46.667 -105.667 -70 -171 -70zM373.999 263.999l-54.001 -3.99902
c-55.333 -3.33301 -99.166 -14.5 -131.499 -33.5s-48.5 -45.167 -48.5 -78.5c0 -26 9.33301 -46.5 28 -61.5s43.667 -22.5 75 -22.5c36 0 70 12.333 102 37c28.667 23.333 43 46.666 43 69.999v78c0 10.667 -4.66699 15.667 -14 15zM435.998 739
c1.33301 -2 1.33301 -5.33203 0 -9.99902c-8.66699 -29.333 -27.167 -53.833 -55.5 -73.5s-62.5 -29.5 -102.5 -29.5c-39.333 0 -72.833 9.66699 -100.5 29s-46.167 44.666 -55.5 75.999v4c0 4.66699 2.33301 7 7 7h52c4.66699 0 8 -0.666992 10 -2s4.33301 -4 7 -8
c22 -30 48.667 -45 80 -45c18 0 34.167 4.5 48.5 13.5s25.5 19.833 33.5 32.5c2.66699 4 4.83398 6.5 6.50098 7.5s4.16699 1.5 7.5 1.5h52c5.33301 0 8.66602 -1 9.99902 -3z" />
    <glyph glyph-name="Aogonek" unicode="&#x104;" horiz-adv-x="741" 
d="M712 -100c3.33301 0 5 -2.99902 5 -8.99902v-33c0 -5.33301 -2.33301 -9.33301 -7 -12c-8.66699 -4.66699 -21.5 -8.66699 -38.5 -12s-34.5 -5 -52.5 -5c-33.333 0 -59 7.16699 -77 21.5s-27 34.166 -27 59.499c0 19.333 6 36.333 18 51s33 27.667 63 39h-2
c-8.66699 0 -14.334 4 -17.001 12l-64 178c-1.33301 3.33301 -2.66602 5.66602 -3.99902 6.99902s-4 2 -8 2h-277c-6 0 -10 -2.66699 -12 -8l-65 -181c-2 -6.66699 -7.66699 -10 -17 -10h-77c-8 0 -12 4 -12 12l2 9l255 705c2 6 4.66699 10.167 8 12.5s8 3.5 14 3.5h101
c12.667 0 21 -5.66699 25 -17l253 -705c0.666992 -1.33301 1 -3.66602 1 -6.99902c0 -8.66699 -3.66699 -13 -11 -13h-1c-32.667 -13.333 -55.834 -26 -69.501 -38s-20.5 -25.667 -20.5 -41c0 -12.667 3.5 -22 10.5 -28s18.5 -9 34.5 -9c22.667 0 43.334 4.66699 62.001 14
c4 1.33301 6.33301 2 7 2zM478.5 296.501c1 2.33301 0.833008 5.83301 -0.5 10.5l-108 300c-2 4.66699 -4.33301 7 -7 7s-5 -2.66699 -7 -8l-111 -300l-1 -6c0 -4.66699 3 -7 9 -7h217c4.66699 0 7.5 1.16699 8.5 3.5z" />
    <glyph glyph-name="aogonek" unicode="&#x105;" horiz-adv-x="552" 
d="M504 -98c3.33301 0 5 -3 5 -9v-33c0 -5.33301 -2.33301 -9.33301 -7 -12c-8.66699 -4.66699 -21.5 -8.66699 -38.5 -12s-34.5 -5 -52.5 -5c-33.333 0 -59 7.16699 -77 21.5s-27 34.166 -27 59.499c0 20.667 6.66699 38.334 20 53.001s36.666 28 69.999 40
c-2 2.66699 -3.66699 7.66699 -5 15l-2 38c-1.33301 5.33301 -3.33301 8 -6 8c-2 0 -5.66699 -2 -11 -6c-48.667 -46.667 -105.667 -70 -171 -70c-51.333 0 -91.833 13.167 -121.5 39.5s-44.5 61.5 -44.5 105.5c0 54 23.5 97 70.5 129s113.833 50 200.5 54l65 5
c10.667 1.33301 16 6.33301 16 15v25c0 32.667 -10 58.5 -30 77.5s-47.333 28.5 -82 28.5c-54.667 0 -98.334 -24.667 -131.001 -74c-2 -4 -4.16699 -6.5 -6.5 -7.5s-5.83301 -0.833008 -10.5 0.5l-68 20c-4 1.33301 -6 4 -6 8c0 2.66699 1 6.33398 3 11.001
c18.667 36 47.167 63.833 85.5 83.5s84.5 29.5 138.5 29.5c70 0 122.333 -15 157 -45s52 -71.667 52 -125v-353c0 -6.66699 -1.16699 -11.167 -3.5 -13.5s-6.16602 -3.5 -11.499 -3.5c-30.667 -13.333 -52.5 -25.833 -65.5 -37.5s-19.5 -24.834 -19.5 -39.501
c0 -12.667 3.5 -22 10.5 -28s18.5 -9 34.5 -9c22.667 0 43.334 4.66699 62.001 14c4 1.33301 6.33301 2 7 2zM388 249c0 10.667 -4.66797 15.668 -14.001 15.001l-54 -4c-55.333 -3.33301 -99.166 -14.5 -131.499 -33.5s-48.5 -45.167 -48.5 -78.5
c0 -26 9.33301 -46.5 28 -61.5s43.667 -22.5 75 -22.5c36 0 70 12.333 102 37c28.667 23.333 43 46.666 43 69.999v78z" />
    <glyph glyph-name="Cacute" unicode="&#x106;" horiz-adv-x="712" 
d="M509 723.5c40.667 -19 74.334 -44.5 101.001 -76.5s43 -67 49 -105c0.666992 -2.66699 1 -6 1 -10c0 -3.33301 -0.666992 -5.5 -2 -6.5s-4 -1.83301 -8 -2.5l-93 -6h-3c-4 0 -7 3.66699 -9 11c-9.33301 41.333 -28.166 74.333 -56.499 99s-63.5 37 -105.5 37
c-64.667 0 -113.834 -24.167 -147.501 -72.5s-50.5 -121.5 -50.5 -219.5c0 -97.333 16.833 -170 50.5 -218s84.167 -72 151.5 -72c45.333 0 83.166 11 113.499 33s54.833 57.333 73.5 106c0.666992 4.66699 5.66699 6.33398 15 5.00098l71 -17c6 -1.33301 8.33301 -7 7 -17
c-9.33301 -32 -26.166 -63.333 -50.499 -94s-56.5 -56.334 -96.5 -77.001s-86 -31 -138 -31c-66.667 0 -124.334 15.667 -173.001 47s-86 75.833 -112 133.5s-39 125.167 -39 202.5c0 78 12.833 145.5 38.5 202.5s62.667 100.667 111 131s105.5 45.5 171.5 45.5
c46 0 89.333 -9.5 130 -28.5zM513 904c1.33301 -4 2 -6.33398 2 -7.00098c0 -5.33301 -4.66699 -9.66602 -14 -12.999l-229 -69c-2 -0.666992 -4.33301 -1 -7 -1c-5.33301 0 -9 3.33301 -11 10l-10 26c-0.666992 1.33301 -1 3.33301 -1 6c0 6 2 9.33301 6 10l233 97l4 1
c4.66699 0 8 -2.66699 10 -8z" />
    <glyph glyph-name="cacute" unicode="&#x107;" horiz-adv-x="545" 
d="M429 503c36 -24.667 62.999 -56.6699 80.999 -96.0029c1.33301 -2.66699 2 -5.66699 2 -9c0 -4 -3 -6.66699 -9 -8l-71 -12h-3c-4 0 -7.33301 2.66699 -10 8c-18.667 27.333 -36.667 47.5 -54 60.5s-38.333 19.5 -63 19.5c-46.667 0 -83.667 -17.667 -111 -53
s-41 -84.666 -41 -147.999c0 -64 14 -113.667 42 -149s66 -53 114 -53c30 0 55.833 7.66699 77.5 23s41.834 38.333 60.501 69c2 2.66699 4 4.33398 6 5.00098s4.66699 0.333984 8 -0.999023l53 -16c6 -2 7.33301 -7 4 -15c-18.667 -39.333 -46.167 -72.166 -82.5 -98.499
s-81.5 -39.5 -135.5 -39.5c-49.333 0 -93.333 11.5 -132 34.5s-68.834 55.167 -90.501 96.5s-32.5 88.666 -32.5 141.999s11 101 33 143s52.333 74.833 91 98.5s82.334 35.5 131.001 35.5c52 0 96 -12.333 132 -37zM429.999 691.997c1.33301 -4 2 -6.33398 2 -7.00098
c0 -5.33301 -4.66699 -9.66602 -14 -12.999l-229 -69c-2 -0.666992 -4.33301 -1 -7 -1c-5.33301 0 -9 3.33301 -11 10l-10 26c-0.666992 1.33301 -1 3.33301 -1 6c0 6 2 9.33301 6 10l233 97l4 1c4.66699 0 8 -2.66699 10 -8z" />
    <glyph glyph-name="Ccircumflex" unicode="&#x108;" horiz-adv-x="712" 
d="M509 723.5c40.667 -19 74.334 -44.5 101.001 -76.5s43 -67 49 -105c0.666992 -2.66699 1 -6 1 -10c0 -3.33301 -0.666992 -5.5 -2 -6.5s-4 -1.83301 -8 -2.5l-93 -6h-3c-4 0 -7 3.66699 -9 11c-9.33301 41.333 -28.166 74.333 -56.499 99s-63.5 37 -105.5 37
c-64.667 0 -113.834 -24.167 -147.501 -72.5s-50.5 -121.5 -50.5 -219.5c0 -97.333 16.833 -170 50.5 -218s84.167 -72 151.5 -72c45.333 0 83.166 11 113.499 33s54.833 57.333 73.5 106c0.666992 4.66699 5.66699 6.33398 15 5.00098l71 -17c6 -1.33301 8.33301 -7 7 -17
c-9.33301 -32 -26.166 -63.333 -50.499 -94s-56.5 -56.334 -96.5 -77.001s-86 -31 -138 -31c-66.667 0 -124.334 15.667 -173.001 47s-86 75.833 -112 133.5s-39 125.167 -39 202.5c0 78 12.833 145.5 38.5 202.5s62.667 100.667 111 131s105.5 45.5 171.5 45.5
c46 0 89.333 -9.5 130 -28.5zM390 894c-6 6 -10 9 -12 9c-2.66699 0 -7 -3 -13 -9l-55 -51c-4 -3.33301 -7 -5.33301 -9 -6s-5.66699 -1 -11 -1h-62c-5.33301 0 -8 1.66699 -8 5c0 2 1.66699 4.66699 5 8l105 98c4 4 7.83301 7 11.5 9s8.83398 3 15.501 3h49
c4.66699 0 8.66699 -1.16699 12 -3.5s6.33301 -4.83301 9 -7.5l104 -99c4 -4 6 -7 6 -9c0 -2.66699 -2.66699 -4 -8 -4h-67c-8.66699 0 -15.334 2.33301 -20.001 7z" />
    <glyph glyph-name="ccircumflex" unicode="&#x109;" horiz-adv-x="545" 
d="M429 503c36 -24.667 62.999 -56.6699 80.999 -96.0029c1.33301 -2.66699 2 -5.66699 2 -9c0 -4 -3 -6.66699 -9 -8l-71 -12h-3c-4 0 -7.33301 2.66699 -10 8c-18.667 27.333 -36.667 47.5 -54 60.5s-38.333 19.5 -63 19.5c-46.667 0 -83.667 -17.667 -111 -53
s-41 -84.666 -41 -147.999c0 -64 14 -113.667 42 -149s66 -53 114 -53c30 0 55.833 7.66699 77.5 23s41.834 38.333 60.501 69c2 2.66699 4 4.33398 6 5.00098s4.66699 0.333984 8 -0.999023l53 -16c6 -2 7.33301 -7 4 -15c-18.667 -39.333 -46.167 -72.166 -82.5 -98.499
s-81.5 -39.5 -135.5 -39.5c-49.333 0 -93.333 11.5 -132 34.5s-68.834 55.167 -90.501 96.5s-32.5 88.666 -32.5 141.999s11 101 33 143s52.333 74.833 91 98.5s82.334 35.5 131.001 35.5c52 0 96 -12.333 132 -37zM306.999 681.997c-6 6 -10 9 -12 9
c-2.66699 0 -7 -3 -13 -9l-55 -51c-4 -3.33301 -7 -5.33301 -9 -6s-5.66699 -1 -11 -1h-62c-5.33301 0 -8 1.66699 -8 5c0 2 1.66699 4.66699 5 8l105 98c4 4 7.83301 7 11.5 9s8.83398 3 15.501 3h49c4.66699 0 8.66699 -1.16699 12 -3.5s6.33301 -4.83301 9 -7.5l104 -99
c4 -4 6 -7 6 -9c0 -2.66699 -2.66699 -4 -8 -4h-67c-8.66699 0 -15.334 2.33301 -20.001 7z" />
    <glyph glyph-name="Cdotaccent" unicode="&#x10a;" horiz-adv-x="712" 
d="M509 723.5c40.667 -19 74.334 -44.5 101.001 -76.5s43 -67 49 -105c0.666992 -2.66699 1 -6 1 -10c0 -3.33301 -0.666992 -5.5 -2 -6.5s-4 -1.83301 -8 -2.5l-93 -6h-3c-4 0 -7 3.66699 -9 11c-9.33301 41.333 -28.166 74.333 -56.499 99s-63.5 37 -105.5 37
c-64.667 0 -113.834 -24.167 -147.501 -72.5s-50.5 -121.5 -50.5 -219.5c0 -97.333 16.833 -170 50.5 -218s84.167 -72 151.5 -72c45.333 0 83.166 11 113.499 33s54.833 57.333 73.5 106c0.666992 4.66699 5.66699 6.33398 15 5.00098l71 -17c6 -1.33301 8.33301 -7 7 -17
c-9.33301 -32 -26.166 -63.333 -50.499 -94s-56.5 -56.334 -96.5 -77.001s-86 -31 -138 -31c-66.667 0 -124.334 15.667 -173.001 47s-86 75.833 -112 133.5s-39 125.167 -39 202.5c0 78 12.833 145.5 38.5 202.5s62.667 100.667 111 131s105.5 45.5 171.5 45.5
c46 0 89.333 -9.5 130 -28.5zM435 846c0 -7.33301 -1.5 -12.333 -4.5 -15s-8.5 -4 -16.5 -4h-74c-6.66699 0 -11.167 1.33301 -13.5 4s-3.5 7 -3.5 13v95c0 10 4.33301 15 13 15h86c8.66699 0 13 -5 13 -15v-93z" />
    <glyph glyph-name="cdotaccent" unicode="&#x10b;" horiz-adv-x="545" 
d="M429 503c36 -24.667 62.999 -56.6699 80.999 -96.0029c1.33301 -2.66699 2 -5.66699 2 -9c0 -4 -3 -6.66699 -9 -8l-71 -12h-3c-4 0 -7.33301 2.66699 -10 8c-18.667 27.333 -36.667 47.5 -54 60.5s-38.333 19.5 -63 19.5c-46.667 0 -83.667 -17.667 -111 -53
s-41 -84.666 -41 -147.999c0 -64 14 -113.667 42 -149s66 -53 114 -53c30 0 55.833 7.66699 77.5 23s41.834 38.333 60.501 69c2 2.66699 4 4.33398 6 5.00098s4.66699 0.333984 8 -0.999023l53 -16c6 -2 7.33301 -7 4 -15c-18.667 -39.333 -46.167 -72.166 -82.5 -98.499
s-81.5 -39.5 -135.5 -39.5c-49.333 0 -93.333 11.5 -132 34.5s-68.834 55.167 -90.501 96.5s-32.5 88.666 -32.5 141.999s11 101 33 143s52.333 74.833 91 98.5s82.334 35.5 131.001 35.5c52 0 96 -12.333 132 -37zM351.999 633.997c0 -7.33301 -1.5 -12.333 -4.5 -15
s-8.5 -4 -16.5 -4h-74c-6.66699 0 -11.167 1.33301 -13.5 4s-3.5 7 -3.5 13v95c0 10 4.33301 15 13 15h86c8.66699 0 13 -5 13 -15v-93z" />
    <glyph glyph-name="Ccaron" unicode="&#x10c;" horiz-adv-x="712" 
d="M509 723.5c40.667 -19 74.334 -44.5 101.001 -76.5s43 -67 49 -105c0.666992 -2.66699 1 -6 1 -10c0 -3.33301 -0.666992 -5.5 -2 -6.5s-4 -1.83301 -8 -2.5l-93 -6h-3c-4 0 -7 3.66699 -9 11c-9.33301 41.333 -28.166 74.333 -56.499 99s-63.5 37 -105.5 37
c-64.667 0 -113.834 -24.167 -147.501 -72.5s-50.5 -121.5 -50.5 -219.5c0 -97.333 16.833 -170 50.5 -218s84.167 -72 151.5 -72c45.333 0 83.166 11 113.499 33s54.833 57.333 73.5 106c0.666992 4.66699 5.66699 6.33398 15 5.00098l71 -17c6 -1.33301 8.33301 -7 7 -17
c-9.33301 -32 -26.166 -63.333 -50.499 -94s-56.5 -56.334 -96.5 -77.001s-86 -31 -138 -31c-66.667 0 -124.334 15.667 -173.001 47s-86 75.833 -112 133.5s-39 125.167 -39 202.5c0 78 12.833 145.5 38.5 202.5s62.667 100.667 111 131s105.5 45.5 171.5 45.5
c46 0 89.333 -9.5 130 -28.5zM462 954h67c5.33301 0 8 -1 8 -3c0 -2.66699 -2 -6 -6 -10l-104 -99c-6.66699 -6.66699 -13.667 -10 -21 -10h-49c-6.66699 0 -11.834 0.833008 -15.501 2.5s-7.5 4.5 -11.5 8.5l-105 98c-3.33301 4.66699 -5 7.66699 -5 9
c0 2.66699 2.66699 4 8 4h62c5.33301 0 9 -0.333008 11 -1s5 -2.66699 9 -6l55 -51c6 -6 10.333 -9 13 -9c2 0 6 3 12 9l52 51c4.66699 4.66699 11.334 7 20.001 7z" />
    <glyph glyph-name="ccaron" unicode="&#x10d;" horiz-adv-x="545" 
d="M429 503c36 -24.667 62.999 -56.6699 80.999 -96.0029c1.33301 -2.66699 2 -5.66699 2 -9c0 -4 -3 -6.66699 -9 -8l-71 -12h-3c-4 0 -7.33301 2.66699 -10 8c-18.667 27.333 -36.667 47.5 -54 60.5s-38.333 19.5 -63 19.5c-46.667 0 -83.667 -17.667 -111 -53
s-41 -84.666 -41 -147.999c0 -64 14 -113.667 42 -149s66 -53 114 -53c30 0 55.833 7.66699 77.5 23s41.834 38.333 60.501 69c2 2.66699 4 4.33398 6 5.00098s4.66699 0.333984 8 -0.999023l53 -16c6 -2 7.33301 -7 4 -15c-18.667 -39.333 -46.167 -72.166 -82.5 -98.499
s-81.5 -39.5 -135.5 -39.5c-49.333 0 -93.333 11.5 -132 34.5s-68.834 55.167 -90.501 96.5s-32.5 88.666 -32.5 141.999s11 101 33 143s52.333 74.833 91 98.5s82.334 35.5 131.001 35.5c52 0 96 -12.333 132 -37zM378.999 741.997h67c5.33301 0 8 -1 8 -3
c0 -2.66699 -2 -6 -6 -10l-104 -99c-6.66699 -6.66699 -13.667 -10 -21 -10h-49c-6.66699 0 -11.834 0.833008 -15.501 2.5s-7.5 4.5 -11.5 8.5l-105 98c-3.33301 4.66699 -5 7.66699 -5 9c0 2.66699 2.66699 4 8 4h62c5.33301 0 9 -0.333008 11 -1s5 -2.66699 9 -6l55 -51
c6 -6 10.333 -9 13 -9c2 0 6 3 12 9l52 51c4.66699 4.66699 11.334 7 20.001 7z" />
    <glyph glyph-name="Dcaron" unicode="&#x10e;" horiz-adv-x="731" 
d="M283 741c134 -2.66699 232.501 -34.665 295.501 -95.998s94.5 -151.333 94.5 -270c0 -122.667 -33.333 -215.834 -100 -279.501s-166.334 -95.5 -299.001 -95.5h-168c-12 0 -18 6 -18 18v709c0 5.33301 1.33301 9.16602 4 11.499s7 3.5 13 3.5
c80 0 139.333 -0.333008 178 -1zM209.001 639.002l-0.00292969 -539.001c0 -4.66699 0.833008 -7.83398 2.5 -9.50098s4.83398 -2.5 9.50098 -2.5h33c68.667 0 124.334 9.33301 167.001 28s74.334 49 95.001 91s31 97.667 31 167c0 68 -9.5 121.833 -28.5 161.5
s-47.833 68.334 -86.5 86.001s-89.667 27.834 -153 30.501l-62 1c-5.33301 0 -8 -4.66699 -8 -14zM440.998 954.001h67c5.33301 0 8 -1 8 -3c0 -2.66699 -2 -6 -6 -10l-104 -99c-6.66699 -6.66699 -13.667 -10 -21 -10h-49c-6.66699 0 -11.834 0.833008 -15.501 2.5
s-7.5 4.5 -11.5 8.5l-105 98c-3.33301 4.66699 -5 7.66699 -5 9c0 2.66699 2.66699 4 8 4h62c5.33301 0 9 -0.333008 11 -1s5 -2.66699 9 -6l55 -51c6 -6 10.333 -9 13 -9c2 0 6 3 12 9l52 51c4.66699 4.66699 11.334 7 20.001 7z" />
    <glyph glyph-name="dcaron" unicode="&#x10f;" horiz-adv-x="702" 
d="M428 16l0.000976562 38.002c0 6 -1.66699 9 -5 9c-2 0 -4.66699 -1.66699 -8 -5c-20 -19.333 -41.667 -35.5 -65 -48.5s-53 -19.5 -89 -19.5c-42 0 -79.5 10.167 -112.5 30.5s-58.833 50.666 -77.5 90.999s-28 89.166 -28 146.499c0 55.333 9.83301 104.333 29.5 147
s47 75.834 82 99.501s74.167 35.5 117.5 35.5c28.667 0 54 -4.66699 76 -14s42.667 -22.333 62 -39c3.33301 -3.33301 6.66602 -5 9.99902 -5c4 0 6 4 6 12v233c0 10 4.33301 15 13 15h80c4 0 7.16699 -1.33301 9.5 -4s3.5 -6.33398 3.5 -11.001v-710
c0 -6 -1.5 -10.333 -4.5 -13s-7.83301 -4 -14.5 -4h-69c-10.667 -0 -16 5.33301 -16 16zM367.001 452.002c-19.333 10 -40.665 15 -63.998 15c-45.333 0 -82 -17.667 -110 -53s-42 -86.333 -42 -153s13.667 -116.5 41 -149.5s62.666 -49.5 105.999 -49.5
c23.333 0 44.666 5.5 63.999 16.5s34.833 25 46.5 42s17.5 34.167 17.5 51.5v234c-20 20.667 -39.667 36 -59 46zM593.502 540.502c-1.66699 2.33301 -1.83105 4.83301 -0.498047 7.5l31 73l2 8c0 3.33301 -2.33301 5.33301 -7 6l-8 1
c-4.66699 0.666992 -7.83398 1.83398 -9.50098 3.50098s-2.5 4.5 -2.5 8.5v83c0 7.33301 3 11 9 11h66c5.33301 0 8 -3 8 -9v-97c0 -2 -0.333008 -3.33301 -1 -4s-1 -1.33398 -1 -2.00098l-35 -82c-1.33301 -4 -3.5 -6.83301 -6.5 -8.5s-7.5 -2.5 -13.5 -2.5h-25
c-2.66699 0 -4.83398 1.16699 -6.50098 3.5z" />
    <glyph glyph-name="Dcroat" unicode="&#x110;" horiz-adv-x="739" 
d="M586.5 645c63 -61.333 94.501 -151.331 94.501 -269.998c0 -122.667 -33.333 -215.834 -100 -279.501s-166.334 -95.5 -299.001 -95.5h-168c-12 0 -18 6 -18 18v310h-49c-6 0 -10.333 1.33301 -13 4s-4 6.66699 -4 12v52c0 10 4 15 12 15h54v316
c0 5.33301 1.33301 9.16602 4 11.499s7 3.5 13 3.5c80 0 139.333 -0.333008 178 -1c134 -2.66699 232.5 -34.667 295.5 -96zM429.001 116.002c42.667 18.667 74.3301 49 94.9971 91s31 97.667 31 167c0 68 -9.5 121.833 -28.5 161.5s-47.833 68.334 -86.5 86.001
s-89.667 27.834 -153 30.501l-62 1c-5.33301 0 -8 -4.66699 -8 -14v-228h151c7.33301 0 11 -4.33301 11 -13v-52c0 -6.66699 -1.66699 -11.334 -5 -14.001s-8.66602 -4 -15.999 -4h-141v-228c0 -4.66699 0.833008 -7.83398 2.5 -9.50098s4.83398 -2.5 9.50098 -2.5h33
c68.667 0 124.334 9.33301 167.001 28z" />
    <glyph glyph-name="dcroat" unicode="&#x111;" horiz-adv-x="612" 
d="M592 661l0.000976562 -38.998c0 -9.33301 -6 -14 -18 -14h-42v-591c0 -6 -1.5 -10.333 -4.5 -13s-7.83301 -4 -14.5 -4h-69c-10.667 0 -16 5.33301 -16 16v38c0 6 -1.66699 9 -5 9c-2 0 -4.66699 -1.66699 -8 -5c-20 -19.333 -41.667 -35.5 -65 -48.5
s-53 -19.5 -89 -19.5c-42 0 -79.5 10.167 -112.5 30.5s-58.833 50.666 -77.5 90.999s-28 89.166 -28 146.499c0 55.333 9.83301 104.333 29.5 147s47 75.834 82 99.501s74.167 35.5 117.5 35.5c28.667 0 54 -4.66699 76 -14s42.667 -22.333 62 -39
c3.33301 -3.33301 6.66602 -5 9.99902 -5c4 0 6 4 6 12v114h-144c-4.66699 0 -8 1 -10 3s-3 5.33301 -3 10v39c0 8 3.33301 12 10 12h147v55c0 10 4.33301 15 13 15h80c4 0 7.16699 -1.33301 9.5 -4s3.5 -6.33398 3.5 -11.001v-55h50c6.66699 0 10 -3.66699 10 -11z
M426.001 406.002c-20 20.667 -39.666 36 -58.999 46s-40.666 15 -63.999 15c-45.333 0 -82 -17.667 -110 -53s-42 -86.333 -42 -153s13.667 -116.5 41 -149.5s62.666 -49.5 105.999 -49.5c23.333 0 44.666 5.5 63.999 16.5s34.833 25 46.5 42s17.5 34.167 17.5 51.5v234z
" />
    <glyph glyph-name="Emacron" unicode="&#x112;" horiz-adv-x="636" 
d="M91 738.5c2 2.33301 5.66699 3.50195 11 3.50195h466c8 0 12 -4.33301 12 -13l-1 -63c0 -10 -5 -15 -15 -15h-340c-10 0 -15 -4.33301 -15 -13v-206c0 -8.66699 4.33301 -13 13 -13h244c8.66699 0 13 -4 13 -12v-67c0 -7.33301 -4.33301 -11 -13 -11h-245
c-8 0 -12 -3.66699 -12 -11v-216c0 -4 0.833008 -6.83301 2.5 -8.5s4.16699 -2.5 7.5 -2.5h359c5.33301 0 9 -0.833008 11 -2.5s3 -4.83398 3 -9.50098v-66c0 -8.66699 -4.66699 -13 -14 -13h-473c-6.66699 0 -11.167 1.16699 -13.5 3.5s-3.5 6.5 -3.5 12.5v711
c0 5.33301 1 9.16602 3 11.499zM500 884.002c0 -10 -6 -15 -18 -15h-287c-8.66699 0 -13 4.66699 -13 14v47c0 8 3.33301 12 10 12h298c6.66699 0 10 -3.66699 10 -11v-47z" />
    <glyph glyph-name="emacron" unicode="&#x113;" horiz-adv-x="582" 
d="M172.5 146.5c14.333 -24.333 33.8359 -43.6689 58.5029 -58.002s51.667 -21.5 81 -21.5c30.667 0 58 6.33301 82 19s46 32.334 66 59.001c2 2.66699 4.33301 4 7 4c3.33301 0 6 -0.666992 8 -2l51 -24c3.33301 -2 5 -4.66699 5 -8c0 -2 -1 -4.66699 -3 -8
c-28 -41.333 -60 -71.166 -96 -89.499s-79.667 -27.5 -131 -27.5c-50 0 -94.667 11.333 -134 34s-70 54.5 -92 95.5s-33 87.5 -33 139.5c0 56 11.333 105.333 34 148s53.5 75.5 92.5 98.5s82.5 34.5 130.5 34.5c49.333 0 92.666 -10.833 129.999 -32.5
s66.166 -53.167 86.499 -94.5s30.5 -90.333 30.5 -147v-4c0 -6 -0.833008 -10.5 -2.5 -13.5s-5.83398 -4.5 -12.501 -4.5h-370c-6.66699 0 -10 -5.33301 -10 -16c0 -30 7.16699 -57.167 21.5 -81.5zM424.003 306.997c6.66699 0 11.166 0.999023 13.499 2.99902
s3.5 5.66699 3.5 11c0 26 -5.5 50.333 -16.5 73s-27 40.834 -48 54.501s-45.833 20.5 -74.5 20.5c-30 0 -56.333 -7.5 -79 -22.5s-40.167 -34.667 -52.5 -59s-18.166 -50.833 -17.499 -79.5zM458.002 671.996c0 -10 -6 -15 -18 -15h-287c-8.66699 0 -13 4.66699 -13 14v47
c0 8 3.33301 12 10 12h298c6.66699 0 10 -3.66699 10 -11v-47z" />
    <glyph glyph-name="Ebreve" unicode="&#x114;" horiz-adv-x="636" 
d="M91 738.5c2 2.33301 5.66699 3.50195 11 3.50195h466c8 0 12 -4.33301 12 -13l-1 -63c0 -10 -5 -15 -15 -15h-340c-10 0 -15 -4.33301 -15 -13v-206c0 -8.66699 4.33301 -13 13 -13h244c8.66699 0 13 -4 13 -12v-67c0 -7.33301 -4.33301 -11 -13 -11h-245
c-8 0 -12 -3.66699 -12 -11v-216c0 -4 0.833008 -6.83301 2.5 -8.5s4.16699 -2.5 7.5 -2.5h359c5.33301 0 9 -0.833008 11 -2.5s3 -4.83398 3 -9.50098v-66c0 -8.66699 -4.66699 -13 -14 -13h-473c-6.66699 0 -11.167 1.16699 -13.5 3.5s-3.5 6.5 -3.5 12.5v711
c0 5.33301 1 9.16602 3 11.499zM498 951.002c1.33301 -2 1.33301 -5.33203 0 -9.99902c-8.66699 -29.333 -27.167 -53.833 -55.5 -73.5s-62.5 -29.5 -102.5 -29.5c-39.333 0 -72.833 9.66699 -100.5 29s-46.167 44.666 -55.5 75.999v4c0 4.66699 2.33301 7 7 7h52
c4.66699 0 8 -0.666992 10 -2s4.33301 -4 7 -8c22 -30 48.667 -45 80 -45c18 0 34.167 4.5 48.5 13.5s25.5 19.833 33.5 32.5c2.66699 4 4.83398 6.5 6.50098 7.5s4.16699 1.5 7.5 1.5h52c5.33301 0 8.66602 -1 9.99902 -3z" />
    <glyph glyph-name="ebreve" unicode="&#x115;" horiz-adv-x="582" 
d="M172.5 146.5c14.333 -24.333 33.8359 -43.6689 58.5029 -58.002s51.667 -21.5 81 -21.5c30.667 0 58 6.33301 82 19s46 32.334 66 59.001c2 2.66699 4.33301 4 7 4c3.33301 0 6 -0.666992 8 -2l51 -24c3.33301 -2 5 -4.66699 5 -8c0 -2 -1 -4.66699 -3 -8
c-28 -41.333 -60 -71.166 -96 -89.499s-79.667 -27.5 -131 -27.5c-50 0 -94.667 11.333 -134 34s-70 54.5 -92 95.5s-33 87.5 -33 139.5c0 56 11.333 105.333 34 148s53.5 75.5 92.5 98.5s82.5 34.5 130.5 34.5c49.333 0 92.666 -10.833 129.999 -32.5
s66.166 -53.167 86.499 -94.5s30.5 -90.333 30.5 -147v-4c0 -6 -0.833008 -10.5 -2.5 -13.5s-5.83398 -4.5 -12.501 -4.5h-370c-6.66699 0 -10 -5.33301 -10 -16c0 -30 7.16699 -57.167 21.5 -81.5zM424.003 306.997c6.66699 0 11.166 0.999023 13.499 2.99902
s3.5 5.66699 3.5 11c0 26 -5.5 50.333 -16.5 73s-27 40.834 -48 54.501s-45.833 20.5 -74.5 20.5c-30 0 -56.333 -7.5 -79 -22.5s-40.167 -34.667 -52.5 -59s-18.166 -50.833 -17.499 -79.5zM456.002 738.996c1.33301 -2 1.33301 -5.33203 0 -9.99902
c-8.66699 -29.333 -27.167 -53.833 -55.5 -73.5s-62.5 -29.5 -102.5 -29.5c-39.333 0 -72.833 9.66699 -100.5 29s-46.167 44.666 -55.5 75.999v4c0 4.66699 2.33301 7 7 7h52c4.66699 0 8 -0.666992 10 -2s4.33301 -4 7 -8c22 -30 48.667 -45 80 -45
c18 0 34.167 4.5 48.5 13.5s25.5 19.833 33.5 32.5c2.66699 4 4.83398 6.5 6.50098 7.5s4.16699 1.5 7.5 1.5h52c5.33301 0 8.66602 -1 9.99902 -3z" />
    <glyph glyph-name="Edotaccent" unicode="&#x116;" horiz-adv-x="636" 
d="M91 738.5c2 2.33301 5.66699 3.50195 11 3.50195h466c8 0 12 -4.33301 12 -13l-1 -63c0 -10 -5 -15 -15 -15h-340c-10 0 -15 -4.33301 -15 -13v-206c0 -8.66699 4.33301 -13 13 -13h244c8.66699 0 13 -4 13 -12v-67c0 -7.33301 -4.33301 -11 -13 -11h-245
c-8 0 -12 -3.66699 -12 -11v-216c0 -4 0.833008 -6.83301 2.5 -8.5s4.16699 -2.5 7.5 -2.5h359c5.33301 0 9 -0.833008 11 -2.5s3 -4.83398 3 -9.50098v-66c0 -8.66699 -4.66699 -13 -14 -13h-473c-6.66699 0 -11.167 1.16699 -13.5 3.5s-3.5 6.5 -3.5 12.5v711
c0 5.33301 1 9.16602 3 11.499zM397 846.002c0 -7.33301 -1.5 -12.333 -4.5 -15s-8.5 -4 -16.5 -4h-74c-6.66699 0 -11.167 1.33301 -13.5 4s-3.5 7 -3.5 13v95c0 10 4.33301 15 13 15h86c8.66699 0 13 -5 13 -15v-93z" />
    <glyph glyph-name="edotaccent" unicode="&#x117;" horiz-adv-x="582" 
d="M172.5 146.5c14.333 -24.333 33.8359 -43.6689 58.5029 -58.002s51.667 -21.5 81 -21.5c30.667 0 58 6.33301 82 19s46 32.334 66 59.001c2 2.66699 4.33301 4 7 4c3.33301 0 6 -0.666992 8 -2l51 -24c3.33301 -2 5 -4.66699 5 -8c0 -2 -1 -4.66699 -3 -8
c-28 -41.333 -60 -71.166 -96 -89.499s-79.667 -27.5 -131 -27.5c-50 0 -94.667 11.333 -134 34s-70 54.5 -92 95.5s-33 87.5 -33 139.5c0 56 11.333 105.333 34 148s53.5 75.5 92.5 98.5s82.5 34.5 130.5 34.5c49.333 0 92.666 -10.833 129.999 -32.5
s66.166 -53.167 86.499 -94.5s30.5 -90.333 30.5 -147v-4c0 -6 -0.833008 -10.5 -2.5 -13.5s-5.83398 -4.5 -12.501 -4.5h-370c-6.66699 0 -10 -5.33301 -10 -16c0 -30 7.16699 -57.167 21.5 -81.5zM424.003 306.997c6.66699 0 11.166 0.999023 13.499 2.99902
s3.5 5.66699 3.5 11c0 26 -5.5 50.333 -16.5 73s-27 40.834 -48 54.501s-45.833 20.5 -74.5 20.5c-30 0 -56.333 -7.5 -79 -22.5s-40.167 -34.667 -52.5 -59s-18.166 -50.833 -17.499 -79.5zM327.002 633.996c0 -7.33301 -1.5 -12.333 -4.5 -15s-8.5 -4 -16.5 -4h-74
c-6.66699 0 -11.167 1.33301 -13.5 4s-3.5 7 -3.5 13v95c0 10 4.33301 15 13 15h86c8.66699 0 13 -5 13 -15v-93z" />
    <glyph glyph-name="Eogonek" unicode="&#x118;" horiz-adv-x="636" 
d="M603 -100c3.33301 0 5 -2.99707 5 -8.99707v-33c0 -5.33301 -2.33301 -9.33301 -7 -12c-8.66699 -4.66699 -21.5 -8.66699 -38.5 -12s-34.5 -5 -52.5 -5c-33.333 0 -59 7.16699 -77 21.5s-27 34.166 -27 59.499c0 19.333 6 36.333 18 51s33 27.667 63 39h-382
c-6.66699 0 -11.167 1.16699 -13.5 3.5s-3.5 6.5 -3.5 12.5v711c0 5.33301 1 9.16602 3 11.499s5.66699 3.5 11 3.5h466c8 0 12 -4.33301 12 -13l-1 -63c0 -10 -5 -15 -15 -15h-340c-10 0 -15 -4.33301 -15 -13v-206c0 -8.66699 4.33301 -13 13 -13h244
c8.66699 0 13 -4 13 -12v-67c0 -7.33301 -4.33301 -11 -13 -11h-245c-8 0 -12 -3.66699 -12 -11v-216c0 -4 0.833008 -6.83301 2.5 -8.5s4.16699 -2.5 7.5 -2.5h359c5.33301 0 9 -0.833008 11 -2.5s3 -4.83398 3 -9.50098v-66c0 -8.66699 -4.33301 -13 -13 -13
c-32.667 -13.333 -55.834 -26 -69.501 -38s-20.5 -25.667 -20.5 -41c0 -12.667 3.5 -22 10.5 -28s18.5 -9 34.5 -9c22.667 0 43.334 4.66699 62.001 14c4 1.33301 6.33301 2 7 2z" />
    <glyph glyph-name="eogonek" unicode="&#x119;" horiz-adv-x="582" 
d="M151 228c0 -30 7.16797 -57.168 21.501 -81.501s33.833 -43.666 58.5 -57.999s51.667 -21.5 81 -21.5c30.667 0 58 6.33301 82 19s46 32.334 66 59.001c2 2.66699 4.33301 4 7 4c3.33301 0 6 -0.666992 8 -2l51 -24c3.33301 -2 5 -4.66699 5 -8c0 -2 -1 -4.66699 -3 -8
c-36 -53.333 -80.333 -88 -133 -104c-25.333 -11.333 -43.333 -22.5 -54 -33.5s-16 -23.5 -16 -37.5c0 -12.667 3.5 -22 10.5 -28s18.5 -9 34.5 -9c22.667 0 43.334 4.66699 62.001 14c4 1.33301 6.33301 2 7 2c3.33301 0 5 -3 5 -9v-33
c0 -5.33301 -2.33301 -9.33301 -7 -12c-8.66699 -4.66699 -21.5 -8.66699 -38.5 -12s-34.5 -5 -52.5 -5c-33.333 0 -59 7.16699 -77 21.5s-27 34.166 -27 59.499c0 28.667 13.333 52 40 70c-46.667 2.66699 -88.167 15.667 -124.5 39s-64.666 54.833 -84.999 94.5
s-30.5 84.5 -30.5 134.5c0 56 11.333 105.333 34 148s53.5 75.5 92.5 98.5s82.5 34.5 130.5 34.5c49.333 0 92.666 -10.833 129.999 -32.5s66.166 -53.167 86.499 -94.5s30.5 -90.333 30.5 -147v-4c0 -6 -0.833008 -10.5 -2.5 -13.5s-5.83398 -4.5 -12.501 -4.5h-370
c-6.66699 0 -10 -5.33301 -10 -16zM223.001 446.499c-22.667 -15 -40.168 -34.668 -52.501 -59.001s-18.166 -50.833 -17.499 -79.5l271 -1c6.66699 0 11.167 1 13.5 3s3.5 5.66699 3.5 11c0 26 -5.5 50.333 -16.5 73s-27 40.834 -48 54.501s-45.833 20.5 -74.5 20.5
c-30 0 -56.333 -7.5 -79 -22.5z" />
    <glyph glyph-name="Ecaron" unicode="&#x11a;" horiz-adv-x="636" 
d="M91 738.5c2 2.33301 5.66699 3.50195 11 3.50195h466c8 0 12 -4.33301 12 -13l-1 -63c0 -10 -5 -15 -15 -15h-340c-10 0 -15 -4.33301 -15 -13v-206c0 -8.66699 4.33301 -13 13 -13h244c8.66699 0 13 -4 13 -12v-67c0 -7.33301 -4.33301 -11 -13 -11h-245
c-8 0 -12 -3.66699 -12 -11v-216c0 -4 0.833008 -6.83301 2.5 -8.5s4.16699 -2.5 7.5 -2.5h359c5.33301 0 9 -0.833008 11 -2.5s3 -4.83398 3 -9.50098v-66c0 -8.66699 -4.66699 -13 -14 -13h-473c-6.66699 0 -11.167 1.16699 -13.5 3.5s-3.5 6.5 -3.5 12.5v711
c0 5.33301 1 9.16602 3 11.499zM424 954.002h67c5.33301 0 8 -1 8 -3c0 -2.66699 -2 -6 -6 -10l-104 -99c-6.66699 -6.66699 -13.667 -10 -21 -10h-49c-6.66699 0 -11.834 0.833008 -15.501 2.5s-7.5 4.5 -11.5 8.5l-105 98c-3.33301 4.66699 -5 7.66699 -5 9
c0 2.66699 2.66699 4 8 4h62c5.33301 0 9 -0.333008 11 -1s5 -2.66699 9 -6l55 -51c6 -6 10.333 -9 13 -9c2 0 6 3 12 9l52 51c4.66699 4.66699 11.334 7 20.001 7z" />
    <glyph glyph-name="ecaron" unicode="&#x11b;" horiz-adv-x="582" 
d="M172.5 146.5c14.333 -24.333 33.8359 -43.6689 58.5029 -58.002s51.667 -21.5 81 -21.5c30.667 0 58 6.33301 82 19s46 32.334 66 59.001c2 2.66699 4.33301 4 7 4c3.33301 0 6 -0.666992 8 -2l51 -24c3.33301 -2 5 -4.66699 5 -8c0 -2 -1 -4.66699 -3 -8
c-28 -41.333 -60 -71.166 -96 -89.499s-79.667 -27.5 -131 -27.5c-50 0 -94.667 11.333 -134 34s-70 54.5 -92 95.5s-33 87.5 -33 139.5c0 56 11.333 105.333 34 148s53.5 75.5 92.5 98.5s82.5 34.5 130.5 34.5c49.333 0 92.666 -10.833 129.999 -32.5
s66.166 -53.167 86.499 -94.5s30.5 -90.333 30.5 -147v-4c0 -6 -0.833008 -10.5 -2.5 -13.5s-5.83398 -4.5 -12.501 -4.5h-370c-6.66699 0 -10 -5.33301 -10 -16c0 -30 7.16699 -57.167 21.5 -81.5zM424.003 306.997c6.66699 0 11.166 0.999023 13.499 2.99902
s3.5 5.66699 3.5 11c0 26 -5.5 50.333 -16.5 73s-27 40.834 -48 54.501s-45.833 20.5 -74.5 20.5c-30 0 -56.333 -7.5 -79 -22.5s-40.167 -34.667 -52.5 -59s-18.166 -50.833 -17.499 -79.5zM382.002 741.996h67c5.33301 0 8 -1 8 -3c0 -2.66699 -2 -6 -6 -10l-104 -99
c-6.66699 -6.66699 -13.667 -10 -21 -10h-49c-6.66699 0 -11.834 0.833008 -15.501 2.5s-7.5 4.5 -11.5 8.5l-105 98c-3.33301 4.66699 -5 7.66699 -5 9c0 2.66699 2.66699 4 8 4h62c5.33301 0 9 -0.333008 11 -1s5 -2.66699 9 -6l55 -51c6 -6 10.333 -9 13 -9c2 0 6 3 12 9
l52 51c4.66699 4.66699 11.334 7 20.001 7z" />
    <glyph glyph-name="Gcircumflex" unicode="&#x11c;" horiz-adv-x="743" 
d="M207 36c-48 30.667 -84.834 74.4971 -110.501 131.497s-38.5 123.833 -38.5 200.5c0 78.667 13.333 147 40 205s64.5 102.333 113.5 133s105.833 46 170.5 46c47.333 0 91.333 -9.5 132 -28.5s74 -44.167 100 -75.5s42 -64.666 48 -99.999
c0.666992 -2.66699 1 -5.66699 1 -9s-0.833008 -5.66602 -2.5 -6.99902s-4.16699 -2.33301 -7.5 -3l-91 -14h-2c-3.33301 0 -5.66602 1 -6.99902 3s-2.33301 5 -3 9c-7.33301 38.667 -26.333 71 -57 97s-68.334 39 -113.001 39c-63.333 0 -111.666 -24.167 -144.999 -72.5
s-50 -120.5 -50 -216.5c0 -196.667 66 -295 198 -295c36.667 0 68 7.83301 94 23.5s46.167 35.667 60.5 60s22.833 49.833 25.5 76.5l1 50v4c0 5.33301 -3.33301 8 -10 8h-150c-4.66699 0 -7.83398 0.833008 -9.50098 2.5s-2.5 4.83398 -2.5 9.50098v53
c0 7.33301 3.66699 11 11 11l254 -1c13.333 0 20 -5.33301 20 -16v-347c0 -8.66699 -4.33301 -13 -13 -13h-26c-5.33301 -0 -9.66602 0.833008 -12.999 2.5s-6 5.16699 -8 10.5l-16 86c-2 6 -5.33301 6 -10 0c-48 -72.667 -119.667 -109 -215 -109
c-64.667 0 -121 15.333 -169 46zM387.999 893.997c-6 6 -10 9 -12 9c-2.66699 0 -7 -3 -13 -9l-55 -51c-4 -3.33301 -7 -5.33301 -9 -6s-5.66699 -1 -11 -1h-62c-5.33301 0 -8 1.66699 -8 5c0 2 1.66699 4.66699 5 8l105 98c4 4 7.83301 7 11.5 9s8.83398 3 15.501 3h49
c4.66699 0 8.66699 -1.16699 12 -3.5s6.33301 -4.83301 9 -7.5l104 -99c4 -4 6 -7 6 -9c0 -2.66699 -2.66699 -4 -8 -4h-67c-8.66699 0 -15.334 2.33301 -20.001 7z" />
    <glyph glyph-name="gcircumflex" unicode="&#x11d;" horiz-adv-x="611" 
d="M586 525v-45.001c0 -13.333 -5.66699 -20 -17 -20c-10.667 0 -20.667 -0.333008 -30 -1s-17.333 -2 -24 -4c-8.66699 -2.66699 -14.5 -5.83398 -17.5 -9.50098s-3.83301 -8.16699 -2.5 -13.5c0.666992 -2 3.16699 -8.66699 7.5 -20s6.5 -25 6.5 -41
c0 -47.333 -19.167 -86.166 -57.5 -116.499s-93.833 -45.5 -166.5 -45.5c-44 0 -76 -3.66699 -96 -11s-30 -17 -30 -29c0 -10 6.33301 -17.167 19 -21.5s34 -7.16602 64 -8.49902l133 -8c60 -3.33301 104.833 -17.333 134.5 -42s44.5 -57.667 44.5 -99
c0 -51.333 -23.167 -91.666 -69.5 -120.999s-111.833 -44 -196.5 -44c-88 0 -154.833 11.667 -200.5 35s-68.5 57.333 -68.5 102c0 22.667 8 42.667 24 60s39.333 33 70 47c8 4 8 7.66699 0 11c-33.333 15.333 -50 36.666 -50 63.999c0 16 7.5 31 22.5 45
s35.833 25.667 62.5 35c4 1.33301 6 3 6 5c0 2.66699 -2 5 -6 7c-30 15.333 -52.333 34 -67 56s-22 48.333 -22 79c0 52 20.5 92.833 61.5 122.5s98.833 44.5 173.5 44.5c65.333 0 116.333 -15 153 -45c4.66699 -3.33301 8.33398 -5 11.001 -5c4 0 8 2 12 6
c12.667 13.333 28.167 24.833 46.5 34.5s35.166 14.5 50.499 14.5c12.667 0 19 -6 19 -18zM379.5 295.499c21 17.667 31.501 42.833 31.501 75.5c0 33.333 -10.667 59.333 -32 78s-52.666 28 -93.999 28c-40.667 0 -72.334 -9.5 -95.001 -28.5s-34 -44.833 -34 -77.5
c0 -32 11.167 -57 33.5 -75s54.166 -27 95.499 -27c42 0 73.5 8.83301 94.5 26.5zM201.001 53.998c-12.667 0.666992 -26.167 -2.33398 -40.5 -9.00098s-26.333 -16.167 -36 -28.5s-14.5 -26.166 -14.5 -41.499c0 -60.667 62.667 -91 188 -91c52 0 91.667 7.5 119 22.5
s41 37.5 41 67.5c0 43.333 -31.333 67 -94 71zM303.001 681.997c-6 6 -10 9 -12 9c-2.66699 0 -7 -3 -13 -9l-55 -51c-4 -3.33301 -7 -5.33301 -9 -6s-5.66699 -1 -11 -1h-62c-5.33301 0 -8 1.66699 -8 5c0 2 1.66699 4.66699 5 8l105 98c4 4 7.83301 7 11.5 9
s8.83398 3 15.501 3h49c4.66699 0 8.66699 -1.16699 12 -3.5s6.33301 -4.83301 9 -7.5l104 -99c4 -4 6 -7 6 -9c0 -2.66699 -2.66699 -4 -8 -4h-67c-8.66699 0 -15.334 2.33301 -20.001 7z" />
    <glyph glyph-name="Gbreve" unicode="&#x11e;" horiz-adv-x="743" 
d="M207 36c-48 30.667 -84.834 74.4971 -110.501 131.497s-38.5 123.833 -38.5 200.5c0 78.667 13.333 147 40 205s64.5 102.333 113.5 133s105.833 46 170.5 46c47.333 0 91.333 -9.5 132 -28.5s74 -44.167 100 -75.5s42 -64.666 48 -99.999
c0.666992 -2.66699 1 -5.66699 1 -9s-0.833008 -5.66602 -2.5 -6.99902s-4.16699 -2.33301 -7.5 -3l-91 -14h-2c-3.33301 0 -5.66602 1 -6.99902 3s-2.33301 5 -3 9c-7.33301 38.667 -26.333 71 -57 97s-68.334 39 -113.001 39c-63.333 0 -111.666 -24.167 -144.999 -72.5
s-50 -120.5 -50 -216.5c0 -196.667 66 -295 198 -295c36.667 0 68 7.83301 94 23.5s46.167 35.667 60.5 60s22.833 49.833 25.5 76.5l1 50v4c0 5.33301 -3.33301 8 -10 8h-150c-4.66699 0 -7.83398 0.833008 -9.50098 2.5s-2.5 4.83398 -2.5 9.50098v53
c0 7.33301 3.66699 11 11 11l254 -1c13.333 0 20 -5.33301 20 -16v-347c0 -8.66699 -4.33301 -13 -13 -13h-26c-5.33301 -0 -9.66602 0.833008 -12.999 2.5s-6 5.16699 -8 10.5l-16 86c-2 6 -5.33301 6 -10 0c-48 -72.667 -119.667 -109 -215 -109
c-64.667 0 -121 15.333 -169 46zM533.999 950.997c1.33301 -2 1.33301 -5.33203 0 -9.99902c-8.66699 -29.333 -27.167 -53.833 -55.5 -73.5s-62.5 -29.5 -102.5 -29.5c-39.333 0 -72.833 9.66699 -100.5 29s-46.167 44.666 -55.5 75.999v4c0 4.66699 2.33301 7 7 7h52
c4.66699 0 8 -0.666992 10 -2s4.33301 -4 7 -8c22 -30 48.667 -45 80 -45c18 0 34.167 4.5 48.5 13.5s25.5 19.833 33.5 32.5c2.66699 4 4.83398 6.5 6.50098 7.5s4.16699 1.5 7.5 1.5h52c5.33301 0 8.66602 -1 9.99902 -3z" />
    <glyph glyph-name="gbreve" unicode="&#x11f;" horiz-adv-x="611" 
d="M586 525v-45.001c0 -13.333 -5.66699 -20 -17 -20c-10.667 0 -20.667 -0.333008 -30 -1s-17.333 -2 -24 -4c-8.66699 -2.66699 -14.5 -5.83398 -17.5 -9.50098s-3.83301 -8.16699 -2.5 -13.5c0.666992 -2 3.16699 -8.66699 7.5 -20s6.5 -25 6.5 -41
c0 -47.333 -19.167 -86.166 -57.5 -116.499s-93.833 -45.5 -166.5 -45.5c-44 0 -76 -3.66699 -96 -11s-30 -17 -30 -29c0 -10 6.33301 -17.167 19 -21.5s34 -7.16602 64 -8.49902l133 -8c60 -3.33301 104.833 -17.333 134.5 -42s44.5 -57.667 44.5 -99
c0 -51.333 -23.167 -91.666 -69.5 -120.999s-111.833 -44 -196.5 -44c-88 0 -154.833 11.667 -200.5 35s-68.5 57.333 -68.5 102c0 22.667 8 42.667 24 60s39.333 33 70 47c8 4 8 7.66699 0 11c-33.333 15.333 -50 36.666 -50 63.999c0 16 7.5 31 22.5 45
s35.833 25.667 62.5 35c4 1.33301 6 3 6 5c0 2.66699 -2 5 -6 7c-30 15.333 -52.333 34 -67 56s-22 48.333 -22 79c0 52 20.5 92.833 61.5 122.5s98.833 44.5 173.5 44.5c65.333 0 116.333 -15 153 -45c4.66699 -3.33301 8.33398 -5 11.001 -5c4 0 8 2 12 6
c12.667 13.333 28.167 24.833 46.5 34.5s35.166 14.5 50.499 14.5c12.667 0 19 -6 19 -18zM379.5 295.499c21 17.667 31.501 42.833 31.501 75.5c0 33.333 -10.667 59.333 -32 78s-52.666 28 -93.999 28c-40.667 0 -72.334 -9.5 -95.001 -28.5s-34 -44.833 -34 -77.5
c0 -32 11.167 -57 33.5 -75s54.166 -27 95.499 -27c42 0 73.5 8.83301 94.5 26.5zM201.001 53.998c-12.667 0.666992 -26.167 -2.33398 -40.5 -9.00098s-26.333 -16.167 -36 -28.5s-14.5 -26.166 -14.5 -41.499c0 -60.667 62.667 -91 188 -91c52 0 91.667 7.5 119 22.5
s41 37.5 41 67.5c0 43.333 -31.333 67 -94 71zM449.001 738.997c1.33301 -2 1.33301 -5.33203 0 -9.99902c-8.66699 -29.333 -27.167 -53.833 -55.5 -73.5s-62.5 -29.5 -102.5 -29.5c-39.333 0 -72.833 9.66699 -100.5 29s-46.167 44.666 -55.5 75.999v4
c0 4.66699 2.33301 7 7 7h52c4.66699 0 8 -0.666992 10 -2s4.33301 -4 7 -8c22 -30 48.667 -45 80 -45c18 0 34.167 4.5 48.5 13.5s25.5 19.833 33.5 32.5c2.66699 4 4.83398 6.5 6.50098 7.5s4.16699 1.5 7.5 1.5h52c5.33301 0 8.66602 -1 9.99902 -3z" />
    <glyph glyph-name="Gdotaccent" unicode="&#x120;" horiz-adv-x="743" 
d="M207 36c-48 30.667 -84.834 74.4971 -110.501 131.497s-38.5 123.833 -38.5 200.5c0 78.667 13.333 147 40 205s64.5 102.333 113.5 133s105.833 46 170.5 46c47.333 0 91.333 -9.5 132 -28.5s74 -44.167 100 -75.5s42 -64.666 48 -99.999
c0.666992 -2.66699 1 -5.66699 1 -9s-0.833008 -5.66602 -2.5 -6.99902s-4.16699 -2.33301 -7.5 -3l-91 -14h-2c-3.33301 0 -5.66602 1 -6.99902 3s-2.33301 5 -3 9c-7.33301 38.667 -26.333 71 -57 97s-68.334 39 -113.001 39c-63.333 0 -111.666 -24.167 -144.999 -72.5
s-50 -120.5 -50 -216.5c0 -196.667 66 -295 198 -295c36.667 0 68 7.83301 94 23.5s46.167 35.667 60.5 60s22.833 49.833 25.5 76.5l1 50v4c0 5.33301 -3.33301 8 -10 8h-150c-4.66699 0 -7.83398 0.833008 -9.50098 2.5s-2.5 4.83398 -2.5 9.50098v53
c0 7.33301 3.66699 11 11 11l254 -1c13.333 0 20 -5.33301 20 -16v-347c0 -8.66699 -4.33301 -13 -13 -13h-26c-5.33301 -0 -9.66602 0.833008 -12.999 2.5s-6 5.16699 -8 10.5l-16 86c-2 6 -5.33301 6 -10 0c-48 -72.667 -119.667 -109 -215 -109
c-64.667 0 -121 15.333 -169 46zM432.999 845.997c0 -7.33301 -1.5 -12.333 -4.5 -15s-8.5 -4 -16.5 -4h-74c-6.66699 0 -11.167 1.33301 -13.5 4s-3.5 7 -3.5 13v95c0 10 4.33301 15 13 15h86c8.66699 0 13 -5 13 -15v-93z" />
    <glyph glyph-name="gdotaccent" unicode="&#x121;" horiz-adv-x="611" 
d="M586 525v-45.001c0 -13.333 -5.66699 -20 -17 -20c-10.667 0 -20.667 -0.333008 -30 -1s-17.333 -2 -24 -4c-8.66699 -2.66699 -14.5 -5.83398 -17.5 -9.50098s-3.83301 -8.16699 -2.5 -13.5c0.666992 -2 3.16699 -8.66699 7.5 -20s6.5 -25 6.5 -41
c0 -47.333 -19.167 -86.166 -57.5 -116.499s-93.833 -45.5 -166.5 -45.5c-44 0 -76 -3.66699 -96 -11s-30 -17 -30 -29c0 -10 6.33301 -17.167 19 -21.5s34 -7.16602 64 -8.49902l133 -8c60 -3.33301 104.833 -17.333 134.5 -42s44.5 -57.667 44.5 -99
c0 -51.333 -23.167 -91.666 -69.5 -120.999s-111.833 -44 -196.5 -44c-88 0 -154.833 11.667 -200.5 35s-68.5 57.333 -68.5 102c0 22.667 8 42.667 24 60s39.333 33 70 47c8 4 8 7.66699 0 11c-33.333 15.333 -50 36.666 -50 63.999c0 16 7.5 31 22.5 45
s35.833 25.667 62.5 35c4 1.33301 6 3 6 5c0 2.66699 -2 5 -6 7c-30 15.333 -52.333 34 -67 56s-22 48.333 -22 79c0 52 20.5 92.833 61.5 122.5s98.833 44.5 173.5 44.5c65.333 0 116.333 -15 153 -45c4.66699 -3.33301 8.33398 -5 11.001 -5c4 0 8 2 12 6
c12.667 13.333 28.167 24.833 46.5 34.5s35.166 14.5 50.499 14.5c12.667 0 19 -6 19 -18zM379.5 295.499c21 17.667 31.501 42.833 31.501 75.5c0 33.333 -10.667 59.333 -32 78s-52.666 28 -93.999 28c-40.667 0 -72.334 -9.5 -95.001 -28.5s-34 -44.833 -34 -77.5
c0 -32 11.167 -57 33.5 -75s54.166 -27 95.499 -27c42 0 73.5 8.83301 94.5 26.5zM201.001 53.998c-12.667 0.666992 -26.167 -2.33398 -40.5 -9.00098s-26.333 -16.167 -36 -28.5s-14.5 -26.166 -14.5 -41.499c0 -60.667 62.667 -91 188 -91c52 0 91.667 7.5 119 22.5
s41 37.5 41 67.5c0 43.333 -31.333 67 -94 71zM348.001 633.997c0 -7.33301 -1.5 -12.333 -4.5 -15s-8.5 -4 -16.5 -4h-74c-6.66699 0 -11.167 1.33301 -13.5 4s-3.5 7 -3.5 13v95c0 10 4.33301 15 13 15h86c8.66699 0 13 -5 13 -15v-93z" />
    <glyph glyph-name="Gcommaaccent" unicode="&#x122;" horiz-adv-x="743" 
d="M207 36c-48 30.667 -84.834 74.4971 -110.501 131.497s-38.5 123.833 -38.5 200.5c0 78.667 13.333 147 40 205s64.5 102.333 113.5 133s105.833 46 170.5 46c47.333 0 91.333 -9.5 132 -28.5s74 -44.167 100 -75.5s42 -64.666 48 -99.999
c0.666992 -2.66699 1 -5.66699 1 -9s-0.833008 -5.66602 -2.5 -6.99902s-4.16699 -2.33301 -7.5 -3l-91 -14h-2c-3.33301 0 -5.66602 1 -6.99902 3s-2.33301 5 -3 9c-7.33301 38.667 -26.333 71 -57 97s-68.334 39 -113.001 39c-63.333 0 -111.666 -24.167 -144.999 -72.5
s-50 -120.5 -50 -216.5c0 -196.667 66 -295 198 -295c36.667 0 68 7.83301 94 23.5s46.167 35.667 60.5 60s22.833 49.833 25.5 76.5l1 50v4c0 5.33301 -3.33301 8 -10 8h-150c-4.66699 0 -7.83398 0.833008 -9.50098 2.5s-2.5 4.83398 -2.5 9.50098v53
c0 7.33301 3.66699 11 11 11l254 -1c13.333 0 20 -5.33301 20 -16v-347c0 -8.66699 -4.33301 -13 -13 -13h-26c-5.33301 -0 -9.66602 0.833008 -12.999 2.5s-6 5.16699 -8 10.5l-16 86c-2 6 -5.33301 6 -10 0c-48 -72.667 -119.667 -109 -215 -109
c-64.667 0 -121 15.333 -169 46zM337.499 -235.503c-1.66699 3 -1.5 5.83203 0.5 8.49902l28 50c2 2.66699 3 5.66699 3 9c0 5.33301 -3 8 -9 8h-8c-5.33301 0 -9 1.16699 -11 3.5s-3 6.16602 -3 11.499v64c0 8.66699 3.66699 13 11 13h65c7.33301 0 11 -3.66699 11 -11v-81
c0 -2 -0.333008 -3.66699 -1 -5s-1 -2.66602 -1 -3.99902l-41 -62c-2.66699 -3.33301 -5.5 -5.66602 -8.5 -6.99902s-7.5 -2 -13.5 -2h-15c-3.33301 0 -5.83301 1.5 -7.5 4.5z" />
    <glyph glyph-name="gcommaaccent" unicode="&#x123;" horiz-adv-x="611" 
d="M246 629l-0.00195312 81.001c0 2 0.333008 3.66699 1 5s1 2.66602 1 3.99902l41 62c2.66699 3.33301 5.33398 5.66602 8.00098 6.99902s7.33398 2 14.001 2h15c3.33301 0 5.83301 -1.5 7.5 -4.5s1.5 -5.83301 -0.5 -8.5l-28 -50c-2.66699 -4 -4 -7 -4 -9
c0 -5.33301 3.33301 -8 10 -8h8c5.33301 0 9 -1.16699 11 -3.5s3 -6.16602 3 -11.499v-64c0 -8.66699 -3.66699 -13 -11 -13h-65c-7.33301 0 -11 3.66699 -11 11zM585.998 525.001v-45.001c0 -13.333 -5.66699 -20 -17 -20c-10.667 0 -20.667 -0.333008 -30 -1
s-17.333 -2 -24 -4c-8.66699 -2.66699 -14.5 -5.83398 -17.5 -9.50098s-3.83301 -8.16699 -2.5 -13.5c0.666992 -2 3.16699 -8.66699 7.5 -20s6.5 -25 6.5 -41c0 -47.333 -19.167 -86.166 -57.5 -116.499s-93.833 -45.5 -166.5 -45.5c-44 0 -76 -3.66699 -96 -11
s-30 -17 -30 -29c0 -10 6.33301 -17.167 19 -21.5s34 -7.16602 64 -8.49902l133 -8c60 -3.33301 104.833 -17.333 134.5 -42s44.5 -57.667 44.5 -99c0 -51.333 -23.167 -91.666 -69.5 -120.999s-111.833 -44 -196.5 -44c-88 0 -154.833 11.667 -200.5 35
s-68.5 57.333 -68.5 102c0 22.667 8 42.667 24 60s39.333 33 70 47c8 4 8 7.66699 0 11c-33.333 15.333 -50 36.666 -50 63.999c0 16 7.5 31 22.5 45s35.833 25.667 62.5 35c4 1.33301 6 3 6 5c0 2.66699 -2 5 -6 7c-30 15.333 -52.333 34 -67 56s-22 48.333 -22 79
c0 52 20.5 92.833 61.5 122.5s98.833 44.5 173.5 44.5c65.333 0 116.333 -15 153 -45c4.66699 -3.33301 8.33398 -5 11.001 -5c4 0 8 2 12 6c12.667 13.333 28.167 24.833 46.5 34.5s35.166 14.5 50.499 14.5c12.667 0 19 -6 19 -18zM379.498 295.5
c21 17.667 31.501 42.833 31.501 75.5c0 33.333 -10.667 59.333 -32 78s-52.666 28 -93.999 28c-40.667 0 -72.334 -9.5 -95.001 -28.5s-34 -44.833 -34 -77.5c0 -32 11.167 -57 33.5 -75s54.166 -27 95.499 -27c42 0 73.5 8.83301 94.5 26.5zM200.999 53.999
c-12.667 0.666992 -26.167 -2.33398 -40.5 -9.00098s-26.333 -16.167 -36 -28.5s-14.5 -26.166 -14.5 -41.499c0 -60.667 62.667 -91 188 -91c52 0 91.667 7.5 119 22.5s41 37.5 41 67.5c0 43.333 -31.333 67 -94 71z" />
    </font>
</defs>
</svg>
