<?xml version="1.0" standalone="no"?>
<!DOCTYPE svg PUBLIC "-//W3C//DTD SVG 1.1//EN" "http://www.w3.org/Graphics/SVG/1.1/DTD/svg11.dtd" >
<svg>
<metadata>
Created by FontForge 20090914 at Wed Jun 28 20:16:20 2017
 By www-data
Copyright (c) 2015, Impallari Type (www.impallari.com)
</metadata>
<defs>
<font id="LibreFranklin-Regular" horiz-adv-x="599" >
  <font-face 
    font-family="Libre Franklin"
    font-weight="400"
    font-stretch="normal"
    units-per-em="1000"
    panose-1="0 0 5 0 0 0 0 0 0 0"
    ascent="800"
    descent="-200"
    x-height="530"
    cap-height="742"
    bbox="-360 -239.003 1283 964.501"
    underline-thickness="50"
    underline-position="-50"
    unicode-range="U+000D-U+FB02"
  />
<missing-glyph horiz-adv-x="702" 
d="M600 841.5c3.33301 -3.66699 5 -8.83301 5 -15.5v-962c0 -10.667 -2.66699 -18.167 -8 -22.5s-13.666 -6.5 -24.999 -6.5h-448c-10 0 -17 2 -21 6s-6 10.333 -6 19v964c0 7.33301 1.66699 13 5 17s8 6 14 6h471c5.33301 0 9.66602 -1.83301 12.999 -5.5zM549 792.001
c-2.66699 3.33301 -6.33301 5.00098 -11 5.00098h-353l368 -855v837c0 5.33301 -1.33301 9.66602 -4 12.999zM154.001 -109.998c3.33301 -3.33301 9.33301 -5.00098 18 -5.00098h344l-367 849v-828c0 -7.33301 1.66699 -12.666 5 -15.999z" />
    <glyph glyph-name="fi" unicode="fi" horiz-adv-x="618" 
d="M355 520v-43c0 -6 -3.33301 -9 -10 -9h-114c-5.33301 0 -8 -3 -8 -9v-445c0 -9.33301 -4 -14 -12 -14h-61c-7.33301 -0 -11 4.33301 -11 13v447c0 5.33301 -2.33301 8 -7 8h-98c-6.66699 0 -10 3 -10 9v43c0 6.66699 3.66699 10 11 10h95c6 0 9 3.33301 9 10v73
c0 86 41.667 129 125 129h83c8.66699 0 13 -4 13 -12v-39c0 -6.66699 -3.66699 -10 -11 -10h-70c-38.667 0 -58 -24 -58 -72v-70c0 -6 3 -9 9 -9h115c6.66699 0 10 -3.33301 10 -10zM544 644c0 -6.66699 -1.33203 -11.499 -3.99902 -14.499s-7.33398 -4.5 -14.001 -4.5h-58
c-10 0 -15 5.66699 -15 17v84c0 10.667 4.66699 16 14 16h63c4 0 7.33301 -1.33301 10 -4s4 -6.33398 4 -11.001v-83zM540.001 17.001c0 -6.66699 -1.33203 -11.167 -3.99902 -13.5s-7.33398 -3.5 -14.001 -3.5h-51c-6 0 -10 1 -12 3s-3 5.66699 -3 11v502
c0 9.33301 4 14 12 14h61c7.33301 0 11 -4.33301 11 -13v-500z" />
    <glyph glyph-name="fl" unicode="fl" horiz-adv-x="618" 
d="M355 520v-43c0 -6 -3.33301 -9 -10 -9h-114c-5.33301 0 -8 -3 -8 -9v-445c0 -9.33301 -4 -14 -12 -14h-61c-7.33301 -0 -11 4.33301 -11 13v447c0 5.33301 -2.33301 8 -7 8h-98c-6.66699 0 -10 3 -10 9v43c0 6.66699 3.66699 10 11 10h95c6 0 9 3.33301 9 10v73
c0 86 41.667 129 125 129h83c8.66699 0 13 -4 13 -12v-39c0 -6.66699 -3.66699 -10 -11 -10h-70c-38.667 0 -58 -24 -58 -72v-70c0 -6 3 -9 9 -9h115c6.66699 0 10 -3.33301 10 -10zM541 17c0 -6.66699 -1.33203 -11.167 -3.99902 -13.5s-7.33398 -3.5 -14.001 -3.5h-52
c-6 0 -10 1 -12 3s-3 5.66699 -3 11l1 714c0 9.33301 4 14 12 14h60c8 0 12 -4.33301 12 -13v-712z" />
    <glyph glyph-name=".notdef" horiz-adv-x="702" 
d="M600 841.5c3.33301 -3.66699 5 -8.83301 5 -15.5v-962c0 -10.667 -2.66699 -18.167 -8 -22.5s-13.666 -6.5 -24.999 -6.5h-448c-10 0 -17 2 -21 6s-6 10.333 -6 19v964c0 7.33301 1.66699 13 5 17s8 6 14 6h471c5.33301 0 9.66602 -1.83301 12.999 -5.5zM549 792.001
c-2.66699 3.33301 -6.33301 5.00098 -11 5.00098h-353l368 -855v837c0 5.33301 -1.33301 9.66602 -4 12.999zM154.001 -109.998c3.33301 -3.33301 9.33301 -5.00098 18 -5.00098h344l-367 849v-828c0 -7.33301 1.66699 -12.666 5 -15.999z" />
    <glyph glyph-name="uni0000" horiz-adv-x="0" 
 />
    <glyph glyph-name="uni0000" horiz-adv-x="0" 
 />
    <glyph glyph-name="nonmarkingreturn" unicode="&#xd;" horiz-adv-x="214" 
 />
    <glyph glyph-name="space" unicode=" " horiz-adv-x="215" 
 />
    <glyph glyph-name="exclam" unicode="!" horiz-adv-x="244" 
d="M151 194c0 -9.33301 -5.33301 -14 -16 -14h-29c-8.66699 0 -13 4 -13 12l-21 539v2c0 6 3 9 9 9h82c3.33301 0 5.83301 -1 7.5 -3s2.16699 -4.33301 1.5 -7zM173 16c0 -6 -1.33398 -10.167 -4.00098 -12.5s-7.66699 -3.5 -15 -3.5h-69c-5.33301 0 -9.16602 1 -11.499 3
s-3.5 5.66699 -3.5 11v85c0 8 3.33301 12 10 12h83c6.66699 0 10 -3.66699 10 -11v-84z" />
    <glyph glyph-name="quotedbl" unicode="&#x22;" horiz-adv-x="409" 
d="M317 526c-1.33301 -5.33301 -2.99805 -9.00098 -4.99805 -11.001s-6 -3 -12 -3h-24c-4.66699 0 -7.83398 0.833008 -9.50098 2.5s-2.83398 4.83398 -3.50098 9.50098l-25 208v2c0 5.33301 3 8 9 8h86c6.66699 0 9.66699 -3.33301 9 -10zM148.002 525.999
c-1.33301 -5.33301 -2.99805 -9.00098 -4.99805 -11.001s-6 -3 -12 -3h-24c-4.66699 0 -7.83398 0.833008 -9.50098 2.5s-2.83398 4.83398 -3.50098 9.50098l-25 208v2c0 5.33301 3 8 9 8h86c6.66699 0 9.66699 -3.33301 9 -10z" />
    <glyph glyph-name="numbersign" unicode="#" horiz-adv-x="603" 
d="M569 496l-0.00195312 -29.9902c0 -9.33301 -5.33301 -14 -16 -14h-102l-24 -156h99c6.66699 0 10 -3.33301 10 -10v-30c0 -9.33301 -5.33301 -14 -16 -14h-101l-35 -228c-1.33301 -6 -3 -10 -5 -12s-5.33301 -2.66699 -10 -2l-28 4
c-4.66699 1.33301 -8 2.66602 -10 3.99902s-2.66699 3.66602 -2 6.99902l35 227h-154l-35 -228c-1.33301 -6 -3 -10 -5 -12s-5.33301 -2.66699 -10 -2l-28 4c-4.66699 1.33301 -8 2.66602 -10 3.99902s-2.66699 3.66602 -2 6.99902l35 227h-108c-8.66699 0 -13 4 -13 12v31
c0 7.33301 3 11 9 11h120l24 156h-107c-8.66699 0 -13 4 -13 12v31c0 7.33301 3 11 9 11h119l34 225c2.66699 8 6 11.667 10 11l34 -5c4 -0.666992 6.83301 -1.83398 8.5 -3.50098s2.16699 -4.83398 1.5 -9.50098l-33 -218h154l34 225
c0.666992 3.33301 1.83398 6.16602 3.50098 8.49902s3.83398 3.16602 6.50098 2.49902l34 -5c4 -0.666992 6.83301 -1.83398 8.5 -3.50098s2.16699 -4.83398 1.5 -9.50098l-33 -218h100c6.66699 0 10 -3.33301 10 -10zM395.998 452.01h-154l-24 -156h154z" />
    <glyph glyph-name="dollar" unicode="$" horiz-adv-x="605" 
d="M540.5 88c-17.667 -28.667 -42.3369 -51.4971 -74.0039 -68.4971s-68.167 -26.167 -109.5 -27.5c-4.66699 0 -7.83398 -0.666992 -9.50098 -2s-2.5 -4 -2.5 -8v-56c0 -9.33301 -4.66699 -14 -14 -14h-35c-8.66699 0 -13 3.66699 -13 11v60c0 4 -0.5 6.5 -1.5 7.5
s-3.16699 1.5 -6.5 1.5c-54 0.666992 -99.333 10.167 -136 28.5s-69.334 45.833 -98.001 82.5c-4.66699 6 -7 10.667 -7 14s1.66699 6 5 8l33 31c4.66699 3.33301 8.33398 5 11.001 5c3.33301 0 6.66602 -1.66699 9.99902 -5c24 -30.667 50 -53.667 78 -69
s62.333 -23.666 103 -24.999h3c4.66699 0 7 2.66699 7 8v245c0 6 -1.66699 10.667 -5 14s-8.33301 6.66602 -15 9.99902c-51.333 18.667 -91.833 37.667 -121.5 57s-51 41 -64 65s-19.5 52.667 -19.5 86c0 54 19.333 99 58 135s90.334 57.667 155.001 65
c2.66699 0.666992 5.16699 2 7.5 4s3.5 4.33301 3.5 7v49c0 2.66699 0.833008 5 2.5 7s3.83398 3 6.50098 3h40c4.66699 0 7.83398 -1 9.50098 -3s2.5 -5.66699 2.5 -11v-48c0 -5.33301 3.33301 -8 10 -8c37.333 -4.66699 70.833 -14.334 100.5 -29.001
s57.5 -34.334 83.5 -59.001c3.33301 -2 5 -5 5 -9c0 -3.33301 -1.33301 -6.33301 -4 -9l-35 -36c-3.33301 -3.33301 -6 -5 -8 -5s-5.66699 2.66699 -11 8c-13.333 16.667 -31.666 31 -54.999 43s-48.666 20.333 -75.999 25h-2c-5.33301 0 -8 -2.66699 -8 -8v-251
c0 -4 0.833008 -7 2.5 -9s4.83398 -3.66699 9.50098 -5l38 -13c115.333 -44.667 173 -113.334 173 -206.001c0 -35.333 -8.83301 -67.333 -26.5 -96zM282.997 669.003c0 3.33301 -1 5.83301 -3 7.5s-4.66699 2.16699 -8 1.5c-40.667 -4.66699 -73 -18.334 -97 -41.001
s-36 -50.667 -36 -84c0 -26 9.16699 -48.667 27.5 -68s50.5 -38.666 96.5 -57.999c2 -0.666992 4.66699 -1 8 -1c8 0 12 5 12 15v228zM353.997 62.0029c40 0.666992 72.167 12.001 96.5 34.001s36.5 49.333 36.5 82c0 30.667 -9.83301 56.167 -29.5 76.5
s-52.167 39.166 -97.5 56.499c-2 0.666992 -4.33301 1 -7 1c-5.33301 0 -8 -3.33301 -8 -10v-234c0 -4.66699 3 -6.66699 9 -6z" />
    <glyph glyph-name="percent" unicode="%" horiz-adv-x="916" 
d="M318 727c26 -17.333 46.334 -42 61.001 -74s22 -69.333 22 -112c0 -43.333 -7.33301 -81 -22 -113s-35 -56.5 -61 -73.5s-55.667 -25.5 -89 -25.5c-34 0 -64.167 8.5 -90.5 25.5s-46.833 41.5 -61.5 73.5s-22 69.667 -22 113c0 42.667 7.5 80 22.5 112
s35.667 56.667 62 74s56.166 26 89.499 26s63 -8.66699 89 -26zM246.001 5c-2.66699 -3.33301 -5.33203 -5.66699 -7.99902 -7s-6.33398 -2 -11.001 -2h-26c-7.33301 0 -11 3 -11 9c0 4 1 7.33301 3 10l484 728c2 3.33301 4.5 5.33301 7.5 6s5.83301 1 8.5 1h33
c8.66699 0 10.667 -3.66699 6 -11zM306.503 422.499c19 29.667 28.5 68.833 28.5 117.5c0 50 -9.5 90 -28.5 120s-45.167 45 -78.5 45s-59.5 -15.167 -78.5 -45.5s-28.5 -70.166 -28.5 -119.499c0 -48.667 9.5 -87.834 28.5 -117.501s45.167 -44.5 78.5 -44.5
s59.5 14.833 78.5 44.5zM778.003 387.998c26 -17.333 46.334 -42 61.001 -74s22 -69.333 22 -112c0 -43.333 -7.33301 -81 -22 -113s-35 -56.5 -61 -73.5s-55.667 -25.5 -89 -25.5c-34 0 -64.167 8.5 -90.5 25.5s-46.833 41.5 -61.5 73.5s-22 69.667 -22 113
c0 42.667 7.5 80 22.5 112s35.667 56.667 62 74s56.166 26 89.499 26s63 -8.66699 89 -26zM766.004 83.998c19.333 30 29 68.998 29 116.998c0 48.667 -9.83301 88.334 -29.5 119.001s-45.5 46 -77.5 46s-57.833 -15.5 -77.5 -46.5s-29.5 -70.5 -29.5 -118.5
c0 -47.333 9.66699 -86.166 29 -116.499s45.333 -45.5 78 -45.5s58.667 15 78 45z" />
    <glyph glyph-name="ampersand" unicode="&#x26;" horiz-adv-x="778" 
d="M473 712c35.333 -27.333 53.002 -63.665 53.002 -108.998c0 -38 -14.5 -74.333 -43.5 -109s-73.167 -65 -132.5 -91c-5.33301 -2.66699 -8 -5.33398 -8 -8.00098s1.66699 -5.66699 5 -9l156 -182c3.33301 -4 5.66602 -6 6.99902 -6s3 1 5 3l5 5
c23.333 22 48.333 52.333 75 91s44 69.667 52 93c2.66699 7.33301 8.33398 9.66602 17.001 6.99902l40 -14c3.33301 -1.33301 5.83301 -3.66602 7.5 -6.99902s2.16699 -6.66602 1.5 -9.99902c-10 -28 -28.5 -61.833 -55.5 -101.5s-56.5 -76.834 -88.5 -111.501
c-3.33301 -3.33301 -5 -6 -5 -8c0 -1.33301 1 -3 3 -5l4 -4c18.667 -16.667 43.834 -31 75.501 -43s62.167 -18.333 91.5 -19c10 0 15 -4.33301 15 -13v-43c0 -6.66699 -1.33301 -11.334 -4 -14.001s-7.33398 -4 -14.001 -4c-38 0 -78.833 8 -122.5 24
s-79.834 35 -108.501 57c-4 2.66699 -7 4 -9 4c-1.33301 0 -4.33301 -1.66699 -9 -5c-66 -56.667 -140.667 -85 -224 -85c-68.667 0 -122.834 17.5 -162.501 52.5s-59.5 82.167 -59.5 141.5c0 40 12 76.667 36 110s63 66 117 98c6.66699 4 10 7.66699 10 11
s-2.66699 8 -8 14c-44.667 48 -67 97 -67 147c0 34.667 9.16699 66 27.5 94s43.5 50 75.5 66s67.667 24 107 24c54.667 0 99.667 -13.667 135 -41zM250.002 658.001c-22.667 -23.333 -34.001 -51.666 -34.001 -84.999c0 -32 13.667 -63 41 -93l27 -30c2 -2.66699 5 -4 9 -4
c2 0 5 0.666992 9 2c50.667 24 87.334 48.167 110.001 72.5s34 51.166 34 80.499c0 30 -9.83301 52.833 -29.5 68.5s-45.167 23.5 -76.5 23.5c-37.333 0 -67.333 -11.667 -90 -35zM254.001 352.001c-4 0 -8.33301 -1.33398 -13 -4.00098
c-34 -17.333 -60.833 -39.5 -80.5 -66.5s-29.5 -56.5 -29.5 -88.5c0 -38 13.833 -69.333 41.5 -94s62.5 -37 104.5 -37c27.333 0 55 5.83301 83 17.5s52.333 26.834 73 45.501c5.33301 5.33301 8 9.66602 8 12.999c0 2.66699 -1.66699 6.33398 -5 11.001l-167 194
c-4.66699 6 -9.66699 9 -15 9z" />
    <glyph glyph-name="quotesingle" unicode="'" horiz-adv-x="240" 
d="M148 526c-1.33301 -5.33301 -2.99805 -9.00098 -4.99805 -11.001s-6 -3 -12 -3h-24c-4.66699 0 -7.83398 0.833008 -9.50098 2.5s-2.83398 4.83398 -3.50098 9.50098l-25 208v2c0 5.33301 3 8 9 8h86c6.66699 0 9.66699 -3.33301 9 -10z" />
    <glyph glyph-name="parenleft" unicode="(" horiz-adv-x="286" 
d="M266.5 739c1 -2 0.833984 -4 -0.499023 -6c-35.333 -70 -63.5 -143.5 -84.5 -220.5s-31.5 -153.167 -31.5 -228.5c0 -73.333 9 -145.5 27 -216.5s45 -145.167 81 -222.5c0.666992 -0.666992 1 -2 1 -4c0 -4 -2.66699 -6 -8 -6h-37c-5.33301 0 -9.33301 2.33301 -12 7
c-44.667 76.667 -78.167 149.5 -100.5 218.5s-33.5 143.833 -33.5 224.5c0 80 12.667 158.5 38 235.5s59.666 148.167 102.999 213.5c4 5.33301 9.33301 8 16 8h34c4 0 6.5 -1 7.5 -3z" />
    <glyph glyph-name="parenright" unicode=")" horiz-adv-x="286" 
d="M61 742c6.66699 0 12 -2.66699 16 -8c43.333 -65.333 77.666 -136.5 102.999 -213.5s38 -155.5 38 -235.5c0 -80.667 -11.167 -155.5 -33.5 -224.5s-55.833 -141.833 -100.5 -218.5c-2.66699 -4.66699 -6.66699 -7 -12 -7h-37c-7.33301 0 -9.66602 3.33301 -6.99902 10
c36 77.333 63 151.5 81 222.5s27 143.167 27 216.5c0 75.333 -10.5 151.5 -31.5 228.5s-49.167 150.5 -84.5 220.5c-0.666992 0.666992 -1 1.66699 -1 3c0 4 2.66699 6 8 6h34z" />
    <glyph glyph-name="asterisk" unicode="*" horiz-adv-x="380" 
d="M197 530c-0.666992 1.33301 -1.49902 2 -2.49902 2s-1.83301 -0.666992 -2.5 -2l-75 -119c-0.666992 -2 -2.33398 -3 -5.00098 -3s-5.33398 0.666992 -8.00098 2l-35 24c-2.66699 2 -4 3.83301 -4 5.5s1 4.16699 3 7.5l85 106c1.33301 4.66699 0 7.33398 -4 8.00098
l-116 33c-4.66699 2 -6 6 -4 12l13 37c2 5.33301 5.66699 6.66602 11 3.99902l110 -44c5.33301 -2 8 -0.333008 8 5l-9 126c0 2 0.833008 3.83301 2.5 5.5s3.83398 2.5 6.50098 2.5h47c5.33301 0 8 -2.66699 8 -8l-8 -126c0 -5.33301 2 -7 6 -5l113 48
c1.33301 0.666992 3 1 5 1c3.33301 0 5.33301 -2 6 -6l11 -35c0.666992 -1.33301 1 -3.33301 1 -6s-2 -4.66699 -6 -6l-114 -38c-3.33301 -0.666992 -4 -3.33398 -2 -8.00098l82 -100c1.33301 -1.33301 2 -3.66602 2 -6.99902c0 -2.66699 -2 -5.66699 -6 -9l-32 -22
c-2.66699 -2 -5.5 -3 -8.5 -3s-5.16699 1 -6.5 3z" />
    <glyph glyph-name="plus" unicode="+" horiz-adv-x="557" 
d="M496 396v-43c0 -8.66699 -5.33301 -13 -16 -13h-167v-174c0 -6.66699 -3.33301 -10 -10 -10h-43c-9.33301 0 -14 5.33301 -14 16v167h-171c-8.66699 0 -13 4 -13 12v43c0 8 3 12 9 12h175v171c0 4.66699 0.833008 8 2.5 10s4.5 3 8.5 3h43c8 0 12 -3 12 -9v-175h174
c6.66699 0 10 -3.33301 10 -10z" />
    <glyph glyph-name="comma" unicode="," horiz-adv-x="212" 
d="M45 -139c-1.33301 2.66699 -1.33398 6.33301 -0.000976562 11l45 112c2 4 3 7 3 9c0 4.66699 -3.66699 7 -11 7h-13c-8.66699 0 -13 4 -13 12v89c0 7.33301 3.33301 11 10 11h83c6.66699 0 10 -3.33301 10 -10v-82c0 -4.66699 -1 -8.66699 -3 -12l-73 -140
c-4 -7.33301 -10.667 -11 -20 -11h-11c-3.33301 0 -5.66602 1.33301 -6.99902 4z" />
    <glyph glyph-name="hyphen" unicode="-" horiz-adv-x="381" 
d="M319 245c0 -9.33301 -5.66699 -14.001 -17 -14.001h-227c-4.66699 0 -8 0.833008 -10 2.5s-3 4.83398 -3 9.50098v44c0 7.33301 3 11 9 11l238 1c6.66699 0 10 -3.33301 10 -10v-44z" />
    <glyph glyph-name="period" unicode="." horiz-adv-x="209" 
d="M155 16c0 -6 -1.33301 -10.167 -4 -12.5s-7.33398 -3.5 -14.001 -3.5h-70c-5.33301 0 -9.16602 1 -11.499 3s-3.5 5.66699 -3.5 11v86c0 8.66699 3.66699 13 11 13h82c6.66699 0 10 -4 10 -12v-85z" />
    <glyph glyph-name="slash" unicode="/" horiz-adv-x="342" 
d="M13 -35l250 768c2 6 6.33301 9 13 9h44c6.66699 0 10 -2.33301 10 -7c0 -2 -0.666992 -5 -2 -9l-246 -757c-2.66699 -8.66699 -8.66699 -13 -18 -13h-43c-8 0 -10.667 3 -8 9z" />
    <glyph glyph-name="zero" unicode="0" horiz-adv-x="688" 
d="M487.5 707.5c41.667 -29.667 74.501 -73.332 98.501 -130.999s36 -126.834 36 -207.501c0 -80 -12 -148.5 -36 -205.5s-56.833 -100 -98.5 -129s-89.5 -43.5 -143.5 -43.5s-102 14.5 -144 43.5s-74.833 71.833 -98.5 128.5s-35.5 125 -35.5 205c0 80.667 12 150 36 208
s57.167 101.833 99.5 131.5s90.166 44.5 143.499 44.5s100.833 -14.833 142.5 -44.5zM524.001 369.002c0 106 -15.8311 184.167 -47.498 234.5s-75.834 75.5 -132.501 75.5s-100.834 -25.333 -132.501 -76s-47.5 -128.667 -47.5 -234c0 -104 16 -180.833 48 -230.5
s76.333 -74.5 133 -74.5c119.333 0 179 101.667 179 305z" />
    <glyph glyph-name="one" unicode="1" horiz-adv-x="465" 
d="M423 66l0.00195312 -56.002c0 -2.66699 -1 -5 -3 -7s-4.66699 -3 -8 -3h-351c-7.33301 0 -11 3.33301 -11 10v56c0 6.66699 3.66699 10 11 10h126c5.33301 0 8 1.66699 8 5v550c0 7.33301 -3 10 -9 8l-124 -46c-0.666992 0 -1.33398 -0.166992 -2.00098 -0.5
s-1.33398 -0.166016 -2.00098 0.500977c-6 0 -9 4 -9 12v40c0 4.66699 0.666992 7.83398 2 9.50098s4 3.5 8 5.5l148 74c11.333 5.33301 21.333 8 30 8h43c7.33301 0 11 -4 11 -12v-647c0 -4.66699 2 -7 6 -7h115c7.33301 0 11 -3.33301 11 -10z" />
    <glyph glyph-name="two" unicode="2" 
d="M289 311c57.333 54 97.001 97.834 119.001 131.501s33 68.5 33 104.5c0 40.667 -14.667 72.5 -44 95.5s-64 34.5 -104 34.5c-31.333 0 -62.333 -8 -93 -24s-56.667 -41 -78 -75c-2 -3.33301 -5.33301 -5 -10 -5c-2.66699 0 -6 1 -10 3l-44 26
c-5.33301 3.33301 -8 7.33301 -8 12c0 3.33301 1.33301 6.66602 4 9.99902c29.333 42.667 65.5 74.667 108.5 96s89.167 32 138.5 32c42.667 0 81.667 -7.83301 117 -23.5s63.5 -39.167 84.5 -70.5s31.5 -69.333 31.5 -114c0 -43.333 -11.833 -83.666 -35.5 -120.999
s-65.5 -84.333 -125.5 -141l-201 -189c-3.33301 -2 -5 -4.33301 -5 -7c0 -3.33301 3.66699 -5 11 -5h351c4.66699 0 8 -0.833008 10 -2.5s3 -4.5 3 -8.5v-58c0 -8 -4.33301 -12 -13 -12h-464c-6 0 -10.167 1.16699 -12.5 3.5s-3.5 6.5 -3.5 12.5v41
c0 7.33301 1.66699 13.666 5 18.999s10.666 13 21.999 23z" />
    <glyph glyph-name="three" unicode="3" horiz-adv-x="641" 
d="M74 645c0 2.66699 1.00488 5.33008 3.00488 7.99707c61.333 66 138.333 99 231 99c50 0 94 -8.16699 132 -24.5s67.167 -38.666 87.5 -66.999s30.5 -60.5 30.5 -96.5s-11.167 -68.5 -33.5 -97.5s-53.5 -50.5 -93.5 -64.5c-7.33301 -2 -11 -4.33301 -11 -7
c0 -1.33301 3.66699 -3.66602 11 -6.99902c43.333 -12 79.166 -34.167 107.499 -66.5s42.5 -71.166 42.5 -116.499c0 -42 -10.833 -79.167 -32.5 -111.5s-53.834 -57.666 -96.501 -75.999s-95 -27.5 -157 -27.5c-102 0 -185.333 35.333 -250 106c-2 3.33301 -3 6 -3 8
c0 3.33301 2 6.33301 6 9l43 34c4.66699 3.33301 7.66699 5 9 5c2.66699 0 5 -1.66699 7 -5c29.333 -30.667 59.166 -52.334 89.499 -65.001s65.5 -19 105.5 -19c57.333 0 102.333 12.667 135 38s49 59 49 101c0 30.667 -8.83301 57.334 -26.5 80.001
s-40.834 39.667 -69.501 51s-59.334 17 -92.001 17l-89 1c-8 0 -12 3.33301 -12 10v52c0 5.33301 4 8.66602 12 9.99902l72 1c34 0 65 6 93 18s50 28.333 66 49s24 43.667 24 69c0 22 -6.66699 42.167 -20 60.5s-31.833 32.833 -55.5 43.5s-50.167 16 -79.5 16
c-66 0 -125.667 -25.667 -179 -77c-3.33301 -3.33301 -6.33301 -5 -9 -5c-1.33301 0 -4.33301 1.66699 -9 5l-35 35c-2 2 -3 4.33301 -3 7z" />
    <glyph glyph-name="four" unicode="4" horiz-adv-x="649" 
d="M397 740c3.33301 1.33301 8 1.99902 14 1.99902h67c8 0 12 -4 12 -12v-450c0 -6 2.66699 -9 8 -9h94c9.33301 0 14 -3.33301 14 -10v-49c0 -8.66699 -4.66699 -13 -14 -13h-93c-6 0 -9 -3.33301 -9 -10v-174c0 -10 -5.33301 -15 -16 -15h-68
c-8.66699 0 -13 4.33301 -13 13v179c0 4.66699 -3 7 -9 7h-324c-10 0 -15 4.33301 -15 13v51c0 4 1.5 8.83301 4.5 14.5s6.83301 11.834 11.5 18.501l325 436c4 4 7.66699 6.66699 11 8zM382 270.999c2.66699 0 4.83203 0.666992 6.49902 2s2.5 3 2.5 5v334
c0 8 -1.33301 12 -4 12c-1.33301 0 -4.66602 -2.66699 -9.99902 -8l-244 -332c-2 -2.66699 -3 -5 -3 -7c0 -4 3.33301 -6 10 -6h242z" />
    <glyph glyph-name="five" unicode="5" horiz-adv-x="654" 
d="M544 742c6.66699 0 11.002 -0.999023 13.002 -2.99902s2.66699 -5.66699 2 -11l-4 -55c-0.666992 -4.66699 -1.66699 -7.66699 -3 -9s-5 -2 -11 -2h-340c-8 0 -12 -3.66699 -12 -11l-18 -217v-2c0 -4.66699 1.16699 -7.83398 3.5 -9.50098
s5.16602 -1.83398 8.49902 -0.500977c32 16.667 59.667 28.834 83 36.501s51 11.5 83 11.5c46 0 87.833 -8.33301 125.5 -25s67.667 -42 90 -76s33.5 -76 33.5 -126c0 -52 -12.167 -97.167 -36.5 -135.5s-58 -67.5 -101 -87.5s-92.167 -30 -147.5 -30
c-51.333 0 -99.5 9 -144.5 27s-82.833 43.667 -113.5 77c-3.33301 4.66699 -5 8 -5 10c0 4 2.33301 7.33301 7 10l43 35c2 2 4 3 6 3c3.33301 0 7 -2 11 -6c31.333 -29.333 60 -50.666 86 -63.999s58.667 -20 98 -20c62.667 0 112.167 16.333 148.5 49s54.5 75.667 54.5 129
c0 50.667 -16 89.5 -48 116.5s-72.667 40.5 -122 40.5c-31.333 0 -60 -5.16699 -86 -15.5s-54.667 -24.833 -86 -43.5c-4.66699 -2.66699 -7.66699 -4 -9 -4c-0.666992 0 -3.66699 1.66699 -9 5l-49 28c-2.66699 1.33301 -4.83398 2.66602 -6.50098 3.99902s-2.5 3 -2.5 5
l2 13l27 339c0.666992 6 2 9.83301 4 11.5s8 2.5 18 2.5h407z" />
    <glyph glyph-name="six" unicode="6" horiz-adv-x="661" 
d="M487 723.5c32.667 -18.333 58.334 -41.502 77.001 -69.502c2 -4 3 -6.66699 3 -8c0 -3.33301 -2 -6 -6 -8l-57 -23c-1.33301 -0.666992 -3 -1 -5 -1c-4 0 -7.33301 2.33301 -10 7c-16 19.333 -33.167 33.833 -51.5 43.5s-40.833 14.5 -67.5 14.5
c-69.333 0 -121.5 -24.5 -156.5 -73.5s-52.5 -113.5 -52.5 -193.5c0 -8.66699 0.5 -14.667 1.5 -18s3.16699 -5 6.5 -5c2.66699 0 6 1 10 3c34 16.667 64.5 29.334 91.5 38.001s58.167 13 93.5 13c50 0 93.333 -9.33301 130 -28s64.667 -44.5 84 -77.5s29 -70.167 29 -111.5
c0 -46 -11.333 -86.833 -34 -122.5s-53.667 -63.334 -93 -83.001s-83 -29.5 -131 -29.5c-58 0 -108.333 14.5 -151 43.5s-75.334 71.333 -98.001 127s-34 121.834 -34 198.501c0 80.667 12.167 150.334 36.5 209.001s59.333 103.667 105 135s99.5 47 161.5 47
c46 0 85.333 -9.16699 118 -27.5zM263 359.498c-32.667 -9 -59.334 -19.833 -80.001 -32.5c-8 -5.33301 -13.333 -10.833 -16 -16.5s-4 -14.5 -4 -26.5c0 -34 7 -68.167 21 -102.5s35 -63 63 -86s62 -34.5 102 -34.5c30.667 0 58.334 7.16699 83.001 21.5
s44.167 33.833 58.5 58.5s21.5 51.667 21.5 81c0 43.333 -14.5 79.333 -43.5 108s-67.5 43 -115.5 43c-27.333 0 -57.333 -4.5 -90 -13.5z" />
    <glyph glyph-name="seven" unicode="7" 
d="M540 742c5.33301 0 9.33496 -1.16797 12.002 -3.50098s3.66699 -5.16602 3 -8.49902l-1 -36c0 -10 -4.66699 -22 -14 -36c-42 -62.667 -82.5 -135.167 -121.5 -217.5s-71.833 -161.666 -98.5 -237.999s-43.334 -137.5 -50.001 -183.5
c-0.666992 -12.667 -5.66699 -19 -15 -19h-79c-5.33301 0 -9 1.5 -11 4.5s-2.33301 7.16699 -1 12.5c21.333 86.667 55.666 185.167 102.999 295.5s107.333 222.166 180 335.499c2 3.33301 3 6.33301 3 9c0 3.33301 -3.33301 5 -10 5h-387c-8 0 -11.667 4 -11 12l6 58
c0.666992 4 2 6.66699 4 8s5.66699 2 11 2h477z" />
    <glyph glyph-name="eight" unicode="8" horiz-adv-x="668" 
d="M460.5 726.5c37 -17 65.832 -40.9971 86.499 -71.9971s31 -66.5 31 -106.5c0 -31.333 -8 -59.333 -24 -84s-41.667 -49.334 -77 -74.001c-5.33301 -4 -8 -7 -8 -9c0 -2.66699 2.33301 -5 7 -7c90 -35.333 135 -94.333 135 -177c0 -42 -11.667 -78.5 -35 -109.5
s-56.166 -55 -98.499 -72s-91.5 -25.5 -147.5 -25.5c-83.333 0 -149 17 -197 51s-72 81.667 -72 143c0 35.333 8.83301 67.166 26.5 95.499s46.834 55.166 87.501 80.499c8.66699 5.33301 13 9.33301 13 12s-4 6 -12 10c-63.333 35.333 -95 87 -95 155
c0 40 10.667 76.333 32 109s51.166 58.5 89.499 77.5s81.833 28.5 130.5 28.5c48 0 90.5 -8.5 127.5 -25.5zM251.499 664.003c-25 -12 -44.499 -28.335 -58.499 -49.002s-21 -44 -21 -70c0 -60.667 34.333 -98.667 103 -114l103 -24
c12.667 -3.33301 28.167 1.83398 46.5 15.501s34.333 32.334 48 56.001s20.5 47.167 20.5 70.5c0 39.333 -14.333 71.333 -43 96s-67.334 37 -116.001 37c-30 0 -57.5 -6 -82.5 -18zM467 96.001c32.667 24 49.001 56.335 49.001 97.002c0 31.333 -8.33301 56.5 -25 75.5
s-43.667 33.167 -81 42.5l-130 31c-2 0.666992 -5 1 -9 1c-14.667 0 -32 -6.66699 -52 -20s-37.167 -31.333 -51.5 -54s-21.5 -47.334 -21.5 -74.001c0 -42.667 16.167 -75.834 48.5 -99.501s79.166 -35.5 140.499 -35.5c55.333 0 99.333 12 132 36z" />
    <glyph glyph-name="nine" unicode="9" horiz-adv-x="658" 
d="M170.5 18.5c-33.667 18.333 -60.1709 41.5 -79.5039 69.5c-2 4 -3 6.66699 -3 8c0 3.33301 2 6 6 8l57 23l4 1c4 0 7.66699 -2.33301 11 -7c16 -18.667 33.833 -33 53.5 -43s43.834 -15 72.501 -15c67.333 0 118.166 24.5 152.499 73.5s51.5 113.5 51.5 193.5
c0 8.66699 -0.5 14.667 -1.5 18s-2.83301 5 -5.5 5s-6 -1 -10 -3c-33.333 -16.667 -63.333 -29.334 -90 -38.001s-57.667 -13 -93 -13c-49.333 0 -92.166 9.33301 -128.499 28s-64.166 44.5 -83.499 77.5s-29 70.5 -29 112.5c0 45.333 11.333 85.833 34 121.5
s53.667 63.334 93 83.001s83 29.5 131 29.5c57.333 0 106.833 -14.667 148.5 -44s73.834 -71.666 96.501 -126.999s34 -121.333 34 -198c0 -80.667 -12 -150.334 -36 -209.001s-58.667 -103.667 -104 -135s-98.666 -47 -159.999 -47c-47.333 0 -87.833 9.16699 -121.5 27.5z
M397.496 383.5c32.333 9.66699 58.502 21.833 78.502 36.5c8 5.33301 13.333 10.833 16 16.5s4 14.5 4 26.5c0 33.333 -6.83301 66.833 -20.5 100.5s-34.334 61.667 -62.001 84s-61.167 33.5 -100.5 33.5c-30.667 0 -58.334 -7 -83.001 -21s-44.167 -33.333 -58.5 -58
s-21.5 -52 -21.5 -82c0 -28 6.5 -53.5 19.5 -76.5s31.333 -41.167 55 -54.5s51.167 -20 82.5 -20c28 0 58.167 4.83301 90.5 14.5z" />
    <glyph glyph-name="colon" unicode=":" horiz-adv-x="209" 
d="M155 411c0 -10.667 -6 -16 -18 -16h-70c-10 0 -15 5 -15 15v84c0 8.66699 3.66699 13 11 13h82c6.66699 0 10 -3.66699 10 -11v-85zM155 19c0 -10.667 -6 -16 -18 -16h-70c-10 0 -15 4.66699 -15 14v85c0 8 3.66699 12 11 12h82c6.66699 0 10 -3.66699 10 -11v-84z" />
    <glyph glyph-name="semicolon" unicode=";" horiz-adv-x="229" 
d="M55.5 397c-2.33301 2 -3.5 5.66602 -3.5 10.999v85c0 8.66699 3.66699 13 11 13h82c6.66699 0 10 -3.66699 10 -11v-86c0 -5.33301 -1.33301 -9.16602 -4 -11.499s-7.33398 -3.5 -14.001 -3.5h-70c-5.33301 0 -9.16602 1 -11.499 3zM45 -140.001
c-1.33301 2.66699 -1.33398 6 -0.000976562 10l45 114l2 9c0 4.66699 -3.33301 7 -10 7h-13c-8.66699 0 -13 4 -13 12v89c0 7.33301 3.33301 11 10 11h83c6.66699 0 10 -3.33301 10 -10v-82c0 -4.66699 -1 -8.66699 -3 -12l-73 -141c-4 -7.33301 -10.667 -11 -20 -11h-11
c-3.33301 0 -5.66602 1.33301 -6.99902 4z" />
    <glyph glyph-name="less" unicode="&#x3c;" horiz-adv-x="544" 
d="M477 173c0 -11.333 -4.33301 -17.001 -13 -17.001c-2 0 -5 0.666992 -9 2l-388 152c-9.33301 4.66699 -14 10.334 -14 17.001v56c0 8 4.66699 13.667 14 17l389 154c2.66699 1.33301 6 2 10 2c8 0 12 -5 12 -15v-45c0 -5.33301 -1.66699 -9.5 -5 -12.5s-9 -6.5 -17 -10.5
l-301 -118l301 -118c8 -3.33301 13.5 -6.5 16.5 -9.5s4.5 -7.5 4.5 -13.5v-41z" />
    <glyph glyph-name="equal" unicode="=" horiz-adv-x="557" 
d="M496 452c0 -8.66699 -5.33301 -13 -16 -13l-405 -1c-8.66699 0 -13 4 -13 12v43c0 7.33301 3 11 9 11l415 1c6.66699 0 10 -3.33301 10 -10v-43zM496 227c0 -9.33301 -5.33301 -14 -16 -14l-405 -1c-8.66699 0 -13 4 -13 12v43c0 8 3 12 9 12h415c6.66699 0 10 -3 10 -9
v-43z" />
    <glyph glyph-name="greater" unicode="&#x3e;" horiz-adv-x="544" 
d="M71.5 227.5c3 3 8.5 6.16797 16.5 9.50098l301 118l-301 118c-8 4 -13.667 7.5 -17 10.5s-5 7.16699 -5 12.5v45c0 10 4 15 12 15c4 0 7.33301 -0.666992 10 -2l389 -154c9.33301 -3.33301 14 -9 14 -17v-56c0 -6.66699 -4.66699 -12.334 -14 -17.001l-388 -152
c-4 -1.33301 -7 -2 -9 -2c-8.66699 0 -13 5.66699 -13 17v41c0 6 1.5 10.5 4.5 13.5z" />
    <glyph glyph-name="question" unicode="?" horiz-adv-x="523" 
d="M28 610c-0.666992 2.66699 -0.335938 5.33496 0.99707 8.00195c21.333 42 52.833 74.833 94.5 98.5s88.834 35.5 141.501 35.5c44.667 0 84 -7.5 118 -22.5s60.167 -36.167 78.5 -63.5s27.5 -58.333 27.5 -93c0 -26.667 -4.66699 -50.834 -14 -72.501
s-20.833 -40.834 -34.5 -57.501s-31.834 -36.667 -54.501 -60c-22.667 -22.667 -40.834 -42.334 -54.501 -59.001s-25.167 -35.834 -34.5 -57.501s-14 -45.5 -14 -71.5c0 -3.33301 -1.16699 -6.16602 -3.5 -8.49902s-5.16602 -3.5 -8.49902 -3.5h-48
c-8.66699 0 -13 4.66699 -13 14c0 31.333 5 59.833 15 85.5s22 47.834 36 66.501s32.667 40.667 56 66c29.333 32 50.833 58.833 64.5 80.5s20.5 46.5 20.5 74.5c0 35.333 -12.667 63.5 -38 84.5s-58.666 31.5 -99.999 31.5c-33.333 0 -65.666 -9 -96.999 -27
s-52.666 -40.333 -63.999 -67c-1.33301 -3.33301 -2.83301 -5.33301 -4.5 -6s-4.16699 -0.333984 -7.5 0.999023l-57 18c-3.33301 0.666992 -5.33301 2.33398 -6 5.00098zM297.998 16.001c0 -6 -1.33301 -10.167 -4 -12.5s-7.66699 -3.5 -15 -3.5h-70
c-9.33301 0 -14 4.66699 -14 14v85c0 8 3.33301 12 10 12h83c6.66699 0 10 -3.66699 10 -11v-84z" />
    <glyph glyph-name="at" unicode="@" horiz-adv-x="834" 
d="M555 -95c-37.333 -12 -77.333 -18.002 -120 -18.002c-78.667 0 -147.334 16.667 -206.001 50s-103.5 78.333 -134.5 135s-46.5 119.667 -46.5 189c0 72 16.833 138.5 50.5 199.5s81 109.667 142 146s130.5 54.5 208.5 54.5c60.667 0 118 -11.667 172 -35
s97.833 -59.166 131.5 -107.499s50.5 -108.166 50.5 -179.499c0 -50 -8.33301 -94.5 -25 -133.5s-39.834 -69.5 -69.501 -91.5s-62.834 -33 -99.501 -33c-26 0 -46.167 4.33301 -60.5 13s-24.166 22 -29.499 40c-2 4.66699 -3.66699 7 -5 7c-0.666992 0 -2.66699 -2 -6 -6
c-34.667 -45.333 -81.334 -68 -140.001 -68c-25.333 0 -48.666 7.16699 -69.999 21.5s-38.333 34.833 -51 61.5s-19 57 -19 91c0 42 8.16699 81 24.5 117s39.166 64.5 68.499 85.5s62.666 31.5 99.999 31.5c51.333 0 90 -21.333 116 -64
c0.666992 -1.33301 1.83398 -1.66602 3.50098 -0.999023s2.83398 2.33398 3.50098 5.00098l7 28c0.666992 4 3.33398 6 8.00098 6h45c5.33301 0 7.66602 -2.33301 6.99902 -7l-37 -222c-2 -12 -3 -22.667 -3 -32c0 -16.667 3.5 -28.667 10.5 -36s17.833 -11 32.5 -11
c22 0 42.333 7.83301 61 23.5s33.5 38 44.5 67s16.5 62.833 16.5 101.5c0 61.333 -13.667 112.166 -41 152.499s-62.833 69.833 -106.5 88.5s-90.167 28 -139.5 28c-69.333 0 -129.333 -15.333 -180 -46s-89.167 -72 -115.5 -124s-39.5 -109.333 -39.5 -172
c0 -60 12.833 -113.833 38.5 -161.5s63.667 -85.334 114 -113.001s110.833 -41.5 181.5 -41.5c38.667 0 69.834 4.5 93.501 13.5s50.834 23.5 81.501 43.5c3.33301 2.66699 7 4 11 4s7 -1.66699 9 -5l20 -26c1.33301 -1.33301 2 -3.66602 2 -6.99902
c0 -2.66699 -1.33301 -5.33398 -4 -8.00098l-5 -5c-30 -20.667 -63.667 -37 -101 -49zM321.5 160.998c14.333 -21.333 34.5 -31.999 60.5 -31.999c24 0 46.333 8 67 24s37.167 37.167 49.5 63.5s18.5 54.166 18.5 83.499c0 35.333 -9 63 -27 83s-39.667 30 -65 30
c-24 0 -45.5 -7.33301 -64.5 -22s-33.833 -34.667 -44.5 -60s-16 -53 -16 -83c0 -36.667 7.16699 -65.667 21.5 -87z" />
    <glyph glyph-name="A" unicode="A" horiz-adv-x="727" 
d="M46 4.5c-2 3 -2.00195 7.16699 -0.00195312 12.5l259 711c2 5.33301 4.33301 9 7 11s7 3 13 3h78c12.667 0 20.334 -5 23.001 -15l256 -710l1 -5c0 -8 -3.66699 -12 -11 -12h-71c-8 -0 -13.333 3.33301 -16 10l-69 194c-1.33301 2.66699 -2.66602 4.66699 -3.99902 6
s-4 2 -8 2h-291c-6 0 -10 -2.66699 -12 -8l-71 -195c-2 -6 -7 -9 -15 -9h-60c-4 0 -7 1.5 -9 4.5zM477.998 288c7.33301 0 10 4.33301 8 13l-120 329c-2 6 -4.33301 9 -7 9s-5 -3 -7 -9l-122 -331l-2 -6c0 -3.33301 2.66699 -5 8 -5h242z" />
    <glyph glyph-name="B" unicode="B" horiz-adv-x="699" 
d="M100.5 3.5c-2.33301 2.33301 -3.50098 5.16699 -3.50098 8.5v716c0 9.33301 4.33301 14 13 14h231c88.667 0 157.167 -16.5 205.5 -49.5s72.5 -80.5 72.5 -142.5c0 -40.667 -10.667 -74.667 -32 -102s-54.333 -49 -99 -65c-2.66699 -0.666992 -4 -2 -4 -4
s1.33301 -3.33301 4 -4c99.333 -25.333 149 -84.333 149 -177c0 -66 -24.667 -115.5 -74 -148.5s-121 -49.5 -215 -49.5h-239c-3.33301 0 -6.16602 1.16699 -8.49902 3.5zM353.999 411.001c46.667 0 86.333 10 119 30s49 52.667 49 98c0 44 -16 77.167 -48 99.5
s-76.333 33.5 -133 33.5h-135c-8.66699 0 -13 -4 -13 -12v-236c0 -8.66699 3 -13 9 -13h152zM342.998 70.001c65.333 0 114 10.667 146 32s48 54.333 48 99c0 46.667 -16.667 81.334 -50 104.001s-77.666 34 -132.999 34h-147c-5.33301 0 -9 -0.833008 -11 -2.5
s-3 -4.83398 -3 -9.50098v-243c0 -5.33301 0.666992 -9 2 -11s3.66602 -3 6.99902 -3h141z" />
    <glyph glyph-name="C" unicode="C" horiz-adv-x="707" 
d="M503.5 724c39.667 -18.667 72.498 -43.665 98.498 -74.998s41.667 -65.333 47 -102l1 -7c0 -2.66699 -0.833008 -4.66699 -2.5 -6s-3.5 -2 -5.5 -2l-75 -6h-2c-2 0 -3.66699 0.833008 -5 2.5s-2.33301 4.16699 -3 7.5c-10 43.333 -30.667 78 -62 104s-69.333 39 -114 39
c-70 0 -123.5 -25.833 -160.5 -77.5s-55.5 -128.834 -55.5 -231.501c0 -100.667 18.5 -176.5 55.5 -227.5s92.167 -76.5 165.5 -76.5c47.333 0 86.833 11.5 118.5 34.5s57.167 59.167 76.5 108.5c1.33301 4.66699 5.33301 6 12 4l59 -14
c4.66699 -1.33301 6.33398 -6 5.00098 -14c-10 -33.333 -27.333 -64.833 -52 -94.5s-56 -53.834 -94 -72.501s-81 -28 -129 -28c-66 0 -122.667 15.333 -170 46s-83.666 74.667 -108.999 132s-38 125.333 -38 204s12.5 146.5 37.5 203.5s61 100.667 108 131
s102.833 45.5 167.5 45.5c44 0 85.833 -9.33301 125.5 -28z" />
    <glyph glyph-name="D" unicode="D" horiz-adv-x="722" 
d="M268 741c134.667 -2 233.167 -33.332 295.5 -93.999s93.5 -151.334 93.5 -272.001c0 -250 -133 -375 -399 -375h-147c-9.33301 -0 -14 5.33301 -14 16v713c0 4.66699 1 8 3 10s5.66699 3 11 3c66 0 118.333 -0.333008 157 -1zM193 655.001l-0.00292969 -571.998
c0 -4 0.833008 -6.83301 2.5 -8.5s4.83398 -2.5 9.50098 -2.5h38c74.667 0 134.834 9.83301 180.501 29.5s79.334 51.5 101.001 95.5s32.5 102.667 32.5 176s-10.333 131.166 -31 173.499s-52.167 72.666 -94.5 90.999s-98.5 28.5 -168.5 30.5c-13.333 0.666992 -34 1 -62 1
c-5.33301 0 -8 -4.66699 -8 -14z" />
    <glyph glyph-name="E" unicode="E" horiz-adv-x="628" 
d="M99.5 739c1.66699 2 4.83301 3.00098 9.5 3.00098h449c6.66699 0 10 -3.66699 10 -11v-51c0 -8 -4.33301 -12 -13 -12h-349c-5.33301 0 -8.83301 -0.833008 -10.5 -2.5s-2.5 -4.83398 -2.5 -9.50098v-234c0 -7.33301 3.66699 -11 11 -11h259
c7.33301 0 11 -3.66699 11 -11v-53c0 -6 -3.66699 -9 -11 -9h-259c-7.33301 0 -11 -3.66699 -11 -11v-243c0 -4 0.666992 -6.66699 2 -8s4 -2 8 -2h367c4 0 6.83301 -0.666992 8.5 -2s2.5 -4 2.5 -8v-53c0 -7.33301 -3.66699 -11 -11 -11h-459c-5.33301 0 -9 1 -11 3
s-3 5.66699 -3 11v714c0 5.33301 0.833008 9 2.5 11z" />
    <glyph glyph-name="F" unicode="F" horiz-adv-x="601" 
d="M109 742h440c6.66699 0 10 -3.66699 10 -11v-51c0 -8 -4.33301 -12 -13 -12h-340c-5.33301 0 -8.83301 -0.833008 -10.5 -2.5s-2.5 -4.83398 -2.5 -9.50098v-246c0 -7.33301 3.66699 -11 11 -11h267c7.33301 0 11 -3.33301 11 -10v-53
c0 -3.33301 -0.833008 -5.66602 -2.5 -6.99902s-4.5 -2 -8.5 -2h-267c-7.33301 0 -11 -3.66699 -11 -11v-303c0 -8.66699 -4.66699 -13 -14 -13h-68c-5.33301 0 -9 1 -11 3s-3 5.66699 -3 11v714c0 9.33301 4 14 12 14z" />
    <glyph glyph-name="G" unicode="G" horiz-adv-x="739" 
d="M210 35.5c-46.667 30.333 -82.499 73.834 -107.499 130.501s-37.5 124 -37.5 202c0 79.333 12.833 148 38.5 206s62.167 102.167 109.5 132.5s102.666 45.5 165.999 45.5c45.333 0 87.833 -9.33301 127.5 -28s72.334 -43.334 98.001 -74.001s41.167 -63.334 46.5 -98.001
v-6c0 -2.66699 -0.5 -4.66699 -1.5 -6s-3.16699 -2.66602 -6.5 -3.99902l-72 -11h-2c-4 0 -7 3.33301 -9 10c-7.33301 40.667 -27.666 74.834 -60.999 102.501s-73.666 41.5 -120.999 41.5c-68.667 0 -121.334 -26 -158.001 -78s-55 -127.667 -55 -227
c0 -104 18.333 -181.833 55 -233.5s90 -77.5 160 -77.5c40.667 0 75.667 9 105 27s51.5 41 66.5 69s23.5 56.333 25.5 85v60v2c0 6 -3.33301 9 -10 9h-163c-7.33301 0 -11 3.33301 -11 10v43c0 6 3.33301 9 10 9l248 -1c10 0 15 -4 15 -12v-351c0 -8.66699 -4 -13 -12 -13
h-23c-5.33301 0 -9.33301 0.666992 -12 2s-4.66699 4.66602 -6 9.99902l-11 93c-0.666992 2.66699 -1.83398 4 -3.50098 4s-3.5 -1.66699 -5.5 -5c-21.333 -34 -49.833 -61.5 -85.5 -82.5s-79.834 -31.5 -132.501 -31.5c-63.333 0 -118.333 15.167 -165 45.5z" />
    <glyph glyph-name="H" unicode="H" horiz-adv-x="735" 
d="M201 347c-2.66699 0 -4.66797 -0.832031 -6.00098 -2.49902s-2 -3.5 -2 -5.5v-324c0 -5.33301 -1.33301 -9.16602 -4 -11.499s-7 -3.5 -13 -3.5h-65c-5.33301 0 -9 1 -11 3s-3 5.66699 -3 11v714c0 9.33301 4 14 12 14h72c8 0 12 -4.33301 12 -13v-294
c0 -4.66699 0.833008 -7.83398 2.5 -9.50098s4.5 -2.5 8.5 -2.5h328c6.66699 0 10 4 10 12v295c0 8 3.66699 12 11 12h73c4.66699 0 7.83398 -1 9.50098 -3s2.5 -5.66699 2.5 -11v-714c0 -9.33301 -4.66699 -14 -14 -14h-65c-6 0 -10.333 1.16699 -13 3.5
s-4 6.16602 -4 11.499v323c0 6 -3 9 -9 9h-332z" />
    <glyph glyph-name="I" unicode="I" horiz-adv-x="290" 
d="M181 742c8 0 12.001 -4.33301 12.001 -13v-712c0 -6.66699 -1.33301 -11.167 -4 -13.5s-7.33398 -3.5 -14.001 -3.5h-63c-6 0 -10 1 -12 3s-3 5.66699 -3 11v714c0 9.33301 4 14 12 14h72z" />
    <glyph glyph-name="J" unicode="J" horiz-adv-x="418" 
d="M286.5 33c-25.667 -28.667 -66.1699 -43 -121.503 -43c-30 0 -55.5 3.33301 -76.5 10s-32.833 10.334 -35.5 11.001c-9.33301 3.33301 -13 9.66602 -11 18.999l9 54c1.33301 8 5.33301 11 12 9l18 -7.5c8.66699 -3.66699 18.334 -6.66699 29.001 -9
s22.334 -3.5 35.001 -3.5c30.667 0 52.334 8.16699 65.001 24.5s19 45.5 19 87.5v544c0 8.66699 4 13 12 13h73c7.33301 0 11 -4.33301 11 -13v-566c0 -58 -12.833 -101.333 -38.5 -130z" />
    <glyph glyph-name="K" unicode="K" horiz-adv-x="701" 
d="M659 7c0 -4.66699 -2.66895 -6.99805 -8.00195 -6.99805h-82c-8.66699 0 -14.667 3 -18 9l-221 369c-1.33301 3.33301 -3.33301 5 -6 5c-2 0 -5 -2 -9 -6l-115 -131c-4.66699 -4.66699 -7 -10.667 -7 -18v-213c0 -5.33301 -1.33301 -9.16602 -4 -11.499s-7 -3.5 -13 -3.5
h-64c-10 0 -15 4.33301 -15 13v717c0 8 3.66699 12 11 12h74c7.33301 0 11 -4 11 -12v-367c0 -4.66699 1 -7 3 -7c0.666992 0 2.66699 1.66699 6 5l328 372c2.66699 3.33301 5.33398 5.66602 8.00098 6.99902s6.66699 2 12 2h69c5.33301 0 8.83301 -1.5 10.5 -4.5
s0.833984 -6.16699 -2.49902 -9.5l-233 -260c-1.33301 -2.66699 -2 -4.83398 -2 -6.50098s0.666992 -3.83398 2 -6.50098l263 -441c1.33301 -4 2 -6.33301 2 -7z" />
    <glyph glyph-name="L" unicode="L" horiz-adv-x="602" 
d="M109 742h72c8 0 12 -4.33301 12 -13v-645c0 -4 0.666992 -6.66699 2 -8s4 -2 8 -2h346c4 0 7 -0.666992 9 -2s3 -4 3 -8v-53c0 -7.33301 -4 -11 -12 -11h-438c-5.33301 0 -9 1 -11 3s-3 5.66699 -3 11v714c0 9.33301 4 14 12 14z" />
    <glyph glyph-name="M" unicode="M" horiz-adv-x="906" 
d="M97 15l0.000976562 713c0 5.33301 0.833008 9 2.5 11s4.83398 3 9.50098 3h96c5.33301 0 9.16602 -0.833008 11.499 -2.5s4.16602 -4.5 5.49902 -8.5l222 -573c2 -6 4.33301 -9 7 -9c3.33301 0 6.33301 3.33301 9 10l222 570c2 8.66699 7 13 15 13h101
c7.33301 0 11 -4.33301 11 -13v-714c0 -10 -5 -15 -15 -15h-66c-10 -0 -15 4.33301 -15 13v572c0 3.33301 -0.5 4.83301 -1.5 4.5s-2.16699 -1.83301 -3.5 -4.5l-220 -572c-4 -8.66699 -10.333 -13 -19 -13h-48c-10 0 -16.667 4 -20 12l-217 567
c-0.666992 3.33301 -1.66699 5 -3 5s-2 -1.66699 -2 -5v-566c0 -4.66699 -1 -8 -3 -10s-5.66699 -3 -11 -3h-54c-9.33301 0 -14 5 -14 15z" />
    <glyph glyph-name="N" unicode="N" horiz-adv-x="757" 
d="M649 742c4 0 6.83301 -0.832031 8.5 -2.49902s2.5 -4.83398 2.5 -9.50098v-718c0 -8 -4.33301 -12 -13 -12h-49c-5.33301 0 -9.5 0.5 -12.5 1.5s-5.83301 3.16699 -8.5 6.5l-386 561c-2.66699 4.66699 -5.16699 6.66699 -7.5 6s-3.5 -3 -3.5 -7v-555
c0 -8.66699 -4.66699 -13 -14 -13h-56c-8.66699 -0 -13 4.33301 -13 13v715c0 5.33301 0.833008 9 2.5 11s5.16699 3 10.5 3h57c5.33301 0 9.33301 -0.666992 12 -2s5.66699 -4 9 -8l375 -549c3.33301 -4 6.33301 -6 9 -6c4 0 6 3 6 9v544c0 8 4 12 12 12h59z" />
    <glyph glyph-name="O" unicode="O" horiz-adv-x="764" 
d="M212.5 34c-47.667 29.333 -84.1689 72.333 -109.502 129s-38 125 -38 205c0 80.667 12.833 149.834 38.5 207.501s62.334 101.5 110.001 131.5s104.167 45 169.5 45c64.667 0 120.834 -15 168.501 -45s84.167 -73.667 109.5 -131s38 -126.333 38 -207
c0 -80 -12.667 -148.333 -38 -205s-61.833 -99.834 -109.5 -129.501s-104.167 -44.5 -169.5 -44.5s-121.833 14.667 -169.5 44zM545.498 138c35.667 50 53.5 126.667 53.5 230c0 105.333 -18.167 183.5 -54.5 234.5s-90.166 76.5 -161.499 76.5
c-72.667 0 -127.167 -25.667 -163.5 -77s-54.5 -129.333 -54.5 -234c0 -103.333 18.167 -180 54.5 -230s91.166 -75 164.499 -75c72 0 125.833 25 161.5 75z" />
    <glyph glyph-name="P" unicode="P" horiz-adv-x="690" 
d="M564.5 364.5c-47.667 -36.333 -111.834 -54.5 -192.501 -54.5h-170c-6 0 -9 -3 -9 -9v-286c0 -10 -5 -15 -15 -15h-68c-8.66699 -0 -13 4.33301 -13 13v715c0 5.33301 0.833008 9 2.5 11s4.83398 3 9.50098 3h252c83.333 0 150 -17.833 200 -53.5s75 -89.834 75 -162.501
c0 -71.333 -23.833 -125.166 -71.5 -161.499zM491 636c-31.333 22 -76.332 33 -134.999 33h-150c-8.66699 0 -13 -4 -13 -12v-260c0 -5.33301 0.666992 -9 2 -11s3.66602 -3 6.99902 -3h161c54.667 0 97.5 12.167 128.5 36.5s46.5 60.833 46.5 109.5
c0 49.333 -15.667 85 -47 107z" />
    <glyph glyph-name="Q" unicode="Q" horiz-adv-x="765" 
d="M103 577c25.333 57.333 61.833 100.832 109.5 130.499s104.167 44.5 169.5 44.5s121.833 -14.833 169.5 -44.5s84.167 -73.167 109.5 -130.5s38 -126.666 38 -207.999c0 -155.333 -46.667 -264.333 -140 -327c-2.66699 -2 -4 -5 -4 -9c0 -8 6.16699 -18.167 18.5 -30.5
s28.333 -23.5 48 -33.5s39.834 -16.333 60.501 -19c6.66699 -0.666992 10 -3.66699 10 -9v-47c0 -7.33301 -2 -12.166 -6 -14.499s-11 -3.5 -21 -3.5c-32 0 -64.167 9.33301 -96.5 28s-63.166 48.667 -92.499 90c-2.66699 4 -7.66699 5.33301 -15 4
c-22 -5.33301 -48.333 -8 -79 -8c-64.667 0 -120.834 14.5 -168.501 43.5s-84.334 71.833 -110.001 128.5s-38.5 125.667 -38.5 207s12.667 150.666 38 207.999zM219.5 137.499c36.333 -49.667 90.5 -74.5 162.5 -74.5s126.167 25 162.5 75s54.5 126.667 54.5 230
c0 207.333 -72.333 311 -217 311s-217 -104 -217 -312c0 -103.333 18.167 -179.833 54.5 -229.5z" />
    <glyph glyph-name="R" unicode="R" horiz-adv-x="696" 
d="M628 12c0 -8 -4 -12 -12 -12h-73c-7.33301 0 -12.666 4 -15.999 12l-129 315c-2 4 -4.66699 7 -8 9s-8.66602 3 -15.999 3h-169c-8 0 -12 -3.66699 -12 -11v-312c0 -6 -1.16699 -10.167 -3.5 -12.5s-6.83301 -3.5 -13.5 -3.5h-65c-5.33301 0 -9 1 -11 3s-3 5.33301 -3 10
v715c0 5.33301 0.833008 9 2.5 11s4.83398 3 9.50098 3h279c79.333 0 140.666 -16.333 183.999 -49s65 -80.334 65 -143.001c0 -52.667 -14.167 -95.167 -42.5 -127.5s-62.833 -54.5 -103.5 -66.5c-2.66699 -0.666992 -4.33398 -2 -5.00098 -4s-0.333984 -4 0.999023 -6
l140 -327c0.666992 -1.33301 1 -3.66602 1 -6.99902zM493 440c29.333 21.333 44.001 55 44.001 101c0 43.333 -13 76 -39 98s-64.333 33 -115 33h-176c-9.33301 0 -14 -3.66699 -14 -11v-240c0 -8.66699 3 -13 9 -13h158c59.333 0 103.666 10.667 132.999 32z" />
    <glyph glyph-name="S" unicode="S" horiz-adv-x="641" 
d="M328 679c-50 0 -89.333 -11.0029 -118 -33.0029s-43 -52.667 -43 -92c0 -52 35.667 -90 107 -114l145 -48c58.667 -19.333 101.167 -45.166 127.5 -77.499s39.5 -71.833 39.5 -118.5c0 -64 -23.667 -114.333 -71 -151s-112 -55 -194 -55c-60 0 -112.833 10.667 -158.5 32
s-82.5 52.333 -110.5 93c-2.66699 5.33301 -4 8.66602 -4 9.99902c0 4.66699 3.33301 9.33398 10 14.001l36 25c6 4 10.667 6 14 6c4 0 7.66699 -2 11 -6c28.667 -36.667 57 -62.667 85 -78s65.667 -23 113 -23c56 0 99.5 10 130.5 30s46.5 51 46.5 93
c0 26 -8.16699 48.167 -24.5 66.5s-45.833 35.5 -88.5 51.5l-152 52c-52.667 18 -91.5 43.833 -116.5 77.5s-37.5 70.834 -37.5 111.501c0 41.333 10.5 77.666 31.5 108.999s50.667 55.5 89 72.5s82.5 25.5 132.5 25.5c48.667 0 92.834 -8.66699 132.501 -26
s73.5 -41.666 101.5 -72.999c3.33301 -3.33301 5 -6.66602 5 -9.99902s-1.66699 -6.33301 -5 -9l-46 -36c-2 -2 -4 -3 -6 -3s-6 3 -12 9c-42.667 50 -99.334 75 -170.001 75z" />
    <glyph glyph-name="T" unicode="T" horiz-adv-x="645" 
d="M42 731c0 7.33301 4 11 12 11h538c8 0 12 -3.66699 12 -11v-52c0 -4 -1 -6.66699 -3 -8s-5 -2 -9 -2h-203c-4 0 -6.83301 -0.666992 -8.5 -2s-2.5 -4 -2.5 -8v-646c0 -8.66699 -4 -13 -12 -13h-72c-8 -0 -12 4.33301 -12 13v645c0 4.66699 -0.666992 7.66699 -2 9
s-4 2 -8 2h-218c-4 0 -7 0.666992 -9 2s-3 4 -3 8v52z" />
    <glyph glyph-name="U" unicode="U" horiz-adv-x="709" 
d="M554.5 52.5c-45 -41.667 -111.498 -62.5 -199.498 -62.5c-92.667 0 -160.334 22.333 -203.001 67s-64 113.667 -64 207v464c0 9.33301 3.66699 14 11 14h72c8 0 12 -4.33301 12 -13v-486c0 -60.667 14.833 -105.667 44.5 -135s74.167 -44 133.5 -44
s104.166 14.833 134.499 44.5s45.5 75.5 45.5 137.5v483c0 8.66699 3.66699 13 11 13h59c7.33301 0 11 -4 11 -12v-483c0 -88 -22.5 -152.833 -67.5 -194.5z" />
    <glyph glyph-name="V" unicode="V" horiz-adv-x="707" 
d="M660.5 737.5c1.66699 -3 1.83105 -6.16797 0.498047 -9.50098l-253 -713c-2 -5.33301 -4.66699 -9.16602 -8 -11.499s-8 -3.5 -14 -3.5h-68c-13.333 0 -21.333 4.66699 -24 14l-248 713c-0.666992 1.33301 -1 3 -1 5c0 6.66699 4 10 12 10h69c8 0 13.667 -4 17 -12
l208 -606c2 -6 4.33301 -9 7 -9s5.33398 3.33301 8.00098 10l211 606c2 7.33301 7 11 15 11h59c4.66699 0 7.83398 -1.5 9.50098 -4.5z" />
    <glyph glyph-name="W" unicode="W" horiz-adv-x="1045" 
d="M997.5 737c2.33301 -3.33301 2.83301 -7.66797 1.5 -13.001l-206 -709c-1.33301 -5.33301 -3.66602 -9.16602 -6.99902 -11.499s-8.33301 -3.5 -15 -3.5h-61c-12.667 0 -20.334 4.66699 -23.001 14l-160 567c-2 7.33301 -4.33301 7 -7 -1l-162 -565
c-1.33301 -5.33301 -3.66602 -9.16602 -6.99902 -11.499s-8.33301 -3.5 -15 -3.5h-62c-12.667 0 -20.334 4.66699 -23.001 14l-203 710c-0.666992 1.33301 -1 3 -1 5c0 8.66699 5 13 15 13h64c9.33301 0 15 -4 17 -12l163 -582c2 -7.33301 4 -11 6 -11
c2.66699 0 4.66699 3.33301 6 10l166 584c2.66699 7.33301 8.66699 11 18 11h57c5.33301 0 9.33301 -0.833008 12 -2.5s4.66699 -4.83398 6 -9.50098l164 -585c2 -6 4 -9 6 -9s4 3 6 9l165 586c1.33301 7.33301 7 11 17 11h50c6 0 10.167 -1.66699 12.5 -5z" />
    <glyph glyph-name="X" unicode="X" horiz-adv-x="688" 
d="M644 8c0 -5.33301 -4.33105 -8 -12.998 -8h-76c-8 0 -13.333 2.66699 -16 8l-190 286c-4.66699 6.66699 -8.33398 10 -11.001 10s-6.66699 -4 -12 -12l-187 -284c-3.33301 -5.33301 -9 -8 -17 -8h-66c-7.33301 0 -11 2 -11 6c0 3.33301 2 8.33301 6 15l229 345
c3.33301 4.66699 5 8.66699 5 12s-1.66699 7.66602 -5 12.999l-224 336c-1.33301 2.66699 -2 5 -2 7c0 5.33301 2.66699 8 8 8h81c4.66699 0 8.16699 -0.666992 10.5 -2s4.5 -3.66602 6.5 -6.99902l175 -267c2.66699 -4.66699 5.66699 -7 9 -7c4 0 7.33301 2.33301 10 7
l175 267c3.33301 6 8.66602 9 15.999 9h73c4 0 6.33301 -1.33301 7 -4s0 -5.66699 -2 -9l-222 -331c-2.66699 -3.33301 -4 -7 -4 -11s1.33301 -7.66699 4 -11l237 -355c4 -6 6 -10.333 6 -13z" />
    <glyph glyph-name="Y" unicode="Y" horiz-adv-x="675" 
d="M633.5 738c1.66699 -2.66699 1.16602 -6 -1.50098 -10l-238 -398c-2.66699 -4 -4.33398 -8.16699 -5.00098 -12.5s-1 -11.166 -1 -20.499v-280c0 -6 -1.5 -10.333 -4.5 -13s-7.83301 -4 -14.5 -4h-60c-10.667 0 -16 5 -16 15v278c0 6 -0.5 10.667 -1.5 14
s-3.16699 7.66602 -6.5 12.999l-241 406c-2 3.33301 -3 6 -3 8c0 5.33301 4.66699 8 14 8h72c6 0 10.167 -0.833008 12.5 -2.5s5.16602 -4.83398 8.49902 -9.50098l186 -320c4 -8 7.66699 -12 11 -12c2.66699 0 6.33398 3.33301 11.001 10l185 322
c2.66699 4.66699 5.33398 7.83398 8.00098 9.50098s7 2.5 13 2.5h62c4.66699 0 7.83398 -1.33301 9.50098 -4z" />
    <glyph glyph-name="Z" unicode="Z" horiz-adv-x="631" 
d="M50 2.5c-2 1.66699 -3 4.83398 -3 9.50098v23c0 4.66699 0.666992 8.66699 2 12s4.33301 8.33301 9 15l389 596c1.33301 2.66699 2 4.66699 2 6c0 2.66699 -2.33301 4 -7 4h-368c-7.33301 0 -11 3.66699 -11 11v53c0 6.66699 3.33301 10 10 10h500c6 0 9 -3.33301 9 -10
v-26c0 -6 -2.66699 -12.667 -8 -20l-395 -602c-2 -2.66699 -2.5 -4.83398 -1.5 -6.50098s2.83301 -2.5 5.5 -2.5h387c7.33301 0 11 -3 11 -9v-55c0 -7.33301 -4 -11 -12 -11h-509c-4.66699 -0 -8 0.833008 -10 2.5z" />
    <glyph glyph-name="bracketleft" unicode="[" horiz-adv-x="287" 
d="M102 742h161c6 0 9 -2.33301 9 -7v-41c0 -5.33301 -3 -8 -9 -8h-86c-8 0 -12 -4.33301 -12 -13l-1 -772c0 -4 0.833008 -6.66699 2.5 -8s4.5 -2 8.5 -2h85c7.33301 0 11 -3.33301 11 -10v-35c0 -7.33301 -3.66699 -11 -11 -11h-155c-10 0 -15 4.33301 -15 13v884
c0 6.66699 4 10 12 10z" />
    <glyph glyph-name="backslash" unicode="\" horiz-adv-x="342" 
d="M259 -31l-246 757c-0.666992 2 -1 4.66699 -1 8c0 5.33301 3 8 9 8h44c6.66699 0 11 -3 13 -9l251 -768l1 -3c0 -4 -3 -6 -9 -6h-44c-8 0 -14 4.33301 -18 13z" />
    <glyph glyph-name="bracketright" unicode="]" horiz-adv-x="287" 
d="M197 -152c0 -8.66699 -5 -13 -15 -13h-155c-7.33301 0 -11 3.66699 -11 11v35c0 6.66699 3.66699 10 11 10h85c4 0 6.83301 0.666992 8.5 2s2.5 4 2.5 8l-1 772c0 8.66699 -4 13 -12 13h-86c-6 0 -9 2.66699 -9 8v41c0 4.66699 3 7 9 7h161c8 0 12 -3.33301 12 -10v-884z
" />
    <glyph glyph-name="asciicircum" unicode="^" horiz-adv-x="476" 
d="M244 423c-2 4 -4.33301 6.00098 -7 6.00098s-5 -2 -7 -6l-112 -282c-1.33301 -2.66699 -3.16602 -4.5 -5.49902 -5.5s-5.5 -1.5 -9.5 -1.5h-45c-8 0 -10.333 4.66699 -7 14l146 356c4.66699 11.333 10.667 20.166 18 26.499s14.666 9.5 21.999 9.5c8 0 15.5 -3 22.5 -9
s12.833 -15 17.5 -27l147 -359c0.666992 -1.33301 1 -3.33301 1 -6c0 -4.66699 -3.33301 -7 -10 -7h-43c-9.33301 0 -15 3 -17 9z" />
    <glyph glyph-name="underscore" unicode="_" horiz-adv-x="518" 
d="M456 -104c0 -4.66699 -1.16699 -8 -3.5 -10s-6.5 -3 -12.5 -3l-365 -1c-8.66699 0 -13 4 -13 12v44c0 8 3 12 9 12h375c6.66699 0 10 -3.33301 10 -10v-44z" />
    <glyph glyph-name="grave" unicode="`" horiz-adv-x="285" 
d="M31 751.5c2 1 4.33398 0.833008 7.00098 -0.5l232 -96c5.33301 -2.66699 6.66602 -7.33398 3.99902 -14.001l-8 -22c-1.33301 -4.66699 -3.16602 -7.5 -5.49902 -8.5s-5.83301 -0.833008 -10.5 0.5l-228 72c-10.667 2.66699 -14.334 8.33398 -11.001 17.001l16 46
c0.666992 2.66699 2 4.5 4 5.5z" />
    <glyph glyph-name="a" unicode="a" horiz-adv-x="548" 
d="M207 -10c-52 0 -92.833 13.167 -122.5 39.5s-44.5 61.5 -44.5 105.5c0 53.333 22.5 95.333 67.5 126s110.167 48.667 195.5 54l78 6c11.333 1.33301 17 6.33301 17 15v27c0 36 -11.167 64.5 -33.5 85.5s-52.5 31.5 -90.5 31.5c-58.667 0 -106.667 -26.667 -144 -80
c-2 -3.33301 -4 -5.5 -6 -6.5s-4.66699 -0.833008 -8 0.5l-54 18c-3.33301 1.33301 -5 3.66602 -5 6.99902c0 2 1 5 3 9c20 35.333 48.5 62.833 85.5 82.5s80.833 29.5 131.5 29.5c65.333 0 115.333 -15.167 150 -45.5s52 -72.166 52 -125.499v-354c0 -6 -1 -10 -3 -12
s-5.66699 -3 -11 -3h-50c-8 -0 -12.667 5.33301 -14 16l-2 46c-0.666992 4.66699 -2.33398 7 -5.00098 7s-5.66699 -1.66699 -9 -5c-51.333 -49.333 -110.666 -74 -177.999 -74zM383 270l-64.999 -6c-62 -4 -109.833 -16 -143.5 -36s-50.5 -47.667 -50.5 -83
c0 -28.667 10.167 -51.334 30.5 -68.001s47.5 -25 81.5 -25c20.667 0 41 3.66699 61 11s37.667 17.333 53 30c15.333 12 27.166 24.833 35.499 38.5s12.5 26.834 12.5 39.501v83c0 10.667 -5 16 -15 16z" />
    <glyph glyph-name="b" unicode="b" 
d="M93 0c-6 0 -10.166 1.16699 -12.499 3.5s-3.5 6.5 -3.5 12.5v712c0 9.33301 4 14 12 14h62c6.66699 0 10 -4.66699 10 -14v-245c0 -7.33301 1.66699 -11 5 -11c2 0 5.33301 1.66699 10 5c44.667 42 98 63 160 63c70 0 123.167 -25.167 159.5 -75.5
s54.5 -115.833 54.5 -196.5c0 -86 -20.167 -153.833 -60.5 -203.5s-96.166 -74.5 -167.499 -74.5c-40.667 0 -74.334 8.16699 -101.001 24.5s-47.334 34.5 -62.001 54.5c-2 2.66699 -4 4 -6 4c-2.66699 0 -4.33398 -2.33301 -5.00098 -7l-5 -50
c-1.33301 -6 -3.16602 -10.167 -5.49902 -12.5s-6.5 -3.5 -12.5 -3.5h-32zM161.001 179c0 -23.333 6.83398 -44.832 20.501 -64.499s31.5 -35.334 53.5 -47.001s45 -17.5 69 -17.5c48 0 86.5 18 115.5 54s43.5 90 43.5 162c0 68 -13 120.5 -39 157.5s-63.667 55.5 -113 55.5
c-30 0 -57.833 -6.66699 -83.5 -20s-47.834 -31.333 -66.501 -54v-226z" />
    <glyph glyph-name="c" unicode="c" horiz-adv-x="542" 
d="M421.5 506c34.333 -22.667 61.833 -52.6641 82.5 -89.9971l2 -8c0 -4 -2.33301 -6.33301 -7 -7l-55 -13l-3 -1c-3.33301 0 -6.66602 2.66699 -9.99902 8c-21.333 28.667 -41.833 49.667 -61.5 63s-42.167 20 -67.5 20c-52 0 -93.333 -19.167 -124 -57.5
s-46 -90.166 -46 -155.499c0 -66 15.5 -118 46.5 -156s72.833 -57 125.5 -57c31.333 0 58.833 7.66699 82.5 23s45.167 39 64.5 71c2 3.33301 4 5.16602 6 5.49902s4.33301 -0.166992 7 -1.5l43 -16c4.66699 -2 6 -6.33301 4 -13c-20.667 -38.667 -49 -70.167 -85 -94.5
s-79 -36.5 -129 -36.5c-48.667 0 -92 11.5 -130 34.5s-67.667 55.167 -89 96.5s-32 88.666 -32 141.999s10.667 101.166 32 143.499s51.166 75.166 89.499 98.499s81.5 35 129.5 35c48.667 0 90.167 -11.333 124.5 -34z" />
    <glyph glyph-name="d" unicode="d" 
d="M440 14v43c0 6 -1.66699 9 -5 9c-2 0 -4.66699 -1.66699 -8 -5c-20 -20 -41.833 -36.833 -65.5 -50.5s-54.167 -20.5 -91.5 -20.5c-42.667 0 -80.667 10 -114 30s-59.666 50.167 -78.999 90.5s-29 89.166 -29 146.499c0 56 10 105.333 30 148s47.667 75.834 83 99.501
s75.666 35.5 120.999 35.5c30 0 56 -4.66699 78 -14s42.667 -22.333 62 -39c5.33301 -4 9 -6 11 -6c3.33301 0 5 4.33301 5 13v235c0 8.66699 3.66699 13 11 13h61c7.33301 0 11 -4.33301 11 -13v-713c0 -6 -1 -10.167 -3 -12.5s-6.33301 -3.5 -13 -3.5h-51
c-9.33301 0 -14 4.66699 -14 14zM372.5 461.5c-21.667 11 -45.165 16.499 -70.498 16.499c-50.667 0 -91.334 -19 -122.001 -57s-46 -91.667 -46 -161c0 -70 15.167 -122.333 45.5 -157s69.166 -52 116.499 -52c26 0 49.833 6.16699 71.5 18.5s38.667 27.833 51 46.5
s18.5 37.334 18.5 56.001v241c-21.333 21.333 -42.833 37.5 -64.5 48.5z" />
    <glyph glyph-name="e" unicode="e" horiz-adv-x="581" 
d="M156.5 143c15.667 -27.333 36.835 -49 63.502 -65s56 -24 88 -24c66.667 0 118.667 27.667 156 83c2.66699 2.66699 5 4.16699 7 4.5s4.33301 -0.166992 7 -1.5l42 -21c5.33301 -3.33301 6 -8 2 -14c-26 -40 -57 -69.167 -93 -87.5s-79 -27.5 -129 -27.5
c-48.667 0 -92.334 11.333 -131.001 34s-68.834 54.5 -90.501 95.5s-32.5 87.833 -32.5 140.5c0 56.667 11 106.167 33 148.5s52.167 74.833 90.5 97.5s81.5 34 129.5 34s90.167 -10.667 126.5 -32s64.5 -52.5 84.5 -93.5s30 -89.5 30 -145.5v-4c0 -6 -1 -10.5 -3 -13.5
s-6 -4.5 -12 -4.5h-383c-6 0 -9 -5 -9 -15c0 -32 7.83301 -61.667 23.5 -89zM439.001 302c7.33301 0 11.998 0.833008 13.998 2.5s3 5.5 3 11.5c0 29.333 -6.16699 56.5 -18.5 81.5s-30.333 45 -54 60s-51.167 22.5 -82.5 22.5c-34 0 -63.667 -8.5 -89 -25.5
s-44.666 -39 -57.999 -66s-19.666 -55.833 -18.999 -86.5h304z" />
    <glyph glyph-name="f" unicode="f" horiz-adv-x="379" 
d="M355 520v-43c0 -6 -3.33301 -9 -10 -9h-114c-5.33301 0 -8 -3 -8 -9v-445c0 -9.33301 -4 -14 -12 -14h-61c-7.33301 -0 -11 4.33301 -11 13v447c0 5.33301 -2.33301 8 -7 8h-98c-6.66699 0 -10 3 -10 9v43c0 6.66699 3.66699 10 11 10h95c6 0 9 3.33301 9 10v73
c0 86 41.667 129 125 129h83c8.66699 0 13 -4 13 -12v-39c0 -6.66699 -3.66699 -10 -11 -10h-70c-38.667 0 -58 -24 -58 -72v-70c0 -6 3 -9 9 -9h115c6.66699 0 10 -3.33301 10 -10z" />
    <glyph glyph-name="g" unicode="g" horiz-adv-x="602" 
d="M575 523l-0.000976562 -34.999c0 -6.66699 -1.5 -11.5 -4.5 -14.5s-8.16699 -4.16699 -15.5 -3.5c-22 0 -39.333 -3 -52 -9c-16 -6.66699 -22.667 -14.334 -20 -23.001c0.666992 -2.66699 2.66699 -7.66699 6 -15s6 -15.5 8 -24.5s3 -18.5 3 -28.5
c0 -47.333 -18.5 -86 -55.5 -116s-90.833 -45 -161.5 -45c-47.333 0 -81.333 -4 -102 -12s-31 -18.333 -31 -31c0 -10 7 -17.5 21 -22.5s37.333 -8.5 70 -10.5l129 -7c57.333 -3.33301 100 -17 128 -41s42 -56.667 42 -98c0 -50.667 -22.167 -90.334 -66.5 -119.001
s-107.5 -43 -189.5 -43c-84.667 0 -149.167 12.167 -193.5 36.5s-66.5 59.166 -66.5 104.499c0 44.667 31.333 82.334 94 113.001c7.33301 3.33301 7.33301 7 0 11c-30.667 13.333 -46 33 -46 59c0 14.667 6.83301 28.667 20.5 42s33.167 24.333 58.5 33
c3.33301 0.666992 5 2.33398 5 5.00098c0 3.33301 -1.66699 5.66602 -5 6.99902c-29.333 15.333 -51 33.833 -65 55.5s-21 47.834 -21 78.501c0 52 19.667 93 59 123s95 45 167 45c63.333 0 113.333 -15 150 -45c4.66699 -3.33301 8 -5 10 -5
c2.66699 0 6.33398 1.66699 11.001 5c12.667 12.667 27.5 23.5 44.5 32.5s33.5 13.5 49.5 13.5c12.667 0 19 -5.33301 19 -16zM386.499 290.001c23 18.667 34.499 45.666 34.499 80.999c0 36 -11.667 64 -35 84s-57.666 30 -102.999 30c-44 0 -78.333 -10.167 -103 -30.5
s-37 -48.166 -37 -83.499c0 -34.667 12.167 -61.5 36.5 -80.5s58.833 -28.5 103.5 -28.5c46 0 80.5 9.33301 103.5 28zM194.998 65c-12 0.666992 -25.667 -2.83203 -41 -10.499s-28.333 -18.5 -39 -32.5s-16 -29.333 -16 -46c0 -32 16.333 -56.5 49 -73.5
s81 -25.5 145 -25.5c112.667 0 169 33.333 169 100c0 23.333 -7.83301 41.666 -23.5 54.999s-41.167 21 -76.5 23z" />
    <glyph glyph-name="h" unicode="h" horiz-adv-x="584" 
d="M78 13v715.999c0 8.66699 3.66699 13 11 13h59c7.33301 0 11 -4 11 -12v-267c0 -7.33301 3 -8.33301 9 -3c38 29.333 70.333 50 97 62s56 18 88 18c51.333 0 90.833 -13.667 118.5 -41s41.5 -64.333 41.5 -111v-372c0 -10.667 -5 -16 -15 -16h-56
c-8.66699 0 -13 4.33301 -13 13v357c0 33.333 -8.5 59 -25.5 77s-43.167 27 -78.5 27c-28 0 -53.5 -6.16699 -76.5 -18.5s-51.833 -33.166 -86.5 -62.499v-378c0 -10 -5.33301 -15 -16 -15h-55c-8.66699 -0 -13 4.33301 -13 13z" />
    <glyph glyph-name="i" unicode="i" horiz-adv-x="239" 
d="M165 644c0 -6.66699 -1.33203 -11.499 -3.99902 -14.499s-7.33398 -4.5 -14.001 -4.5h-58c-10 0 -15 5.66699 -15 17v84c0 10.667 4.66699 16 14 16h63c4 0 7.33301 -1.33301 10 -4s4 -6.33398 4 -11.001v-83zM161.001 17.001
c0 -6.66699 -1.33203 -11.167 -3.99902 -13.5s-7.33398 -3.5 -14.001 -3.5h-51c-6 0 -10 1 -12 3s-3 5.66699 -3 11v502c0 9.33301 4 14 12 14h61c7.33301 0 11 -4.33301 11 -13v-500z" />
    <glyph glyph-name="j" unicode="j" horiz-adv-x="239" 
d="M165 644c0 -12.667 -5.66699 -18.999 -17 -18.999h-59c-10 0 -15 5.66699 -15 17v84c0 4.66699 1.33301 8.5 4 11.5s6 4.5 10 4.5h64c4 0 7.16699 -1.33301 9.5 -4s3.5 -6.33398 3.5 -11.001v-83zM130.5 -136.499c-21 -22.333 -57.166 -33.501 -108.499 -33.501
c-28.667 0 -46.834 0.833008 -54.501 2.5s-11.5 5.16699 -11.5 10.5v44c0 7.33301 3.33301 11 10 11l51 3c21.333 1.33301 36.833 7.5 46.5 18.5s14.5 30.167 14.5 57.5v539c0 9.33301 4 14 12 14h61c7.33301 0 11 -4.33301 11 -13v-546
c0 -49.333 -10.5 -85.166 -31.5 -107.499z" />
    <glyph glyph-name="k" unicode="k" horiz-adv-x="564" 
d="M537 9c0 -6 -3.66504 -8.99902 -10.998 -8.99902h-70c-4 0 -7.33301 0.833008 -10 2.5s-5.33398 4.83398 -8.00098 9.50098l-151 259c-1.33301 3.33301 -3 5.16602 -5 5.49902s-4.33301 -0.833984 -7 -3.50098l-106 -107c-4.66699 -4.66699 -7 -11.334 -7 -20.001v-129
c0 -6.66699 -1.33301 -11.167 -4 -13.5s-7.33398 -3.5 -14.001 -3.5h-51c-6 0 -10 1 -12 3s-3 5.66699 -3 11v714c0 9.33301 3.66699 14 11 14h61c8 0 12 -4.33301 12 -13v-464c0 -6.66699 1 -10 3 -10s4.33301 2 7 6l247 257c7.33301 8 14.333 12 21 12h61
c8 0 12 -2.33301 12 -7c0 -2 -2.33301 -6 -7 -12l-158 -161c-2.66699 -4 -4 -7 -4 -9s1 -4.66699 3 -8l188 -317c1.33301 -1.33301 2 -3.66602 2 -6.99902z" />
    <glyph glyph-name="l" unicode="l" horiz-adv-x="239" 
d="M162 17c0 -6.66699 -1.33203 -11.167 -3.99902 -13.5s-7.33398 -3.5 -14.001 -3.5h-52c-6 0 -10 1 -12 3s-3 5.66699 -3 11l1 714c0 9.33301 4 14 12 14h60c8 0 12 -4.33301 12 -13v-712z" />
    <glyph glyph-name="m" unicode="m" horiz-adv-x="906" 
d="M77 13l-0.000976562 503.998c0 8.66699 3.66699 13 11 13h60c6.66699 0 10 -3.66699 10 -11v-58c0 -8 3.33301 -9 10 -3c36 29.333 66.667 50.333 92 63s53.666 19 84.999 19c37.333 0 68.166 -8.33301 92.499 -25s40.833 -37.667 49.5 -63
c1.33301 -2 2.66602 -3 3.99902 -3c2 0 5.33301 1.66699 10 5c34.667 29.333 65.834 51 93.501 65s56.834 21 87.501 21c48 0 85.5 -13.667 112.5 -41s40.5 -64.333 40.5 -111v-372c0 -10.667 -5 -16 -15 -16h-56c-8.66699 0 -13 4.33301 -13 13v357c0 33.333 -8 59 -24 77
s-40 27 -72 27c-26.667 0 -51.667 -6.5 -75 -19.5s-46 -29.167 -68 -48.5c-5.33301 -5.33301 -9 -10 -11 -14s-3 -9 -3 -15v-361c0 -10.667 -5 -16 -15 -16h-56c-8.66699 0 -13 4.33301 -13 13v357c0 69.333 -32 104 -96 104c-26.667 0 -51.167 -6.16699 -73.5 -18.5
s-50.166 -33.166 -83.499 -62.499v-378c0 -5.33301 -1.16699 -9.16602 -3.5 -11.499s-6.16602 -3.5 -11.499 -3.5h-55c-9.33301 -0 -14 4.33301 -14 13z" />
    <glyph glyph-name="n" unicode="n" horiz-adv-x="584" 
d="M77 13v503.998c0 8.66699 3.66699 13 11 13h60c7.33301 0 11 -3.66699 11 -11v-58c0 -7.33301 3 -8.33301 9 -3c37.333 29.333 69.166 50.333 95.499 63s55.833 19 88.5 19c50.667 0 90.167 -13.667 118.5 -41s42.5 -64 42.5 -110v-373c0 -10.667 -5 -16 -15 -16h-56
c-8.66699 0 -13 4.33301 -13 13v357c0 33.333 -8.5 59 -25.5 77s-43.167 27 -78.5 27c-28 0 -53.833 -6.16699 -77.5 -18.5s-52.5 -33.166 -86.5 -62.499v-378c0 -5.33301 -1.16699 -9.16602 -3.5 -11.499s-6.16602 -3.5 -11.499 -3.5h-55c-9.33301 -0 -14 4.33301 -14 13z
" />
    <glyph glyph-name="o" unicode="o" 
d="M166.5 24.5c-38.333 23 -68 55.166 -89 96.499s-31.5 88.333 -31.5 141c0 54 10.833 102 32.5 144s51.667 74.833 90 98.5s82.166 35.5 131.499 35.5s93.166 -11.833 131.499 -35.5s68 -56.5 89 -98.5s31.5 -89.667 31.5 -143c0 -52.667 -10.667 -99.667 -32 -141
s-51.166 -73.666 -89.499 -96.999s-82.166 -35 -131.499 -35c-50 0 -94.167 11.5 -132.5 34.5zM422.5 109.499c29 37.667 43.5 89.5 43.5 155.5c0 65.333 -14.833 117.166 -44.5 155.499s-70.167 57.5 -121.5 57.5c-52 0 -93 -19.167 -123 -57.5s-45 -90.166 -45 -155.499
s15 -117 45 -155s71.333 -57 124 -57c52 0 92.5 18.833 121.5 56.5z" />
    <glyph glyph-name="p" unicode="p" horiz-adv-x="597" 
d="M160 515l-0.000976562 -41.999c0 -6 1.66699 -9 5 -9c2 0 4.66699 1.66699 8 5c14 14 26.333 25.333 37 34s26.334 17 47.001 25s45 12 73 12c42 0 79.5 -10 112.5 -30s59 -50 78 -90s28.5 -89 28.5 -147c0 -58.667 -9.5 -109.334 -28.5 -152.001
s-45.833 -75.167 -80.5 -97.5s-75 -33.5 -121 -33.5c-55.333 0 -102.666 16.667 -141.999 50c-4.66699 4.66699 -8.33398 7 -11.001 7c-3.33301 0 -5 -4.33301 -5 -13v-186c0 -8.66699 -3.66699 -13 -11 -13h-62c-7.33301 0 -11 4.33301 -11 13v666
c0 5.33301 1.16699 9.33301 3.5 12s6.5 4 12.5 4h53c9.33301 0 14 -5 14 -15zM225.499 67.501c21.667 -11 45.499 -16.499 71.499 -16.499c50 0 90.167 19 120.5 57s45.5 92.667 45.5 164c0 69.333 -15 121.166 -45 155.499s-68.667 51.5 -116 51.5
c-26.667 0 -50.667 -5.83301 -72 -17.5s-38.166 -26.5 -50.499 -44.5s-18.5 -35.667 -18.5 -53v-247c21.333 -22 42.833 -38.5 64.5 -49.5z" />
    <glyph glyph-name="q" unicode="q" 
d="M507 530c5.33301 0 9.16992 -1.33398 11.5029 -4.00098s3.5 -7 3.5 -13v-665c0 -8.66699 -4 -13 -12 -13h-61c-7.33301 0 -11 4.33301 -11 13v184c0 9.33301 -1.33301 14 -4 14c-2 0 -5.66699 -2 -11 -6c-19.333 -14.667 -41.666 -26.667 -66.999 -36
s-52.333 -14 -81 -14c-46.667 0 -87 11.333 -121 34s-60.167 54.834 -78.5 96.501s-27.5 90.5 -27.5 146.5c0 54.667 9.16699 102.5 27.5 143.5s44.666 72.833 78.999 95.5s75.166 34 122.499 34c43.333 0 77.166 -6.83301 101.499 -20.5s45.5 -30.5 63.5 -50.5
c3.33301 -3.33301 5.33301 -5 6 -5c2 0 3.66699 2.66699 5 8l7 42c1.33301 6 3.16602 10.167 5.49902 12.5s6.5 3.5 12.5 3.5h29zM438.004 350.999c0 22.667 -6.16797 43.999 -18.501 63.999s-29.333 36 -51 48s-45.5 18 -71.5 18c-47.333 0 -86.333 -18.167 -117 -54.5
s-46 -89.166 -46 -158.499s15 -122.833 45 -160.5s69.667 -56.5 119 -56.5c26.667 0 52.334 5.66699 77.001 17s45.667 27 63 47v236z" />
    <glyph glyph-name="r" unicode="r" horiz-adv-x="383" 
d="M77 13l-0.000976562 504.002c0 8.66699 3.66699 13 11 13h58c7.33301 0 11 -3.66699 11 -11v-65c0 -4 1.16699 -6.33301 3.5 -7s4.83301 0.666016 7.5 3.99902c50.667 59.333 102.334 89 155.001 89c23.333 0 35 -4.33301 35 -13v-60c0 -6.66699 -3 -9.33398 -9 -8.00098
c-12 2 -27 3 -45 3c-19.333 0 -40.333 -5.66699 -63 -17s-41.667 -26 -57 -44s-23 -36.333 -23 -55v-331c0 -10 -5 -15 -15 -15h-55c-9.33301 -0 -14 4.33301 -14 13z" />
    <glyph glyph-name="s" unicode="s" horiz-adv-x="512" 
d="M337.5 462.5c-24.333 12.333 -52.501 18.498 -84.501 18.498c-36.667 0 -66.667 -7.83301 -90 -23.5s-35 -36.167 -35 -61.5c0 -15.333 5.83301 -29.166 17.5 -41.499s32.834 -23.166 63.501 -32.499l127 -38c44 -12 76.667 -29.833 98 -53.5s32 -51.834 32 -84.501
c0 -30.667 -9.33301 -57.834 -28 -81.501s-44.334 -42 -77.001 -55s-69.667 -19.5 -111 -19.5c-51.333 0 -97 10.167 -137 30.5s-68.333 46.833 -85 79.5c-2 3.33301 -3 6 -3 8c0 3.33301 1.66699 6 5 8l39 22c6.66699 4 11.667 3.66699 15 -1
c36 -57.333 91.667 -86 167 -86c39.333 0.666992 71.833 8.83398 97.5 24.501s38.5 36.167 38.5 61.5c0 18.667 -7.66699 34.334 -23 47.001s-40.333 24 -75 34l-103 29c-48.667 12.667 -83.5 30.334 -104.5 53.001s-31.5 50.334 -31.5 83.001c0 30.667 8.5 58 25.5 82
s41 42.5 72 55.5s66.5 19.5 106.5 19.5c44 0 83.5 -8.33301 118.5 -25s61.833 -39.334 80.5 -68.001c4.66699 -6.66699 4.33398 -11.334 -0.999023 -14.001l-42 -23c-2.66699 -1.33301 -4.66699 -2 -6 -2c-2.66699 0 -5.66699 1.66699 -9 5
c-14 20.667 -33.167 37.167 -57.5 49.5z" />
    <glyph glyph-name="t" unicode="t" horiz-adv-x="387" 
d="M217 468c-5.33301 0 -8.00098 -3.00098 -8.00098 -9.00098v-317c0 -30 5 -50.667 15 -62s26.333 -17 49 -17h69c7.33301 0 11 -3.66699 11 -11l-1 -34c0 -6.66699 -4 -11 -12 -13c-17.333 -3.33301 -48.666 -5 -93.999 -5c-42 0 -72.667 9.83301 -92 29.5
s-29 50.834 -29 93.501v334c0 7.33301 -3.33301 11 -10 11h-80c-7.33301 0 -11 3.33301 -11 10v42c0 6.66699 3.33301 10 10 10h85c4.66699 0 7 2.66699 7 8l11 159c0 8.66699 3.66699 13 11 13h50c8 0 12 -4.66699 12 -14v-158c0 -5.33301 2.66699 -8 8 -8h126
c7.33301 0 11 -3 11 -9v-43c0 -6.66699 -3.66699 -10 -11 -10h-127z" />
    <glyph glyph-name="u" unicode="u" horiz-adv-x="579" 
d="M337.5 78.5c26.333 15 53.168 36.5 80.501 64.5v373c0 9.33301 5.33301 14 16 14h55c9.33301 0 14 -4.66699 14 -14l-2 -503c0 -8.66699 -3.66699 -13 -11 -13h-58c-7.33301 0 -11 3.66699 -11 11v59c0 8 -3 9 -9 3c-36 -30.667 -68 -52.167 -96 -64.5
s-56.667 -18.5 -86 -18.5c-46.667 0 -85 14 -115 42s-45 65 -45 111v372c0 10 5 15 15 15h56c8.66699 0 13 -4.66699 13 -14v-351c0 -33.333 9.16699 -59.833 27.5 -79.5s43.5 -29.5 75.5 -29.5c27.333 0 54.166 7.5 80.499 22.5z" />
    <glyph glyph-name="v" unicode="v" horiz-adv-x="547" 
d="M517.5 525.5c1.66699 -3 1.83301 -6.16699 0.5 -9.5l-203 -501c-3.33301 -10 -11 -15 -23 -15h-36c-12.667 0 -21 4.66699 -25 14l-202 501c-0.666992 1.33301 -1 3 -1 5c0 6.66699 4 10 12 10h62c7.33301 0 12.666 -3.66699 15.999 -11l157 -393
c2 -6.66699 4.33301 -10 7 -10s5.66699 3.66699 9 11l156 392c2 7.33301 7 11 15 11h46c4.66699 0 7.83398 -1.5 9.50098 -4.5z" />
    <glyph glyph-name="w" unicode="w" horiz-adv-x="796" 
d="M764 525.5c2 -3 2.33398 -6.16699 1.00098 -9.5l-153 -503c-2.66699 -8.66699 -9 -13 -19 -13h-48c-11.333 -0 -18.333 4.33301 -21 13l-119 374c-2 6 -4.33301 9 -7 9c-1.33301 0 -3 -3 -5 -9l-113 -374c-2.66699 -8.66699 -9 -13 -19 -13h-51
c-11.333 -0 -18.333 4.33301 -21 13l-157 502c-0.666992 1.33301 -1 3 -1 5c0 6.66699 4 10 12 10h59c7.33301 0 12.666 -3.66699 15.999 -11l119 -389c2 -6.66699 4.33301 -10 7 -10c2 0 4.66699 3.66699 8 11l118 389c2 6.66699 6.66699 10 14 10h47
c8 0 13 -3.66699 15 -11l123 -389c2 -6.66699 4.33301 -10 7 -10s5 3.66699 7 11l115 388c3.33301 7.33301 9 11 17 11h40c4 0 7 -1.5 9 -4.5z" />
    <glyph glyph-name="x" unicode="x" horiz-adv-x="544" 
d="M517 6c0 -4 -3.66992 -6.00293 -11.0029 -6.00293h-70c-10 0 -17 3 -21 9l-141 194c-3.33301 5.33301 -6 8 -8 8s-5 -2.66699 -9 -8l-147 -194c-4 -6 -11 -9 -21 -9h-47c-9.33301 0 -14 3 -14 9c0 3.33301 2.33301 8.33301 7 15l182 232
c3.33301 4.66699 5 8.33398 5 11.001s-1.66699 6.33398 -5 11.001l-174 236c-2 2 -3 4.33301 -3 7s1 4.83398 3 6.50098s4.66699 2.5 8 2.5h67c4.66699 0 8.33398 -0.666992 11.001 -2s5.33398 -3.66602 8.00098 -6.99902l135 -183c3.33301 -4 6 -6 8 -6c2.66699 0 5 2 7 6
l131 183c2.66699 3.33301 5.33398 5.66602 8.00098 6.99902s6.66699 2 12 2h52c6.66699 0 10 -2 10 -6c0 -1.33301 -1.33301 -4 -4 -8l-169 -226c-3.33301 -4.66699 -5 -8 -5 -10c0 -3.33301 1.66699 -7.33301 5 -12l183 -247c4.66699 -6.66699 7 -11.667 7 -15z" />
    <glyph glyph-name="y" unicode="y" horiz-adv-x="530" 
d="M58 -163c-8.66699 1.33301 -12.999 5 -12.999 11v39c0 4.66699 1.83301 8 5.5 10s11.167 3 22.5 3h63c16 0 30.667 5.83301 44 17.5s23.833 26.167 31.5 43.5s11.5 34 11.5 50c0 10 -1.33301 18 -4 24l-191 478c-0.666992 1.33301 -1 3.33301 -1 6c0 7.33301 4 11 12 11
h62c7.33301 0 12.666 -3.66699 15.999 -11l149 -388c2 -6 4.66699 -9 8 -9c4 0 7.33301 4 10 12l147 385c3.33301 7.33301 8 11 14 11h47c4 0 7 -1.5 9 -4.5s2.33301 -6.16699 1 -9.5l-220 -563c-18 -45.333 -40.333 -76.333 -67 -93s-63 -25 -109 -25
c-23.333 0 -39.333 0.666992 -48 2z" />
    <glyph glyph-name="z" unicode="z" horiz-adv-x="482" 
d="M33.5 2.5c-1.66699 1.66699 -2.5 4.83301 -2.5 9.5v29c0 5.33301 0.833008 9.83301 2.5 13.5s4.83398 8.83398 9.50098 15.501l291 391l3 6c0 2.66699 -2.66699 4 -8 4h-265c-4 0 -6.83301 0.666992 -8.5 2s-2.5 4.33301 -2.5 9v37c0 7.33301 3.33301 11 10 11h370
c6 0 9 -3.33301 9 -10v-32c0 -8.66699 -3.33301 -17.334 -10 -26.001l-292 -392c-2.66699 -3.33301 -3.66699 -6 -3 -8s2.66699 -3 6 -3h294c7.33301 0 11 -3 11 -9v-38c0 -8 -4.33301 -12 -13 -12h-392c-4.66699 -0 -7.83398 0.833008 -9.50098 2.5z" />
    <glyph glyph-name="braceleft" unicode="{" horiz-adv-x="305" 
d="M151 714c23.333 18.667 54.3311 27.999 92.998 27.999h37c6 0 9 -2.33301 9 -7v-41c0 -5.33301 -3 -8 -9 -8h-25c-24 0 -40.667 -4.33301 -50 -13s-14 -22 -14 -40v-221c-0.666992 -36.667 -10.5 -64.834 -29.5 -84.501s-42.5 -31.167 -70.5 -34.5
c-4 -0.666992 -6.16699 -1.66699 -6.5 -3s1.83398 -2.33301 6.50098 -3c28 -2 51.5 -12.5 70.5 -31.5s28.833 -47.833 29.5 -86.5v-223c0 -20 4.66699 -34.167 14 -42.5s26 -12.5 50 -12.5h23c7.33301 0 11 -3.33301 11 -10v-35c0 -7.33301 -3.66699 -11 -11 -11h-34
c-39.333 0 -70.666 9.5 -93.999 28.5s-35 44.167 -35 75.5v225c0 26.667 -9.66699 49.834 -29 69.501s-46.333 29.5 -81 29.5c-4 0 -6 3.33301 -6 10v34c0 6.66699 2 10 6 10c36 0.666992 63.333 10.334 82 29.001s28 43.667 28 75v218c0 31.333 11.667 56.333 35 75z" />
    <glyph glyph-name="bar" unicode="|" horiz-adv-x="261" 
d="M110 -165c-8 0 -12 4.33301 -12 13l-1 987c0 8 3.66699 12 11 12h44c8 0 12 -4 12 -12v-989c0 -7.33301 -3.66699 -11 -11 -11h-43z" />
    <glyph glyph-name="braceright" unicode="}" horiz-adv-x="305" 
d="M189 421c0 -31.333 9.33105 -56.332 27.998 -74.999s46 -28.334 82 -29.001c4 0 6 -3.33301 6 -10v-34c0 -6.66699 -2 -10 -6 -10c-34.667 0 -61.667 -9.83301 -81 -29.5s-29 -42.834 -29 -69.501v-225c0 -31.333 -11.667 -56.5 -35 -75.5s-54.666 -28.5 -93.999 -28.5
h-34c-7.33301 0 -11 3.66699 -11 11v35c0 6.66699 3.66699 10 11 10h23c24 0 40.667 4.16699 50 12.5s14 22.5 14 42.5v223c0.666992 38.667 10.5 67.5 29.5 86.5s42.5 29.5 70.5 31.5c4.66699 0.666992 6.83398 1.66699 6.50098 3s-2.5 2.33301 -6.5 3
c-28 3.33301 -51.5 14.833 -70.5 34.5s-28.833 47.834 -29.5 84.501v221c0 18 -4.66699 31.333 -14 40s-26 13 -50 13h-25c-6 0 -9 2.66699 -9 8v41c0 4.66699 3 7 9 7h37c38.667 0 69.667 -9.33301 93 -28s35 -43.667 35 -75v-218z" />
    <glyph glyph-name="asciitilde" unicode="~" horiz-adv-x="568" 
d="M454.5 334c-21 -10 -45.166 -15.001 -72.499 -15.001c-18.667 0 -35.334 2.33301 -50.001 7s-32 11.334 -52 20.001c-18.667 8 -34 14 -46 18s-25.333 6 -40 6c-22 0 -41.167 -4.33301 -57.5 -13s-31.5 -20 -45.5 -34c-2 -2.66699 -4 -4 -6 -4s-4 2 -6 6l-17 32
c-1.33301 2.66699 -2 4.66699 -2 6c0 3.33301 1.66699 6 5 8c21.333 19.333 41.333 34 60 44s41 15 67 15c17.333 0 33.166 -2.16699 47.499 -6.5s31.833 -11.166 52.5 -20.499c17.333 -8 32.833 -14.167 46.5 -18.5s28.167 -6.5 43.5 -6.5c21.333 0 39 3.83301 53 11.5
s27 18.167 39 31.5c2.66699 3.33301 5.33398 5 8.00098 5c3.33301 0 6 -2.33301 8 -7l15 -30c1.33301 -2.66699 2 -4.66699 2 -6c0 -2.66699 -1.66699 -6.33398 -5 -11.001c-10.667 -15.333 -26.5 -28 -47.5 -38z" />
    <glyph glyph-name="uni00A0" unicode="&#xa0;" horiz-adv-x="214" 
 />
    <glyph glyph-name="exclamdown" unicode="&#xa1;" horiz-adv-x="244" 
d="M164 419h-83c-6.66699 0 -10 4 -10 12v85c0 5.33301 1 9 3 11s6 3 12 3h69c7.33301 0 12.333 -1.16699 15 -3.5s4 -6.5 4 -12.5v-84c0 -7.33301 -3.33301 -11 -10 -11zM173 -157c0 -5.33301 -3.00195 -8.00098 -9.00195 -8.00098h-82c-3.33301 0 -5.83301 1 -7.5 3
s-2.16699 4.66699 -1.5 8l21 492c0.666992 4.66699 1.83398 7.83398 3.50098 9.50098s4.83398 2.5 9.50098 2.5h29c10.667 0 16 -4.66699 16 -14l21 -491v-2z" />
    <glyph glyph-name="cent" unicode="&#xa2;" horiz-adv-x="558" 
d="M511 232c-19.333 -35.333 -44.668 -64.833 -76.001 -88.5s-68.666 -37.5 -111.999 -41.5v-85c0 -11.333 -6 -17 -18 -17h-30c-6 -0 -10.167 1.33301 -12.5 4s-3.5 6.66699 -3.5 12v88c-42 5.33301 -79.167 20 -111.5 44s-57.333 55.5 -75 94.5s-26.5 82.833 -26.5 131.5
s9 92.667 27 132s43 71.333 75 96s69 40 111 46v80c0 9.33301 5 14 15 14h35c9.33301 0 14 -4.33301 14 -13v-79c41.333 -4 77.166 -17 107.499 -39s54.833 -50 73.5 -84l2 -8c0 -4 -2.33301 -6.33301 -7 -7l-55 -13l-3 -1c-3.33301 0 -6.66602 2.66699 -9.99902 8
c-21.333 28.667 -41.833 49.667 -61.5 63s-42.167 20 -67.5 20c-52 0 -93.333 -19.167 -124 -57.5s-46 -90.166 -46 -155.499c0 -66 15.5 -118 46.5 -156s72.833 -57 125.5 -57c31.333 0 58.833 7.66699 82.5 23s45.167 39 64.5 71c2 3.33301 4 5.16602 6 5.49902
s4.33301 -0.166992 7 -1.5l43 -16c4.66699 -2 6 -6.33301 4 -13z" />
    <glyph glyph-name="sterling" unicode="&#xa3;" horiz-adv-x="615" 
d="M12 11l0.00195312 53.002c0 6 3 9 9 9h30c28 -0.666992 50.667 11.5 68 36.5s26 61.833 26 110.5c0 26 -3.66699 68.333 -11 127c-0.666992 4.66699 -3 7 -7 7h-90c-5.33301 0 -8 2.66699 -8 8v40c0 5.33301 2.66699 8 8 8h77c5.33301 0 7.66602 2.66699 6.99902 8
l-14 75c-4 20 -6 39 -6 57c0 41.333 9.5 77.166 28.5 107.499s44.667 53.666 77 69.999s67.833 24.5 106.5 24.5c44 0 85 -10.5 123 -31.5s63.667 -47.5 77 -79.5l1 -3c0 -2.66699 -1.33301 -4.5 -4 -5.5s-4.33398 -1.5 -5.00098 -1.5l-54 -19
c-1.33301 -0.666992 -3.33301 -1 -6 -1c-4 0 -6.66699 1.66699 -8 5c-22.667 41.333 -60.667 62 -114 62c-37.333 0 -68.166 -10.833 -92.499 -32.5s-36.5 -50.834 -36.5 -87.501c0 -22 2.33301 -46 7 -72s10 -48.667 16 -68c1.33301 -5.33301 4 -8 8 -8h155
c4.66699 0 7 -2 7 -6v-42c0 -4.66699 -2.33301 -7 -7 -7h-144c-6.66699 0 -9.33398 -2.66699 -8.00098 -8c4.66699 -26 7 -54 7 -84c0 -12 -0.333008 -21.333 -1 -28c-0.666992 -39.333 -6.16699 -71.166 -16.5 -95.499s-21.833 -43.166 -34.5 -56.499
c-4.66699 -6 -3.66699 -9 3 -9h175c34 0 61.667 5.66699 83 17s37.666 30.333 48.999 57c0.666992 2.66699 2.33398 4.66699 5.00098 6s5.66699 1.33301 9 0l50 -13c8 -2.66699 10.667 -6.66699 8 -12c-14 -42.667 -38.167 -74.834 -72.5 -96.501s-76.5 -32.5 -126.5 -32.5
h-343c-7.33301 0 -11 3.66699 -11 11z" />
    <glyph glyph-name="currency" unicode="&#xa4;" horiz-adv-x="537" 
d="M163 214c-6 3.33301 -10.665 3.00098 -13.998 -0.999023l-44 -45c-2.66699 -2.66699 -5.66699 -4 -9 -4c-4 0 -7.66699 1.33301 -11 4l-23 25c-2.66699 2.66699 -4 5.66699 -4 9s1.33301 6 4 8l44 45c2 3.33301 3 6 3 8c0 3.33301 -1 6.33301 -3 9
c-18.667 31.333 -28 65 -28 101c0 38.667 10.333 73.334 31 104.001c2.66699 5.33301 2 9.66602 -2 12.999l-44 45c-2.66699 2.66699 -4 5.66699 -4 9c0 4 1.33301 7.33301 4 10l24 24c3.33301 3.33301 6.66602 5 9.99902 5c2.66699 0 5.33398 -1.33301 8.00098 -4l45 -46
c4 -3.33301 8.66699 -3.66602 14 -0.999023c31.333 20.667 65.666 31 102.999 31c36.667 0 71.667 -10.667 105 -32c4 -3.33301 8 -3 12 1l48 48c2 2 4.16699 3 6.5 3s4.16602 -1 5.49902 -3l31 -31c3.33301 -4 3.33301 -8 0 -12l-49 -49
c-2.66699 -2.66699 -3 -6.33398 -1 -11.001c21.333 -32 32 -66.667 32 -104c0 -40 -10.667 -74.667 -32 -104c-2 -4.66699 -1.66699 -8.33398 1 -11.001l49 -48c4 -4.66699 4 -9 0 -13l-30 -31c-4 -4 -8 -4 -12 0l-47 48c-4 4 -8 4.66699 -12 2
c-32.667 -22 -68 -33 -106 -33s-73 10.333 -105 31zM332.002 266.001c18.667 11.333 33.5 26.5 44.5 45.5s16.5 39.5 16.5 61.5s-5.5 42.5 -16.5 61.5s-25.833 34.167 -44.5 45.5s-39.667 17 -63 17s-44.5 -5.66699 -63.5 -17s-34 -26.5 -45 -45.5s-16.5 -39.5 -16.5 -61.5
s5.5 -42.5 16.5 -61.5s26 -34.167 45 -45.5s40.167 -17 63.5 -17s44.333 5.66699 63 17z" />
    <glyph glyph-name="yen" unicode="&#xa5;" horiz-adv-x="609" 
d="M599.5 738c1.66699 -2.66699 1.16504 -5.99902 -1.50195 -9.99902l-231 -383h137c6.66699 0 10 -3.33301 10 -10v-32c0 -4.66699 -1.33301 -8 -4 -10s-7 -3 -13 -3h-140v-93h147c6.66699 0 10 -3.33301 10 -10v-32c0 -9.33301 -5.66699 -14 -17 -14h-140v-124
c0 -11.333 -6.66699 -17 -20 -17h-60c-10.667 0 -16 5 -16 15v126h-145c-4.66699 0 -7.83398 0.833008 -9.50098 2.5s-2.5 4.83398 -2.5 9.50098v32c0 7.33301 2.66699 11 8 11h149v93h-145c-8 0 -12 4 -12 12v32c0 7.33301 2.66699 11 8 11h128l-227 382
c-1.33301 2 -2 4.33301 -2 7c0 6 4.33301 9 13 9h75c6 0 10.333 -0.833008 13 -2.5s5.33398 -4.83398 8.00098 -9.50098l185 -321c0.666992 -0.666992 1.83398 -2.5 3.50098 -5.5s3.5 -4.5 5.5 -4.5c2.66699 0 5.33398 3 8.00098 9l188 322
c3.33301 5.33301 6.16602 8.66602 8.49902 9.99902s6.5 2 12.5 2h59c4.66699 0 7.83398 -1.33301 9.50098 -4z" />
    <glyph glyph-name="brokenbar" unicode="&#xa6;" horiz-adv-x="261" 
d="M110 438c-8 0 -12 4 -12 12l-1 385c0 8 3.66699 12 11 12h44c8 0 12 -4 12 -12v-387c0 -6.66699 -3.66699 -10 -11 -10h-43zM110 -165c-8 0 -12 4.33301 -12 13l-1 384c0 8.66699 3.66699 13 11 13h44c8 0 12 -4.33301 12 -13v-386c0 -7.33301 -3.66699 -11 -11 -11h-43z
" />
    <glyph glyph-name="section" unicode="&#xa7;" horiz-adv-x="488" 
d="M427 145.5c16 -21 24.001 -45.168 24.001 -72.501c0 -28 -8.16699 -53 -24.5 -75s-39.5 -39.333 -69.5 -52s-64.667 -19 -104 -19c-46.667 0 -89.334 9.83301 -128.001 29.5s-67 45.834 -85 78.501c-3.33301 7.33301 -3.33301 12 0 14l43 23
c2.66699 1.33301 4.66699 2 6 2c3.33301 0 6.33301 -2 9 -6c16.667 -24.667 38.167 -44.167 64.5 -58.5s56.833 -21.5 91.5 -21.5s62.834 6.83301 84.501 20.5s32.5 32.834 32.5 57.501c0 18.667 -7.66699 35.834 -23 51.501s-42 30.834 -80 45.501l-90 35
c-45.333 17.333 -78.333 37.833 -99 61.5s-31 52.167 -31 85.5c0 30.667 9.33301 57.5 28 80.5s43.334 40.5 74.001 52.5c-38 20 -64.167 40.5 -78.5 61.5s-21.5 44.833 -21.5 71.5s7.83301 50.667 23.5 72s38 38.166 67 50.499s62.167 18.5 99.5 18.5
c41.333 0 78.666 -8.83301 111.999 -26.5s58.666 -39.834 75.999 -66.501c4 -6.66699 3.66699 -11.334 -1 -14.001l-39 -22c-4 -1.33301 -6.33301 -2 -7 -2c-3.33301 0 -6.66602 1.66699 -9.99902 5c-36 43.333 -78 65 -126 65c-36 0 -64.167 -6.66699 -84.5 -20
s-30.5 -31 -30.5 -53c0 -16 6.16699 -31 18.5 -45s34.5 -27.667 66.5 -41l85 -34c52.667 -21.333 90.5 -45 113.5 -71s34.5 -57 34.5 -93c0 -31.333 -8.33301 -57.333 -25 -78s-39.334 -38 -68.001 -52c32 -18 56 -37.5 72 -58.5zM344.001 260.499
c18.667 16.333 28 36.167 28 59.5s-6 42.833 -18 58.5s-35.667 30.834 -71 45.501l-57 22c-28.667 -2.66699 -53 -12.834 -73 -30.501s-30 -37.5 -30 -59.5c0 -20 6.16699 -36.5 18.5 -49.5s36.5 -26.833 72.5 -41.5l63 -26c26 -2 48.333 5.16699 67 21.5z" />
    <glyph glyph-name="dieresis" unicode="&#xa8;" horiz-adv-x="250" 
d="M93 647c0 -6 -1.16699 -9.99902 -3.5 -11.999s-6.5 -3 -12.5 -3h-53c-5.33301 0 -9 0.833008 -11 2.5s-3 5.16699 -3 10.5v84c0 4.66699 0.833008 8 2.5 10s4.5 3 8.5 3h61c4 0 6.83301 -0.833008 8.5 -2.5s2.5 -4.83398 2.5 -9.50098v-83zM240 647.001
c0 -6 -1.16699 -9.99902 -3.5 -11.999s-6.83301 -3 -13.5 -3h-52c-6 0 -10 0.833008 -12 2.5s-3 5.16699 -3 10.5v84c0 8.66699 3.66699 13 11 13h62c4 0 6.83301 -0.833008 8.5 -2.5s2.5 -4.83398 2.5 -9.50098v-83z" />
    <glyph glyph-name="copyright" unicode="&#xa9;" horiz-adv-x="830" 
d="M223.5 41c-58.333 34 -104.5 80.167 -138.5 138.5s-51 122.166 -51 191.499c0 68.667 17 132.167 51 190.5s80.167 104.666 138.5 138.999s122.166 51.5 191.499 51.5c68.667 0 132.167 -17.167 190.5 -51.5s104.666 -80.666 138.999 -138.999s51.5 -121.833 51.5 -190.5
c0 -69.333 -17.167 -133.166 -51.5 -191.499s-80.666 -104.5 -138.999 -138.5s-121.833 -51 -190.5 -51c-69.333 0 -133.166 17 -191.499 51zM574.5 90c48.333 26.667 86.835 64.333 115.502 113s43 104.667 43 168c0 62.667 -14.333 118.5 -43 167.5s-67.167 87 -115.5 114
s-101.5 40.5 -159.5 40.5c-58.667 0 -112.334 -13.5 -161.001 -40.5s-87 -65 -115 -114s-42 -104.833 -42 -167.5c0 -64 14 -120.333 42 -169s66.167 -86.167 114.5 -112.5s102.166 -39.5 161.499 -39.5c58 0 111.167 13.333 159.5 40zM514.002 559.499
c27.333 -19 49.667 -43.498 67 -73.498c2.66699 -4.66699 1.33398 -8 -3.99902 -10l-49 -14h-2c-3.33301 0 -6 2 -8 6c-26 43.333 -58.333 65 -97 65c-36.667 0 -66.5 -14.333 -89.5 -43s-34.5 -67.334 -34.5 -116.001s11.667 -87.5 35 -116.5s53.666 -43.5 90.999 -43.5
c24.667 0 46.334 6.66699 65.001 20s34.334 31.333 47.001 54c2 4 6 4.66699 12 2l34 -13c4 -0.666992 5 -4 3 -10c-16 -30.667 -38.167 -56.167 -66.5 -76.5s-61.833 -30.5 -100.5 -30.5c-37.333 0 -70.833 8.83301 -100.5 26.5s-52.667 42.667 -69 75
s-24.5 69.166 -24.5 110.499c0 42 8.33301 79.333 25 112s39.667 58.167 69 76.5s62.666 27.5 99.999 27.5s69.666 -9.5 96.999 -28.5z" />
    <glyph glyph-name="ordfeminine" unicode="&#xaa;" horiz-adv-x="401" 
d="M289 720.5c22 -19.667 33.002 -47.1631 33.002 -82.4961v-165c0 -10.667 0.5 -19.167 1.5 -25.5s3.5 -14.5 7.5 -24.5l1 -3c0 -5.33301 -4.66699 -8 -14 -8h-38c-4 0 -6.66699 0.666992 -8 2s-2.33301 3.66602 -3 6.99902l-5 28
c-0.666992 2.66699 -1.66699 4.16699 -3 4.5s-3.66602 -0.833984 -6.99902 -3.50098c-17.333 -15.333 -33.833 -26.5 -49.5 -33.5s-33.834 -10.5 -54.501 -10.5c-34.667 0 -61.667 8.16699 -81 24.5s-29 38.833 -29 67.5c0 64.667 55 101.667 165 111l48 5
c7.33301 1.33301 11 4.66602 11 9.99902v15c0 44 -25.667 66 -77 66c-18.667 0 -34.5 -3.33301 -47.5 -10s-24.833 -18.334 -35.5 -35.001c-2 -4 -5.66699 -5 -11 -3l-39 12c-2.66699 0.666992 -3.33398 4 -2.00098 10c25.333 47.333 71.666 71 138.999 71
c43.333 0 76 -9.83301 98 -29.5zM120.002 463.504c12.667 -9.66699 29.333 -14.5 50 -14.5c27.333 0 50.333 9 69 27c16.667 14.667 25 29 25 43v45c0 4 -0.666992 6.83301 -2 8.5s-4.33301 2.16699 -9 1.5l-40 -3c-36 -3.33301 -63.667 -10.833 -83 -22.5
s-29 -27.5 -29 -47.5c0 -15.333 6.33301 -27.833 19 -37.5z" />
    <glyph glyph-name="guillemotleft" unicode="&#xab;" horiz-adv-x="446" 
d="M217 80c0.666992 -0.666992 0.99707 -1.66797 0.99707 -3.00098c0 -2.66699 -3.33301 -4 -10 -4h-29c-5.33301 0 -8.66602 2 -9.99902 6l-126 167c-2.66699 3.33301 -4 7.33301 -4 12c0 3.33301 1 6.33301 3 9l127 177c2 2.66699 3.66699 4.33398 5 5.00098s3 1 5 1h31
c2.66699 0 4.83398 -1 6.50098 -3s1.83398 -4.33301 0.500977 -7l-99 -175c-2.66699 -6.66699 -2.66699 -12 0 -16zM394.997 79.999c0.666992 -0.666992 0.998047 -1.66699 0.998047 -3c0 -2.66699 -3.33301 -4 -10 -4h-29c-5.33301 0 -8.66602 2 -9.99902 6l-125 167
c-3.33301 4.66699 -5 8.66699 -5 12c0 2 1.33301 5 4 9l127 177c1.33301 2.66699 2.66602 4.33398 3.99902 5.00098s3 1 5 1h31c2.66699 0 4.83398 -1 6.50098 -3s1.83398 -4.33301 0.500977 -7l-98 -175c-1.33301 -2.66699 -2 -5.33398 -2 -8.00098
c0 -1.33301 0.666992 -4 2 -8z" />
    <glyph glyph-name="logicalnot" unicode="&#xac;" horiz-adv-x="557" 
d="M496 396v-189c0 -4.66699 -1 -8 -3 -10s-5.33301 -3 -10 -3h-46c-8 0 -12 3.33301 -12 10l-1 136l-349 -1c-8.66699 0 -13 4 -13 12v43c0 8 3 12 9 12h415c6.66699 0 10 -3.33301 10 -10z" />
    <glyph glyph-name="uni00AD" unicode="&#xad;" horiz-adv-x="381" 
d="M319 245c0 -9.33301 -5.66699 -14.001 -17 -14.001h-227c-4.66699 0 -8 0.833008 -10 2.5s-3 4.83398 -3 9.50098v44c0 7.33301 3 11 9 11l238 1c6.66699 0 10 -3.33301 10 -10v-44z" />
    <glyph glyph-name="registered" unicode="&#xae;" horiz-adv-x="545" 
d="M153 307c-36.667 21.333 -65.6699 50.166 -87.0029 86.499s-32 76.166 -32 119.499s10.667 83.333 32 120s50.333 65.667 87 87s76.667 32 120 32c42.667 0 82.334 -10.667 119.001 -32s65.667 -50.333 87 -87s32 -76.667 32 -120s-10.667 -83.166 -32 -119.499
s-50.166 -65.166 -86.499 -86.499s-76.166 -32 -119.499 -32s-83.333 10.667 -120 32zM410.497 372.5c35 35 52.5 81.833 52.5 140.5c0 38.667 -8 72.667 -24 102s-38.333 52 -67 68s-61.667 24 -99 24c-57.333 0 -103.5 -17.667 -138.5 -53s-52.5 -82.333 -52.5 -141
s17.5 -105.5 52.5 -140.5s81.167 -52.5 138.5 -52.5c56.667 0 102.5 17.5 137.5 52.5zM361.497 395c-1 -1.33301 -2.16797 -2 -3.50098 -2h-35c-2 0 -3.66699 1.33301 -5 4l-38 102c0 0.666992 -0.166992 1.5 -0.5 2.5s-2.5 1.5 -6.5 1.5h-46c-2.66699 0 -4 -1.33301 -4 -4
v-100c0 -4 -1.66699 -6 -5 -6h-31c-3.33301 0 -5 1.66699 -5 5v227c0 3.33301 1 5 3 5h103c25.333 0 45 -5.16699 59 -15.5s21 -25.166 21 -44.499c0 -30.667 -15.667 -51.334 -47 -62.001c-1.33301 0 -1.66602 -1 -0.999023 -3l42 -105c0.666992 -2 0.5 -3.66699 -0.5 -5z
M324.996 566c0 20.667 -15.333 31 -46 31h-51h-2.5c-1 0 -1.66699 -0.333008 -2 -1s-0.5 -1.66699 -0.5 -3v-53c0 -2.66699 1.33301 -4 4 -4h55c28.667 0 43 10 43 30z" />
    <glyph glyph-name="macron" unicode="&#xaf;" horiz-adv-x="316" 
d="M306 679c0 -8.66699 -5 -13 -15 -13h-270c-4 0 -6.83301 1 -8.5 3s-2.5 5 -2.5 9v39c0 3.33301 0.666992 6 2 8s3.33301 3 6 3h280c2.66699 0 4.66699 -1 6 -3s2 -4.33301 2 -7v-39z" />
    <glyph glyph-name="degree" unicode="&#xb0;" horiz-adv-x="464" 
d="M370.5 617c-13.667 -24 -32.667 -42.835 -57 -56.502s-51.5 -20.5 -81.5 -20.5c-46 0 -84 14.833 -114 44.5s-45 67.834 -45 114.501s15 84.834 45 114.501s68 44.5 114 44.5c30 0 57.167 -6.83301 81.5 -20.5s43.333 -32.5 57 -56.5s20.5 -51.333 20.5 -82
s-6.83301 -58 -20.5 -82zM302 770.998c-18 18.667 -42.001 27.998 -72.001 27.998c-29.333 0 -53 -9.16699 -71 -27.5s-27 -42.166 -27 -71.499c0 -31.333 8.83301 -56.666 26.5 -75.999s41.834 -29 72.501 -29c30 0 53.833 9.5 71.5 28.5s26.5 43.833 26.5 74.5
c0 30 -9 54.333 -27 73z" />
    <glyph glyph-name="plusminus" unicode="&#xb1;" horiz-adv-x="557" 
d="M496 473v-43c0 -8.66699 -5.33301 -13 -16 -13h-168v-174c0 -6.66699 -3.33301 -10 -10 -10h-42c-9.33301 0 -14 5.33301 -14 16v167h-171c-8.66699 0 -13 4 -13 12v43c0 7.33301 3 11 9 11h175v172c0 4.66699 0.833008 8 2.5 10s4.5 3 8.5 3h43c8 0 12 -3 12 -9v-175
h174c6.66699 0 10 -3.33301 10 -10zM496 122v-43c0 -9.33301 -5.33301 -14 -16 -14l-405 -1c-8.66699 0 -13 4 -13 12v43c0 8 3 12 9 12h415c6.66699 0 10 -3 10 -9z" />
    <glyph glyph-name="uni00B2" unicode="&#xb2;" horiz-adv-x="452" 
d="M200 580c35.333 33.333 59.9971 60.6709 73.9971 82.0039s21 43.333 21 66c0 25.333 -9.16699 45.333 -27.5 60s-40.166 22 -65.499 22c-19.333 0 -38.666 -5 -57.999 -15s-35.666 -25.667 -48.999 -47c-2 -4.66699 -6.33301 -5.33398 -13 -2.00098l-28 17
c-5.33301 3.33301 -6 7.66602 -2 12.999c18.667 27.333 41.5 47.666 68.5 60.999s55.833 20 86.5 20c42 0 77 -11.333 105 -34s42 -55 42 -97c0 -26.667 -7.33301 -51.834 -22 -75.501s-41 -53.5 -79 -89.5l-127 -119c-2.66699 -1.33301 -3.66699 -2.83301 -3 -4.5
s3 -2.5 7 -2.5h221c5.33301 0 8 -2.33301 8 -7v-36c0 -5.33301 -2.66699 -8 -8 -8h-292c-4 0 -6.66699 0.833008 -8 2.5s-2 4.16699 -2 7.5v26c0 4.66699 1 8.66699 3 12s6.66699 8 14 14z" />
    <glyph glyph-name="uni00B3" unicode="&#xb3;" horiz-adv-x="467" 
d="M76 795c38.667 41.333 87.333 61.998 146 61.998c48 0 86.167 -11 114.5 -33s42.5 -50.333 42.5 -85c0 -23.333 -7.16699 -44 -21.5 -62s-33.833 -31.333 -58.5 -40c-4.66699 -1.33301 -7 -2.66602 -7 -3.99902c0 -0.666992 2.33301 -2.33398 7 -5.00098
c27.333 -7.33301 49.833 -21.166 67.5 -41.499s26.5 -44.833 26.5 -73.5c0 -40.667 -15.333 -73.334 -46 -98.001s-75 -37 -133 -37c-64 0 -116.667 22 -158 66c-1.33301 2.66699 -2 4.66699 -2 6s1.33301 3 4 5l27 21c4.66699 4.66699 8 4.66699 10 0
c18.667 -19.333 37.5 -32.833 56.5 -40.5s41.167 -11.5 66.5 -11.5c36.667 0 65.167 7.83301 85.5 23.5s30.5 36.834 30.5 63.501c0 28.667 -11.833 51.334 -35.5 68.001s-51.5 25 -83.5 25l-56 1c-4.66699 0 -7 2 -7 6v33c0 2.66699 2.33301 4.66699 7 6l46 1
c32.667 0 60 8 82 24s33 36.333 33 61c0 21.333 -9.33301 39.333 -28 54s-42 22 -70 22c-42 0 -79.333 -16.333 -112 -49c-2.66699 -2 -4.66699 -3 -6 -3s-3.33301 1 -6 3l-22 22c-2.66699 2.66699 -2.66699 6 0 10z" />
    <glyph glyph-name="acute" unicode="&#xb4;" horiz-adv-x="285" 
d="M274 700c0.666992 -1.33301 1 -3.33301 1 -6c0 -5.33301 -3.66699 -9 -11 -11l-229 -72c-1.33301 -0.666992 -3.33301 -1 -6 -1c-4.66699 0 -8 3 -10 9l-8 22c-0.666992 1.33301 -1 3 -1 5c0 5.33301 2 8.33301 6 9l231 96c0.666992 0.666992 2 1 4 1
c4 0 6.66699 -2 8 -6z" />
    <glyph glyph-name="paragraph" unicode="&#xb6;" horiz-adv-x="561" 
d="M435 689c-4.66699 0 -7 -2.66602 -7 -7.99902v-757c0 -6 -2.33301 -9 -7 -9h-41c-6 0 -9 3 -9 9v759c0 1.33301 -0.666992 2.66602 -2 3.99902s-3 2 -5 2h-36c-4.66699 0 -7 -2.66699 -7 -8v-758c0 -5.33301 -2.66699 -8 -8 -8h-42c-5.33301 0 -8 2.66699 -8 8v377
c0 3.33301 -1.66699 5 -5 5c-42.667 1.33301 -80 11.5 -112 30.5s-56.667 44.333 -74 76s-26 66.834 -26 105.501c0 39.333 9 76.166 27 110.499s44.667 62 80 83s78 31.5 128 31.5h202c4.66699 0 7 -2 7 -6v-41c0 -4 -2.33301 -6 -7 -6h-48z" />
    <glyph glyph-name="periodcentered" unicode="&#xb7;" horiz-adv-x="201" 
d="M155 335c0 -5.33301 -1.16602 -9.16699 -3.49902 -11.5s-6.83301 -3.5 -13.5 -3.5h-79c-5.33301 0 -9 1 -11 3s-3 5.66699 -3 11v81c0 8 3 12 9 12h92c3.33301 0 5.66602 -0.833008 6.99902 -2.5s2 -4.5 2 -8.5v-81z" />
    <glyph glyph-name="cedilla" unicode="&#xb8;" horiz-adv-x="221" 
d="M179.5 -189c-21 -14 -46.835 -21 -77.502 -21c-33.333 0 -62.666 7.33301 -87.999 22c-3.33301 2.66699 -4.66602 5.66699 -3.99902 9l11 26c2 3.33301 5 4 9 2c18.667 -12.667 39.334 -19 62.001 -19c38 0 57 12.667 57 38c0 14.667 -6.5 25.667 -19.5 33
s-33.5 11.666 -61.5 12.999c-3.33301 0 -5.5 0.333008 -6.5 1s-0.833008 2.33398 0.5 5.00098l37 85h47l-23 -57c-0.666992 -1.33301 -0.666992 -2.5 0 -3.5s2 -1.5 4 -1.5c29.333 -2 50.666 -10 63.999 -24s20 -30.667 20 -50c0 -24.667 -10.5 -44 -31.5 -58z" />
    <glyph glyph-name="uni00B9" unicode="&#xb9;" horiz-adv-x="367" 
d="M272 422v-36.001c0 -1.33301 -0.666992 -2.66602 -2 -3.99902s-3 -2 -5 -2h-221c-2 0 -3.66699 0.666992 -5 2s-2 2.66602 -2 3.99902v36c0 4 2.33301 6 7 6h80c3.33301 0 5 1 5 3v346c0 4.66699 -2 6.33398 -6 5.00098l-78 -29h-2c-4 0 -6 2.66699 -6 8v25
c0 4.66699 2 7.66699 6 9l93 47c8.66699 3.33301 15 5 19 5h27c4.66699 0 7 -2.66699 7 -8v-407c0 -2.66699 1.33301 -4 4 -4h72c4.66699 0 7 -2 7 -6z" />
    <glyph glyph-name="ordmasculine" unicode="&#xba;" horiz-adv-x="411" 
d="M321.5 703c29 -32 43.5 -74 43.5 -126c0 -50.667 -14.333 -91.667 -43 -123s-67.667 -47 -117 -47s-88.166 15.667 -116.499 47s-42.5 72.333 -42.5 123c0 52 14.667 94 44 126s67.666 48 114.999 48c48.667 0 87.5 -16 116.5 -48zM135 671
c-16 -22 -23.998 -52.333 -23.998 -91c0 -40 8 -71.167 24 -93.5s39.333 -33.5 70 -33.5c31.333 0 55.166 11.167 71.499 33.5s24.5 53.5 24.5 93.5c0 38.667 -8.33301 69 -25 91s-40.334 33 -71.001 33s-54 -11 -70 -33z" />
    <glyph glyph-name="guillemotright" unicode="&#xbb;" horiz-adv-x="446" 
d="M151 257c0 4 -0.666992 6.66797 -2 8.00098l-98 175l-1 4c0 4 2.33301 6 7 6h31c2 0 3.83301 -0.333008 5.5 -1s3.16699 -2.33398 4.5 -5.00098l127 -177c2 -2.66699 3 -5.66699 3 -9c0 -4.66699 -1.33301 -8.66699 -4 -12l-125 -167c-2.66699 -4 -6 -6 -10 -6h-29
c-8.66699 0 -12 2.33301 -10 7l99 169c1.33301 2 2 4.66699 2 8zM329 257.001c0 4 -0.666016 6.66797 -1.99902 8.00098l-98 175c-0.666992 0.666992 -1 2 -1 4c0 4 2.66699 6 8 6h31c2 0 3.66699 -0.333008 5 -1s2.66602 -2.33398 3.99902 -5.00098l127 -177
c2.66699 -4 4 -7 4 -9c0 -3.33301 -1.66699 -7.33301 -5 -12l-125 -167c-2.66699 -4 -6 -6 -10 -6h-29c-8.66699 0 -11.667 2.33301 -9 7l98 169c1.33301 2 2 4.66699 2 8z" />
    <glyph glyph-name="onequarter" unicode="&#xbc;" horiz-adv-x="891" 
d="M238 318v-36.001c0 -1.33301 -0.666992 -2.66602 -2 -3.99902s-3 -2 -5 -2h-221c-2 0 -3.66699 0.666992 -5 2s-2 2.66602 -2 3.99902v36c0 4 2.33301 6 7 6h80c3.33301 0 5 1 5 3v346c0 4.66699 -2 6.33398 -6 5.00098l-78 -29h-2c-4 0 -6 2.66699 -6 8v25
c0 4.66699 2 7.66699 6 9l93 47c8.66699 3.33301 15 5 19 5h27c4.66699 0 7 -2.66699 7 -8v-407c0 -2.66699 1.33301 -4 4 -4h72c4.66699 0 7 -2 7 -6zM206 4.99902c-2.66699 -3.33301 -5.33203 -5.66699 -7.99902 -7s-6.33398 -2 -11.001 -2h-26c-7.33301 0 -11 3 -11 9
c0 4 1 7.33301 3 10l484 728c2 3.33301 4.5 5.33301 7.5 6s5.83301 1 8.5 1h33c8.66699 0 10.667 -3.66699 6 -11zM736.502 465.498c2.33301 1 5.5 1.5 9.5 1.5h42c4.66699 0 7 -2.66699 7 -8v-283c0 -4 1.66699 -6 5 -6h59c6 0 9 -2 9 -6v-31c0 -5.33301 -3 -8 -9 -8h-58
c-4 0 -6 -2 -6 -6v-110c0 -6 -3.33301 -9 -10 -9h-43c-5.33301 0 -8 2.66699 -8 8v113c0 2.66699 -1.66699 4 -5 4h-204c-6.66699 0 -10 2.66699 -10 8v32c0 4.66699 3.33301 11.667 10 21l205 274c2 2.66699 4.16699 4.5 6.5 5.5zM727.002 169.998c4 0 6 1.66797 6 5.00098
v210c0 4.66699 -1 7 -3 7c-1.33301 0 -3.33301 -1.66699 -6 -5l-153 -208c-2 -2.66699 -2.66699 -4.83398 -2 -6.50098s2.66699 -2.5 6 -2.5h152z" />
    <glyph glyph-name="onehalf" unicode="&#xbd;" horiz-adv-x="950" 
d="M238 318v-36.001c0 -1.33301 -0.666992 -2.66602 -2 -3.99902s-3 -2 -5 -2h-221c-2 0 -3.66699 0.666992 -5 2s-2 2.66602 -2 3.99902v36c0 4 2.33301 6 7 6h80c3.33301 0 5 1 5 3v346c0 4.66699 -2 6.33398 -6 5.00098l-78 -29h-2c-4 0 -6 2.66699 -6 8v25
c0 4.66699 2 7.66699 6 9l93 47c8.66699 3.33301 15 5 19 5h27c4.66699 0 7 -2.66699 7 -8v-407c0 -2.66699 1.33301 -4 4 -4h72c4.66699 0 7 -2 7 -6zM262 4.99902c-2.66699 -3.33301 -5.33203 -5.66699 -7.99902 -7s-6.33398 -2 -11.001 -2h-26c-7.33301 0 -11 3 -11 9
c0 4 1 7.33301 3 10l484 728c2 3.33301 4.5 5.33301 7.5 6s5.83301 1 8.5 1h33c8.66699 0 10.667 -3.66699 6 -11zM741.002 195.998c35.333 33.333 59.9971 60.6709 73.9971 82.0039s21 43.333 21 66c0 25.333 -9.16699 45.333 -27.5 60s-40.166 22 -65.499 22
c-19.333 0 -38.666 -5 -57.999 -15s-35.666 -25.667 -48.999 -47c-2 -4.66699 -6.33301 -5.33398 -13 -2.00098l-28 17c-5.33301 3.33301 -6 7.66602 -2 12.999c18.667 27.333 41.5 47.666 68.5 60.999s55.833 20 86.5 20c42 0 77 -11.333 105 -34s42 -55 42 -97
c0 -26.667 -7.33301 -51.834 -22 -75.501s-41 -53.5 -79 -89.5l-127 -119c-2.66699 -1.33301 -3.66699 -2.83301 -3 -4.5s3 -2.5 7 -2.5h221c5.33301 0 8 -2.33301 8 -7v-36c0 -5.33301 -2.66699 -8 -8 -8h-292c-4 0 -6.66699 0.833008 -8 2.5s-2 4.16699 -2 7.5v26
c0 4.66699 1 8.66699 3 12s6.66699 8 14 14z" />
    <glyph glyph-name="threequarters" unicode="&#xbe;" horiz-adv-x="932" 
d="M42 690c38.667 41.333 87.333 61.998 146 61.998c48 0 86.167 -11 114.5 -33s42.5 -50.333 42.5 -85c0 -23.333 -7.16699 -44 -21.5 -62s-33.833 -31.333 -58.5 -40c-4.66699 -1.33301 -7 -2.66602 -7 -3.99902c0 -0.666992 2.33301 -2.33398 7 -5.00098
c27.333 -7.33301 49.833 -21.166 67.5 -41.499s26.5 -44.833 26.5 -73.5c0 -40.667 -15.333 -73.334 -46 -98.001s-75 -37 -133 -37c-64 0 -116.667 22 -158 66c-1.33301 2.66699 -2 4.66699 -2 6s1.33301 3 4 5l27 21c4.66699 4.66699 8 4.66699 10 0
c18.667 -19.333 37.5 -32.833 56.5 -40.5s41.167 -11.5 66.5 -11.5c36.667 0 65.167 7.83301 85.5 23.5s30.5 36.834 30.5 63.501c0 28.667 -11.833 51.334 -35.5 68.001s-51.5 25 -83.5 25l-56 1c-4.66699 0 -7 2 -7 6v33c0 2.66699 2.33301 4.66699 7 6l46 1
c32.667 0 60 8 82 24s33 36.333 33 61c0 21.333 -9.33301 39.333 -28 54s-42 22 -70 22c-42 0 -79.333 -16.333 -112 -49c-2.66699 -2 -4.66699 -3 -6 -3s-3.33301 1 -6 3l-22 22c-2.66699 2.66699 -2.66699 6 0 10zM305.999 4.99805
c-2.66699 -3.33301 -5.33203 -5.66699 -7.99902 -7s-6.33398 -2 -11.001 -2h-26c-7.33301 0 -11 3 -11 9c0 4 1 7.33301 3 10l484 728c2 3.33301 4.5 5.33301 7.5 6s5.83301 1 8.5 1h33c8.66699 0 10.667 -3.66699 6 -11zM773.501 465.497c2.33301 1 5.5 1.5 9.5 1.5h42
c4.66699 0 7 -2.66699 7 -8v-283c0 -4 1.66699 -6 5 -6h59c6 0 9 -2 9 -6v-31c0 -5.33301 -3 -8 -9 -8h-58c-4 0 -6 -2 -6 -6v-110c0 -6 -3.33301 -9 -10 -9h-43c-5.33301 0 -8 2.66699 -8 8v113c0 2.66699 -1.66699 4 -5 4h-204c-6.66699 0 -10 2.66699 -10 8v32
c0 4.66699 3.33301 11.667 10 21l205 274c2 2.66699 4.16699 4.5 6.5 5.5zM764.001 169.997c4 0 6 1.66797 6 5.00098v210c0 4.66699 -1 7 -3 7c-1.33301 0 -3.33301 -1.66699 -6 -5l-153 -208c-2 -2.66699 -2.66699 -4.83398 -2 -6.50098s2.66699 -2.5 6 -2.5h152z" />
    <glyph glyph-name="questiondown" unicode="&#xbf;" horiz-adv-x="516" 
d="M219 514c0 6 1.33301 10.167 4 12.5s7.33398 3.5 14.001 3.5h70c5.33301 0 9.16602 -1 11.499 -3s3.5 -5.66699 3.5 -11v-85c0 -8 -3.66699 -12 -11 -12h-82c-6.66699 0 -10 3.66699 -10 11v84zM488.5 -33c1 -2.66699 0.830078 -5.33105 -0.50293 -7.99805
c-20.667 -42 -52 -74.833 -94 -98.5s-89.333 -35.5 -142 -35.5c-70 0 -124.833 16.5 -164.5 49.5s-59.5 76.167 -59.5 129.5c0 24.667 4.5 46.667 13.5 66s20.333 35.833 34 49.5s31.5 29.834 53.5 48.501c22.667 18.667 41 35 55 49s25.667 31 35 51s14 43.333 14 70
c0 3.33301 1.33301 6.16602 4 8.49902s5.33398 3.5 8.00098 3.5h49c8.66699 0 13 -4.66699 13 -14c0 -31.333 -5.16699 -59 -15.5 -83s-22.666 -44 -36.999 -60s-33.166 -34 -56.499 -54c-28 -24.667 -48.833 -46.334 -62.5 -65.001s-20.5 -41 -20.5 -67
c0 -34.667 12.5 -62.334 37.5 -83.001s58.167 -31 99.5 -31c34 0 66.667 8.83301 98 26.5s52.333 39.5 63 65.5c1.33301 3.33301 2.83301 5.33301 4.5 6s4.5 0.333984 8.5 -0.999023l57 -18c2.66699 -0.666992 4.5 -2.33398 5.5 -5.00098z" />
    <glyph glyph-name="Agrave" unicode="&#xc0;" horiz-adv-x="727" 
d="M46 4.5c-2 3 -2.00195 7.16699 -0.00195312 12.5l259 711c2 5.33301 4.33301 9 7 11s7 3 13 3h78c12.667 0 20.334 -5 23.001 -15l256 -710l1 -5c0 -8 -3.66699 -12 -11 -12h-71c-8 -0 -13.333 3.33301 -16 10l-69 194c-1.33301 2.66699 -2.66602 4.66699 -3.99902 6
s-4 2 -8 2h-291c-6 0 -10 -2.66699 -12 -8l-71 -195c-2 -6 -7 -9 -15 -9h-60c-4 0 -7 1.5 -9 4.5zM477.998 288c7.33301 0 10 4.33301 8 13l-120 329c-2 6 -4.33301 9 -7 9s-5 -3 -7 -9l-122 -331l-2 -6c0 -3.33301 2.66699 -5 8 -5h242zM236.998 963.5
c2 1 4.33398 0.833008 7.00098 -0.5l232 -96c5.33301 -2.66699 6.66602 -7.33398 3.99902 -14.001l-8 -22c-1.33301 -4.66699 -3.16602 -7.5 -5.49902 -8.5s-5.83301 -0.833008 -10.5 0.5l-228 72c-10.667 2.66699 -14.334 8.33398 -11.001 17.001l16 46
c0.666992 2.66699 2 4.5 4 5.5z" />
    <glyph glyph-name="Aacute" unicode="&#xc1;" horiz-adv-x="727" 
d="M46 4.5c-2 3 -2.00195 7.16699 -0.00195312 12.5l259 711c2 5.33301 4.33301 9 7 11s7 3 13 3h78c12.667 0 20.334 -5 23.001 -15l256 -710l1 -5c0 -8 -3.66699 -12 -11 -12h-71c-8 -0 -13.333 3.33301 -16 10l-69 194c-1.33301 2.66699 -2.66602 4.66699 -3.99902 6
s-4 2 -8 2h-291c-6 0 -10 -2.66699 -12 -8l-71 -195c-2 -6 -7 -9 -15 -9h-60c-4 0 -7 1.5 -9 4.5zM477.998 288c7.33301 0 10 4.33301 8 13l-120 329c-2 6 -4.33301 9 -7 9s-5 -3 -7 -9l-122 -331l-2 -6c0 -3.33301 2.66699 -5 8 -5h242zM492.998 912
c0.666992 -1.33301 1 -3.33301 1 -6c0 -5.33301 -3.66699 -9 -11 -11l-229 -72c-1.33301 -0.666992 -3.33301 -1 -6 -1c-4.66699 0 -8 3 -10 9l-8 22c-0.666992 1.33301 -1 3 -1 5c0 5.33301 2 8.33301 6 9l231 96c0.666992 0.666992 2 1 4 1c4 0 6.66699 -2 8 -6z" />
    <glyph glyph-name="Acircumflex" unicode="&#xc2;" horiz-adv-x="727" 
d="M46 4.5c-2 3 -2.00195 7.16699 -0.00195312 12.5l259 711c2 5.33301 4.33301 9 7 11s7 3 13 3h78c12.667 0 20.334 -5 23.001 -15l256 -710l1 -5c0 -8 -3.66699 -12 -11 -12h-71c-8 -0 -13.333 3.33301 -16 10l-69 194c-1.33301 2.66699 -2.66602 4.66699 -3.99902 6
s-4 2 -8 2h-291c-6 0 -10 -2.66699 -12 -8l-71 -195c-2 -6 -7 -9 -15 -9h-60c-4 0 -7 1.5 -9 4.5zM477.998 288c7.33301 0 10 4.33301 8 13l-120 329c-2 6 -4.33301 9 -7 9s-5 -3 -7 -9l-122 -331l-2 -6c0 -3.33301 2.66699 -5 8 -5h242zM372.998 899l-5.50098 5.50098
c-2.33301 2.33301 -4.16602 3.5 -5.49902 3.5c-2 0 -6 -3 -12 -9l-58 -50c-3.33301 -2.66699 -6.16602 -4.33398 -8.49902 -5.00098s-5.5 -1 -9.5 -1h-54c-4.66699 0 -7 1.33301 -7 4c0 2 1.66699 4.66699 5 8l102 91c7.33301 7.33301 15.666 11 24.999 11h39
c4.66699 0 8.5 -1 11.5 -3s5.83301 -4 8.5 -6l101 -93c4 -4 6 -7 6 -9s-2.33301 -3 -7 -3h-59c-7.33301 0 -13.333 2 -18 6z" />
    <glyph glyph-name="Atilde" unicode="&#xc3;" horiz-adv-x="727" 
d="M46 4.5c-2 3 -2.00195 7.16699 -0.00195312 12.5l259 711c2 5.33301 4.33301 9 7 11s7 3 13 3h78c12.667 0 20.334 -5 23.001 -15l256 -710l1 -5c0 -8 -3.66699 -12 -11 -12h-71c-8 -0 -13.333 3.33301 -16 10l-69 194c-1.33301 2.66699 -2.66602 4.66699 -3.99902 6
s-4 2 -8 2h-291c-6 0 -10 -2.66699 -12 -8l-71 -195c-2 -6 -7 -9 -15 -9h-60c-4 0 -7 1.5 -9 4.5zM477.998 288c7.33301 0 10 4.33301 8 13l-120 329c-2 6 -4.33301 9 -7 9s-5 -3 -7 -9l-122 -331l-2 -6c0 -3.33301 2.66699 -5 8 -5h242zM469.498 873
c-11.667 -4 -25.835 -6.00293 -42.502 -6.00293c-19.333 0 -42.333 4.66699 -69 14c-24 8 -43.333 12 -58 12c-11.333 0 -20.666 -1.5 -27.999 -4.5s-14 -6.16699 -20 -9.5s-10 -5.66602 -12 -6.99902c-3.33301 -2 -5.66602 -3 -6.99902 -3c-2.66699 0 -5 2.66699 -7 8
l-10 27c-0.666992 1.33301 -1 3.33301 -1 6s1.66699 5.33398 5 8.00098c13.333 10 25.333 17.5 36 22.5s24 7.5 40 7.5c11.333 0 22 -1.16699 32 -3.5s22.333 -5.83301 37 -10.5c10.667 -3.33301 21.334 -6.5 32.001 -9.5s21 -4.5 31 -4.5c11.333 0 21 1.66699 29 5
s17.333 8.33301 28 15c3.33301 2 6 3 8 3c3.33301 0 6 -2.66699 8 -8l10 -31c0.666992 -1.33301 1 -3 1 -5c0 -3.33301 -3 -6.66602 -9 -9.99902c-10.667 -6.66699 -21.834 -12 -33.501 -16z" />
    <glyph glyph-name="Adieresis" unicode="&#xc4;" horiz-adv-x="727" 
d="M46 4.5c-2 3 -2.00195 7.16699 -0.00195312 12.5l259 711c2 5.33301 4.33301 9 7 11s7 3 13 3h78c12.667 0 20.334 -5 23.001 -15l256 -710l1 -5c0 -8 -3.66699 -12 -11 -12h-71c-8 -0 -13.333 3.33301 -16 10l-69 194c-1.33301 2.66699 -2.66602 4.66699 -3.99902 6
s-4 2 -8 2h-291c-6 0 -10 -2.66699 -12 -8l-71 -195c-2 -6 -7 -9 -15 -9h-60c-4 0 -7 1.5 -9 4.5zM477.998 288c7.33301 0 10 4.33301 8 13l-120 329c-2 6 -4.33301 9 -7 9s-5 -3 -7 -9l-122 -331l-2 -6c0 -3.33301 2.66699 -5 8 -5h242zM329.998 859
c0 -6 -1.16699 -9.99902 -3.5 -11.999s-6.5 -3 -12.5 -3h-53c-5.33301 0 -9 0.833008 -11 2.5s-3 5.16699 -3 10.5v84c0 4.66699 0.833008 8 2.5 10s4.5 3 8.5 3h61c4 0 6.83301 -0.833008 8.5 -2.5s2.5 -4.83398 2.5 -9.50098v-83zM476.998 859.001
c0 -6 -1.16699 -9.99902 -3.5 -11.999s-6.83301 -3 -13.5 -3h-52c-6 0 -10 0.833008 -12 2.5s-3 5.16699 -3 10.5v84c0 8.66699 3.66699 13 11 13h62c4 0 6.83301 -0.833008 8.5 -2.5s2.5 -4.83398 2.5 -9.50098v-83z" />
    <glyph glyph-name="Aring" unicode="&#xc5;" horiz-adv-x="727" 
d="M46 4.5c-2 3 -2.00195 7.16699 -0.00195312 12.5l259 711c2 5.33301 4.33301 9 7 11s7 3 13 3h78c12.667 0 20.334 -5 23.001 -15l256 -710l1 -5c0 -8 -3.66699 -12 -11 -12h-71c-8 -0 -13.333 3.33301 -16 10l-69 194c-1.33301 2.66699 -2.66602 4.66699 -3.99902 6
s-4 2 -8 2h-291c-6 0 -10 -2.66699 -12 -8l-71 -195c-2 -6 -7 -9 -15 -9h-60c-4 0 -7 1.5 -9 4.5zM477.998 288c7.33301 0 10 4.33301 8 13l-120 329c-2 6 -4.33301 9 -7 9s-5 -3 -7 -9l-122 -331l-2 -6c0 -3.33301 2.66699 -5 8 -5h242zM435.998 785
c-20 -20 -44.667 -30 -74 -30s-54.166 10.167 -74.499 30.5s-30.5 45.833 -30.5 76.5c0 28 10.167 51.833 30.5 71.5s45.166 29.5 74.499 29.5c28.667 0 53.167 -10 73.5 -30s30.5 -44.333 30.5 -73c0 -30 -10 -55 -30 -75zM399.998 899.5
c-10.667 10.333 -23.667 15.5 -39 15.5s-28.666 -5.33301 -39.999 -16s-17 -24 -17 -40c0 -14.667 5.66699 -27.667 17 -39s24.666 -17 39.999 -17s28.333 5.5 39 16.5s16 24.167 16 39.5c0 16.667 -5.33301 30.167 -16 40.5z" />
    <glyph glyph-name="AE" unicode="&#xc6;" horiz-adv-x="1009" 
d="M959 72c2 -1.33301 3.00098 -3.99902 3.00098 -7.99902v-53c0 -7.33301 -4 -11 -12 -11h-437c-9.33301 0 -14 4.66699 -14 14v191c0 4.66699 -2.33301 7 -7 7h-239c-6.66699 0 -11.334 -2.66699 -14.001 -8l-109 -195c-4 -6 -9.33301 -9 -16 -9h-60c-6 0 -9 2.66699 -9 8
c0 2 1 5 3 9l396 711c3.33301 5.33301 6.5 9 9.5 11s7.5 3 13.5 3h472c6.66699 0 10 -3.66699 10 -11l-1 -51c0 -8 -4.33301 -12 -13 -12h-327c-4.66699 0 -8 -0.833008 -10 -2.5s-3 -4.83398 -3 -9.50098v-234c0 -7.33301 4 -11 12 -11h244c7.33301 0 11 -3.66699 11 -11
v-53c0 -6 -3.66699 -9 -11 -9h-245c-7.33301 0 -11 -3.66699 -11 -11v-243c0 -4 0.666992 -6.66699 2 -8s4 -2 8 -2h345c4 0 7 -0.666992 9 -2zM499.001 300.001v339c0 8.66699 -2.33301 13 -7 13c-5.33301 0 -10.333 -4.33301 -15 -13l-193 -340
c-2.66699 -4 -3.66699 -6.83301 -3 -8.5s3 -2.5 7 -2.5h200c7.33301 0 11 4 11 12z" />
    <glyph glyph-name="Ccedilla" unicode="&#xc7;" horiz-adv-x="707" 
d="M657 185c-9.33301 -32 -25.5029 -62.3301 -48.5029 -90.9971s-52 -52.334 -87 -71.001s-74.833 -29.334 -119.5 -32.001l-17 -43c-0.666992 -1.33301 -0.666992 -2.5 0 -3.5s2 -1.5 4 -1.5c29.333 -2 50.666 -10 63.999 -24s20 -30.667 20 -50
c0 -24.667 -10.5 -44 -31.5 -58s-46.833 -21 -77.5 -21c-33.333 0 -62.666 7.33301 -87.999 22c-3.33301 2.66699 -4.66602 5.66699 -3.99902 9l11 26c2 3.33301 5 4 9 2c18.667 -12.667 39.334 -19 62.001 -19c38 0 57 12.667 57 38c0 14.667 -6.5 25.667 -19.5 33
s-33.5 11.666 -61.5 12.999c-3.33301 0 -5.33301 0.333008 -6 1s-0.666992 2.33398 0 5.00098l31 71c-91.333 6.66699 -162.5 43.5 -213.5 110.5s-76.5 157.167 -76.5 270.5c0 78.667 12.5 146.5 37.5 203.5s61 100.667 108 131s102.833 45.5 167.5 45.5
c44 0 85.833 -9.33301 125.5 -28s72.5 -43.667 98.5 -75s41.667 -65.333 47 -102l1 -7c0 -2.66699 -0.833008 -4.66699 -2.5 -6s-3.5 -2 -5.5 -2l-75 -6h-2c-2 0 -3.66699 0.833008 -5 2.5s-2.33301 4.16699 -3 7.5c-10 43.333 -30.667 78 -62 104s-69.333 39 -114 39
c-70 0 -123.5 -25.833 -160.5 -77.5s-55.5 -128.834 -55.5 -231.501c0 -100.667 18.5 -176.5 55.5 -227.5s92.167 -76.5 165.5 -76.5c47.333 0 86.833 11.5 118.5 34.5s57.167 59.167 76.5 108.5c1.33301 4.66699 5.33301 6 12 4l59 -14
c4.66699 -1.33301 6.33398 -6 5.00098 -14z" />
    <glyph glyph-name="Egrave" unicode="&#xc8;" horiz-adv-x="628" 
d="M99.5 739c1.66699 2 4.83301 3.00098 9.5 3.00098h449c6.66699 0 10 -3.66699 10 -11v-51c0 -8 -4.33301 -12 -13 -12h-349c-5.33301 0 -8.83301 -0.833008 -10.5 -2.5s-2.5 -4.83398 -2.5 -9.50098v-234c0 -7.33301 3.66699 -11 11 -11h259
c7.33301 0 11 -3.66699 11 -11v-53c0 -6 -3.66699 -9 -11 -9h-259c-7.33301 0 -11 -3.66699 -11 -11v-243c0 -4 0.666992 -6.66699 2 -8s4 -2 8 -2h367c4 0 6.83301 -0.666992 8.5 -2s2.5 -4 2.5 -8v-53c0 -7.33301 -3.66699 -11 -11 -11h-459c-5.33301 0 -9 1 -11 3
s-3 5.66699 -3 11v714c0 5.33301 0.833008 9 2.5 11zM217.999 963.501c2 1 4.33398 0.833008 7.00098 -0.5l232 -96c5.33301 -2.66699 6.66602 -7.33398 3.99902 -14.001l-8 -22c-1.33301 -4.66699 -3.16602 -7.5 -5.49902 -8.5s-5.83301 -0.833008 -10.5 0.5l-228 72
c-10.667 2.66699 -14.334 8.33398 -11.001 17.001l16 46c0.666992 2.66699 2 4.5 4 5.5z" />
    <glyph glyph-name="Eacute" unicode="&#xc9;" horiz-adv-x="628" 
d="M99.5 739c1.66699 2 4.83301 3.00098 9.5 3.00098h449c6.66699 0 10 -3.66699 10 -11v-51c0 -8 -4.33301 -12 -13 -12h-349c-5.33301 0 -8.83301 -0.833008 -10.5 -2.5s-2.5 -4.83398 -2.5 -9.50098v-234c0 -7.33301 3.66699 -11 11 -11h259
c7.33301 0 11 -3.66699 11 -11v-53c0 -6 -3.66699 -9 -11 -9h-259c-7.33301 0 -11 -3.66699 -11 -11v-243c0 -4 0.666992 -6.66699 2 -8s4 -2 8 -2h367c4 0 6.83301 -0.666992 8.5 -2s2.5 -4 2.5 -8v-53c0 -7.33301 -3.66699 -11 -11 -11h-459c-5.33301 0 -9 1 -11 3
s-3 5.66699 -3 11v714c0 5.33301 0.833008 9 2.5 11zM473.999 912.001c0.666992 -1.33301 1 -3.33301 1 -6c0 -5.33301 -3.66699 -9 -11 -11l-229 -72c-1.33301 -0.666992 -3.33301 -1 -6 -1c-4.66699 0 -8 3 -10 9l-8 22c-0.666992 1.33301 -1 3 -1 5
c0 5.33301 2 8.33301 6 9l231 96c0.666992 0.666992 2 1 4 1c4 0 6.66699 -2 8 -6z" />
    <glyph glyph-name="Ecircumflex" unicode="&#xca;" horiz-adv-x="628" 
d="M99.5 739c1.66699 2 4.83301 3.00098 9.5 3.00098h449c6.66699 0 10 -3.66699 10 -11v-51c0 -8 -4.33301 -12 -13 -12h-349c-5.33301 0 -8.83301 -0.833008 -10.5 -2.5s-2.5 -4.83398 -2.5 -9.50098v-234c0 -7.33301 3.66699 -11 11 -11h259
c7.33301 0 11 -3.66699 11 -11v-53c0 -6 -3.66699 -9 -11 -9h-259c-7.33301 0 -11 -3.66699 -11 -11v-243c0 -4 0.666992 -6.66699 2 -8s4 -2 8 -2h367c4 0 6.83301 -0.666992 8.5 -2s2.5 -4 2.5 -8v-53c0 -7.33301 -3.66699 -11 -11 -11h-459c-5.33301 0 -9 1 -11 3
s-3 5.66699 -3 11v714c0 5.33301 0.833008 9 2.5 11zM353.999 899.001l-5.50098 5.50098c-2.33301 2.33301 -4.16602 3.5 -5.49902 3.5c-2 0 -6 -3 -12 -9l-58 -50c-3.33301 -2.66699 -6.16602 -4.33398 -8.49902 -5.00098s-5.5 -1 -9.5 -1h-54c-4.66699 0 -7 1.33301 -7 4
c0 2 1.66699 4.66699 5 8l102 91c7.33301 7.33301 15.666 11 24.999 11h39c4.66699 0 8.5 -1 11.5 -3s5.83301 -4 8.5 -6l101 -93c4 -4 6 -7 6 -9s-2.33301 -3 -7 -3h-59c-7.33301 0 -13.333 2 -18 6z" />
    <glyph glyph-name="Edieresis" unicode="&#xcb;" horiz-adv-x="628" 
d="M99.5 739c1.66699 2 4.83301 3.00098 9.5 3.00098h449c6.66699 0 10 -3.66699 10 -11v-51c0 -8 -4.33301 -12 -13 -12h-349c-5.33301 0 -8.83301 -0.833008 -10.5 -2.5s-2.5 -4.83398 -2.5 -9.50098v-234c0 -7.33301 3.66699 -11 11 -11h259
c7.33301 0 11 -3.66699 11 -11v-53c0 -6 -3.66699 -9 -11 -9h-259c-7.33301 0 -11 -3.66699 -11 -11v-243c0 -4 0.666992 -6.66699 2 -8s4 -2 8 -2h367c4 0 6.83301 -0.666992 8.5 -2s2.5 -4 2.5 -8v-53c0 -7.33301 -3.66699 -11 -11 -11h-459c-5.33301 0 -9 1 -11 3
s-3 5.66699 -3 11v714c0 5.33301 0.833008 9 2.5 11zM310.999 859.001c0 -6 -1.16699 -9.99902 -3.5 -11.999s-6.5 -3 -12.5 -3h-53c-5.33301 0 -9 0.833008 -11 2.5s-3 5.16699 -3 10.5v84c0 4.66699 0.833008 8 2.5 10s4.5 3 8.5 3h61c4 0 6.83301 -0.833008 8.5 -2.5
s2.5 -4.83398 2.5 -9.50098v-83zM457.999 859.002c0 -6 -1.16699 -9.99902 -3.5 -11.999s-6.83301 -3 -13.5 -3h-52c-6 0 -10 0.833008 -12 2.5s-3 5.16699 -3 10.5v84c0 8.66699 3.66699 13 11 13h62c4 0 6.83301 -0.833008 8.5 -2.5s2.5 -4.83398 2.5 -9.50098v-83z" />
    <glyph glyph-name="Igrave" unicode="&#xcc;" horiz-adv-x="290" 
d="M181 742c8 0 12.001 -4.33301 12.001 -13v-712c0 -6.66699 -1.33301 -11.167 -4 -13.5s-7.33398 -3.5 -14.001 -3.5h-63c-6 0 -10 1 -12 3s-3 5.66699 -3 11v714c0 9.33301 4 14 12 14h72zM22.001 963.5c2 1 4.33398 0.833008 7.00098 -0.5l232 -96
c5.33301 -2.66699 6.66602 -7.33398 3.99902 -14.001l-8 -22c-1.33301 -4.66699 -3.16602 -7.5 -5.49902 -8.5s-5.83301 -0.833008 -10.5 0.5l-228 72c-10.667 2.66699 -14.334 8.33398 -11.001 17.001l16 46c0.666992 2.66699 2 4.5 4 5.5z" />
    <glyph glyph-name="Iacute" unicode="&#xcd;" horiz-adv-x="290" 
d="M181 742c8 0 12.001 -4.33301 12.001 -13v-712c0 -6.66699 -1.33301 -11.167 -4 -13.5s-7.33398 -3.5 -14.001 -3.5h-63c-6 0 -10 1 -12 3s-3 5.66699 -3 11v714c0 9.33301 4 14 12 14h72zM278.001 912c0.666992 -1.33301 1 -3.33301 1 -6
c0 -5.33301 -3.66699 -9 -11 -11l-229 -72c-1.33301 -0.666992 -3.33301 -1 -6 -1c-4.66699 0 -8 3 -10 9l-8 22c-0.666992 1.33301 -1 3 -1 5c0 5.33301 2 8.33301 6 9l231 96c0.666992 0.666992 2 1 4 1c4 0 6.66699 -2 8 -6z" />
    <glyph glyph-name="Icircumflex" unicode="&#xce;" horiz-adv-x="290" 
d="M181 742c8 0 12.001 -4.33301 12.001 -13v-712c0 -6.66699 -1.33301 -11.167 -4 -13.5s-7.33398 -3.5 -14.001 -3.5h-63c-6 0 -10 1 -12 3s-3 5.66699 -3 11v714c0 9.33301 4 14 12 14h72zM158.001 899l-5.50098 5.50098c-2.33301 2.33301 -4.16602 3.5 -5.49902 3.5
c-2 0 -6 -3 -12 -9l-58 -50c-3.33301 -2.66699 -6.16602 -4.33398 -8.49902 -5.00098s-5.5 -1 -9.5 -1h-54c-4.66699 0 -7 1.33301 -7 4c0 2 1.66699 4.66699 5 8l102 91c7.33301 7.33301 15.666 11 24.999 11h39c4.66699 0 8.5 -1 11.5 -3s5.83301 -4 8.5 -6l101 -93
c4 -4 6 -7 6 -9s-2.33301 -3 -7 -3h-59c-7.33301 0 -13.333 2 -18 6z" />
    <glyph glyph-name="Idieresis" unicode="&#xcf;" horiz-adv-x="290" 
d="M181 742c8 0 12.001 -4.33301 12.001 -13v-712c0 -6.66699 -1.33301 -11.167 -4 -13.5s-7.33398 -3.5 -14.001 -3.5h-63c-6 0 -10 1 -12 3s-3 5.66699 -3 11v714c0 9.33301 4 14 12 14h72zM115.001 859c0 -6 -1.16699 -9.99902 -3.5 -11.999s-6.5 -3 -12.5 -3h-53
c-5.33301 0 -9 0.833008 -11 2.5s-3 5.16699 -3 10.5v84c0 4.66699 0.833008 8 2.5 10s4.5 3 8.5 3h61c4 0 6.83301 -0.833008 8.5 -2.5s2.5 -4.83398 2.5 -9.50098v-83zM262.001 859.001c0 -6 -1.16699 -9.99902 -3.5 -11.999s-6.83301 -3 -13.5 -3h-52
c-6 0 -10 0.833008 -12 2.5s-3 5.16699 -3 10.5v84c0 8.66699 3.66699 13 11 13h62c4 0 6.83301 -0.833008 8.5 -2.5s2.5 -4.83398 2.5 -9.50098v-83z" />
    <glyph glyph-name="Eth" unicode="&#xd0;" horiz-adv-x="727" 
d="M569.5 647c62.333 -60.667 93.5 -151.333 93.5 -272c0 -250 -133 -375 -399 -375h-147c-9.33301 -0 -14 5.33301 -14 16v321h-57c-5.33301 0 -9 1 -11 3s-3 5.66699 -3 11v42c0 8.66699 3.33301 13 10 13h61v323c0 4.66699 1 8 3 10s5.66699 3 11 3
c66 0 118.333 -0.333008 157 -1c134.667 -2 233.167 -33.333 295.5 -94zM429.5 101.501c45.667 19.667 79.3311 51.501 100.998 95.501s32.5 102.667 32.5 176s-10.333 131.166 -31 173.499s-52.167 72.666 -94.5 90.999s-98.5 28.5 -168.5 30.5
c-13.333 0.666992 -34 1 -62 1c-5.33301 0 -8 -4.66699 -8 -14v-249h158c2.66699 0 5 -1.16699 7 -3.5s3 -5.16602 3 -8.49902v-42c0 -10 -6.33301 -15 -19 -15h-149v-254c0 -4 0.833008 -6.83301 2.5 -8.5s4.83398 -2.5 9.50098 -2.5h38
c74.667 0 134.834 9.83301 180.501 29.5z" />
    <glyph glyph-name="Ntilde" unicode="&#xd1;" horiz-adv-x="757" 
d="M649 742c4 0 6.83301 -0.832031 8.5 -2.49902s2.5 -4.83398 2.5 -9.50098v-718c0 -8 -4.33301 -12 -13 -12h-49c-5.33301 0 -9.5 0.5 -12.5 1.5s-5.83301 3.16699 -8.5 6.5l-386 561c-2.66699 4.66699 -5.16699 6.66699 -7.5 6s-3.5 -3 -3.5 -7v-555
c0 -8.66699 -4.66699 -13 -14 -13h-56c-8.66699 -0 -13 4.33301 -13 13v715c0 5.33301 0.833008 9 2.5 11s5.16699 3 10.5 3h57c5.33301 0 9.33301 -0.666992 12 -2s5.66699 -4 9 -8l375 -549c3.33301 -4 6.33301 -6 9 -6c4 0 6 3 6 9v544c0 8 4 12 12 12h59zM497.5 873.001
c-11.667 -4 -25.835 -6.00293 -42.502 -6.00293c-19.333 0 -42.333 4.66699 -69 14c-24 8 -43.333 12 -58 12c-11.333 0 -20.666 -1.5 -27.999 -4.5s-14 -6.16699 -20 -9.5s-10 -5.66602 -12 -6.99902c-3.33301 -2 -5.66602 -3 -6.99902 -3c-2.66699 0 -5 2.66699 -7 8
l-10 27c-0.666992 1.33301 -1 3.33301 -1 6s1.66699 5.33398 5 8.00098c13.333 10 25.333 17.5 36 22.5s24 7.5 40 7.5c11.333 0 22 -1.16699 32 -3.5s22.333 -5.83301 37 -10.5c10.667 -3.33301 21.334 -6.5 32.001 -9.5s21 -4.5 31 -4.5c11.333 0 21 1.66699 29 5
s17.333 8.33301 28 15c3.33301 2 6 3 8 3c3.33301 0 6 -2.66699 8 -8l10 -31c0.666992 -1.33301 1 -3 1 -5c0 -3.33301 -3 -6.66602 -9 -9.99902c-10.667 -6.66699 -21.834 -12 -33.501 -16z" />
    <glyph glyph-name="Ograve" unicode="&#xd2;" horiz-adv-x="764" 
d="M212.5 34c-47.667 29.333 -84.1689 72.333 -109.502 129s-38 125 -38 205c0 80.667 12.833 149.834 38.5 207.501s62.334 101.5 110.001 131.5s104.167 45 169.5 45c64.667 0 120.834 -15 168.501 -45s84.167 -73.667 109.5 -131s38 -126.333 38 -207
c0 -80 -12.667 -148.333 -38 -205s-61.833 -99.834 -109.5 -129.501s-104.167 -44.5 -169.5 -44.5s-121.833 14.667 -169.5 44zM545.498 138c35.667 50 53.5 126.667 53.5 230c0 105.333 -18.167 183.5 -54.5 234.5s-90.166 76.5 -161.499 76.5
c-72.667 0 -127.167 -25.667 -163.5 -77s-54.5 -129.333 -54.5 -234c0 -103.333 18.167 -180 54.5 -230s91.166 -75 164.499 -75c72 0 125.833 25 161.5 75zM257.998 963.5c2 1 4.33398 0.833008 7.00098 -0.5l232 -96c5.33301 -2.66699 6.66602 -7.33398 3.99902 -14.001
l-8 -22c-1.33301 -4.66699 -3.16602 -7.5 -5.49902 -8.5s-5.83301 -0.833008 -10.5 0.5l-228 72c-10.667 2.66699 -14.334 8.33398 -11.001 17.001l16 46c0.666992 2.66699 2 4.5 4 5.5z" />
    <glyph glyph-name="Oacute" unicode="&#xd3;" horiz-adv-x="764" 
d="M212.5 34c-47.667 29.333 -84.1689 72.333 -109.502 129s-38 125 -38 205c0 80.667 12.833 149.834 38.5 207.501s62.334 101.5 110.001 131.5s104.167 45 169.5 45c64.667 0 120.834 -15 168.501 -45s84.167 -73.667 109.5 -131s38 -126.333 38 -207
c0 -80 -12.667 -148.333 -38 -205s-61.833 -99.834 -109.5 -129.501s-104.167 -44.5 -169.5 -44.5s-121.833 14.667 -169.5 44zM545.498 138c35.667 50 53.5 126.667 53.5 230c0 105.333 -18.167 183.5 -54.5 234.5s-90.166 76.5 -161.499 76.5
c-72.667 0 -127.167 -25.667 -163.5 -77s-54.5 -129.333 -54.5 -234c0 -103.333 18.167 -180 54.5 -230s91.166 -75 164.499 -75c72 0 125.833 25 161.5 75zM513.998 912c0.666992 -1.33301 1 -3.33301 1 -6c0 -5.33301 -3.66699 -9 -11 -11l-229 -72
c-1.33301 -0.666992 -3.33301 -1 -6 -1c-4.66699 0 -8 3 -10 9l-8 22c-0.666992 1.33301 -1 3 -1 5c0 5.33301 2 8.33301 6 9l231 96c0.666992 0.666992 2 1 4 1c4 0 6.66699 -2 8 -6z" />
    <glyph glyph-name="Ocircumflex" unicode="&#xd4;" horiz-adv-x="764" 
d="M212.5 34c-47.667 29.333 -84.1689 72.333 -109.502 129s-38 125 -38 205c0 80.667 12.833 149.834 38.5 207.501s62.334 101.5 110.001 131.5s104.167 45 169.5 45c64.667 0 120.834 -15 168.501 -45s84.167 -73.667 109.5 -131s38 -126.333 38 -207
c0 -80 -12.667 -148.333 -38 -205s-61.833 -99.834 -109.5 -129.501s-104.167 -44.5 -169.5 -44.5s-121.833 14.667 -169.5 44zM545.498 138c35.667 50 53.5 126.667 53.5 230c0 105.333 -18.167 183.5 -54.5 234.5s-90.166 76.5 -161.499 76.5
c-72.667 0 -127.167 -25.667 -163.5 -77s-54.5 -129.333 -54.5 -234c0 -103.333 18.167 -180 54.5 -230s91.166 -75 164.499 -75c72 0 125.833 25 161.5 75zM393.998 899l-5.50098 5.50098c-2.33301 2.33301 -4.16602 3.5 -5.49902 3.5c-2 0 -6 -3 -12 -9l-58 -50
c-3.33301 -2.66699 -6.16602 -4.33398 -8.49902 -5.00098s-5.5 -1 -9.5 -1h-54c-4.66699 0 -7 1.33301 -7 4c0 2 1.66699 4.66699 5 8l102 91c7.33301 7.33301 15.666 11 24.999 11h39c4.66699 0 8.5 -1 11.5 -3s5.83301 -4 8.5 -6l101 -93c4 -4 6 -7 6 -9
s-2.33301 -3 -7 -3h-59c-7.33301 0 -13.333 2 -18 6z" />
    <glyph glyph-name="Otilde" unicode="&#xd5;" horiz-adv-x="764" 
d="M212.5 34c-47.667 29.333 -84.1689 72.333 -109.502 129s-38 125 -38 205c0 80.667 12.833 149.834 38.5 207.501s62.334 101.5 110.001 131.5s104.167 45 169.5 45c64.667 0 120.834 -15 168.501 -45s84.167 -73.667 109.5 -131s38 -126.333 38 -207
c0 -80 -12.667 -148.333 -38 -205s-61.833 -99.834 -109.5 -129.501s-104.167 -44.5 -169.5 -44.5s-121.833 14.667 -169.5 44zM545.498 138c35.667 50 53.5 126.667 53.5 230c0 105.333 -18.167 183.5 -54.5 234.5s-90.166 76.5 -161.499 76.5
c-72.667 0 -127.167 -25.667 -163.5 -77s-54.5 -129.333 -54.5 -234c0 -103.333 18.167 -180 54.5 -230s91.166 -75 164.499 -75c72 0 125.833 25 161.5 75zM490.498 873c-11.667 -4 -25.835 -6.00293 -42.502 -6.00293c-19.333 0 -42.333 4.66699 -69 14
c-24 8 -43.333 12 -58 12c-11.333 0 -20.666 -1.5 -27.999 -4.5s-14 -6.16699 -20 -9.5s-10 -5.66602 -12 -6.99902c-3.33301 -2 -5.66602 -3 -6.99902 -3c-2.66699 0 -5 2.66699 -7 8l-10 27c-0.666992 1.33301 -1 3.33301 -1 6s1.66699 5.33398 5 8.00098
c13.333 10 25.333 17.5 36 22.5s24 7.5 40 7.5c11.333 0 22 -1.16699 32 -3.5s22.333 -5.83301 37 -10.5c10.667 -3.33301 21.334 -6.5 32.001 -9.5s21 -4.5 31 -4.5c11.333 0 21 1.66699 29 5s17.333 8.33301 28 15c3.33301 2 6 3 8 3c3.33301 0 6 -2.66699 8 -8l10 -31
c0.666992 -1.33301 1 -3 1 -5c0 -3.33301 -3 -6.66602 -9 -9.99902c-10.667 -6.66699 -21.834 -12 -33.501 -16z" />
    <glyph glyph-name="Odieresis" unicode="&#xd6;" horiz-adv-x="764" 
d="M212.5 34c-47.667 29.333 -84.1689 72.333 -109.502 129s-38 125 -38 205c0 80.667 12.833 149.834 38.5 207.501s62.334 101.5 110.001 131.5s104.167 45 169.5 45c64.667 0 120.834 -15 168.501 -45s84.167 -73.667 109.5 -131s38 -126.333 38 -207
c0 -80 -12.667 -148.333 -38 -205s-61.833 -99.834 -109.5 -129.501s-104.167 -44.5 -169.5 -44.5s-121.833 14.667 -169.5 44zM545.498 138c35.667 50 53.5 126.667 53.5 230c0 105.333 -18.167 183.5 -54.5 234.5s-90.166 76.5 -161.499 76.5
c-72.667 0 -127.167 -25.667 -163.5 -77s-54.5 -129.333 -54.5 -234c0 -103.333 18.167 -180 54.5 -230s91.166 -75 164.499 -75c72 0 125.833 25 161.5 75zM350.998 859c0 -6 -1.16699 -9.99902 -3.5 -11.999s-6.5 -3 -12.5 -3h-53c-5.33301 0 -9 0.833008 -11 2.5
s-3 5.16699 -3 10.5v84c0 4.66699 0.833008 8 2.5 10s4.5 3 8.5 3h61c4 0 6.83301 -0.833008 8.5 -2.5s2.5 -4.83398 2.5 -9.50098v-83zM497.998 859.001c0 -6 -1.16699 -9.99902 -3.5 -11.999s-6.83301 -3 -13.5 -3h-52c-6 0 -10 0.833008 -12 2.5s-3 5.16699 -3 10.5v84
c0 8.66699 3.66699 13 11 13h62c4 0 6.83301 -0.833008 8.5 -2.5s2.5 -4.83398 2.5 -9.50098v-83z" />
    <glyph glyph-name="multiply" unicode="&#xd7;" horiz-adv-x="540" 
d="M472 205l-30.999 -31c-2.66699 -2.66699 -5.66699 -4 -9 -4c-4 0 -8 2 -12 6l-150 150l-154 -154c-4 -4.66699 -8.66699 -5 -14 -1l-30 31c-3.33301 3.33301 -5 6.33301 -5 9c0 4 2 8 6 12l150 150l-153 152c-2.66699 3.33301 -4 6.33301 -4 9
c0 3.33301 1.33301 6.33301 4 9l30 30c5.33301 4.66699 10.333 5.33398 15 2.00098l155 -155l152 153c4.66699 3.33301 7.66699 5 9 5c2.66699 0 5.66699 -1.66699 9 -5l31 -31c5.33301 -4.66699 5.66602 -9.33398 0.999023 -14.001l-155 -155l155 -155
c4.66699 -4 4.66699 -8.33301 0 -13z" />
    <glyph glyph-name="Oslash" unicode="&#xd8;" horiz-adv-x="729" 
d="M713 708c0 -2 -1.00195 -4.66504 -3.00195 -7.99805l-83 -92c36.667 -62 55 -141.667 55 -239c0 -80 -12.667 -148.333 -38 -205s-61.833 -99.834 -109.5 -129.501s-104.167 -44.5 -169.5 -44.5c-92 0 -165.667 28.667 -221 86l-68 -76
c-5.33301 -5.33301 -9.66602 -8 -12.999 -8s-7.66602 2 -12.999 6l-23 23c-5.33301 5.33301 -8 9.66602 -8 12.999c0 1.33301 1.33301 4 4 8l80 88c-36.667 62 -55 141.333 -55 238c0 80.667 12.833 149.834 38.5 207.501s62.334 101.5 110.001 131.5s104.167 45 169.5 45
c91.333 0 164.666 -29.667 219.999 -89l72 81c7.33301 7.33301 13.333 8.33301 18 3l33 -31c2.66699 -2.66699 4 -5.33398 4 -8.00098zM176.998 207.002l349.001 394c-34.667 51.333 -88 77 -160 77c-72.667 0 -126.834 -25.5 -162.501 -76.5s-53.5 -128.833 -53.5 -233.5
c0 -65.333 9 -119 27 -161zM551.999 531.002l-348 -392c35.333 -50 89.333 -75 162 -75c72 0 125.5 24.667 160.5 74s52.5 126 52.5 230c0 68.667 -9 123 -27 163z" />
    <glyph glyph-name="Ugrave" unicode="&#xd9;" horiz-adv-x="709" 
d="M554.5 52.5c-45 -41.667 -111.498 -62.5 -199.498 -62.5c-92.667 0 -160.334 22.333 -203.001 67s-64 113.667 -64 207v464c0 9.33301 3.66699 14 11 14h72c8 0 12 -4.33301 12 -13v-486c0 -60.667 14.833 -105.667 44.5 -135s74.167 -44 133.5 -44
s104.166 14.833 134.499 44.5s45.5 75.5 45.5 137.5v483c0 8.66699 3.66699 13 11 13h59c7.33301 0 11 -4 11 -12v-483c0 -88 -22.5 -152.833 -67.5 -194.5zM237.002 963.5c2 1 4.33398 0.833008 7.00098 -0.5l232 -96c5.33301 -2.66699 6.66602 -7.33398 3.99902 -14.001
l-8 -22c-1.33301 -4.66699 -3.16602 -7.5 -5.49902 -8.5s-5.83301 -0.833008 -10.5 0.5l-228 72c-10.667 2.66699 -14.334 8.33398 -11.001 17.001l16 46c0.666992 2.66699 2 4.5 4 5.5z" />
    <glyph glyph-name="Uacute" unicode="&#xda;" horiz-adv-x="709" 
d="M554.5 52.5c-45 -41.667 -111.498 -62.5 -199.498 -62.5c-92.667 0 -160.334 22.333 -203.001 67s-64 113.667 -64 207v464c0 9.33301 3.66699 14 11 14h72c8 0 12 -4.33301 12 -13v-486c0 -60.667 14.833 -105.667 44.5 -135s74.167 -44 133.5 -44
s104.166 14.833 134.499 44.5s45.5 75.5 45.5 137.5v483c0 8.66699 3.66699 13 11 13h59c7.33301 0 11 -4 11 -12v-483c0 -88 -22.5 -152.833 -67.5 -194.5zM493.002 912c0.666992 -1.33301 1 -3.33301 1 -6c0 -5.33301 -3.66699 -9 -11 -11l-229 -72
c-1.33301 -0.666992 -3.33301 -1 -6 -1c-4.66699 0 -8 3 -10 9l-8 22c-0.666992 1.33301 -1 3 -1 5c0 5.33301 2 8.33301 6 9l231 96c0.666992 0.666992 2 1 4 1c4 0 6.66699 -2 8 -6z" />
    <glyph glyph-name="Ucircumflex" unicode="&#xdb;" horiz-adv-x="709" 
d="M554.5 52.5c-45 -41.667 -111.498 -62.5 -199.498 -62.5c-92.667 0 -160.334 22.333 -203.001 67s-64 113.667 -64 207v464c0 9.33301 3.66699 14 11 14h72c8 0 12 -4.33301 12 -13v-486c0 -60.667 14.833 -105.667 44.5 -135s74.167 -44 133.5 -44
s104.166 14.833 134.499 44.5s45.5 75.5 45.5 137.5v483c0 8.66699 3.66699 13 11 13h59c7.33301 0 11 -4 11 -12v-483c0 -88 -22.5 -152.833 -67.5 -194.5zM373.002 899l-5.50098 5.50098c-2.33301 2.33301 -4.16602 3.5 -5.49902 3.5c-2 0 -6 -3 -12 -9l-58 -50
c-3.33301 -2.66699 -6.16602 -4.33398 -8.49902 -5.00098s-5.5 -1 -9.5 -1h-54c-4.66699 0 -7 1.33301 -7 4c0 2 1.66699 4.66699 5 8l102 91c7.33301 7.33301 15.666 11 24.999 11h39c4.66699 0 8.5 -1 11.5 -3s5.83301 -4 8.5 -6l101 -93c4 -4 6 -7 6 -9
s-2.33301 -3 -7 -3h-59c-7.33301 0 -13.333 2 -18 6z" />
    <glyph glyph-name="Udieresis" unicode="&#xdc;" horiz-adv-x="709" 
d="M554.5 52.5c-45 -41.667 -111.498 -62.5 -199.498 -62.5c-92.667 0 -160.334 22.333 -203.001 67s-64 113.667 -64 207v464c0 9.33301 3.66699 14 11 14h72c8 0 12 -4.33301 12 -13v-486c0 -60.667 14.833 -105.667 44.5 -135s74.167 -44 133.5 -44
s104.166 14.833 134.499 44.5s45.5 75.5 45.5 137.5v483c0 8.66699 3.66699 13 11 13h59c7.33301 0 11 -4 11 -12v-483c0 -88 -22.5 -152.833 -67.5 -194.5zM330.002 859c0 -6 -1.16699 -9.99902 -3.5 -11.999s-6.5 -3 -12.5 -3h-53c-5.33301 0 -9 0.833008 -11 2.5
s-3 5.16699 -3 10.5v84c0 4.66699 0.833008 8 2.5 10s4.5 3 8.5 3h61c4 0 6.83301 -0.833008 8.5 -2.5s2.5 -4.83398 2.5 -9.50098v-83zM477.002 859.001c0 -6 -1.16699 -9.99902 -3.5 -11.999s-6.83301 -3 -13.5 -3h-52c-6 0 -10 0.833008 -12 2.5s-3 5.16699 -3 10.5v84
c0 8.66699 3.66699 13 11 13h62c4 0 6.83301 -0.833008 8.5 -2.5s2.5 -4.83398 2.5 -9.50098v-83z" />
    <glyph glyph-name="Yacute" unicode="&#xdd;" horiz-adv-x="675" 
d="M633.5 738c1.66699 -2.66699 1.16602 -6 -1.50098 -10l-238 -398c-2.66699 -4 -4.33398 -8.16699 -5.00098 -12.5s-1 -11.166 -1 -20.499v-280c0 -6 -1.5 -10.333 -4.5 -13s-7.83301 -4 -14.5 -4h-60c-10.667 0 -16 5 -16 15v278c0 6 -0.5 10.667 -1.5 14
s-3.16699 7.66602 -6.5 12.999l-241 406c-2 3.33301 -3 6 -3 8c0 5.33301 4.66699 8 14 8h72c6 0 10.167 -0.833008 12.5 -2.5s5.16602 -4.83398 8.49902 -9.50098l186 -320c4 -8 7.66699 -12 11 -12c2.66699 0 6.33398 3.33301 11.001 10l185 322
c2.66699 4.66699 5.33398 7.83398 8.00098 9.50098s7 2.5 13 2.5h62c4.66699 0 7.83398 -1.33301 9.50098 -4zM468.999 912c0.666992 -1.33301 1 -3.33301 1 -6c0 -5.33301 -3.66699 -9 -11 -11l-229 -72c-1.33301 -0.666992 -3.33301 -1 -6 -1c-4.66699 0 -8 3 -10 9l-8 22
c-0.666992 1.33301 -1 3 -1 5c0 5.33301 2 8.33301 6 9l231 96c0.666992 0.666992 2 1 4 1c4 0 6.66699 -2 8 -6z" />
    <glyph glyph-name="Thorn" unicode="&#xde;" horiz-adv-x="693" 
d="M568.5 224.5c-47.667 -35.667 -111.832 -53.5 -192.499 -53.5h-174c-6 0 -9 -3.33301 -9 -10v-146c0 -10 -5 -15 -15 -15h-68c-8.66699 -0 -13 4.33301 -13 13v715c0 9.33301 4 14 12 14h72c8 0 12 -4.33301 12 -13v-135c0 -4.66699 2.33301 -7 7 -7h164
c83.333 0 150.166 -17 200.499 -51s75.5 -84.333 75.5 -151c0 -71.333 -23.833 -124.833 -71.5 -160.5zM360.002 514h-154c-8.66699 0 -13 -4 -13 -12v-245c0 -8.66699 3 -13 9 -13h164c55.333 0 98.333 11.667 129 35s46 59 46 107c0 85.333 -60.333 128 -181 128z" />
    <glyph glyph-name="germandbls" unicode="&#xdf;" horiz-adv-x="608" 
d="M452 702c28.667 -26.667 42.999 -60.333 42.999 -101c0 -24.667 -5 -45.167 -15 -61.5s-23.167 -29.833 -39.5 -40.5s-38.5 -22.667 -66.5 -36c-24.667 -13.333 -41 -23.5 -49 -30.5s-12 -16.5 -12 -28.5c0 -12.667 3.83301 -21.834 11.5 -27.501
s23.5 -12.167 47.5 -19.5c39.333 -14.667 71.166 -28 95.499 -40s46.166 -30.667 65.499 -56s29 -57.666 29 -96.999c0 -55.333 -18.667 -98.166 -56 -128.499s-85 -45.5 -143 -45.5c-24 0 -47.833 2.66699 -71.5 8s-43.5 12.666 -59.5 21.999c-6 4 -7.66699 8.66699 -5 14
l23 42c3.33301 4 7.66602 4.33301 12.999 1c16 -8.66699 30.833 -15.167 44.5 -19.5s29.834 -6.5 48.501 -6.5c38.667 0 69.5 9.16699 92.5 27.5s34.5 44.166 34.5 77.499c0 23.333 -5.66699 42.5 -17 57.5s-25.666 26.667 -42.999 35s-40.666 17.5 -69.999 27.5
c-22.667 8 -41.5 16 -56.5 24s-27.5 19.167 -37.5 33.5s-15 32.833 -15 55.5c0 24.667 6.83301 45.334 20.5 62.001s36.167 33.667 67.5 51c4.66699 2.66699 15.334 9.16699 32.001 19.5s29.334 22 38.001 35s13 27.5 13 43.5c0 24.667 -9 44.167 -27 58.5
s-43.333 21.5 -76 21.5c-41.333 0 -74 -12.5 -98 -37.5s-36 -60.833 -36 -107.5v-522v-3c0 -6.66699 -3.33301 -10 -10 -10h-63c-6.66699 0 -10 3.66699 -10 11v437c0 6.66699 -2.66699 10 -8 10h-52c-7.33301 0 -11 3.33301 -11 10v42c0 3.33301 1 6 3 8s4.66699 3 8 3h51
c3.33301 0 5.5 0.833008 6.5 2.5s1.5 4.16699 1.5 7.5c0.666992 63.333 20.667 114.333 60 153s94.666 58 165.999 58c59.333 0 103.333 -13.333 132 -40z" />
    <glyph glyph-name="agrave" unicode="&#xe0;" horiz-adv-x="548" 
d="M207 -10c-52 0 -92.833 13.167 -122.5 39.5s-44.5 61.5 -44.5 105.5c0 53.333 22.5 95.333 67.5 126s110.167 48.667 195.5 54l78 6c11.333 1.33301 17 6.33301 17 15v27c0 36 -11.167 64.5 -33.5 85.5s-52.5 31.5 -90.5 31.5c-58.667 0 -106.667 -26.667 -144 -80
c-2 -3.33301 -4 -5.5 -6 -6.5s-4.66699 -0.833008 -8 0.5l-54 18c-3.33301 1.33301 -5 3.66602 -5 6.99902c0 2 1 5 3 9c20 35.333 48.5 62.833 85.5 82.5s80.833 29.5 131.5 29.5c65.333 0 115.333 -15.167 150 -45.5s52 -72.166 52 -125.499v-354c0 -6 -1 -10 -3 -12
s-5.66699 -3 -11 -3h-50c-8 -0 -12.667 5.33301 -14 16l-2 46c-0.666992 4.66699 -2.33398 7 -5.00098 7s-5.66699 -1.66699 -9 -5c-51.333 -49.333 -110.666 -74 -177.999 -74zM383 270l-64.999 -6c-62 -4 -109.833 -16 -143.5 -36s-50.5 -47.667 -50.5 -83
c0 -28.667 10.167 -51.334 30.5 -68.001s47.5 -25 81.5 -25c20.667 0 41 3.66699 61 11s37.667 17.333 53 30c15.333 12 27.166 24.833 35.499 38.5s12.5 26.834 12.5 39.501v83c0 10.667 -5 16 -15 16zM150.001 751.5c2 1 4.33398 0.833008 7.00098 -0.5l232 -96
c5.33301 -2.66699 6.66602 -7.33398 3.99902 -14.001l-8 -22c-1.33301 -4.66699 -3.16602 -7.5 -5.49902 -8.5s-5.83301 -0.833008 -10.5 0.5l-228 72c-10.667 2.66699 -14.334 8.33398 -11.001 17.001l16 46c0.666992 2.66699 2 4.5 4 5.5z" />
    <glyph glyph-name="aacute" unicode="&#xe1;" horiz-adv-x="548" 
d="M207 -10c-52 0 -92.833 13.167 -122.5 39.5s-44.5 61.5 -44.5 105.5c0 53.333 22.5 95.333 67.5 126s110.167 48.667 195.5 54l78 6c11.333 1.33301 17 6.33301 17 15v27c0 36 -11.167 64.5 -33.5 85.5s-52.5 31.5 -90.5 31.5c-58.667 0 -106.667 -26.667 -144 -80
c-2 -3.33301 -4 -5.5 -6 -6.5s-4.66699 -0.833008 -8 0.5l-54 18c-3.33301 1.33301 -5 3.66602 -5 6.99902c0 2 1 5 3 9c20 35.333 48.5 62.833 85.5 82.5s80.833 29.5 131.5 29.5c65.333 0 115.333 -15.167 150 -45.5s52 -72.166 52 -125.499v-354c0 -6 -1 -10 -3 -12
s-5.66699 -3 -11 -3h-50c-8 -0 -12.667 5.33301 -14 16l-2 46c-0.666992 4.66699 -2.33398 7 -5.00098 7s-5.66699 -1.66699 -9 -5c-51.333 -49.333 -110.666 -74 -177.999 -74zM383 270l-64.999 -6c-62 -4 -109.833 -16 -143.5 -36s-50.5 -47.667 -50.5 -83
c0 -28.667 10.167 -51.334 30.5 -68.001s47.5 -25 81.5 -25c20.667 0 41 3.66699 61 11s37.667 17.333 53 30c15.333 12 27.166 24.833 35.499 38.5s12.5 26.834 12.5 39.501v83c0 10.667 -5 16 -15 16zM406.001 700c0.666992 -1.33301 1 -3.33301 1 -6
c0 -5.33301 -3.66699 -9 -11 -11l-229 -72c-1.33301 -0.666992 -3.33301 -1 -6 -1c-4.66699 0 -8 3 -10 9l-8 22c-0.666992 1.33301 -1 3 -1 5c0 5.33301 2 8.33301 6 9l231 96c0.666992 0.666992 2 1 4 1c4 0 6.66699 -2 8 -6z" />
    <glyph glyph-name="acircumflex" unicode="&#xe2;" horiz-adv-x="548" 
d="M207 -10c-52 0 -92.833 13.167 -122.5 39.5s-44.5 61.5 -44.5 105.5c0 53.333 22.5 95.333 67.5 126s110.167 48.667 195.5 54l78 6c11.333 1.33301 17 6.33301 17 15v27c0 36 -11.167 64.5 -33.5 85.5s-52.5 31.5 -90.5 31.5c-58.667 0 -106.667 -26.667 -144 -80
c-2 -3.33301 -4 -5.5 -6 -6.5s-4.66699 -0.833008 -8 0.5l-54 18c-3.33301 1.33301 -5 3.66602 -5 6.99902c0 2 1 5 3 9c20 35.333 48.5 62.833 85.5 82.5s80.833 29.5 131.5 29.5c65.333 0 115.333 -15.167 150 -45.5s52 -72.166 52 -125.499v-354c0 -6 -1 -10 -3 -12
s-5.66699 -3 -11 -3h-50c-8 -0 -12.667 5.33301 -14 16l-2 46c-0.666992 4.66699 -2.33398 7 -5.00098 7s-5.66699 -1.66699 -9 -5c-51.333 -49.333 -110.666 -74 -177.999 -74zM383 270l-64.999 -6c-62 -4 -109.833 -16 -143.5 -36s-50.5 -47.667 -50.5 -83
c0 -28.667 10.167 -51.334 30.5 -68.001s47.5 -25 81.5 -25c20.667 0 41 3.66699 61 11s37.667 17.333 53 30c15.333 12 27.166 24.833 35.499 38.5s12.5 26.834 12.5 39.501v83c0 10.667 -5 16 -15 16zM286.001 687l-5.50098 5.50098
c-2.33301 2.33301 -4.16602 3.5 -5.49902 3.5c-2 0 -6 -3 -12 -9l-58 -50c-3.33301 -2.66699 -6.16602 -4.33398 -8.49902 -5.00098s-5.5 -1 -9.5 -1h-54c-4.66699 0 -7 1.33301 -7 4c0 2 1.66699 4.66699 5 8l102 91c7.33301 7.33301 15.666 11 24.999 11h39
c4.66699 0 8.5 -1 11.5 -3s5.83301 -4 8.5 -6l101 -93c4 -4 6 -7 6 -9s-2.33301 -3 -7 -3h-59c-7.33301 0 -13.333 2 -18 6z" />
    <glyph glyph-name="atilde" unicode="&#xe3;" horiz-adv-x="548" 
d="M207 -10c-52 0 -92.833 13.167 -122.5 39.5s-44.5 61.5 -44.5 105.5c0 53.333 22.5 95.333 67.5 126s110.167 48.667 195.5 54l78 6c11.333 1.33301 17 6.33301 17 15v27c0 36 -11.167 64.5 -33.5 85.5s-52.5 31.5 -90.5 31.5c-58.667 0 -106.667 -26.667 -144 -80
c-2 -3.33301 -4 -5.5 -6 -6.5s-4.66699 -0.833008 -8 0.5l-54 18c-3.33301 1.33301 -5 3.66602 -5 6.99902c0 2 1 5 3 9c20 35.333 48.5 62.833 85.5 82.5s80.833 29.5 131.5 29.5c65.333 0 115.333 -15.167 150 -45.5s52 -72.166 52 -125.499v-354c0 -6 -1 -10 -3 -12
s-5.66699 -3 -11 -3h-50c-8 -0 -12.667 5.33301 -14 16l-2 46c-0.666992 4.66699 -2.33398 7 -5.00098 7s-5.66699 -1.66699 -9 -5c-51.333 -49.333 -110.666 -74 -177.999 -74zM383 270l-64.999 -6c-62 -4 -109.833 -16 -143.5 -36s-50.5 -47.667 -50.5 -83
c0 -28.667 10.167 -51.334 30.5 -68.001s47.5 -25 81.5 -25c20.667 0 41 3.66699 61 11s37.667 17.333 53 30c15.333 12 27.166 24.833 35.499 38.5s12.5 26.834 12.5 39.501v83c0 10.667 -5 16 -15 16zM382.501 661c-11.667 -4 -25.835 -6.00293 -42.502 -6.00293
c-19.333 0 -42.333 4.66699 -69 14c-24 8 -43.333 12 -58 12c-11.333 0 -20.666 -1.5 -27.999 -4.5s-14 -6.16699 -20 -9.5s-10 -5.66602 -12 -6.99902c-3.33301 -2 -5.66602 -3 -6.99902 -3c-2.66699 0 -5 2.66699 -7 8l-10 27c-0.666992 1.33301 -1 3.33301 -1 6
s1.66699 5.33398 5 8.00098c13.333 10 25.333 17.5 36 22.5s24 7.5 40 7.5c11.333 0 22 -1.16699 32 -3.5s22.333 -5.83301 37 -10.5c10.667 -3.33301 21.334 -6.5 32.001 -9.5s21 -4.5 31 -4.5c11.333 0 21 1.66699 29 5s17.333 8.33301 28 15c3.33301 2 6 3 8 3
c3.33301 0 6 -2.66699 8 -8l10 -31c0.666992 -1.33301 1 -3 1 -5c0 -3.33301 -3 -6.66602 -9 -9.99902c-10.667 -6.66699 -21.834 -12 -33.501 -16z" />
    <glyph glyph-name="adieresis" unicode="&#xe4;" horiz-adv-x="548" 
d="M207 -10c-52 0 -92.833 13.167 -122.5 39.5s-44.5 61.5 -44.5 105.5c0 53.333 22.5 95.333 67.5 126s110.167 48.667 195.5 54l78 6c11.333 1.33301 17 6.33301 17 15v27c0 36 -11.167 64.5 -33.5 85.5s-52.5 31.5 -90.5 31.5c-58.667 0 -106.667 -26.667 -144 -80
c-2 -3.33301 -4 -5.5 -6 -6.5s-4.66699 -0.833008 -8 0.5l-54 18c-3.33301 1.33301 -5 3.66602 -5 6.99902c0 2 1 5 3 9c20 35.333 48.5 62.833 85.5 82.5s80.833 29.5 131.5 29.5c65.333 0 115.333 -15.167 150 -45.5s52 -72.166 52 -125.499v-354c0 -6 -1 -10 -3 -12
s-5.66699 -3 -11 -3h-50c-8 -0 -12.667 5.33301 -14 16l-2 46c-0.666992 4.66699 -2.33398 7 -5.00098 7s-5.66699 -1.66699 -9 -5c-51.333 -49.333 -110.666 -74 -177.999 -74zM383 270l-64.999 -6c-62 -4 -109.833 -16 -143.5 -36s-50.5 -47.667 -50.5 -83
c0 -28.667 10.167 -51.334 30.5 -68.001s47.5 -25 81.5 -25c20.667 0 41 3.66699 61 11s37.667 17.333 53 30c15.333 12 27.166 24.833 35.499 38.5s12.5 26.834 12.5 39.501v83c0 10.667 -5 16 -15 16zM243.001 647c0 -6 -1.16699 -9.99902 -3.5 -11.999s-6.5 -3 -12.5 -3
h-53c-5.33301 0 -9 0.833008 -11 2.5s-3 5.16699 -3 10.5v84c0 4.66699 0.833008 8 2.5 10s4.5 3 8.5 3h61c4 0 6.83301 -0.833008 8.5 -2.5s2.5 -4.83398 2.5 -9.50098v-83zM390.001 647.001c0 -6 -1.16699 -9.99902 -3.5 -11.999s-6.83301 -3 -13.5 -3h-52
c-6 0 -10 0.833008 -12 2.5s-3 5.16699 -3 10.5v84c0 8.66699 3.66699 13 11 13h62c4 0 6.83301 -0.833008 8.5 -2.5s2.5 -4.83398 2.5 -9.50098v-83z" />
    <glyph glyph-name="aring" unicode="&#xe5;" horiz-adv-x="548" 
d="M207 -10c-52 0 -92.833 13.167 -122.5 39.5s-44.5 61.5 -44.5 105.5c0 53.333 22.5 95.333 67.5 126s110.167 48.667 195.5 54l78 6c11.333 1.33301 17 6.33301 17 15v27c0 36 -11.167 64.5 -33.5 85.5s-52.5 31.5 -90.5 31.5c-58.667 0 -106.667 -26.667 -144 -80
c-2 -3.33301 -4 -5.5 -6 -6.5s-4.66699 -0.833008 -8 0.5l-54 18c-3.33301 1.33301 -5 3.66602 -5 6.99902c0 2 1 5 3 9c20 35.333 48.5 62.833 85.5 82.5s80.833 29.5 131.5 29.5c65.333 0 115.333 -15.167 150 -45.5s52 -72.166 52 -125.499v-354c0 -6 -1 -10 -3 -12
s-5.66699 -3 -11 -3h-50c-8 -0 -12.667 5.33301 -14 16l-2 46c-0.666992 4.66699 -2.33398 7 -5.00098 7s-5.66699 -1.66699 -9 -5c-51.333 -49.333 -110.666 -74 -177.999 -74zM383 270l-64.999 -6c-62 -4 -109.833 -16 -143.5 -36s-50.5 -47.667 -50.5 -83
c0 -28.667 10.167 -51.334 30.5 -68.001s47.5 -25 81.5 -25c20.667 0 41 3.66699 61 11s37.667 17.333 53 30c15.333 12 27.166 24.833 35.499 38.5s12.5 26.834 12.5 39.501v83c0 10.667 -5 16 -15 16zM349.001 623c-20 -20 -44.667 -30 -74 -30
s-54.166 10.167 -74.499 30.5s-30.5 45.833 -30.5 76.5c0 28 10.167 51.833 30.5 71.5s45.166 29.5 74.499 29.5c28.667 0 53.167 -10 73.5 -30s30.5 -44.333 30.5 -73c0 -30 -10 -55 -30 -75zM313.001 737.5c-10.667 10.333 -23.667 15.5 -39 15.5
s-28.666 -5.33301 -39.999 -16s-17 -24 -17 -40c0 -14.667 5.66699 -27.667 17 -39s24.666 -17 39.999 -17s28.333 5.5 39 16.5s16 24.167 16 39.5c0 16.667 -5.33301 30.167 -16 40.5z" />
    <glyph glyph-name="ae" unicode="&#xe6;" horiz-adv-x="926" 
d="M482.5 242c-2.33301 -2.66699 -3.50098 -8.66602 -3.50098 -17.999c0 -28 7.66699 -55.167 23 -81.5s36.333 -47.666 63 -63.999s55.667 -24.5 87 -24.5c38 0 68.5 7.33301 91.5 22s45.167 35 66.5 61c2.66699 2.66699 4.66699 4.16699 6 4.5
s3.66602 -0.166992 6.99902 -1.5l41 -21c5.33301 -3.33301 6 -8 2 -14c-22 -36.667 -52.167 -65 -90.5 -85s-82.5 -30 -132.5 -30c-49.333 0 -90 10.333 -122 31s-60 46.334 -84 77.001c-2 3.33301 -4 3.33301 -6 0c-28 -32.667 -58.833 -58.834 -92.5 -78.501
s-77.167 -29.5 -130.5 -29.5s-94.666 13.167 -123.999 39.5s-44 62.5 -44 108.5c0 50.667 21 91.167 63 121.5s105 48.5 189 54.5l88 7c12 1.33301 18 6.33301 18 15v27c0 36.667 -11.167 65.334 -33.5 86.001s-53.833 31 -94.5 31c-56 0 -102.667 -26.667 -140 -80
c-2.66699 -4 -5 -6.33301 -7 -7s-5 -0.333984 -9 0.999023l-52 18c-2 1.33301 -3.16699 3.66602 -3.5 6.99902s0.166992 6.33301 1.5 9c43.333 74.667 115.666 112 216.999 112c48 0 86.5 -8 115.5 -24s49.833 -40.333 62.5 -73c20.667 32 47 56.167 79 72.5
s68.667 24.5 110 24.5c48 0 90.167 -10.667 126.5 -32s64.5 -52.333 84.5 -93s30 -89.334 30 -146.001c0 -8 -1.16699 -13.667 -3.5 -17s-7.16602 -5 -14.499 -5l-370 -1c-7.33301 0 -12.166 -1.33301 -14.499 -4zM561.999 458.501c-24.667 -14.333 -44.332 -35 -58.999 -62
s-22 -58.167 -22 -93.5l303 -1c7.33301 0 12 1 14 3s3 6 3 12c0 28.667 -6.66699 55.5 -20 80.5s-31.833 45 -55.5 60s-50.5 22.5 -80.5 22.5c-30.667 0 -58.334 -7.16699 -83.001 -21.5zM394.501 263.501c-2.33301 2.33301 -6.50098 3.50098 -12.501 3.50098l-73 -6
c-60 -4.66699 -105.833 -17 -137.5 -37s-47.5 -47 -47.5 -81c0 -28 9.33301 -50.333 28 -67s44.334 -25 77.001 -25c30 0 58 5.5 84 16.5s46.667 25.667 62 44s23 38.5 23 60.5v80c0 5.33301 -1.16699 9.16602 -3.5 11.499z" />
    <glyph glyph-name="ccedilla" unicode="&#xe7;" horiz-adv-x="542" 
d="M511 121c-20 -36 -46.1689 -65.8311 -78.502 -89.498s-70.833 -37.167 -115.5 -40.5l-17 -43c-0.666992 -1.33301 -0.666992 -2.5 0 -3.5s2 -1.5 4 -1.5c29.333 -2 50.666 -10 63.999 -24s20 -30.667 20 -50c0 -24.667 -10.5 -44 -31.5 -58s-46.833 -21 -77.5 -21
c-33.333 0 -62.666 7.33301 -87.999 22c-3.33301 2.66699 -4.66602 5.66699 -3.99902 9l11 26c2 3.33301 5 4 9 2c18.667 -12.667 39.334 -19 62.001 -19c38 0 57 12.667 57 38c0 14.667 -6.5 25.667 -19.5 33s-33.5 11.666 -61.5 12.999c-3.33301 0 -5.33301 0.333008 -6 1
s-0.666992 2.33398 0 5.00098l31 71c-44 4 -83 18 -117 42s-60.333 55.833 -79 95.5s-28 84.5 -28 134.5c0 53.333 10.667 101.166 32 143.499s51.166 75.166 89.499 98.499s81.5 35 129.5 35c48.667 0 90.167 -11.333 124.5 -34s61.833 -52.667 82.5 -90l2 -8
c0 -4 -2.33301 -6.33301 -7 -7l-55 -13l-3 -1c-3.33301 0 -6.66602 2.66699 -9.99902 8c-21.333 28.667 -41.833 49.667 -61.5 63s-42.167 20 -67.5 20c-52 0 -93.333 -19.167 -124 -57.5s-46 -90.166 -46 -155.499c0 -66 15.5 -118 46.5 -156s72.833 -57 125.5 -57
c31.333 0 58.833 7.66699 82.5 23s45.167 39 64.5 71c2 3.33301 4 5.16602 6 5.49902s4.33301 -0.166992 7 -1.5l43 -16c4.66699 -2 6 -6.33301 4 -13z" />
    <glyph glyph-name="egrave" unicode="&#xe8;" horiz-adv-x="581" 
d="M156.5 143c15.667 -27.333 36.835 -49 63.502 -65s56 -24 88 -24c66.667 0 118.667 27.667 156 83c2.66699 2.66699 5 4.16699 7 4.5s4.33301 -0.166992 7 -1.5l42 -21c5.33301 -3.33301 6 -8 2 -14c-26 -40 -57 -69.167 -93 -87.5s-79 -27.5 -129 -27.5
c-48.667 0 -92.334 11.333 -131.001 34s-68.834 54.5 -90.501 95.5s-32.5 87.833 -32.5 140.5c0 56.667 11 106.167 33 148.5s52.167 74.833 90.5 97.5s81.5 34 129.5 34s90.167 -10.667 126.5 -32s64.5 -52.5 84.5 -93.5s30 -89.5 30 -145.5v-4c0 -6 -1 -10.5 -3 -13.5
s-6 -4.5 -12 -4.5h-383c-6 0 -9 -5 -9 -15c0 -32 7.83301 -61.667 23.5 -89zM439.001 302c7.33301 0 11.998 0.833008 13.998 2.5s3 5.5 3 11.5c0 29.333 -6.16699 56.5 -18.5 81.5s-30.333 45 -54 60s-51.167 22.5 -82.5 22.5c-34 0 -63.667 -8.5 -89 -25.5
s-44.666 -39 -57.999 -66s-19.666 -55.833 -18.999 -86.5h304zM172.999 751.5c2 1 4.33398 0.833008 7.00098 -0.5l232 -96c5.33301 -2.66699 6.66602 -7.33398 3.99902 -14.001l-8 -22c-1.33301 -4.66699 -3.16602 -7.5 -5.49902 -8.5s-5.83301 -0.833008 -10.5 0.5
l-228 72c-10.667 2.66699 -14.334 8.33398 -11.001 17.001l16 46c0.666992 2.66699 2 4.5 4 5.5z" />
    <glyph glyph-name="eacute" unicode="&#xe9;" horiz-adv-x="581" 
d="M156.5 143c15.667 -27.333 36.835 -49 63.502 -65s56 -24 88 -24c66.667 0 118.667 27.667 156 83c2.66699 2.66699 5 4.16699 7 4.5s4.33301 -0.166992 7 -1.5l42 -21c5.33301 -3.33301 6 -8 2 -14c-26 -40 -57 -69.167 -93 -87.5s-79 -27.5 -129 -27.5
c-48.667 0 -92.334 11.333 -131.001 34s-68.834 54.5 -90.501 95.5s-32.5 87.833 -32.5 140.5c0 56.667 11 106.167 33 148.5s52.167 74.833 90.5 97.5s81.5 34 129.5 34s90.167 -10.667 126.5 -32s64.5 -52.5 84.5 -93.5s30 -89.5 30 -145.5v-4c0 -6 -1 -10.5 -3 -13.5
s-6 -4.5 -12 -4.5h-383c-6 0 -9 -5 -9 -15c0 -32 7.83301 -61.667 23.5 -89zM439.001 302c7.33301 0 11.998 0.833008 13.998 2.5s3 5.5 3 11.5c0 29.333 -6.16699 56.5 -18.5 81.5s-30.333 45 -54 60s-51.167 22.5 -82.5 22.5c-34 0 -63.667 -8.5 -89 -25.5
s-44.666 -39 -57.999 -66s-19.666 -55.833 -18.999 -86.5h304zM428.999 700c0.666992 -1.33301 1 -3.33301 1 -6c0 -5.33301 -3.66699 -9 -11 -11l-229 -72c-1.33301 -0.666992 -3.33301 -1 -6 -1c-4.66699 0 -8 3 -10 9l-8 22c-0.666992 1.33301 -1 3 -1 5
c0 5.33301 2 8.33301 6 9l231 96c0.666992 0.666992 2 1 4 1c4 0 6.66699 -2 8 -6z" />
    <glyph glyph-name="ecircumflex" unicode="&#xea;" horiz-adv-x="581" 
d="M156.5 143c15.667 -27.333 36.835 -49 63.502 -65s56 -24 88 -24c66.667 0 118.667 27.667 156 83c2.66699 2.66699 5 4.16699 7 4.5s4.33301 -0.166992 7 -1.5l42 -21c5.33301 -3.33301 6 -8 2 -14c-26 -40 -57 -69.167 -93 -87.5s-79 -27.5 -129 -27.5
c-48.667 0 -92.334 11.333 -131.001 34s-68.834 54.5 -90.501 95.5s-32.5 87.833 -32.5 140.5c0 56.667 11 106.167 33 148.5s52.167 74.833 90.5 97.5s81.5 34 129.5 34s90.167 -10.667 126.5 -32s64.5 -52.5 84.5 -93.5s30 -89.5 30 -145.5v-4c0 -6 -1 -10.5 -3 -13.5
s-6 -4.5 -12 -4.5h-383c-6 0 -9 -5 -9 -15c0 -32 7.83301 -61.667 23.5 -89zM439.001 302c7.33301 0 11.998 0.833008 13.998 2.5s3 5.5 3 11.5c0 29.333 -6.16699 56.5 -18.5 81.5s-30.333 45 -54 60s-51.167 22.5 -82.5 22.5c-34 0 -63.667 -8.5 -89 -25.5
s-44.666 -39 -57.999 -66s-19.666 -55.833 -18.999 -86.5h304zM308.999 687l-5.50098 5.50098c-2.33301 2.33301 -4.16602 3.5 -5.49902 3.5c-2 0 -6 -3 -12 -9l-58 -50c-3.33301 -2.66699 -6.16602 -4.33398 -8.49902 -5.00098s-5.5 -1 -9.5 -1h-54
c-4.66699 0 -7 1.33301 -7 4c0 2 1.66699 4.66699 5 8l102 91c7.33301 7.33301 15.666 11 24.999 11h39c4.66699 0 8.5 -1 11.5 -3s5.83301 -4 8.5 -6l101 -93c4 -4 6 -7 6 -9s-2.33301 -3 -7 -3h-59c-7.33301 0 -13.333 2 -18 6z" />
    <glyph glyph-name="edieresis" unicode="&#xeb;" horiz-adv-x="581" 
d="M156.5 143c15.667 -27.333 36.835 -49 63.502 -65s56 -24 88 -24c66.667 0 118.667 27.667 156 83c2.66699 2.66699 5 4.16699 7 4.5s4.33301 -0.166992 7 -1.5l42 -21c5.33301 -3.33301 6 -8 2 -14c-26 -40 -57 -69.167 -93 -87.5s-79 -27.5 -129 -27.5
c-48.667 0 -92.334 11.333 -131.001 34s-68.834 54.5 -90.501 95.5s-32.5 87.833 -32.5 140.5c0 56.667 11 106.167 33 148.5s52.167 74.833 90.5 97.5s81.5 34 129.5 34s90.167 -10.667 126.5 -32s64.5 -52.5 84.5 -93.5s30 -89.5 30 -145.5v-4c0 -6 -1 -10.5 -3 -13.5
s-6 -4.5 -12 -4.5h-383c-6 0 -9 -5 -9 -15c0 -32 7.83301 -61.667 23.5 -89zM439.001 302c7.33301 0 11.998 0.833008 13.998 2.5s3 5.5 3 11.5c0 29.333 -6.16699 56.5 -18.5 81.5s-30.333 45 -54 60s-51.167 22.5 -82.5 22.5c-34 0 -63.667 -8.5 -89 -25.5
s-44.666 -39 -57.999 -66s-19.666 -55.833 -18.999 -86.5h304zM265.999 647c0 -6 -1.16699 -9.99902 -3.5 -11.999s-6.5 -3 -12.5 -3h-53c-5.33301 0 -9 0.833008 -11 2.5s-3 5.16699 -3 10.5v84c0 4.66699 0.833008 8 2.5 10s4.5 3 8.5 3h61
c4 0 6.83301 -0.833008 8.5 -2.5s2.5 -4.83398 2.5 -9.50098v-83zM412.999 647.001c0 -6 -1.16699 -9.99902 -3.5 -11.999s-6.83301 -3 -13.5 -3h-52c-6 0 -10 0.833008 -12 2.5s-3 5.16699 -3 10.5v84c0 8.66699 3.66699 13 11 13h62c4 0 6.83301 -0.833008 8.5 -2.5
s2.5 -4.83398 2.5 -9.50098v-83z" />
    <glyph glyph-name="igrave" unicode="&#xec;" horiz-adv-x="239" 
d="M161 17c0 -6.66699 -1.33203 -11.167 -3.99902 -13.5s-7.33398 -3.5 -14.001 -3.5h-51c-6 0 -10 1 -12 3s-3 5.66699 -3 11v502c0 9.33301 4 14 12 14h61c7.33301 0 11 -4.33301 11 -13v-500zM-4.99902 751.5c2 1 4.33398 0.833008 7.00098 -0.5l232 -96
c5.33301 -2.66699 6.66602 -7.33398 3.99902 -14.001l-8 -22c-1.33301 -4.66699 -3.16602 -7.5 -5.49902 -8.5s-5.83301 -0.833008 -10.5 0.5l-228 72c-10.667 2.66699 -14.334 8.33398 -11.001 17.001l16 46c0.666992 2.66699 2 4.5 4 5.5z" />
    <glyph glyph-name="iacute" unicode="&#xed;" horiz-adv-x="239" 
d="M161 17c0 -6.66699 -1.33203 -11.167 -3.99902 -13.5s-7.33398 -3.5 -14.001 -3.5h-51c-6 0 -10 1 -12 3s-3 5.66699 -3 11v502c0 9.33301 4 14 12 14h61c7.33301 0 11 -4.33301 11 -13v-500zM251.001 700c0.666992 -1.33301 1 -3.33301 1 -6
c0 -5.33301 -3.66699 -9 -11 -11l-229 -72c-1.33301 -0.666992 -3.33301 -1 -6 -1c-4.66699 0 -8 3 -10 9l-8 22c-0.666992 1.33301 -1 3 -1 5c0 5.33301 2 8.33301 6 9l231 96c0.666992 0.666992 2 1 4 1c4 0 6.66699 -2 8 -6z" />
    <glyph glyph-name="icircumflex" unicode="&#xee;" horiz-adv-x="239" 
d="M161 17c0 -6.66699 -1.33203 -11.167 -3.99902 -13.5s-7.33398 -3.5 -14.001 -3.5h-51c-6 0 -10 1 -12 3s-3 5.66699 -3 11v502c0 9.33301 4 14 12 14h61c7.33301 0 11 -4.33301 11 -13v-500zM131.001 687l-5.50098 5.50098c-2.33301 2.33301 -4.16602 3.5 -5.49902 3.5
c-2 0 -6 -3 -12 -9l-58 -50c-3.33301 -2.66699 -6.16602 -4.33398 -8.49902 -5.00098s-5.5 -1 -9.5 -1h-54c-4.66699 0 -7 1.33301 -7 4c0 2 1.66699 4.66699 5 8l102 91c7.33301 7.33301 15.666 11 24.999 11h39c4.66699 0 8.5 -1 11.5 -3s5.83301 -4 8.5 -6l101 -93
c4 -4 6 -7 6 -9s-2.33301 -3 -7 -3h-59c-7.33301 0 -13.333 2 -18 6z" />
    <glyph glyph-name="idieresis" unicode="&#xef;" horiz-adv-x="239" 
d="M161 17c0 -6.66699 -1.33203 -11.167 -3.99902 -13.5s-7.33398 -3.5 -14.001 -3.5h-51c-6 0 -10 1 -12 3s-3 5.66699 -3 11v502c0 9.33301 4 14 12 14h61c7.33301 0 11 -4.33301 11 -13v-500zM88.001 647c0 -6 -1.16699 -9.99902 -3.5 -11.999s-6.5 -3 -12.5 -3h-53
c-5.33301 0 -9 0.833008 -11 2.5s-3 5.16699 -3 10.5v84c0 4.66699 0.833008 8 2.5 10s4.5 3 8.5 3h61c4 0 6.83301 -0.833008 8.5 -2.5s2.5 -4.83398 2.5 -9.50098v-83zM235.001 647.001c0 -6 -1.16699 -9.99902 -3.5 -11.999s-6.83301 -3 -13.5 -3h-52
c-6 0 -10 0.833008 -12 2.5s-3 5.16699 -3 10.5v84c0 8.66699 3.66699 13 11 13h62c4 0 6.83301 -0.833008 8.5 -2.5s2.5 -4.83398 2.5 -9.50098v-83z" />
    <glyph glyph-name="eth" unicode="&#xf0;" 
d="M521 120c-20.667 -41.333 -50.1729 -73.333 -88.5059 -96s-83.166 -34 -134.499 -34c-49.333 0 -93.166 11.167 -131.499 33.5s-68 53.333 -89 93s-31.5 84.834 -31.5 135.501c0 51.333 10.667 97.333 32 138s50.833 72.5 88.5 95.5s79.834 34.5 126.501 34.5
c51.333 0 93.333 -16.333 126 -49c-29.333 62.667 -76.666 116.334 -141.999 161.001l-148 -84c-1.33301 -0.666992 -3.33301 -1 -6 -1c-4 0 -7.33301 2.33301 -10 7l-11 17c-2 3.33301 -3 5.66602 -3 6.99902c0 2.66699 1.66699 5 5 7l132 73c-32 18 -67 34.333 -105 49
c-2.66699 1.33301 -4.16699 3.16602 -4.5 5.49902s0.833984 4.5 3.50098 6.5l36 28c1.33301 0.666992 2.83301 1.5 4.5 2.5s3.5 1.5 5.5 1.5c3.33301 0 6.33301 -0.666992 9 -2c48.667 -17.333 87.667 -35 117 -53l96 54c0.666992 0.666992 2.33398 1 5.00098 1
c4 0 6.33301 -1 7 -3l14 -26c2.66699 -4 2 -7.33301 -2 -10l-78 -43c138.667 -94.667 208 -230.334 208 -407.001c0 -53.333 -10.333 -100.666 -31 -141.999zM386.494 79c25 17.333 44.499 41.335 58.499 72.002s21 65.334 21 104.001s-7 73.5 -21 104.5
s-33.667 55.167 -59 72.5s-54 26 -86 26s-60.833 -8.83301 -86.5 -26.5s-45.667 -41.834 -60 -72.501s-21.5 -65.334 -21.5 -104.001s7.16699 -73.334 21.5 -104.001s34.333 -54.667 60 -72s54.834 -26 87.501 -26c32 0 60.5 8.66699 85.5 26z" />
    <glyph glyph-name="ntilde" unicode="&#xf1;" horiz-adv-x="584" 
d="M77 13v503.998c0 8.66699 3.66699 13 11 13h60c7.33301 0 11 -3.66699 11 -11v-58c0 -7.33301 3 -8.33301 9 -3c37.333 29.333 69.166 50.333 95.499 63s55.833 19 88.5 19c50.667 0 90.167 -13.667 118.5 -41s42.5 -64 42.5 -110v-373c0 -10.667 -5 -16 -15 -16h-56
c-8.66699 0 -13 4.33301 -13 13v357c0 33.333 -8.5 59 -25.5 77s-43.167 27 -78.5 27c-28 0 -53.833 -6.16699 -77.5 -18.5s-52.5 -33.166 -86.5 -62.499v-378c0 -5.33301 -1.16699 -9.16602 -3.5 -11.499s-6.16602 -3.5 -11.499 -3.5h-55c-9.33301 -0 -14 4.33301 -14 13z
M410.5 660.998c-11.667 -4 -25.835 -6.00293 -42.502 -6.00293c-19.333 0 -42.333 4.66699 -69 14c-24 8 -43.333 12 -58 12c-11.333 0 -20.666 -1.5 -27.999 -4.5s-14 -6.16699 -20 -9.5s-10 -5.66602 -12 -6.99902c-3.33301 -2 -5.66602 -3 -6.99902 -3
c-2.66699 0 -5 2.66699 -7 8l-10 27c-0.666992 1.33301 -1 3.33301 -1 6s1.66699 5.33398 5 8.00098c13.333 10 25.333 17.5 36 22.5s24 7.5 40 7.5c11.333 0 22 -1.16699 32 -3.5s22.333 -5.83301 37 -10.5c10.667 -3.33301 21.334 -6.5 32.001 -9.5s21 -4.5 31 -4.5
c11.333 0 21 1.66699 29 5s17.333 8.33301 28 15c3.33301 2 6 3 8 3c3.33301 0 6 -2.66699 8 -8l10 -31c0.666992 -1.33301 1 -3 1 -5c0 -3.33301 -3 -6.66602 -9 -9.99902c-10.667 -6.66699 -21.834 -12 -33.501 -16z" />
    <glyph glyph-name="ograve" unicode="&#xf2;" 
d="M166.5 24.5c-38.333 23 -68 55.166 -89 96.499s-31.5 88.333 -31.5 141c0 54 10.833 102 32.5 144s51.667 74.833 90 98.5s82.166 35.5 131.499 35.5s93.166 -11.833 131.499 -35.5s68 -56.5 89 -98.5s31.5 -89.667 31.5 -143c0 -52.667 -10.667 -99.667 -32 -141
s-51.166 -73.666 -89.499 -96.999s-82.166 -35 -131.499 -35c-50 0 -94.167 11.5 -132.5 34.5zM422.5 109.499c29 37.667 43.5 89.5 43.5 155.5c0 65.333 -14.833 117.166 -44.5 155.499s-70.167 57.5 -121.5 57.5c-52 0 -93 -19.167 -123 -57.5s-45 -90.166 -45 -155.499
s15 -117 45 -155s71.333 -57 124 -57c52 0 92.5 18.833 121.5 56.5zM176 751.499c2 1 4.33398 0.833008 7.00098 -0.5l232 -96c5.33301 -2.66699 6.66602 -7.33398 3.99902 -14.001l-8 -22c-1.33301 -4.66699 -3.16602 -7.5 -5.49902 -8.5s-5.83301 -0.833008 -10.5 0.5
l-228 72c-10.667 2.66699 -14.334 8.33398 -11.001 17.001l16 46c0.666992 2.66699 2 4.5 4 5.5z" />
    <glyph glyph-name="oacute" unicode="&#xf3;" 
d="M166.5 24.5c-38.333 23 -68 55.166 -89 96.499s-31.5 88.333 -31.5 141c0 54 10.833 102 32.5 144s51.667 74.833 90 98.5s82.166 35.5 131.499 35.5s93.166 -11.833 131.499 -35.5s68 -56.5 89 -98.5s31.5 -89.667 31.5 -143c0 -52.667 -10.667 -99.667 -32 -141
s-51.166 -73.666 -89.499 -96.999s-82.166 -35 -131.499 -35c-50 0 -94.167 11.5 -132.5 34.5zM422.5 109.499c29 37.667 43.5 89.5 43.5 155.5c0 65.333 -14.833 117.166 -44.5 155.499s-70.167 57.5 -121.5 57.5c-52 0 -93 -19.167 -123 -57.5s-45 -90.166 -45 -155.499
s15 -117 45 -155s71.333 -57 124 -57c52 0 92.5 18.833 121.5 56.5zM432 699.999c0.666992 -1.33301 1 -3.33301 1 -6c0 -5.33301 -3.66699 -9 -11 -11l-229 -72c-1.33301 -0.666992 -3.33301 -1 -6 -1c-4.66699 0 -8 3 -10 9l-8 22c-0.666992 1.33301 -1 3 -1 5
c0 5.33301 2 8.33301 6 9l231 96c0.666992 0.666992 2 1 4 1c4 0 6.66699 -2 8 -6z" />
    <glyph glyph-name="ocircumflex" unicode="&#xf4;" 
d="M166.5 24.5c-38.333 23 -68 55.166 -89 96.499s-31.5 88.333 -31.5 141c0 54 10.833 102 32.5 144s51.667 74.833 90 98.5s82.166 35.5 131.499 35.5s93.166 -11.833 131.499 -35.5s68 -56.5 89 -98.5s31.5 -89.667 31.5 -143c0 -52.667 -10.667 -99.667 -32 -141
s-51.166 -73.666 -89.499 -96.999s-82.166 -35 -131.499 -35c-50 0 -94.167 11.5 -132.5 34.5zM422.5 109.499c29 37.667 43.5 89.5 43.5 155.5c0 65.333 -14.833 117.166 -44.5 155.499s-70.167 57.5 -121.5 57.5c-52 0 -93 -19.167 -123 -57.5s-45 -90.166 -45 -155.499
s15 -117 45 -155s71.333 -57 124 -57c52 0 92.5 18.833 121.5 56.5zM312 686.999l-5.50098 5.50098c-2.33301 2.33301 -4.16602 3.5 -5.49902 3.5c-2 0 -6 -3 -12 -9l-58 -50c-3.33301 -2.66699 -6.16602 -4.33398 -8.49902 -5.00098s-5.5 -1 -9.5 -1h-54
c-4.66699 0 -7 1.33301 -7 4c0 2 1.66699 4.66699 5 8l102 91c7.33301 7.33301 15.666 11 24.999 11h39c4.66699 0 8.5 -1 11.5 -3s5.83301 -4 8.5 -6l101 -93c4 -4 6 -7 6 -9s-2.33301 -3 -7 -3h-59c-7.33301 0 -13.333 2 -18 6z" />
    <glyph glyph-name="otilde" unicode="&#xf5;" 
d="M166.5 24.5c-38.333 23 -68 55.166 -89 96.499s-31.5 88.333 -31.5 141c0 54 10.833 102 32.5 144s51.667 74.833 90 98.5s82.166 35.5 131.499 35.5s93.166 -11.833 131.499 -35.5s68 -56.5 89 -98.5s31.5 -89.667 31.5 -143c0 -52.667 -10.667 -99.667 -32 -141
s-51.166 -73.666 -89.499 -96.999s-82.166 -35 -131.499 -35c-50 0 -94.167 11.5 -132.5 34.5zM422.5 109.499c29 37.667 43.5 89.5 43.5 155.5c0 65.333 -14.833 117.166 -44.5 155.499s-70.167 57.5 -121.5 57.5c-52 0 -93 -19.167 -123 -57.5s-45 -90.166 -45 -155.499
s15 -117 45 -155s71.333 -57 124 -57c52 0 92.5 18.833 121.5 56.5zM408.5 660.999c-11.667 -4 -25.835 -6.00293 -42.502 -6.00293c-19.333 0 -42.333 4.66699 -69 14c-24 8 -43.333 12 -58 12c-11.333 0 -20.666 -1.5 -27.999 -4.5s-14 -6.16699 -20 -9.5
s-10 -5.66602 -12 -6.99902c-3.33301 -2 -5.66602 -3 -6.99902 -3c-2.66699 0 -5 2.66699 -7 8l-10 27c-0.666992 1.33301 -1 3.33301 -1 6s1.66699 5.33398 5 8.00098c13.333 10 25.333 17.5 36 22.5s24 7.5 40 7.5c11.333 0 22 -1.16699 32 -3.5s22.333 -5.83301 37 -10.5
c10.667 -3.33301 21.334 -6.5 32.001 -9.5s21 -4.5 31 -4.5c11.333 0 21 1.66699 29 5s17.333 8.33301 28 15c3.33301 2 6 3 8 3c3.33301 0 6 -2.66699 8 -8l10 -31c0.666992 -1.33301 1 -3 1 -5c0 -3.33301 -3 -6.66602 -9 -9.99902
c-10.667 -6.66699 -21.834 -12 -33.501 -16z" />
    <glyph glyph-name="odieresis" unicode="&#xf6;" 
d="M166.5 24.5c-38.333 23 -68 55.166 -89 96.499s-31.5 88.333 -31.5 141c0 54 10.833 102 32.5 144s51.667 74.833 90 98.5s82.166 35.5 131.499 35.5s93.166 -11.833 131.499 -35.5s68 -56.5 89 -98.5s31.5 -89.667 31.5 -143c0 -52.667 -10.667 -99.667 -32 -141
s-51.166 -73.666 -89.499 -96.999s-82.166 -35 -131.499 -35c-50 0 -94.167 11.5 -132.5 34.5zM422.5 109.499c29 37.667 43.5 89.5 43.5 155.5c0 65.333 -14.833 117.166 -44.5 155.499s-70.167 57.5 -121.5 57.5c-52 0 -93 -19.167 -123 -57.5s-45 -90.166 -45 -155.499
s15 -117 45 -155s71.333 -57 124 -57c52 0 92.5 18.833 121.5 56.5zM269 646.999c0 -6 -1.16699 -9.99902 -3.5 -11.999s-6.5 -3 -12.5 -3h-53c-5.33301 0 -9 0.833008 -11 2.5s-3 5.16699 -3 10.5v84c0 4.66699 0.833008 8 2.5 10s4.5 3 8.5 3h61
c4 0 6.83301 -0.833008 8.5 -2.5s2.5 -4.83398 2.5 -9.50098v-83zM416 647c0 -6 -1.16699 -9.99902 -3.5 -11.999s-6.83301 -3 -13.5 -3h-52c-6 0 -10 0.833008 -12 2.5s-3 5.16699 -3 10.5v84c0 8.66699 3.66699 13 11 13h62c4 0 6.83301 -0.833008 8.5 -2.5
s2.5 -4.83398 2.5 -9.50098v-83z" />
    <glyph glyph-name="divide" unicode="&#xf7;" horiz-adv-x="558" 
d="M335 510c0 -5.33301 -1.16602 -9.16699 -3.49902 -11.5s-6.83301 -3.5 -13.5 -3.5h-80c-5.33301 0 -9 1 -11 3s-3 5.66699 -3 11v82c0 8 3 12 9 12h93c3.33301 0 5.66602 -0.833008 6.99902 -2.5s2 -4.5 2 -8.5v-82zM496.001 352.999c0 -8.66699 -5.33301 -13 -16 -13
l-405 -1c-8.66699 0 -13 4 -13 12v43c0 8 3 12 9 12h415c6.66699 0 10 -3.33301 10 -10v-43zM335.001 157.999c0 -5.33301 -1.16699 -9.16699 -3.5 -11.5s-6.83301 -3.5 -13.5 -3.5h-80c-5.33301 0 -9 1 -11 3s-3 5.33301 -3 10v82c0 8 3 12 9 12h93c6 0 9 -3.33301 9 -10
v-82z" />
    <glyph glyph-name="oslash" unicode="&#xf8;" horiz-adv-x="583" 
d="M563 496c0 -3.33301 -1.33398 -6.33301 -4.00098 -9l-55 -54c31.333 -46.667 47 -103.334 47 -170.001c0 -52.667 -10.667 -99.667 -32 -141s-51.166 -73.666 -89.499 -96.999s-82.166 -35 -131.499 -35c-36 0 -69.333 6.16699 -100 18.5s-57 29.833 -79 52.5l-56 -55
c-4 -4 -8 -6 -12 -6s-8 2 -12 6l-13 14c-4 5.33301 -6 9.66602 -6 12.999s2 7 6 11l61 59c-28 44.667 -42 97.667 -42 159c0 54 10.833 102 32.5 144s51.667 74.833 90 98.5s82.166 35.5 131.499 35.5c34 0 65.5 -5.66699 94.5 -17s54.5 -27.666 76.5 -48.999l50 49
c4 4 7.66699 6 11 6s6.33301 -1.66699 9 -5l19 -19c2.66699 -2.66699 4 -5.66699 4 -9zM147.999 162l270 261.999c-30 36 -69.667 54 -119 54c-52 0 -93 -19.167 -123 -57.5s-45 -90.166 -45 -155.499c0 -38.667 5.66699 -73 17 -103zM444.999 376.999l-271 -264
c30 -40 72 -60 126 -60c52 0 92.5 18.833 121.5 56.5s43.5 89.5 43.5 155.5c0 42.667 -6.66699 80 -20 112z" />
    <glyph glyph-name="ugrave" unicode="&#xf9;" horiz-adv-x="579" 
d="M337.5 78.5c26.333 15 53.168 36.5 80.501 64.5v373c0 9.33301 5.33301 14 16 14h55c9.33301 0 14 -4.66699 14 -14l-2 -503c0 -8.66699 -3.66699 -13 -11 -13h-58c-7.33301 0 -11 3.66699 -11 11v59c0 8 -3 9 -9 3c-36 -30.667 -68 -52.167 -96 -64.5
s-56.667 -18.5 -86 -18.5c-46.667 0 -85 14 -115 42s-45 65 -45 111v372c0 10 5 15 15 15h56c8.66699 0 13 -4.66699 13 -14v-351c0 -33.333 9.16699 -59.833 27.5 -79.5s43.5 -29.5 75.5 -29.5c27.333 0 54.166 7.5 80.499 22.5zM152.002 751.5
c2 1 4.33398 0.833008 7.00098 -0.5l232 -96c5.33301 -2.66699 6.66602 -7.33398 3.99902 -14.001l-8 -22c-1.33301 -4.66699 -3.16602 -7.5 -5.49902 -8.5s-5.83301 -0.833008 -10.5 0.5l-228 72c-10.667 2.66699 -14.334 8.33398 -11.001 17.001l16 46
c0.666992 2.66699 2 4.5 4 5.5z" />
    <glyph glyph-name="uacute" unicode="&#xfa;" horiz-adv-x="579" 
d="M337.5 78.5c26.333 15 53.168 36.5 80.501 64.5v373c0 9.33301 5.33301 14 16 14h55c9.33301 0 14 -4.66699 14 -14l-2 -503c0 -8.66699 -3.66699 -13 -11 -13h-58c-7.33301 0 -11 3.66699 -11 11v59c0 8 -3 9 -9 3c-36 -30.667 -68 -52.167 -96 -64.5
s-56.667 -18.5 -86 -18.5c-46.667 0 -85 14 -115 42s-45 65 -45 111v372c0 10 5 15 15 15h56c8.66699 0 13 -4.66699 13 -14v-351c0 -33.333 9.16699 -59.833 27.5 -79.5s43.5 -29.5 75.5 -29.5c27.333 0 54.166 7.5 80.499 22.5zM408.002 700
c0.666992 -1.33301 1 -3.33301 1 -6c0 -5.33301 -3.66699 -9 -11 -11l-229 -72c-1.33301 -0.666992 -3.33301 -1 -6 -1c-4.66699 0 -8 3 -10 9l-8 22c-0.666992 1.33301 -1 3 -1 5c0 5.33301 2 8.33301 6 9l231 96c0.666992 0.666992 2 1 4 1c4 0 6.66699 -2 8 -6z" />
    <glyph glyph-name="ucircumflex" unicode="&#xfb;" horiz-adv-x="579" 
d="M337.5 78.5c26.333 15 53.168 36.5 80.501 64.5v373c0 9.33301 5.33301 14 16 14h55c9.33301 0 14 -4.66699 14 -14l-2 -503c0 -8.66699 -3.66699 -13 -11 -13h-58c-7.33301 0 -11 3.66699 -11 11v59c0 8 -3 9 -9 3c-36 -30.667 -68 -52.167 -96 -64.5
s-56.667 -18.5 -86 -18.5c-46.667 0 -85 14 -115 42s-45 65 -45 111v372c0 10 5 15 15 15h56c8.66699 0 13 -4.66699 13 -14v-351c0 -33.333 9.16699 -59.833 27.5 -79.5s43.5 -29.5 75.5 -29.5c27.333 0 54.166 7.5 80.499 22.5zM288.002 687l-5.50098 5.50098
c-2.33301 2.33301 -4.16602 3.5 -5.49902 3.5c-2 0 -6 -3 -12 -9l-58 -50c-3.33301 -2.66699 -6.16602 -4.33398 -8.49902 -5.00098s-5.5 -1 -9.5 -1h-54c-4.66699 0 -7 1.33301 -7 4c0 2 1.66699 4.66699 5 8l102 91c7.33301 7.33301 15.666 11 24.999 11h39
c4.66699 0 8.5 -1 11.5 -3s5.83301 -4 8.5 -6l101 -93c4 -4 6 -7 6 -9s-2.33301 -3 -7 -3h-59c-7.33301 0 -13.333 2 -18 6z" />
    <glyph glyph-name="udieresis" unicode="&#xfc;" horiz-adv-x="579" 
d="M337.5 78.5c26.333 15 53.168 36.5 80.501 64.5v373c0 9.33301 5.33301 14 16 14h55c9.33301 0 14 -4.66699 14 -14l-2 -503c0 -8.66699 -3.66699 -13 -11 -13h-58c-7.33301 0 -11 3.66699 -11 11v59c0 8 -3 9 -9 3c-36 -30.667 -68 -52.167 -96 -64.5
s-56.667 -18.5 -86 -18.5c-46.667 0 -85 14 -115 42s-45 65 -45 111v372c0 10 5 15 15 15h56c8.66699 0 13 -4.66699 13 -14v-351c0 -33.333 9.16699 -59.833 27.5 -79.5s43.5 -29.5 75.5 -29.5c27.333 0 54.166 7.5 80.499 22.5zM245.002 647
c0 -6 -1.16699 -9.99902 -3.5 -11.999s-6.5 -3 -12.5 -3h-53c-5.33301 0 -9 0.833008 -11 2.5s-3 5.16699 -3 10.5v84c0 4.66699 0.833008 8 2.5 10s4.5 3 8.5 3h61c4 0 6.83301 -0.833008 8.5 -2.5s2.5 -4.83398 2.5 -9.50098v-83zM392.002 647.001
c0 -6 -1.16699 -9.99902 -3.5 -11.999s-6.83301 -3 -13.5 -3h-52c-6 0 -10 0.833008 -12 2.5s-3 5.16699 -3 10.5v84c0 8.66699 3.66699 13 11 13h62c4 0 6.83301 -0.833008 8.5 -2.5s2.5 -4.83398 2.5 -9.50098v-83z" />
    <glyph glyph-name="yacute" unicode="&#xfd;" horiz-adv-x="530" 
d="M58 -163c-8.66699 1.33301 -12.999 5 -12.999 11v39c0 4.66699 1.83301 8 5.5 10s11.167 3 22.5 3h63c16 0 30.667 5.83301 44 17.5s23.833 26.167 31.5 43.5s11.5 34 11.5 50c0 10 -1.33301 18 -4 24l-191 478c-0.666992 1.33301 -1 3.33301 -1 6c0 7.33301 4 11 12 11
h62c7.33301 0 12.666 -3.66699 15.999 -11l149 -388c2 -6 4.66699 -9 8 -9c4 0 7.33301 4 10 12l147 385c3.33301 7.33301 8 11 14 11h47c4 0 7 -1.5 9 -4.5s2.33301 -6.16699 1 -9.5l-220 -563c-18 -45.333 -40.333 -76.333 -67 -93s-63 -25 -109 -25
c-23.333 0 -39.333 0.666992 -48 2zM406.001 700c0.666992 -1.33301 1 -3.33301 1 -6c0 -5.33301 -3.66699 -9 -11 -11l-229 -72c-1.33301 -0.666992 -3.33301 -1 -6 -1c-4.66699 0 -8 3 -10 9l-8 22c-0.666992 1.33301 -1 3 -1 5c0 5.33301 2 8.33301 6 9l231 96
c0.666992 0.666992 2 1 4 1c4 0 6.66699 -2 8 -6z" />
    <glyph glyph-name="thorn" unicode="&#xfe;" horiz-adv-x="595" 
d="M160 727l-0.000976562 -253.999c0 -6 1.66699 -9 5 -9c2 0 4.66699 1.66699 8 5c14 14 26.333 25.333 37 34s26.334 17 47.001 25s45 12 73 12c42 0 79.5 -10 112.5 -30s59 -50 78 -90s28.5 -89 28.5 -147c0 -58.667 -9.5 -109.334 -28.5 -152.001
s-45.833 -75.167 -80.5 -97.5s-75 -33.5 -121 -33.5c-55.333 0 -102.666 16.667 -141.999 50c-4.66699 4.66699 -8.33398 7 -11.001 7c-3.33301 0 -5 -4.33301 -5 -13v-186c0 -8.66699 -3.66699 -13 -11 -13h-62c-7.33301 0 -11 4.33301 -11 13v878
c0 5.33301 1.16699 9.33301 3.5 12s6.5 4 12.5 4h53c9.33301 0 14 -5 14 -15zM225.499 67.501c21.667 -11 45.499 -16.499 71.499 -16.499c50 0 90.167 19 120.5 57s45.5 92.667 45.5 164c0 69.333 -15 121.166 -45 155.499s-68.667 51.5 -116 51.5
c-26.667 0 -50.667 -5.83301 -72 -17.5s-38.166 -26.5 -50.499 -44.5s-18.5 -35.667 -18.5 -53v-247c21.333 -22 42.833 -38.5 64.5 -49.5z" />
    <glyph glyph-name="ydieresis" unicode="&#xff;" horiz-adv-x="530" 
d="M58 -163c-8.66699 1.33301 -12.999 5 -12.999 11v39c0 4.66699 1.83301 8 5.5 10s11.167 3 22.5 3h63c16 0 30.667 5.83301 44 17.5s23.833 26.167 31.5 43.5s11.5 34 11.5 50c0 10 -1.33301 18 -4 24l-191 478c-0.666992 1.33301 -1 3.33301 -1 6c0 7.33301 4 11 12 11
h62c7.33301 0 12.666 -3.66699 15.999 -11l149 -388c2 -6 4.66699 -9 8 -9c4 0 7.33301 4 10 12l147 385c3.33301 7.33301 8 11 14 11h47c4 0 7 -1.5 9 -4.5s2.33301 -6.16699 1 -9.5l-220 -563c-18 -45.333 -40.333 -76.333 -67 -93s-63 -25 -109 -25
c-23.333 0 -39.333 0.666992 -48 2zM243.001 647c0 -6 -1.16699 -9.99902 -3.5 -11.999s-6.5 -3 -12.5 -3h-53c-5.33301 0 -9 0.833008 -11 2.5s-3 5.16699 -3 10.5v84c0 4.66699 0.833008 8 2.5 10s4.5 3 8.5 3h61c4 0 6.83301 -0.833008 8.5 -2.5
s2.5 -4.83398 2.5 -9.50098v-83zM390.001 647.001c0 -6 -1.16699 -9.99902 -3.5 -11.999s-6.83301 -3 -13.5 -3h-52c-6 0 -10 0.833008 -12 2.5s-3 5.16699 -3 10.5v84c0 8.66699 3.66699 13 11 13h62c4 0 6.83301 -0.833008 8.5 -2.5s2.5 -4.83398 2.5 -9.50098v-83z" />
    <glyph glyph-name="Amacron" unicode="&#x100;" horiz-adv-x="727" 
d="M46 4.5c-2 3 -2.00195 7.16699 -0.00195312 12.5l259 711c2 5.33301 4.33301 9 7 11s7 3 13 3h78c12.667 0 20.334 -5 23.001 -15l256 -710l1 -5c0 -8 -3.66699 -12 -11 -12h-71c-8 -0 -13.333 3.33301 -16 10l-69 194c-1.33301 2.66699 -2.66602 4.66699 -3.99902 6
s-4 2 -8 2h-291c-6 0 -10 -2.66699 -12 -8l-71 -195c-2 -6 -7 -9 -15 -9h-60c-4 0 -7 1.5 -9 4.5zM477.998 288c7.33301 0 10 4.33301 8 13l-120 329c-2 6 -4.33301 9 -7 9s-5 -3 -7 -9l-122 -331l-2 -6c0 -3.33301 2.66699 -5 8 -5h242zM509.998 891
c0 -8.66699 -5 -13 -15 -13h-270c-4 0 -6.83301 1 -8.5 3s-2.5 5 -2.5 9v39c0 3.33301 0.666992 6 2 8s3.33301 3 6 3h280c2.66699 0 4.66699 -1 6 -3s2 -4.33301 2 -7v-39z" />
    <glyph glyph-name="amacron" unicode="&#x101;" horiz-adv-x="548" 
d="M207 -10c-52 0 -92.833 13.167 -122.5 39.5s-44.5 61.5 -44.5 105.5c0 53.333 22.5 95.333 67.5 126s110.167 48.667 195.5 54l78 6c11.333 1.33301 17 6.33301 17 15v27c0 36 -11.167 64.5 -33.5 85.5s-52.5 31.5 -90.5 31.5c-58.667 0 -106.667 -26.667 -144 -80
c-2 -3.33301 -4 -5.5 -6 -6.5s-4.66699 -0.833008 -8 0.5l-54 18c-3.33301 1.33301 -5 3.66602 -5 6.99902c0 2 1 5 3 9c20 35.333 48.5 62.833 85.5 82.5s80.833 29.5 131.5 29.5c65.333 0 115.333 -15.167 150 -45.5s52 -72.166 52 -125.499v-354c0 -6 -1 -10 -3 -12
s-5.66699 -3 -11 -3h-50c-8 -0 -12.667 5.33301 -14 16l-2 46c-0.666992 4.66699 -2.33398 7 -5.00098 7s-5.66699 -1.66699 -9 -5c-51.333 -49.333 -110.666 -74 -177.999 -74zM383 270l-64.999 -6c-62 -4 -109.833 -16 -143.5 -36s-50.5 -47.667 -50.5 -83
c0 -28.667 10.167 -51.334 30.5 -68.001s47.5 -25 81.5 -25c20.667 0 41 3.66699 61 11s37.667 17.333 53 30c15.333 12 27.166 24.833 35.499 38.5s12.5 26.834 12.5 39.501v83c0 10.667 -5 16 -15 16zM423.001 679c0 -8.66699 -5 -13 -15 -13h-270c-4 0 -6.83301 1 -8.5 3
s-2.5 5 -2.5 9v39c0 3.33301 0.666992 6 2 8s3.33301 3 6 3h280c2.66699 0 4.66699 -1 6 -3s2 -4.33301 2 -7v-39z" />
    <glyph glyph-name="Abreve" unicode="&#x102;" horiz-adv-x="727" 
d="M46 4.5c-2 3 -2.00195 7.16699 -0.00195312 12.5l259 711c2 5.33301 4.33301 9 7 11s7 3 13 3h78c12.667 0 20.334 -5 23.001 -15l256 -710l1 -5c0 -8 -3.66699 -12 -11 -12h-71c-8 -0 -13.333 3.33301 -16 10l-69 194c-1.33301 2.66699 -2.66602 4.66699 -3.99902 6
s-4 2 -8 2h-291c-6 0 -10 -2.66699 -12 -8l-71 -195c-2 -6 -7 -9 -15 -9h-60c-4 0 -7 1.5 -9 4.5zM477.998 288c7.33301 0 10 4.33301 8 13l-120 329c-2 6 -4.33301 9 -7 9s-5 -3 -7 -9l-122 -331l-2 -6c0 -3.33301 2.66699 -5 8 -5h242zM509.998 951.5
c1.33301 -1.66699 1.33203 -4.50195 -0.000976562 -8.50195c-8 -26.667 -25.167 -49.5 -51.5 -68.5s-58.833 -28.5 -97.5 -28.5c-38 0 -69.833 9.33301 -95.5 28s-42.5 42 -50.5 70v4c0 4 2 6 6 6h46c4 0 7 -0.666992 9 -2s4.33301 -3.66602 7 -6.99902
c8.66699 -12.667 18.834 -23.167 30.501 -31.5s27.5 -12.5 47.5 -12.5c18.667 0 35 4.33301 49 13s24.667 19.334 32 32.001c3.33301 5.33301 7.33301 8 12 8h47c4.66699 0 7.66699 -0.833008 9 -2.5z" />
    <glyph glyph-name="abreve" unicode="&#x103;" horiz-adv-x="548" 
d="M207 -10c-52 0 -92.833 13.167 -122.5 39.5s-44.5 61.5 -44.5 105.5c0 53.333 22.5 95.333 67.5 126s110.167 48.667 195.5 54l78 6c11.333 1.33301 17 6.33301 17 15v27c0 36 -11.167 64.5 -33.5 85.5s-52.5 31.5 -90.5 31.5c-58.667 0 -106.667 -26.667 -144 -80
c-2 -3.33301 -4 -5.5 -6 -6.5s-4.66699 -0.833008 -8 0.5l-54 18c-3.33301 1.33301 -5 3.66602 -5 6.99902c0 2 1 5 3 9c20 35.333 48.5 62.833 85.5 82.5s80.833 29.5 131.5 29.5c65.333 0 115.333 -15.167 150 -45.5s52 -72.166 52 -125.499v-354c0 -6 -1 -10 -3 -12
s-5.66699 -3 -11 -3h-50c-8 -0 -12.667 5.33301 -14 16l-2 46c-0.666992 4.66699 -2.33398 7 -5.00098 7s-5.66699 -1.66699 -9 -5c-51.333 -49.333 -110.666 -74 -177.999 -74zM383 270l-64.999 -6c-62 -4 -109.833 -16 -143.5 -36s-50.5 -47.667 -50.5 -83
c0 -28.667 10.167 -51.334 30.5 -68.001s47.5 -25 81.5 -25c20.667 0 41 3.66699 61 11s37.667 17.333 53 30c15.333 12 27.166 24.833 35.499 38.5s12.5 26.834 12.5 39.501v83c0 10.667 -5 16 -15 16zM423.001 739.5
c1.33301 -1.66699 1.33203 -4.50195 -0.000976562 -8.50195c-8 -26.667 -25.167 -49.5 -51.5 -68.5s-58.833 -28.5 -97.5 -28.5c-38 0 -69.833 9.33301 -95.5 28s-42.5 42 -50.5 70v4c0 4 2 6 6 6h46c4 0 7 -0.666992 9 -2s4.33301 -3.66602 7 -6.99902
c8.66699 -12.667 18.834 -23.167 30.501 -31.5s27.5 -12.5 47.5 -12.5c18.667 0 35 4.33301 49 13s24.667 19.334 32 32.001c3.33301 5.33301 7.33301 8 12 8h47c4.66699 0 7.66699 -0.833008 9 -2.5z" />
    <glyph glyph-name="Aogonek" unicode="&#x104;" horiz-adv-x="727" 
d="M698 -107c2.66699 0 3.99609 -2.33203 3.99609 -6.99902v-29c0 -4.66699 -2 -8.33398 -6 -11.001c-8.66699 -4.66699 -21.167 -8.66699 -37.5 -12s-32.833 -5 -49.5 -5c-32.667 0 -57.5 7.16699 -74.5 21.5s-25.5 34.166 -25.5 59.499c0 20 6.33301 37.5 19 52.5
s34.334 28.167 65.001 39.5c-3.33301 0.666992 -6 3.33398 -8 8.00098l-69 194c-1.33301 2.66699 -2.66602 4.66699 -3.99902 6s-4 2 -8 2h-291c-6 0 -10 -2.66699 -12 -8l-71 -195c-2 -6 -7 -9 -15 -9h-60c-4 0 -7 1.5 -9 4.5s-2 7.16699 0 12.5l259 711
c2 5.33301 4.33301 9 7 11s7 3 13 3h78c12.667 0 20.334 -5 23.001 -15l256 -710l1 -5c0 -8 -3.66699 -12 -11 -12c-33.333 -14 -57.166 -27.5 -71.499 -40.5s-21.5 -27.5 -21.5 -43.5c0 -13.333 4 -23 12 -29s20.667 -9 38 -9c12.667 0 24.5 1.33301 35.5 4
s19.833 5.66699 26.5 9c4 1.33301 6.33301 2 7 2zM485.996 301.001l-120 329c-2 6 -4.33301 9 -7 9s-5 -3 -7 -9l-122 -331l-2 -6c0 -3.33301 2.66699 -5 8 -5h242c7.33301 0 10 4.33301 8 13z" />
    <glyph glyph-name="aogonek" unicode="&#x105;" horiz-adv-x="548" 
d="M497 -104c2.66699 0 4 -2.33203 4 -6.99902v-29c0 -4.66699 -2 -8.33398 -6 -11.001c-8.66699 -4.66699 -21.167 -8.66699 -37.5 -12s-32.833 -5 -49.5 -5c-32.667 0 -57.5 7.16699 -74.5 21.5s-25.5 34.166 -25.5 59.499c0 20.667 7.16699 38.834 21.5 54.501
s38.833 29.167 73.5 40.5c-1.33301 4 -2 6.66699 -2 8l-2 46c-0.666992 4.66699 -2.33398 7 -5.00098 7s-5.66699 -1.66699 -9 -5c-51.333 -49.333 -110.666 -74 -177.999 -74c-52 0 -92.833 13.167 -122.5 39.5s-44.5 61.5 -44.5 105.5c0 53.333 22.5 95.333 67.5 126
s110.167 48.667 195.5 54l78 6c11.333 1.33301 17 6.33301 17 15v27c0 36 -11.167 64.5 -33.5 85.5s-52.5 31.5 -90.5 31.5c-58.667 0 -106.667 -26.667 -144 -80c-2 -3.33301 -4 -5.5 -6 -6.5s-4.66699 -0.833008 -8 0.5l-54 18c-3.33301 1.33301 -5 3.66602 -5 6.99902
c0 2 1 5 3 9c20 35.333 48.5 62.833 85.5 82.5s80.833 29.5 131.5 29.5c65.333 0 115.333 -15.167 150 -45.5s52 -72.166 52 -125.499v-354c0 -6 -1 -10 -3 -12s-5.66699 -3 -11 -3h-1c-30.667 -14 -52.667 -27 -66 -39s-20 -26 -20 -42c0 -13.333 4 -23 12 -29
s20.667 -9 38 -9c12.667 0 24.5 1.33301 35.5 4s19.833 5.66699 26.5 9c4 1.33301 6.33301 2 7 2zM398 254.001c0 10.667 -4.99902 16 -14.999 16l-65 -6c-62 -4 -109.833 -16 -143.5 -36s-50.5 -47.667 -50.5 -83c0 -28.667 10.167 -51.334 30.5 -68.001s47.5 -25 81.5 -25
c20.667 0 41 3.66699 61 11s37.667 17.333 53 30c15.333 12 27.166 24.833 35.499 38.5s12.5 26.834 12.5 39.501v83z" />
    <glyph glyph-name="Cacute" unicode="&#x106;" horiz-adv-x="707" 
d="M503.5 724c39.667 -18.667 72.498 -43.665 98.498 -74.998s41.667 -65.333 47 -102l1 -7c0 -2.66699 -0.833008 -4.66699 -2.5 -6s-3.5 -2 -5.5 -2l-75 -6h-2c-2 0 -3.66699 0.833008 -5 2.5s-2.33301 4.16699 -3 7.5c-10 43.333 -30.667 78 -62 104s-69.333 39 -114 39
c-70 0 -123.5 -25.833 -160.5 -77.5s-55.5 -128.834 -55.5 -231.501c0 -100.667 18.5 -176.5 55.5 -227.5s92.167 -76.5 165.5 -76.5c47.333 0 86.833 11.5 118.5 34.5s57.167 59.167 76.5 108.5c1.33301 4.66699 5.33301 6 12 4l59 -14
c4.66699 -1.33301 6.33398 -6 5.00098 -14c-10 -33.333 -27.333 -64.833 -52 -94.5s-56 -53.834 -94 -72.501s-81 -28 -129 -28c-66 0 -122.667 15.333 -170 46s-83.666 74.667 -108.999 132s-38 125.333 -38 204s12.5 146.5 37.5 203.5s61 100.667 108 131
s102.833 45.5 167.5 45.5c44 0 85.833 -9.33301 125.5 -28zM508.998 912.002c0.666992 -1.33301 1 -3.33301 1 -6c0 -5.33301 -3.66699 -9 -11 -11l-229 -72c-1.33301 -0.666992 -3.33301 -1 -6 -1c-4.66699 0 -8 3 -10 9l-8 22c-0.666992 1.33301 -1 3 -1 5
c0 5.33301 2 8.33301 6 9l231 96c0.666992 0.666992 2 1 4 1c4 0 6.66699 -2 8 -6z" />
    <glyph glyph-name="cacute" unicode="&#x107;" horiz-adv-x="542" 
d="M421.5 506c34.333 -22.667 61.833 -52.6641 82.5 -89.9971l2 -8c0 -4 -2.33301 -6.33301 -7 -7l-55 -13l-3 -1c-3.33301 0 -6.66602 2.66699 -9.99902 8c-21.333 28.667 -41.833 49.667 -61.5 63s-42.167 20 -67.5 20c-52 0 -93.333 -19.167 -124 -57.5
s-46 -90.166 -46 -155.499c0 -66 15.5 -118 46.5 -156s72.833 -57 125.5 -57c31.333 0 58.833 7.66699 82.5 23s45.167 39 64.5 71c2 3.33301 4 5.16602 6 5.49902s4.33301 -0.166992 7 -1.5l43 -16c4.66699 -2 6 -6.33301 4 -13c-20.667 -38.667 -49 -70.167 -85 -94.5
s-79 -36.5 -129 -36.5c-48.667 0 -92 11.5 -130 34.5s-67.667 55.167 -89 96.5s-32 88.666 -32 141.999s10.667 101.166 32 143.499s51.166 75.166 89.499 98.499s81.5 35 129.5 35c48.667 0 90.167 -11.333 124.5 -34zM427 700.003c0.666992 -1.33301 1 -3.33301 1 -6
c0 -5.33301 -3.66699 -9 -11 -11l-229 -72c-1.33301 -0.666992 -3.33301 -1 -6 -1c-4.66699 0 -8 3 -10 9l-8 22c-0.666992 1.33301 -1 3 -1 5c0 5.33301 2 8.33301 6 9l231 96c0.666992 0.666992 2 1 4 1c4 0 6.66699 -2 8 -6z" />
    <glyph glyph-name="Ccircumflex" unicode="&#x108;" horiz-adv-x="707" 
d="M503.5 724c39.667 -18.667 72.498 -43.665 98.498 -74.998s41.667 -65.333 47 -102l1 -7c0 -2.66699 -0.833008 -4.66699 -2.5 -6s-3.5 -2 -5.5 -2l-75 -6h-2c-2 0 -3.66699 0.833008 -5 2.5s-2.33301 4.16699 -3 7.5c-10 43.333 -30.667 78 -62 104s-69.333 39 -114 39
c-70 0 -123.5 -25.833 -160.5 -77.5s-55.5 -128.834 -55.5 -231.501c0 -100.667 18.5 -176.5 55.5 -227.5s92.167 -76.5 165.5 -76.5c47.333 0 86.833 11.5 118.5 34.5s57.167 59.167 76.5 108.5c1.33301 4.66699 5.33301 6 12 4l59 -14
c4.66699 -1.33301 6.33398 -6 5.00098 -14c-10 -33.333 -27.333 -64.833 -52 -94.5s-56 -53.834 -94 -72.501s-81 -28 -129 -28c-66 0 -122.667 15.333 -170 46s-83.666 74.667 -108.999 132s-38 125.333 -38 204s12.5 146.5 37.5 203.5s61 100.667 108 131
s102.833 45.5 167.5 45.5c44 0 85.833 -9.33301 125.5 -28zM388.998 899.002l-5.50098 5.50098c-2.33301 2.33301 -4.16602 3.5 -5.49902 3.5c-2 0 -6 -3 -12 -9l-58 -50c-3.33301 -2.66699 -6.16602 -4.33398 -8.49902 -5.00098s-5.5 -1 -9.5 -1h-54
c-4.66699 0 -7 1.33301 -7 4c0 2 1.66699 4.66699 5 8l102 91c7.33301 7.33301 15.666 11 24.999 11h39c4.66699 0 8.5 -1 11.5 -3s5.83301 -4 8.5 -6l101 -93c4 -4 6 -7 6 -9s-2.33301 -3 -7 -3h-59c-7.33301 0 -13.333 2 -18 6z" />
    <glyph glyph-name="ccircumflex" unicode="&#x109;" horiz-adv-x="542" 
d="M421.5 506c34.333 -22.667 61.833 -52.6641 82.5 -89.9971l2 -8c0 -4 -2.33301 -6.33301 -7 -7l-55 -13l-3 -1c-3.33301 0 -6.66602 2.66699 -9.99902 8c-21.333 28.667 -41.833 49.667 -61.5 63s-42.167 20 -67.5 20c-52 0 -93.333 -19.167 -124 -57.5
s-46 -90.166 -46 -155.499c0 -66 15.5 -118 46.5 -156s72.833 -57 125.5 -57c31.333 0 58.833 7.66699 82.5 23s45.167 39 64.5 71c2 3.33301 4 5.16602 6 5.49902s4.33301 -0.166992 7 -1.5l43 -16c4.66699 -2 6 -6.33301 4 -13c-20.667 -38.667 -49 -70.167 -85 -94.5
s-79 -36.5 -129 -36.5c-48.667 0 -92 11.5 -130 34.5s-67.667 55.167 -89 96.5s-32 88.666 -32 141.999s10.667 101.166 32 143.499s51.166 75.166 89.499 98.499s81.5 35 129.5 35c48.667 0 90.167 -11.333 124.5 -34zM307 687.003l-5.50098 5.50098
c-2.33301 2.33301 -4.16602 3.5 -5.49902 3.5c-2 0 -6 -3 -12 -9l-58 -50c-3.33301 -2.66699 -6.16602 -4.33398 -8.49902 -5.00098s-5.5 -1 -9.5 -1h-54c-4.66699 0 -7 1.33301 -7 4c0 2 1.66699 4.66699 5 8l102 91c7.33301 7.33301 15.666 11 24.999 11h39
c4.66699 0 8.5 -1 11.5 -3s5.83301 -4 8.5 -6l101 -93c4 -4 6 -7 6 -9s-2.33301 -3 -7 -3h-59c-7.33301 0 -13.333 2 -18 6z" />
    <glyph glyph-name="Cdotaccent" unicode="&#x10a;" horiz-adv-x="707" 
d="M503.5 724c39.667 -18.667 72.498 -43.665 98.498 -74.998s41.667 -65.333 47 -102l1 -7c0 -2.66699 -0.833008 -4.66699 -2.5 -6s-3.5 -2 -5.5 -2l-75 -6h-2c-2 0 -3.66699 0.833008 -5 2.5s-2.33301 4.16699 -3 7.5c-10 43.333 -30.667 78 -62 104s-69.333 39 -114 39
c-70 0 -123.5 -25.833 -160.5 -77.5s-55.5 -128.834 -55.5 -231.501c0 -100.667 18.5 -176.5 55.5 -227.5s92.167 -76.5 165.5 -76.5c47.333 0 86.833 11.5 118.5 34.5s57.167 59.167 76.5 108.5c1.33301 4.66699 5.33301 6 12 4l59 -14
c4.66699 -1.33301 6.33398 -6 5.00098 -14c-10 -33.333 -27.333 -64.833 -52 -94.5s-56 -53.834 -94 -72.501s-81 -28 -129 -28c-66 0 -122.667 15.333 -170 46s-83.666 74.667 -108.999 132s-38 125.333 -38 204s12.5 146.5 37.5 203.5s61 100.667 108 131
s102.833 45.5 167.5 45.5c44 0 85.833 -9.33301 125.5 -28zM422.998 853.002c0 -6 -1.33301 -10.167 -4 -12.5s-7.33398 -3.5 -14.001 -3.5h-58c-6 0 -10 1 -12 3s-3 5.66699 -3 11v89c0 5.33301 0.833008 9 2.5 11s4.83398 3 9.50098 3h68c7.33301 0 11 -4.33301 11 -13
v-88z" />
    <glyph glyph-name="cdotaccent" unicode="&#x10b;" horiz-adv-x="542" 
d="M421.5 506c34.333 -22.667 61.833 -52.6641 82.5 -89.9971l2 -8c0 -4 -2.33301 -6.33301 -7 -7l-55 -13l-3 -1c-3.33301 0 -6.66602 2.66699 -9.99902 8c-21.333 28.667 -41.833 49.667 -61.5 63s-42.167 20 -67.5 20c-52 0 -93.333 -19.167 -124 -57.5
s-46 -90.166 -46 -155.499c0 -66 15.5 -118 46.5 -156s72.833 -57 125.5 -57c31.333 0 58.833 7.66699 82.5 23s45.167 39 64.5 71c2 3.33301 4 5.16602 6 5.49902s4.33301 -0.166992 7 -1.5l43 -16c4.66699 -2 6 -6.33301 4 -13c-20.667 -38.667 -49 -70.167 -85 -94.5
s-79 -36.5 -129 -36.5c-48.667 0 -92 11.5 -130 34.5s-67.667 55.167 -89 96.5s-32 88.666 -32 141.999s10.667 101.166 32 143.499s51.166 75.166 89.499 98.499s81.5 35 129.5 35c48.667 0 90.167 -11.333 124.5 -34zM341 641.003c0 -6 -1.33301 -10.167 -4 -12.5
s-7.33398 -3.5 -14.001 -3.5h-58c-6 0 -10 1 -12 3s-3 5.66699 -3 11v89c0 5.33301 0.833008 9 2.5 11s4.83398 3 9.50098 3h68c7.33301 0 11 -4.33301 11 -13v-88z" />
    <glyph glyph-name="Ccaron" unicode="&#x10c;" horiz-adv-x="707" 
d="M503.5 724c39.667 -18.667 72.498 -43.665 98.498 -74.998s41.667 -65.333 47 -102l1 -7c0 -2.66699 -0.833008 -4.66699 -2.5 -6s-3.5 -2 -5.5 -2l-75 -6h-2c-2 0 -3.66699 0.833008 -5 2.5s-2.33301 4.16699 -3 7.5c-10 43.333 -30.667 78 -62 104s-69.333 39 -114 39
c-70 0 -123.5 -25.833 -160.5 -77.5s-55.5 -128.834 -55.5 -231.501c0 -100.667 18.5 -176.5 55.5 -227.5s92.167 -76.5 165.5 -76.5c47.333 0 86.833 11.5 118.5 34.5s57.167 59.167 76.5 108.5c1.33301 4.66699 5.33301 6 12 4l59 -14
c4.66699 -1.33301 6.33398 -6 5.00098 -14c-10 -33.333 -27.333 -64.833 -52 -94.5s-56 -53.834 -94 -72.501s-81 -28 -129 -28c-66 0 -122.667 15.333 -170 46s-83.666 74.667 -108.999 132s-38 125.333 -38 204s12.5 146.5 37.5 203.5s61 100.667 108 131
s102.833 45.5 167.5 45.5c44 0 85.833 -9.33301 125.5 -28zM460.998 954.002l59.001 0.000976562c4.66699 0 7 -1 7 -3s-2 -5 -6 -9l-101 -93c-2.66699 -2 -5.5 -4 -8.5 -6s-6.83301 -3 -11.5 -3h-39c-8.66699 0 -17 3.33301 -25 10l-102 92
c-3.33301 3.33301 -4.83301 6.16602 -4.5 8.49902s2.5 3.5 6.5 3.5h54c4.66699 0 8 -0.333008 10 -1s4.66699 -2.66699 8 -6l58 -49c6 -6 10 -9 12 -9c1.33301 0 3.16602 1.16699 5.49902 3.5l5.5 5.5l54 49c4.66699 4.66699 10.667 7 18 7z" />
    <glyph glyph-name="ccaron" unicode="&#x10d;" horiz-adv-x="542" 
d="M421.5 506c34.333 -22.667 61.833 -52.6641 82.5 -89.9971l2 -8c0 -4 -2.33301 -6.33301 -7 -7l-55 -13l-3 -1c-3.33301 0 -6.66602 2.66699 -9.99902 8c-21.333 28.667 -41.833 49.667 -61.5 63s-42.167 20 -67.5 20c-52 0 -93.333 -19.167 -124 -57.5
s-46 -90.166 -46 -155.499c0 -66 15.5 -118 46.5 -156s72.833 -57 125.5 -57c31.333 0 58.833 7.66699 82.5 23s45.167 39 64.5 71c2 3.33301 4 5.16602 6 5.49902s4.33301 -0.166992 7 -1.5l43 -16c4.66699 -2 6 -6.33301 4 -13c-20.667 -38.667 -49 -70.167 -85 -94.5
s-79 -36.5 -129 -36.5c-48.667 0 -92 11.5 -130 34.5s-67.667 55.167 -89 96.5s-32 88.666 -32 141.999s10.667 101.166 32 143.499s51.166 75.166 89.499 98.499s81.5 35 129.5 35c48.667 0 90.167 -11.333 124.5 -34zM379 742.003l59.001 0.000976562c4.66699 0 7 -1 7 -3
s-2 -5 -6 -9l-101 -93c-2.66699 -2 -5.5 -4 -8.5 -6s-6.83301 -3 -11.5 -3h-39c-8.66699 0 -17 3.33301 -25 10l-102 92c-3.33301 3.33301 -4.83301 6.16602 -4.5 8.49902s2.5 3.5 6.5 3.5h54c4.66699 0 8 -0.333008 10 -1s4.66699 -2.66699 8 -6l58 -49c6 -6 10 -9 12 -9
c1.33301 0 3.16602 1.16699 5.49902 3.5l5.5 5.5l54 49c4.66699 4.66699 10.667 7 18 7z" />
    <glyph glyph-name="Dcaron" unicode="&#x10e;" horiz-adv-x="722" 
d="M268 741c134.667 -2 233.167 -33.332 295.5 -93.999s93.5 -151.334 93.5 -272.001c0 -250 -133 -375 -399 -375h-147c-9.33301 -0 -14 5.33301 -14 16v713c0 4.66699 1 8 3 10s5.66699 3 11 3c66 0 118.333 -0.333008 157 -1zM193 655.001l-0.00292969 -571.998
c0 -4 0.833008 -6.83301 2.5 -8.5s4.83398 -2.5 9.50098 -2.5h38c74.667 0 134.834 9.83301 180.501 29.5s79.334 51.5 101.001 95.5s32.5 102.667 32.5 176s-10.333 131.166 -31 173.499s-52.167 72.666 -94.5 90.999s-98.5 28.5 -168.5 30.5c-13.333 0.666992 -34 1 -62 1
c-5.33301 0 -8 -4.66699 -8 -14zM433.997 954.003l59.001 0.000976562c4.66699 0 7 -1 7 -3s-2 -5 -6 -9l-101 -93c-2.66699 -2 -5.5 -4 -8.5 -6s-6.83301 -3 -11.5 -3h-39c-8.66699 0 -17 3.33301 -25 10l-102 92c-3.33301 3.33301 -4.83301 6.16602 -4.5 8.49902
s2.5 3.5 6.5 3.5h54c4.66699 0 8 -0.333008 10 -1s4.66699 -2.66699 8 -6l58 -49c6 -6 10 -9 12 -9c1.33301 0 3.16602 1.16699 5.49902 3.5l5.5 5.5l54 49c4.66699 4.66699 10.667 7 18 7z" />
    <glyph glyph-name="dcaron" unicode="&#x10f;" horiz-adv-x="682" 
d="M440 14v43c0 6 -1.66699 9 -5 9c-2 0 -4.66699 -1.66699 -8 -5c-20 -20 -41.833 -36.833 -65.5 -50.5s-54.167 -20.5 -91.5 -20.5c-42.667 0 -80.667 10 -114 30s-59.666 50.167 -78.999 90.5s-29 89.166 -29 146.499c0 56 10 105.333 30 148s47.667 75.834 83 99.501
s75.666 35.5 120.999 35.5c30 0 56 -4.66699 78 -14s42.667 -22.333 62 -39c5.33301 -4 9 -6 11 -6c3.33301 0 5 4.33301 5 13v235c0 8.66699 3.66699 13 11 13h61c7.33301 0 11 -4.33301 11 -13v-713c0 -6 -1 -10.167 -3 -12.5s-6.33301 -3.5 -13 -3.5h-51
c-9.33301 0 -14 4.66699 -14 14zM372.5 461.5c-21.667 11 -45.165 16.499 -70.498 16.499c-50.667 0 -91.334 -19 -122.001 -57s-46 -91.667 -46 -161c0 -70 15.167 -122.333 45.5 -157s69.166 -52 116.499 -52c26 0 49.833 6.16699 71.5 18.5s38.667 27.833 51 46.5
s18.5 37.334 18.5 56.001v241c-21.333 21.333 -42.833 37.5 -64.5 48.5zM584.002 550.499c-1.33301 2.33301 -1.66797 4.49902 -1.00098 6.49902l30 72c1.33301 4 1.83301 6.83301 1.5 8.5s-2.16602 2.83398 -5.49902 3.50098l-7 1c-4 0.666992 -6.66699 1.66699 -8 3
s-2 4 -2 8v80c0 6 2.66699 9 8 9h58c4.66699 0 7 -2.66699 7 -8v-92c0 -2 -0.666992 -3.66699 -2 -5l-34 -80c-1.33301 -3.33301 -3.33301 -5.83301 -6 -7.5s-6.66699 -2.5 -12 -2.5h-21c-2.66699 0 -4.66699 1.16699 -6 3.5z" />
    <glyph glyph-name="Dcroat" unicode="&#x110;" horiz-adv-x="727" 
d="M569.5 647c62.333 -60.667 93.5 -151.333 93.5 -272c0 -250 -133 -375 -399 -375h-147c-9.33301 -0 -14 5.33301 -14 16v321h-57c-5.33301 0 -9 1 -11 3s-3 5.66699 -3 11v42c0 8.66699 3.33301 13 10 13h61v323c0 4.66699 1 8 3 10s5.66699 3 11 3
c66 0 118.333 -0.333008 157 -1c134.667 -2 233.167 -33.333 295.5 -94zM429.5 101.501c45.667 19.667 79.3311 51.501 100.998 95.501s32.5 102.667 32.5 176s-10.333 131.166 -31 173.499s-52.167 72.666 -94.5 90.999s-98.5 28.5 -168.5 30.5
c-13.333 0.666992 -34 1 -62 1c-5.33301 0 -8 -4.66699 -8 -14v-249h158c2.66699 0 5 -1.16699 7 -3.5s3 -5.16602 3 -8.49902v-42c0 -10 -6.33301 -15 -19 -15h-149v-254c0 -4 0.833008 -6.83301 2.5 -8.5s4.83398 -2.5 9.50098 -2.5h38
c74.667 0 134.834 9.83301 180.501 29.5z" />
    <glyph glyph-name="dcroat" unicode="&#x111;" horiz-adv-x="609" 
d="M587 660v-34.001c0 -8 -5 -12 -15 -12h-51v-598c0 -6 -1 -10.167 -3 -12.5s-6.33301 -3.5 -13 -3.5h-51c-9.33301 0 -14 4.66699 -14 14v43c0 6 -1.66699 9 -5 9c-2 0 -4.66699 -1.66699 -8 -5c-20 -20 -41.833 -36.833 -65.5 -50.5s-54.167 -20.5 -91.5 -20.5
c-42.667 0 -80.667 10 -114 30s-59.666 50.167 -78.999 90.5s-29 89.166 -29 146.499c0 56 10 105.333 30 148s47.667 75.834 83 99.501s75.666 35.5 120.999 35.5c30 0 56 -4.66699 78 -14s42.667 -22.333 62 -39c5.33301 -4 9 -6 11 -6c3.33301 0 5 4.33301 5 13v120h-152
c-4.66699 0 -7.66699 0.833008 -9 2.5s-2 4.83398 -2 9.50098v32c0 7.33301 2.66699 11 8 11h155v60c0 8.66699 3.66699 13 11 13h61c7.33301 0 11 -4.33301 11 -13v-60h58c5.33301 0 8 -3 8 -9zM437 412.999c-21.333 21.333 -42.8311 37.499 -64.498 48.499
s-45.167 16.5 -70.5 16.5c-50.667 0 -91.334 -19 -122.001 -57s-46 -91.667 -46 -161c0 -70 15.167 -122.333 45.5 -157s69.166 -52 116.499 -52c26 0 49.833 6.16699 71.5 18.5s38.667 27.833 51 46.5s18.5 37.334 18.5 56.001v241z" />
    <glyph glyph-name="Emacron" unicode="&#x112;" horiz-adv-x="628" 
d="M99.5 739c1.66699 2 4.83301 3.00098 9.5 3.00098h449c6.66699 0 10 -3.66699 10 -11v-51c0 -8 -4.33301 -12 -13 -12h-349c-5.33301 0 -8.83301 -0.833008 -10.5 -2.5s-2.5 -4.83398 -2.5 -9.50098v-234c0 -7.33301 3.66699 -11 11 -11h259
c7.33301 0 11 -3.66699 11 -11v-53c0 -6 -3.66699 -9 -11 -9h-259c-7.33301 0 -11 -3.66699 -11 -11v-243c0 -4 0.666992 -6.66699 2 -8s4 -2 8 -2h367c4 0 6.83301 -0.666992 8.5 -2s2.5 -4 2.5 -8v-53c0 -7.33301 -3.66699 -11 -11 -11h-459c-5.33301 0 -9 1 -11 3
s-3 5.66699 -3 11v714c0 5.33301 0.833008 9 2.5 11zM490.999 891.001c0 -8.66699 -5 -13 -15 -13h-270c-4 0 -6.83301 1 -8.5 3s-2.5 5 -2.5 9v39c0 3.33301 0.666992 6 2 8s3.33301 3 6 3h280c2.66699 0 4.66699 -1 6 -3s2 -4.33301 2 -7v-39z" />
    <glyph glyph-name="emacron" unicode="&#x113;" horiz-adv-x="581" 
d="M156.5 143c15.667 -27.333 36.835 -49 63.502 -65s56 -24 88 -24c66.667 0 118.667 27.667 156 83c2.66699 2.66699 5 4.16699 7 4.5s4.33301 -0.166992 7 -1.5l42 -21c5.33301 -3.33301 6 -8 2 -14c-26 -40 -57 -69.167 -93 -87.5s-79 -27.5 -129 -27.5
c-48.667 0 -92.334 11.333 -131.001 34s-68.834 54.5 -90.501 95.5s-32.5 87.833 -32.5 140.5c0 56.667 11 106.167 33 148.5s52.167 74.833 90.5 97.5s81.5 34 129.5 34s90.167 -10.667 126.5 -32s64.5 -52.5 84.5 -93.5s30 -89.5 30 -145.5v-4c0 -6 -1 -10.5 -3 -13.5
s-6 -4.5 -12 -4.5h-383c-6 0 -9 -5 -9 -15c0 -32 7.83301 -61.667 23.5 -89zM439.001 302c7.33301 0 11.998 0.833008 13.998 2.5s3 5.5 3 11.5c0 29.333 -6.16699 56.5 -18.5 81.5s-30.333 45 -54 60s-51.167 22.5 -82.5 22.5c-34 0 -63.667 -8.5 -89 -25.5
s-44.666 -39 -57.999 -66s-19.666 -55.833 -18.999 -86.5h304zM445.999 679c0 -8.66699 -5 -13 -15 -13h-270c-4 0 -6.83301 1 -8.5 3s-2.5 5 -2.5 9v39c0 3.33301 0.666992 6 2 8s3.33301 3 6 3h280c2.66699 0 4.66699 -1 6 -3s2 -4.33301 2 -7v-39z" />
    <glyph glyph-name="Ebreve" unicode="&#x114;" horiz-adv-x="628" 
d="M99.5 739c1.66699 2 4.83301 3.00098 9.5 3.00098h449c6.66699 0 10 -3.66699 10 -11v-51c0 -8 -4.33301 -12 -13 -12h-349c-5.33301 0 -8.83301 -0.833008 -10.5 -2.5s-2.5 -4.83398 -2.5 -9.50098v-234c0 -7.33301 3.66699 -11 11 -11h259
c7.33301 0 11 -3.66699 11 -11v-53c0 -6 -3.66699 -9 -11 -9h-259c-7.33301 0 -11 -3.66699 -11 -11v-243c0 -4 0.666992 -6.66699 2 -8s4 -2 8 -2h367c4 0 6.83301 -0.666992 8.5 -2s2.5 -4 2.5 -8v-53c0 -7.33301 -3.66699 -11 -11 -11h-459c-5.33301 0 -9 1 -11 3
s-3 5.66699 -3 11v714c0 5.33301 0.833008 9 2.5 11zM490.999 951.501c1.33301 -1.66699 1.33203 -4.50195 -0.000976562 -8.50195c-8 -26.667 -25.167 -49.5 -51.5 -68.5s-58.833 -28.5 -97.5 -28.5c-38 0 -69.833 9.33301 -95.5 28s-42.5 42 -50.5 70v4c0 4 2 6 6 6h46
c4 0 7 -0.666992 9 -2s4.33301 -3.66602 7 -6.99902c8.66699 -12.667 18.834 -23.167 30.501 -31.5s27.5 -12.5 47.5 -12.5c18.667 0 35 4.33301 49 13s24.667 19.334 32 32.001c3.33301 5.33301 7.33301 8 12 8h47c4.66699 0 7.66699 -0.833008 9 -2.5z" />
    <glyph glyph-name="ebreve" unicode="&#x115;" horiz-adv-x="581" 
d="M156.5 143c15.667 -27.333 36.835 -49 63.502 -65s56 -24 88 -24c66.667 0 118.667 27.667 156 83c2.66699 2.66699 5 4.16699 7 4.5s4.33301 -0.166992 7 -1.5l42 -21c5.33301 -3.33301 6 -8 2 -14c-26 -40 -57 -69.167 -93 -87.5s-79 -27.5 -129 -27.5
c-48.667 0 -92.334 11.333 -131.001 34s-68.834 54.5 -90.501 95.5s-32.5 87.833 -32.5 140.5c0 56.667 11 106.167 33 148.5s52.167 74.833 90.5 97.5s81.5 34 129.5 34s90.167 -10.667 126.5 -32s64.5 -52.5 84.5 -93.5s30 -89.5 30 -145.5v-4c0 -6 -1 -10.5 -3 -13.5
s-6 -4.5 -12 -4.5h-383c-6 0 -9 -5 -9 -15c0 -32 7.83301 -61.667 23.5 -89zM439.001 302c7.33301 0 11.998 0.833008 13.998 2.5s3 5.5 3 11.5c0 29.333 -6.16699 56.5 -18.5 81.5s-30.333 45 -54 60s-51.167 22.5 -82.5 22.5c-34 0 -63.667 -8.5 -89 -25.5
s-44.666 -39 -57.999 -66s-19.666 -55.833 -18.999 -86.5h304zM445.999 739.5c1.33301 -1.66699 1.33203 -4.50195 -0.000976562 -8.50195c-8 -26.667 -25.167 -49.5 -51.5 -68.5s-58.833 -28.5 -97.5 -28.5c-38 0 -69.833 9.33301 -95.5 28s-42.5 42 -50.5 70v4
c0 4 2 6 6 6h46c4 0 7 -0.666992 9 -2s4.33301 -3.66602 7 -6.99902c8.66699 -12.667 18.834 -23.167 30.501 -31.5s27.5 -12.5 47.5 -12.5c18.667 0 35 4.33301 49 13s24.667 19.334 32 32.001c3.33301 5.33301 7.33301 8 12 8h47c4.66699 0 7.66699 -0.833008 9 -2.5z" />
    <glyph glyph-name="Edotaccent" unicode="&#x116;" horiz-adv-x="628" 
d="M99.5 739c1.66699 2 4.83301 3.00098 9.5 3.00098h449c6.66699 0 10 -3.66699 10 -11v-51c0 -8 -4.33301 -12 -13 -12h-349c-5.33301 0 -8.83301 -0.833008 -10.5 -2.5s-2.5 -4.83398 -2.5 -9.50098v-234c0 -7.33301 3.66699 -11 11 -11h259
c7.33301 0 11 -3.66699 11 -11v-53c0 -6 -3.66699 -9 -11 -9h-259c-7.33301 0 -11 -3.66699 -11 -11v-243c0 -4 0.666992 -6.66699 2 -8s4 -2 8 -2h367c4 0 6.83301 -0.666992 8.5 -2s2.5 -4 2.5 -8v-53c0 -7.33301 -3.66699 -11 -11 -11h-459c-5.33301 0 -9 1 -11 3
s-3 5.66699 -3 11v714c0 5.33301 0.833008 9 2.5 11zM387.999 853.001c0 -6 -1.33301 -10.167 -4 -12.5s-7.33398 -3.5 -14.001 -3.5h-58c-6 0 -10 1 -12 3s-3 5.66699 -3 11v89c0 5.33301 0.833008 9 2.5 11s4.83398 3 9.50098 3h68c7.33301 0 11 -4.33301 11 -13v-88z" />
    <glyph glyph-name="edotaccent" unicode="&#x117;" horiz-adv-x="581" 
d="M156.5 143c15.667 -27.333 36.835 -49 63.502 -65s56 -24 88 -24c66.667 0 118.667 27.667 156 83c2.66699 2.66699 5 4.16699 7 4.5s4.33301 -0.166992 7 -1.5l42 -21c5.33301 -3.33301 6 -8 2 -14c-26 -40 -57 -69.167 -93 -87.5s-79 -27.5 -129 -27.5
c-48.667 0 -92.334 11.333 -131.001 34s-68.834 54.5 -90.501 95.5s-32.5 87.833 -32.5 140.5c0 56.667 11 106.167 33 148.5s52.167 74.833 90.5 97.5s81.5 34 129.5 34s90.167 -10.667 126.5 -32s64.5 -52.5 84.5 -93.5s30 -89.5 30 -145.5v-4c0 -6 -1 -10.5 -3 -13.5
s-6 -4.5 -12 -4.5h-383c-6 0 -9 -5 -9 -15c0 -32 7.83301 -61.667 23.5 -89zM439.001 302c7.33301 0 11.998 0.833008 13.998 2.5s3 5.5 3 11.5c0 29.333 -6.16699 56.5 -18.5 81.5s-30.333 45 -54 60s-51.167 22.5 -82.5 22.5c-34 0 -63.667 -8.5 -89 -25.5
s-44.666 -39 -57.999 -66s-19.666 -55.833 -18.999 -86.5h304zM305.999 641c0 -6 -1.33301 -10.167 -4 -12.5s-7.33398 -3.5 -14.001 -3.5h-58c-6 0 -10 1 -12 3s-3 5.66699 -3 11v89c0 5.33301 0.833008 9 2.5 11s4.83398 3 9.50098 3h68c7.33301 0 11 -4.33301 11 -13v-88
z" />
    <glyph glyph-name="Eogonek" unicode="&#x118;" horiz-adv-x="628" 
d="M596 -107c2.66699 0 3.99805 -2.33008 3.99805 -6.99707v-29c0 -4.66699 -2 -8.33398 -6 -11.001c-8.66699 -4.66699 -21.167 -8.66699 -37.5 -12s-32.833 -5 -49.5 -5c-32.667 0 -57.5 7.16699 -74.5 21.5s-25.5 34.166 -25.5 59.499c0 19.333 6 36.333 18 51
s32.667 27.667 62 39h-376c-5.33301 0 -9 1 -11 3s-3 5.66699 -3 11v714c0 5.33301 0.833008 9 2.5 11s4.83398 3 9.50098 3h449c6.66699 0 10 -3.66699 10 -11v-51c0 -8 -4.33301 -12 -13 -12h-349c-5.33301 0 -8.83301 -0.833008 -10.5 -2.5s-2.5 -4.83398 -2.5 -9.50098
v-234c0 -7.33301 3.66699 -11 11 -11h259c7.33301 0 11 -3.66699 11 -11v-53c0 -6 -3.66699 -9 -11 -9h-259c-7.33301 0 -11 -3.66699 -11 -11v-243c0 -4 0.666992 -6.66699 2 -8s4 -2 8 -2h367c4 0 6.83301 -0.666992 8.5 -2s2.5 -4 2.5 -8v-53
c0 -7.33301 -3.66699 -11 -11 -11c-33.333 -14 -57.166 -27.5 -71.499 -40.5s-21.5 -27.5 -21.5 -43.5c0 -13.333 4 -23 12 -29s20.667 -9 38 -9c12.667 0 24.5 1.33301 35.5 4s19.833 5.66699 26.5 9c4 1.33301 6.33301 2 7 2z" />
    <glyph glyph-name="eogonek" unicode="&#x119;" horiz-adv-x="581" 
d="M540 265c0 -6 -1.00098 -10.4951 -3.00098 -13.4951s-6 -4.5 -12 -4.5h-383c-6 0 -9 -5 -9 -15c0 -32 7.83301 -61.667 23.5 -89s36.834 -49 63.501 -65s56 -24 88 -24c66.667 0 118.667 27.667 156 83c2.66699 2.66699 5 4.16699 7 4.5s4.33301 -0.166992 7 -1.5l42 -21
c5.33301 -3.33301 6 -8 2 -14c-34 -52.667 -78 -87 -132 -103c-26.667 -12.667 -45.834 -24.834 -57.501 -36.501s-17.5 -24.834 -17.5 -39.501c0 -13.333 4 -23 12 -29s20.667 -9 38 -9c12.667 0 24.5 1.33301 35.5 4s19.833 5.66699 26.5 9c4 1.33301 6.33301 2 7 2
c2.66699 0 4 -2.33301 4 -7v-29c0 -4.66699 -2 -8.33398 -6 -11.001c-8.66699 -4.66699 -21.167 -8.66699 -37.5 -12s-32.833 -5 -49.5 -5c-32.667 0 -57.5 7.16699 -74.5 21.5s-25.5 34.166 -25.5 59.499c0 14 3.16699 26.833 9.5 38.5s16.833 22.167 31.5 31.5
c-46.667 2 -88.167 14.667 -124.5 38s-64.666 55.166 -84.999 95.499s-30.5 85.833 -30.5 136.5c0 56.667 11 106.167 33 148.5s52.167 74.833 90.5 97.5s81.5 34 129.5 34s90.167 -10.667 126.5 -32s64.5 -52.5 84.5 -93.5s30 -89.5 30 -145.5v-4zM452.999 304.505
c2 1.66699 2.99805 5.5 2.99805 11.5c0 29.333 -6.16699 56.5 -18.5 81.5s-30.333 45 -54 60s-51.167 22.5 -82.5 22.5c-34 0 -63.667 -8.5 -89 -25.5s-44.666 -39 -57.999 -66s-19.666 -55.833 -18.999 -86.5h304c7.33301 0 12 0.833008 14 2.5z" />
    <glyph glyph-name="Ecaron" unicode="&#x11a;" horiz-adv-x="628" 
d="M99.5 739c1.66699 2 4.83301 3.00098 9.5 3.00098h449c6.66699 0 10 -3.66699 10 -11v-51c0 -8 -4.33301 -12 -13 -12h-349c-5.33301 0 -8.83301 -0.833008 -10.5 -2.5s-2.5 -4.83398 -2.5 -9.50098v-234c0 -7.33301 3.66699 -11 11 -11h259
c7.33301 0 11 -3.66699 11 -11v-53c0 -6 -3.66699 -9 -11 -9h-259c-7.33301 0 -11 -3.66699 -11 -11v-243c0 -4 0.666992 -6.66699 2 -8s4 -2 8 -2h367c4 0 6.83301 -0.666992 8.5 -2s2.5 -4 2.5 -8v-53c0 -7.33301 -3.66699 -11 -11 -11h-459c-5.33301 0 -9 1 -11 3
s-3 5.66699 -3 11v714c0 5.33301 0.833008 9 2.5 11zM425.999 954.001l59.001 0.000976562c4.66699 0 7 -1 7 -3s-2 -5 -6 -9l-101 -93c-2.66699 -2 -5.5 -4 -8.5 -6s-6.83301 -3 -11.5 -3h-39c-8.66699 0 -17 3.33301 -25 10l-102 92
c-3.33301 3.33301 -4.83301 6.16602 -4.5 8.49902s2.5 3.5 6.5 3.5h54c4.66699 0 8 -0.333008 10 -1s4.66699 -2.66699 8 -6l58 -49c6 -6 10 -9 12 -9c1.33301 0 3.16602 1.16699 5.49902 3.5l5.5 5.5l54 49c4.66699 4.66699 10.667 7 18 7z" />
    <glyph glyph-name="ecaron" unicode="&#x11b;" horiz-adv-x="581" 
d="M156.5 143c15.667 -27.333 36.835 -49 63.502 -65s56 -24 88 -24c66.667 0 118.667 27.667 156 83c2.66699 2.66699 5 4.16699 7 4.5s4.33301 -0.166992 7 -1.5l42 -21c5.33301 -3.33301 6 -8 2 -14c-26 -40 -57 -69.167 -93 -87.5s-79 -27.5 -129 -27.5
c-48.667 0 -92.334 11.333 -131.001 34s-68.834 54.5 -90.501 95.5s-32.5 87.833 -32.5 140.5c0 56.667 11 106.167 33 148.5s52.167 74.833 90.5 97.5s81.5 34 129.5 34s90.167 -10.667 126.5 -32s64.5 -52.5 84.5 -93.5s30 -89.5 30 -145.5v-4c0 -6 -1 -10.5 -3 -13.5
s-6 -4.5 -12 -4.5h-383c-6 0 -9 -5 -9 -15c0 -32 7.83301 -61.667 23.5 -89zM439.001 302c7.33301 0 11.998 0.833008 13.998 2.5s3 5.5 3 11.5c0 29.333 -6.16699 56.5 -18.5 81.5s-30.333 45 -54 60s-51.167 22.5 -82.5 22.5c-34 0 -63.667 -8.5 -89 -25.5
s-44.666 -39 -57.999 -66s-19.666 -55.833 -18.999 -86.5h304zM380.999 742l59.001 0.000976562c4.66699 0 7 -1 7 -3s-2 -5 -6 -9l-101 -93c-2.66699 -2 -5.5 -4 -8.5 -6s-6.83301 -3 -11.5 -3h-39c-8.66699 0 -17 3.33301 -25 10l-102 92
c-3.33301 3.33301 -4.83301 6.16602 -4.5 8.49902s2.5 3.5 6.5 3.5h54c4.66699 0 8 -0.333008 10 -1s4.66699 -2.66699 8 -6l58 -49c6 -6 10 -9 12 -9c1.33301 0 3.16602 1.16699 5.49902 3.5l5.5 5.5l54 49c4.66699 4.66699 10.667 7 18 7z" />
    <glyph glyph-name="Gcircumflex" unicode="&#x11c;" horiz-adv-x="739" 
d="M210 35.5c-46.667 30.333 -82.499 73.834 -107.499 130.501s-37.5 124 -37.5 202c0 79.333 12.833 148 38.5 206s62.167 102.167 109.5 132.5s102.666 45.5 165.999 45.5c45.333 0 87.833 -9.33301 127.5 -28s72.334 -43.334 98.001 -74.001s41.167 -63.334 46.5 -98.001
v-6c0 -2.66699 -0.5 -4.66699 -1.5 -6s-3.16699 -2.66602 -6.5 -3.99902l-72 -11h-2c-4 0 -7 3.33301 -9 10c-7.33301 40.667 -27.666 74.834 -60.999 102.501s-73.666 41.5 -120.999 41.5c-68.667 0 -121.334 -26 -158.001 -78s-55 -127.667 -55 -227
c0 -104 18.333 -181.833 55 -233.5s90 -77.5 160 -77.5c40.667 0 75.667 9 105 27s51.5 41 66.5 69s23.5 56.333 25.5 85v60v2c0 6 -3.33301 9 -10 9h-163c-7.33301 0 -11 3.33301 -11 10v43c0 6 3.33301 9 10 9l248 -1c10 0 15 -4 15 -12v-351c0 -8.66699 -4 -13 -12 -13
h-23c-5.33301 0 -9.33301 0.666992 -12 2s-4.66699 4.66602 -6 9.99902l-11 93c-0.666992 2.66699 -1.83398 4 -3.50098 4s-3.5 -1.66699 -5.5 -5c-21.333 -34 -49.833 -61.5 -85.5 -82.5s-79.834 -31.5 -132.501 -31.5c-63.333 0 -118.333 15.167 -165 45.5z
M387.001 899.001l-5.50098 5.50098c-2.33301 2.33301 -4.16602 3.5 -5.49902 3.5c-2 0 -6 -3 -12 -9l-58 -50c-3.33301 -2.66699 -6.16602 -4.33398 -8.49902 -5.00098s-5.5 -1 -9.5 -1h-54c-4.66699 0 -7 1.33301 -7 4c0 2 1.66699 4.66699 5 8l102 91
c7.33301 7.33301 15.666 11 24.999 11h39c4.66699 0 8.5 -1 11.5 -3s5.83301 -4 8.5 -6l101 -93c4 -4 6 -7 6 -9s-2.33301 -3 -7 -3h-59c-7.33301 0 -13.333 2 -18 6z" />
    <glyph glyph-name="gcircumflex" unicode="&#x11d;" horiz-adv-x="602" 
d="M575 523l-0.000976562 -34.999c0 -6.66699 -1.5 -11.5 -4.5 -14.5s-8.16699 -4.16699 -15.5 -3.5c-22 0 -39.333 -3 -52 -9c-16 -6.66699 -22.667 -14.334 -20 -23.001c0.666992 -2.66699 2.66699 -7.66699 6 -15s6 -15.5 8 -24.5s3 -18.5 3 -28.5
c0 -47.333 -18.5 -86 -55.5 -116s-90.833 -45 -161.5 -45c-47.333 0 -81.333 -4 -102 -12s-31 -18.333 -31 -31c0 -10 7 -17.5 21 -22.5s37.333 -8.5 70 -10.5l129 -7c57.333 -3.33301 100 -17 128 -41s42 -56.667 42 -98c0 -50.667 -22.167 -90.334 -66.5 -119.001
s-107.5 -43 -189.5 -43c-84.667 0 -149.167 12.167 -193.5 36.5s-66.5 59.166 -66.5 104.499c0 44.667 31.333 82.334 94 113.001c7.33301 3.33301 7.33301 7 0 11c-30.667 13.333 -46 33 -46 59c0 14.667 6.83301 28.667 20.5 42s33.167 24.333 58.5 33
c3.33301 0.666992 5 2.33398 5 5.00098c0 3.33301 -1.66699 5.66602 -5 6.99902c-29.333 15.333 -51 33.833 -65 55.5s-21 47.834 -21 78.501c0 52 19.667 93 59 123s95 45 167 45c63.333 0 113.333 -15 150 -45c4.66699 -3.33301 8 -5 10 -5
c2.66699 0 6.33398 1.66699 11.001 5c12.667 12.667 27.5 23.5 44.5 32.5s33.5 13.5 49.5 13.5c12.667 0 19 -5.33301 19 -16zM386.499 290.001c23 18.667 34.499 45.666 34.499 80.999c0 36 -11.667 64 -35 84s-57.666 30 -102.999 30c-44 0 -78.333 -10.167 -103 -30.5
s-37 -48.166 -37 -83.499c0 -34.667 12.167 -61.5 36.5 -80.5s58.833 -28.5 103.5 -28.5c46 0 80.5 9.33301 103.5 28zM194.998 65c-12 0.666992 -25.667 -2.83203 -41 -10.499s-28.333 -18.5 -39 -32.5s-16 -29.333 -16 -46c0 -32 16.333 -56.5 49 -73.5
s81 -25.5 145 -25.5c112.667 0 169 33.333 169 100c0 23.333 -7.83301 41.666 -23.5 54.999s-41.167 21 -76.5 23zM299.998 687.001l-5.50098 5.50098c-2.33301 2.33301 -4.16602 3.5 -5.49902 3.5c-2 0 -6 -3 -12 -9l-58 -50
c-3.33301 -2.66699 -6.16602 -4.33398 -8.49902 -5.00098s-5.5 -1 -9.5 -1h-54c-4.66699 0 -7 1.33301 -7 4c0 2 1.66699 4.66699 5 8l102 91c7.33301 7.33301 15.666 11 24.999 11h39c4.66699 0 8.5 -1 11.5 -3s5.83301 -4 8.5 -6l101 -93c4 -4 6 -7 6 -9
s-2.33301 -3 -7 -3h-59c-7.33301 0 -13.333 2 -18 6z" />
    <glyph glyph-name="Gbreve" unicode="&#x11e;" horiz-adv-x="739" 
d="M210 35.5c-46.667 30.333 -82.499 73.834 -107.499 130.501s-37.5 124 -37.5 202c0 79.333 12.833 148 38.5 206s62.167 102.167 109.5 132.5s102.666 45.5 165.999 45.5c45.333 0 87.833 -9.33301 127.5 -28s72.334 -43.334 98.001 -74.001s41.167 -63.334 46.5 -98.001
v-6c0 -2.66699 -0.5 -4.66699 -1.5 -6s-3.16699 -2.66602 -6.5 -3.99902l-72 -11h-2c-4 0 -7 3.33301 -9 10c-7.33301 40.667 -27.666 74.834 -60.999 102.501s-73.666 41.5 -120.999 41.5c-68.667 0 -121.334 -26 -158.001 -78s-55 -127.667 -55 -227
c0 -104 18.333 -181.833 55 -233.5s90 -77.5 160 -77.5c40.667 0 75.667 9 105 27s51.5 41 66.5 69s23.5 56.333 25.5 85v60v2c0 6 -3.33301 9 -10 9h-163c-7.33301 0 -11 3.33301 -11 10v43c0 6 3.33301 9 10 9l248 -1c10 0 15 -4 15 -12v-351c0 -8.66699 -4 -13 -12 -13
h-23c-5.33301 0 -9.33301 0.666992 -12 2s-4.66699 4.66602 -6 9.99902l-11 93c-0.666992 2.66699 -1.83398 4 -3.50098 4s-3.5 -1.66699 -5.5 -5c-21.333 -34 -49.833 -61.5 -85.5 -82.5s-79.834 -31.5 -132.501 -31.5c-63.333 0 -118.333 15.167 -165 45.5z
M524.001 951.501c1.33301 -1.66699 1.33203 -4.50195 -0.000976562 -8.50195c-8 -26.667 -25.167 -49.5 -51.5 -68.5s-58.833 -28.5 -97.5 -28.5c-38 0 -69.833 9.33301 -95.5 28s-42.5 42 -50.5 70v4c0 4 2 6 6 6h46c4 0 7 -0.666992 9 -2s4.33301 -3.66602 7 -6.99902
c8.66699 -12.667 18.834 -23.167 30.501 -31.5s27.5 -12.5 47.5 -12.5c18.667 0 35 4.33301 49 13s24.667 19.334 32 32.001c3.33301 5.33301 7.33301 8 12 8h47c4.66699 0 7.66699 -0.833008 9 -2.5z" />
    <glyph glyph-name="gbreve" unicode="&#x11f;" horiz-adv-x="602" 
d="M575 523l-0.000976562 -34.999c0 -6.66699 -1.5 -11.5 -4.5 -14.5s-8.16699 -4.16699 -15.5 -3.5c-22 0 -39.333 -3 -52 -9c-16 -6.66699 -22.667 -14.334 -20 -23.001c0.666992 -2.66699 2.66699 -7.66699 6 -15s6 -15.5 8 -24.5s3 -18.5 3 -28.5
c0 -47.333 -18.5 -86 -55.5 -116s-90.833 -45 -161.5 -45c-47.333 0 -81.333 -4 -102 -12s-31 -18.333 -31 -31c0 -10 7 -17.5 21 -22.5s37.333 -8.5 70 -10.5l129 -7c57.333 -3.33301 100 -17 128 -41s42 -56.667 42 -98c0 -50.667 -22.167 -90.334 -66.5 -119.001
s-107.5 -43 -189.5 -43c-84.667 0 -149.167 12.167 -193.5 36.5s-66.5 59.166 -66.5 104.499c0 44.667 31.333 82.334 94 113.001c7.33301 3.33301 7.33301 7 0 11c-30.667 13.333 -46 33 -46 59c0 14.667 6.83301 28.667 20.5 42s33.167 24.333 58.5 33
c3.33301 0.666992 5 2.33398 5 5.00098c0 3.33301 -1.66699 5.66602 -5 6.99902c-29.333 15.333 -51 33.833 -65 55.5s-21 47.834 -21 78.501c0 52 19.667 93 59 123s95 45 167 45c63.333 0 113.333 -15 150 -45c4.66699 -3.33301 8 -5 10 -5
c2.66699 0 6.33398 1.66699 11.001 5c12.667 12.667 27.5 23.5 44.5 32.5s33.5 13.5 49.5 13.5c12.667 0 19 -5.33301 19 -16zM386.499 290.001c23 18.667 34.499 45.666 34.499 80.999c0 36 -11.667 64 -35 84s-57.666 30 -102.999 30c-44 0 -78.333 -10.167 -103 -30.5
s-37 -48.166 -37 -83.499c0 -34.667 12.167 -61.5 36.5 -80.5s58.833 -28.5 103.5 -28.5c46 0 80.5 9.33301 103.5 28zM194.998 65c-12 0.666992 -25.667 -2.83203 -41 -10.499s-28.333 -18.5 -39 -32.5s-16 -29.333 -16 -46c0 -32 16.333 -56.5 49 -73.5
s81 -25.5 145 -25.5c112.667 0 169 33.333 169 100c0 23.333 -7.83301 41.666 -23.5 54.999s-41.167 21 -76.5 23zM436.998 739.501c1.33301 -1.66699 1.33203 -4.50195 -0.000976562 -8.50195c-8 -26.667 -25.167 -49.5 -51.5 -68.5s-58.833 -28.5 -97.5 -28.5
c-38 0 -69.833 9.33301 -95.5 28s-42.5 42 -50.5 70v4c0 4 2 6 6 6h46c4 0 7 -0.666992 9 -2s4.33301 -3.66602 7 -6.99902c8.66699 -12.667 18.834 -23.167 30.501 -31.5s27.5 -12.5 47.5 -12.5c18.667 0 35 4.33301 49 13s24.667 19.334 32 32.001
c3.33301 5.33301 7.33301 8 12 8h47c4.66699 0 7.66699 -0.833008 9 -2.5z" />
    <glyph glyph-name="Gdotaccent" unicode="&#x120;" horiz-adv-x="739" 
d="M210 35.5c-46.667 30.333 -82.499 73.834 -107.499 130.501s-37.5 124 -37.5 202c0 79.333 12.833 148 38.5 206s62.167 102.167 109.5 132.5s102.666 45.5 165.999 45.5c45.333 0 87.833 -9.33301 127.5 -28s72.334 -43.334 98.001 -74.001s41.167 -63.334 46.5 -98.001
v-6c0 -2.66699 -0.5 -4.66699 -1.5 -6s-3.16699 -2.66602 -6.5 -3.99902l-72 -11h-2c-4 0 -7 3.33301 -9 10c-7.33301 40.667 -27.666 74.834 -60.999 102.501s-73.666 41.5 -120.999 41.5c-68.667 0 -121.334 -26 -158.001 -78s-55 -127.667 -55 -227
c0 -104 18.333 -181.833 55 -233.5s90 -77.5 160 -77.5c40.667 0 75.667 9 105 27s51.5 41 66.5 69s23.5 56.333 25.5 85v60v2c0 6 -3.33301 9 -10 9h-163c-7.33301 0 -11 3.33301 -11 10v43c0 6 3.33301 9 10 9l248 -1c10 0 15 -4 15 -12v-351c0 -8.66699 -4 -13 -12 -13
h-23c-5.33301 0 -9.33301 0.666992 -12 2s-4.66699 4.66602 -6 9.99902l-11 93c-0.666992 2.66699 -1.83398 4 -3.50098 4s-3.5 -1.66699 -5.5 -5c-21.333 -34 -49.833 -61.5 -85.5 -82.5s-79.834 -31.5 -132.501 -31.5c-63.333 0 -118.333 15.167 -165 45.5z
M421.001 853.001c0 -6 -1.33301 -10.167 -4 -12.5s-7.33398 -3.5 -14.001 -3.5h-58c-6 0 -10 1 -12 3s-3 5.66699 -3 11v89c0 5.33301 0.833008 9 2.5 11s4.83398 3 9.50098 3h68c7.33301 0 11 -4.33301 11 -13v-88z" />
    <glyph glyph-name="gdotaccent" unicode="&#x121;" horiz-adv-x="602" 
d="M575 523l-0.000976562 -34.999c0 -6.66699 -1.5 -11.5 -4.5 -14.5s-8.16699 -4.16699 -15.5 -3.5c-22 0 -39.333 -3 -52 -9c-16 -6.66699 -22.667 -14.334 -20 -23.001c0.666992 -2.66699 2.66699 -7.66699 6 -15s6 -15.5 8 -24.5s3 -18.5 3 -28.5
c0 -47.333 -18.5 -86 -55.5 -116s-90.833 -45 -161.5 -45c-47.333 0 -81.333 -4 -102 -12s-31 -18.333 -31 -31c0 -10 7 -17.5 21 -22.5s37.333 -8.5 70 -10.5l129 -7c57.333 -3.33301 100 -17 128 -41s42 -56.667 42 -98c0 -50.667 -22.167 -90.334 -66.5 -119.001
s-107.5 -43 -189.5 -43c-84.667 0 -149.167 12.167 -193.5 36.5s-66.5 59.166 -66.5 104.499c0 44.667 31.333 82.334 94 113.001c7.33301 3.33301 7.33301 7 0 11c-30.667 13.333 -46 33 -46 59c0 14.667 6.83301 28.667 20.5 42s33.167 24.333 58.5 33
c3.33301 0.666992 5 2.33398 5 5.00098c0 3.33301 -1.66699 5.66602 -5 6.99902c-29.333 15.333 -51 33.833 -65 55.5s-21 47.834 -21 78.501c0 52 19.667 93 59 123s95 45 167 45c63.333 0 113.333 -15 150 -45c4.66699 -3.33301 8 -5 10 -5
c2.66699 0 6.33398 1.66699 11.001 5c12.667 12.667 27.5 23.5 44.5 32.5s33.5 13.5 49.5 13.5c12.667 0 19 -5.33301 19 -16zM386.499 290.001c23 18.667 34.499 45.666 34.499 80.999c0 36 -11.667 64 -35 84s-57.666 30 -102.999 30c-44 0 -78.333 -10.167 -103 -30.5
s-37 -48.166 -37 -83.499c0 -34.667 12.167 -61.5 36.5 -80.5s58.833 -28.5 103.5 -28.5c46 0 80.5 9.33301 103.5 28zM194.998 65c-12 0.666992 -25.667 -2.83203 -41 -10.499s-28.333 -18.5 -39 -32.5s-16 -29.333 -16 -46c0 -32 16.333 -56.5 49 -73.5
s81 -25.5 145 -25.5c112.667 0 169 33.333 169 100c0 23.333 -7.83301 41.666 -23.5 54.999s-41.167 21 -76.5 23zM333.998 641.001c0 -6 -1.33301 -10.167 -4 -12.5s-7.33398 -3.5 -14.001 -3.5h-58c-6 0 -10 1 -12 3s-3 5.66699 -3 11v89c0 5.33301 0.833008 9 2.5 11
s4.83398 3 9.50098 3h68c7.33301 0 11 -4.33301 11 -13v-88z" />
    <glyph glyph-name="Gcommaaccent" unicode="&#x122;" horiz-adv-x="739" 
d="M210 35.5c-46.667 30.333 -82.499 73.834 -107.499 130.501s-37.5 124 -37.5 202c0 79.333 12.833 148 38.5 206s62.167 102.167 109.5 132.5s102.666 45.5 165.999 45.5c45.333 0 87.833 -9.33301 127.5 -28s72.334 -43.334 98.001 -74.001s41.167 -63.334 46.5 -98.001
v-6c0 -2.66699 -0.5 -4.66699 -1.5 -6s-3.16699 -2.66602 -6.5 -3.99902l-72 -11h-2c-4 0 -7 3.33301 -9 10c-7.33301 40.667 -27.666 74.834 -60.999 102.501s-73.666 41.5 -120.999 41.5c-68.667 0 -121.334 -26 -158.001 -78s-55 -127.667 -55 -227
c0 -104 18.333 -181.833 55 -233.5s90 -77.5 160 -77.5c40.667 0 75.667 9 105 27s51.5 41 66.5 69s23.5 56.333 25.5 85v60v2c0 6 -3.33301 9 -10 9h-163c-7.33301 0 -11 3.33301 -11 10v43c0 6 3.33301 9 10 9l248 -1c10 0 15 -4 15 -12v-351c0 -8.66699 -4 -13 -12 -13
h-23c-5.33301 0 -9.33301 0.666992 -12 2s-4.66699 4.66602 -6 9.99902l-11 93c-0.666992 2.66699 -1.83398 4 -3.50098 4s-3.5 -1.66699 -5.5 -5c-21.333 -34 -49.833 -61.5 -85.5 -82.5s-79.834 -31.5 -132.501 -31.5c-63.333 0 -118.333 15.167 -165 45.5z
M341.501 -235.499c-1 2.33301 -0.830078 5.16602 0.50293 8.49902l27 51c1.33301 2 2 4.66699 2 8c0 4.66699 -2.33301 7 -7 7h-9c-4.66699 0 -7.83398 0.833008 -9.50098 2.5s-2.5 4.83398 -2.5 9.50098v65c0 7.33301 3.33301 11 10 11h59c6 0 9 -3 9 -9v-79
c0 -2 -0.333008 -3.66699 -1 -5s-1 -2.33301 -1 -3l-37 -62c-2.66699 -3.33301 -5.33398 -5.5 -8.00098 -6.5s-6.33398 -1.5 -11.001 -1.5h-15c-3.33301 0 -5.5 1.16699 -6.5 3.5z" />
    <glyph glyph-name="gcommaaccent" unicode="&#x123;" horiz-adv-x="602" 
d="M248 632v79.002c0 4 0.666992 6.66699 2 8l37 62c2 3.33301 4.33301 5.5 7 6.5s6.66699 1.5 12 1.5h14c3.33301 0 5.66602 -1.33301 6.99902 -4s1.33301 -5.33398 0 -8.00098l-28 -51c-1.33301 -2 -2 -4.33301 -2 -7c0 -5.33301 2.66699 -8 8 -8h8
c4.66699 0 7.83398 -0.833008 9.50098 -2.5s2.5 -4.83398 2.5 -9.50098v-65c0 -7.33301 -3.33301 -11 -10 -11h-58c-6 0 -9 3 -9 9zM575 523.002l-0.000976562 -34.999c0 -6.66699 -1.5 -11.5 -4.5 -14.5s-8.16699 -4.16699 -15.5 -3.5c-22 0 -39.333 -3 -52 -9
c-16 -6.66699 -22.667 -14.334 -20 -23.001c0.666992 -2.66699 2.66699 -7.66699 6 -15s6 -15.5 8 -24.5s3 -18.5 3 -28.5c0 -47.333 -18.5 -86 -55.5 -116s-90.833 -45 -161.5 -45c-47.333 0 -81.333 -4 -102 -12s-31 -18.333 -31 -31c0 -10 7 -17.5 21 -22.5
s37.333 -8.5 70 -10.5l129 -7c57.333 -3.33301 100 -17 128 -41s42 -56.667 42 -98c0 -50.667 -22.167 -90.334 -66.5 -119.001s-107.5 -43 -189.5 -43c-84.667 0 -149.167 12.167 -193.5 36.5s-66.5 59.166 -66.5 104.499c0 44.667 31.333 82.334 94 113.001
c7.33301 3.33301 7.33301 7 0 11c-30.667 13.333 -46 33 -46 59c0 14.667 6.83301 28.667 20.5 42s33.167 24.333 58.5 33c3.33301 0.666992 5 2.33398 5 5.00098c0 3.33301 -1.66699 5.66602 -5 6.99902c-29.333 15.333 -51 33.833 -65 55.5s-21 47.834 -21 78.501
c0 52 19.667 93 59 123s95 45 167 45c63.333 0 113.333 -15 150 -45c4.66699 -3.33301 8 -5 10 -5c2.66699 0 6.33398 1.66699 11.001 5c12.667 12.667 27.5 23.5 44.5 32.5s33.5 13.5 49.5 13.5c12.667 0 19 -5.33301 19 -16zM386.499 290.003
c23 18.667 34.499 45.666 34.499 80.999c0 36 -11.667 64 -35 84s-57.666 30 -102.999 30c-44 0 -78.333 -10.167 -103 -30.5s-37 -48.166 -37 -83.499c0 -34.667 12.167 -61.5 36.5 -80.5s58.833 -28.5 103.5 -28.5c46 0 80.5 9.33301 103.5 28zM194.998 65.002
c-12 0.666992 -25.667 -2.83203 -41 -10.499s-28.333 -18.5 -39 -32.5s-16 -29.333 -16 -46c0 -32 16.333 -56.5 49 -73.5s81 -25.5 145 -25.5c112.667 0 169 33.333 169 100c0 23.333 -7.83301 41.666 -23.5 54.999s-41.167 21 -76.5 23z" />
    <glyph glyph-name="Hcircumflex" unicode="&#x124;" horiz-adv-x="735" 
d="M201 347c-2.66699 0 -4.66797 -0.832031 -6.00098 -2.49902s-2 -3.5 -2 -5.5v-324c0 -5.33301 -1.33301 -9.16602 -4 -11.499s-7 -3.5 -13 -3.5h-65c-5.33301 0 -9 1 -11 3s-3 5.66699 -3 11v714c0 9.33301 4 14 12 14h72c8 0 12 -4.33301 12 -13v-294
c0 -4.66699 0.833008 -7.83398 2.5 -9.50098s4.5 -2.5 8.5 -2.5h328c6.66699 0 10 4 10 12v295c0 8 3.66699 12 11 12h73c4.66699 0 7.83398 -1 9.50098 -3s2.5 -5.66699 2.5 -11v-714c0 -9.33301 -4.66699 -14 -14 -14h-65c-6 0 -10.333 1.16699 -13 3.5
s-4 6.16602 -4 11.499v323c0 6 -3 9 -9 9h-332zM378.999 899.001l-5.50098 5.50098c-2.33301 2.33301 -4.16602 3.5 -5.49902 3.5c-2 0 -6 -3 -12 -9l-58 -50c-3.33301 -2.66699 -6.16602 -4.33398 -8.49902 -5.00098s-5.5 -1 -9.5 -1h-54c-4.66699 0 -7 1.33301 -7 4
c0 2 1.66699 4.66699 5 8l102 91c7.33301 7.33301 15.666 11 24.999 11h39c4.66699 0 8.5 -1 11.5 -3s5.83301 -4 8.5 -6l101 -93c4 -4 6 -7 6 -9s-2.33301 -3 -7 -3h-59c-7.33301 0 -13.333 2 -18 6z" />
    </font>
</defs>
</svg>
