<?xml version="1.0" standalone="no"?>
<!DOCTYPE svg PUBLIC "-//W3C//DTD SVG 1.1//EN" "http://www.w3.org/Graphics/SVG/1.1/DTD/svg11.dtd" >
<svg>
<metadata>
Created by FontForge 20090914 at Wed Jun 28 20:16:29 2017
 By www-data
Copyright (c) 2015, Impallari Type (www.impallari.com)
</metadata>
<defs>
<font id="LibreFranklin-SemiBold" horiz-adv-x="0" >
  <font-face 
    font-family="Libre Franklin SemiBold"
    font-weight="600"
    font-stretch="normal"
    units-per-em="1000"
    panose-1="0 0 7 0 0 0 0 0 0 0"
    ascent="800"
    descent="-200"
    x-height="530"
    cap-height="742"
    bbox="-399.001 -242.002 1343 964.002"
    underline-thickness="50"
    underline-position="-50"
    unicode-range="U+000D-U+FB02"
  />
<missing-glyph horiz-adv-x="666" 
d="M582 841.5c3.33301 -3.66699 5 -8.83301 5 -15.5v-962c0 -10.667 -2.66699 -18.167 -8 -22.5s-13.666 -6.5 -24.999 -6.5h-448c-10 0 -17 2 -21 6s-6 10.333 -6 19v964c0 7.33301 1.66699 13 5 17s8 6 14 6h471c5.33301 0 9.66602 -1.83301 12.999 -5.5zM531 792.001
c-2.66699 3.33301 -6.33301 5.00098 -11 5.00098h-353l368 -855v837c0 5.33301 -1.33301 9.66602 -4 12.999zM136.001 -109.998c3.33301 -3.33301 9.33301 -5.00098 18 -5.00098h344l-367 849v-828c0 -7.33301 1.66699 -12.666 5 -15.999z" />
    <glyph glyph-name="fi" unicode="fi" horiz-adv-x="650" 
d="M373 515v-63c0 -8.66699 -5 -13 -15 -13h-93c-6.66699 0 -10 -3.33301 -10 -10v-412c0 -11.333 -5 -17 -15 -17h-101c-9.33301 -0 -14 5.33301 -14 16v414c0 6 -2.33301 9 -7 9h-81c-10 0 -15 4.33301 -15 13v63c0 10 5.33301 15 16 15h76c7.33301 0 11 4.33301 11 13v65
c0 42.667 12 75.667 36 99s58 35 102 35h95c12.667 0 19 -6 19 -18l1 -56c0 -4 -1.16699 -7.33301 -3.5 -10s-5.83301 -4 -10.5 -4h-59c-17.333 0 -30.5 -5.83301 -39.5 -17.5s-13.5 -27.167 -13.5 -46.5v-50c0 -6.66699 3.66699 -10 11 -10h94c10.667 0 16 -5 16 -15z
M589 628c0 -8 -1.83301 -13.833 -5.5 -17.5s-9.83398 -5.5 -18.501 -5.5h-91c-7.33301 0 -12.333 1.66699 -15 5s-4 8.33301 -4 15v98c0 12.667 5.33301 19 16 19h103c4.66699 0 8.33398 -1.5 11.001 -4.5s4 -7.16699 4 -12.5v-97zM587 22
c0 -8 -1.83203 -13.668 -5.49902 -17.001s-9.83398 -5 -18.501 -5h-87c-7.33301 0 -12.333 1.33301 -15 4s-4 7.33398 -4 14.001v495c0 11.333 5 17 15 17h101c9.33301 0 14 -5.33301 14 -16v-492z" />
    <glyph glyph-name="fl" unicode="fl" horiz-adv-x="651" 
d="M373 515v-63c0 -8.66699 -5 -13 -15 -13h-93c-6.66699 0 -10 -3.33301 -10 -10v-412c0 -11.333 -5 -17 -15 -17h-101c-9.33301 -0 -14 5.33301 -14 16v414c0 6 -2.33301 9 -7 9h-81c-10 0 -15 4.33301 -15 13v63c0 10 5.33301 15 16 15h76c7.33301 0 11 4.33301 11 13v65
c0 42.667 12 75.667 36 99s58 35 102 35h95c12.667 0 19 -6 19 -18l1 -56c0 -4 -1.16699 -7.33301 -3.5 -10s-5.83301 -4 -10.5 -4h-59c-17.333 0 -30.5 -5.83301 -39.5 -17.5s-13.5 -27.167 -13.5 -46.5v-50c0 -6.66699 3.66699 -10 11 -10h94c10.667 0 16 -5 16 -15z
M587 22c0 -8.66699 -1.66699 -14.501 -5 -17.501s-9.33301 -4.5 -18 -4.5h-88c-7.33301 0 -12.5 1.33301 -15.5 4s-4.5 7.33398 -4.5 14.001l3 707c0 11.333 5 17 15 17h99c9.33301 0 14 -5.33301 14 -16v-704z" />
    <glyph glyph-name=".notdef" horiz-adv-x="666" 
d="M582 841.5c3.33301 -3.66699 5 -8.83301 5 -15.5v-962c0 -10.667 -2.66699 -18.167 -8 -22.5s-13.666 -6.5 -24.999 -6.5h-448c-10 0 -17 2 -21 6s-6 10.333 -6 19v964c0 7.33301 1.66699 13 5 17s8 6 14 6h471c5.33301 0 9.66602 -1.83301 12.999 -5.5zM531 792.001
c-2.66699 3.33301 -6.33301 5.00098 -11 5.00098h-353l368 -855v837c0 5.33301 -1.33301 9.66602 -4 12.999zM136.001 -109.998c3.33301 -3.33301 9.33301 -5.00098 18 -5.00098h344l-367 849v-828c0 -7.33301 1.66699 -12.666 5 -15.999z" />
    <glyph glyph-name="uni0000" 
 />
    <glyph glyph-name="uni0000" 
 />
    <glyph glyph-name="nonmarkingreturn" unicode="&#xd;" horiz-adv-x="212" 
 />
    <glyph glyph-name="space" unicode=" " horiz-adv-x="209" 
 />
    <glyph glyph-name="exclam" unicode="!" horiz-adv-x="257" 
d="M171 234c-0.666992 -7.33301 -2.66797 -12.501 -6.00098 -15.501s-9 -4.5 -17 -4.5h-44c-6.66699 0 -11.167 1.33301 -13.5 4s-4.16602 7.33398 -5.49902 14.001l-32 494v2c0 9.33301 4.33301 14 13 14h124c4 0 7.33301 -1.33301 10 -4s3.66699 -6 3 -10zM199.999 20.999
c0 -7.33301 -1.83203 -12.667 -5.49902 -16s-9.83398 -5 -18.501 -5h-102c-7.33301 0 -12.333 1.5 -15 4.5s-4 7.5 -4 13.5v111c0 10.667 4.33301 16 13 16h119c8.66699 0 13 -4.66699 13 -14v-110z" />
    <glyph glyph-name="quotedbl" unicode="&#x22;" horiz-adv-x="449" 
d="M365 492c-1.33301 -7.33301 -3.49902 -12.5 -6.49902 -15.5s-8.5 -4.5 -16.5 -4.5h-32c-6 0 -10.333 1.33301 -13 4s-4.33398 7 -5.00098 13l-31 238v2c0 8.66699 4.33301 13 13 13h109c10 0 14.333 -4.66699 13 -14zM161.001 492
c-1.33301 -7.33301 -3.49902 -12.5 -6.49902 -15.5s-8.5 -4.5 -16.5 -4.5h-32c-6 0 -10.333 1.33301 -13 4s-4.33398 7 -5.00098 13l-31 238v2c0 8.66699 4.33301 13 13 13h109c10 0 14.333 -4.66699 13 -14z" />
    <glyph glyph-name="numbersign" unicode="#" horiz-adv-x="603" 
d="M577 511.5c2.66699 -2.33301 4.00293 -5.83301 4.00293 -10.5v-37c0 -13.333 -7.66699 -20 -23 -20h-99l-21 -139h96c4 0 7.33301 -1.16699 10 -3.5s4 -5.83301 4 -10.5v-37c0 -13.333 -7.66699 -20 -23 -20h-97l-32 -213c-1.33301 -8.66699 -3.33301 -14.5 -6 -17.5
s-8 -4.16699 -16 -3.5l-32 5c-7.33301 1.33301 -12.5 3 -15.5 5s-4.16699 5.66699 -3.5 11l32 213h-142l-32 -213c-1.33301 -8.66699 -3.33301 -14.5 -6 -17.5s-8 -4.16699 -16 -3.5l-32 5c-7.33301 1.33301 -12.333 3 -15 5s-3.66699 5.66699 -3 11l32 213h-100
c-6.66699 0 -11.334 1.33301 -14.001 4s-4 7 -4 13v38c0 10.667 4 16 12 16h116l21 139h-98c-6.66699 0 -11.334 1.33301 -14.001 4s-4 7 -4 13v38c0 10.667 4 16 12 16h115l31 211c2 11.333 6.66699 16.666 14 15.999l45 -5
c9.33301 -1.33301 13.666 -6.66602 12.999 -15.999l-31 -206h142l32 211c2 11.333 6.66699 16.666 14 15.999l45 -5c10 -1.33301 14 -6.66602 12 -15.999l-31 -206h98c4 0 7.33301 -1.16699 10 -3.5zM387.003 444h-143l-20 -139h142z" />
    <glyph glyph-name="dollar" unicode="$" horiz-adv-x="638" 
d="M575 101.5c-18 -30.333 -43.499 -54.8262 -76.499 -73.4932s-71.5 -29.667 -115.5 -33c-6 -0.666992 -10 -1.83398 -12 -3.50098s-3 -5.16699 -3 -10.5v-43c0 -13.333 -6.66699 -20 -20 -20h-49c-12 0 -18 5.66699 -18 17v47c0 4.66699 -0.833008 8 -2.5 10
s-4.83398 3 -9.50098 3c-50 2 -93 11 -129 27s-69.333 39.667 -100 71c-8 7.33301 -12 13.666 -12 18.999c0 3.33301 1.66699 6.66602 5 9.99902l51 53c4.66699 4.66699 9 7 13 7c4.66699 0 9 -2 13 -6c21.333 -24.667 44.666 -44 69.999 -58s55 -22.667 89 -26h4
c3.33301 0 5.66602 0.666992 6.99902 2s2 3.66602 2 6.99902l1 197c0 5.33301 -1.33301 9.5 -4 12.5s-7 5.83301 -13 8.5c-77.333 20.667 -132.5 48.5 -165.5 83.5s-49.5 78.833 -49.5 131.5c0 53.333 19.167 98.666 57.5 135.999s90.833 61.333 157.5 72
c4 0.666992 7.66699 2.33398 11 5.00098s5 6 5 10v42c0 4 1.16699 7 3.5 9s4.83301 3 7.5 3h59c10.667 0 16 -5.66699 16 -17v-43c0 -2.66699 0.833008 -4.5 2.5 -5.5s4.83398 -2.16699 9.50098 -3.5c67.333 -12 126 -38.333 176 -79c5.33301 -3.33301 8 -7.33301 8 -12
c0 -2.66699 -1.66699 -6.33398 -5 -11.001l-47 -57c-4 -4 -7.66699 -6 -11 -6c-4 0 -8.66699 2.66699 -14 8c-12 13.333 -27.5 25.166 -46.5 35.499s-39.5 17.833 -61.5 22.5l-4 1c-5.33301 0 -8 -3 -8 -9v-197c0 -4 0.833008 -6.83301 2.5 -8.5
s4.83398 -3.16699 9.50098 -4.5l50 -14c54 -18 96.333 -44.833 127 -80.5s46 -77.834 46 -126.501c0 -38 -9 -72.167 -27 -102.5zM282.001 636.007c0 9.33301 -3.99805 12.999 -11.998 10.999c-33.333 -4.66699 -59.5 -16.167 -78.5 -34.5s-28.5 -40.166 -28.5 -65.499
c0 -22 7.66699 -40.833 23 -56.5s40.666 -30.167 75.999 -43.5c1.33301 -0.666992 3.66602 -1 6.99902 -1c8.66699 0 13 6 13 18v172zM379.003 92.0059c33.333 2.66699 59.833 12.6689 79.5 30.002s29.5 38.666 29.5 63.999c0 26 -8.33301 47.667 -25 65
s-44 31.666 -82 42.999c-2 0.666992 -4.33301 1 -7 1s-4.5 -0.666992 -5.5 -2s-1.5 -4 -1.5 -8v-187c0 -6 4 -8 12 -6z" />
    <glyph glyph-name="percent" unicode="%" horiz-adv-x="935" 
d="M321.5 725.5c27.667 -18.333 49.502 -43.666 65.502 -75.999s24 -68.5 24 -108.5s-7.83301 -76 -23.5 -108s-37.334 -57 -65.001 -75s-58.834 -27 -93.501 -27s-66 9 -94 27s-50 43 -66 75s-24 68 -24 108s8 76.167 24 108.5s38.167 57.666 66.5 75.999
s59.5 27.5 93.5 27.5s64.833 -9.16699 92.5 -27.5zM264.002 6c-4.66699 -6.66699 -12.333 -10 -23 -10l-36 1c-10 0 -15 4 -15 12c0 2.66699 1.33301 6.66699 4 12l478 720c3.33301 4 6.5 6.5 9.5 7.5s6.83301 1.5 11.5 1.5h46c7.33301 0 11 -2.33301 11 -7
c0 -2 -1 -4.66699 -3 -8zM292.503 436.5c14.333 25 21.5 59.5 21.5 103.5c0 45.333 -7.33301 80.833 -22 106.5s-36 38.5 -64 38.5s-49.333 -12.833 -64 -38.5s-22 -61.167 -22 -106.5c0 -44 7.33301 -78.5 22 -103.5s36 -37.5 64 -37.5c28.667 0 50.167 12.5 64.5 37.5z
M800.503 384.5c27.667 -18.333 49.334 -43.666 65.001 -75.999s23.5 -68.5 23.5 -108.5s-7.83301 -76 -23.5 -108s-37.334 -57 -65.001 -75s-58.5 -27 -92.5 -27c-34.667 0 -66 9 -94 27s-50 43 -66 75s-24 68 -24 108s8 76.167 24 108.5s38 57.666 66 75.999
s59.333 27.5 94 27.5c34 0 64.833 -9.16699 92.5 -27.5zM770.003 96c14.667 25.333 22 59.668 22 103.001c0 44.667 -7.33301 80 -22 106s-35.667 39 -63 39s-48.5 -13 -63.5 -39s-22.5 -61.333 -22.5 -106c0 -42.667 7.5 -76.834 22.5 -102.501s36.167 -38.5 63.5 -38.5
s48.333 12.667 63 38z" />
    <glyph glyph-name="ampersand" unicode="&#x26;" horiz-adv-x="818" 
d="M471.5 733.5c32.333 -13 57.6699 -31.166 76.0029 -54.499s27.5 -50.666 27.5 -81.999c0 -34.667 -14.167 -69.334 -42.5 -104.001s-67.833 -63.667 -118.5 -87c-5.33301 -2.66699 -8 -5.33398 -8 -8.00098s1.66699 -5.66699 5 -9l123 -139c4 -4 7 -6 9 -6
s5.66699 2.66699 11 8c19.333 19.333 38.5 43.333 57.5 72s32.167 53.334 39.5 74.001c4 9.33301 11 12.333 21 9l65 -21c4.66699 -1.33301 8.16699 -4.33301 10.5 -9s2.83301 -9.33398 1.5 -14.001c-20 -51.333 -60.667 -112.666 -122 -183.999
c-4 -4.66699 -6 -8.33398 -6 -11.001c0 -2 2.66699 -4.66699 8 -8c16 -14 36.833 -25.333 62.5 -34s51.5 -13.334 77.5 -14.001c6.66699 -0.666992 11.334 -2.33398 14.001 -5.00098s4 -6.66699 4 -12v-73c0 -14.667 -7 -22 -21 -22
c-42.667 0 -84.834 6.83301 -126.501 20.5s-77.834 31.834 -108.501 54.501c-4.66699 2.66699 -8.66699 4 -12 4c-4 0 -8 -1.66699 -12 -5c-32.667 -26.667 -67.834 -46.5 -105.501 -59.5s-79.5 -19.5 -125.5 -19.5c-74.667 0 -132.834 17.5 -174.501 52.5
s-62.5 83.167 -62.5 144.5c0 40 12.833 76.5 38.5 109.5s67.167 65.833 124.5 98.5c6.66699 4 10 7.66699 10 11c0 2.66699 -3 7.33398 -9 14.001c-42.667 46.667 -64 94.667 -64 144c0 34.667 9.66699 66 29 94s46 50 80 66s72 24 114 24c40.667 0 77.167 -6.5 109.5 -19.5
zM296.504 644.001c-17.667 -18 -26.499 -39.666 -26.499 -64.999c0 -22.667 10.667 -46.334 32 -71.001l31 -36c2.66699 -2.66699 6 -4 10 -4c2 0 5 0.666992 9 2c36.667 18 63.5 36.833 80.5 56.5s25.5 41.5 25.5 65.5c0 24.667 -8.33301 44 -25 58s-38.334 21 -65.001 21
c-30 0 -53.833 -9 -71.5 -27zM279.005 333.002c-4.66699 0 -8.66895 -1.33398 -12.002 -4.00098c-27.333 -14 -48.666 -32.167 -63.999 -54.5s-23 -45.833 -23 -70.5c0 -31.333 11.833 -57.666 35.5 -78.999s52.834 -32 87.501 -32c22 0 44.667 4.5 68 13.5
s43 20.833 59 35.5c5.33301 4 8 8.33301 8 13c0 4 -1.66699 7.66699 -5 11l-139 158c-5.33301 6 -10.333 9 -15 9z" />
    <glyph glyph-name="quotesingle" unicode="'" horiz-adv-x="245" 
d="M161 492c-1.33301 -7.33301 -3.49902 -12.5 -6.49902 -15.5s-8.5 -4.5 -16.5 -4.5h-32c-6 0 -10.333 1.33301 -13 4s-4.33398 7 -5.00098 13l-31 238v2c0 8.66699 4.33301 13 13 13h109c10 0 14.333 -4.66699 13 -14z" />
    <glyph glyph-name="parenleft" unicode="(" horiz-adv-x="304" 
d="M286 738.5c1.33301 -2.33301 1 -4.83203 -1 -7.49902c-34.667 -68.667 -62 -141.167 -82 -217.5s-30 -152.833 -30 -229.5c0 -73.333 8.83301 -145 26.5 -215s44.5 -143.667 80.5 -221l2 -5c0 -2 -1 -3.83301 -3 -5.5s-4.33301 -2.5 -7 -2.5h-66c-6 0 -11 3 -15 9
c-45.333 78 -79.333 151 -102 219s-34 142 -34 222s12.333 158.167 37 234.5s58.667 147.166 102 212.499c6.66699 6.66699 13.667 10 21 10h62c4.66699 0 7.66699 -1.16699 9 -3.5z" />
    <glyph glyph-name="parenright" unicode=")" horiz-adv-x="304" 
d="M89 742c7.33301 0 14.333 -3.33398 21 -10.001c43.333 -65.333 77.333 -136.166 102 -212.499s37 -154.5 37 -234.5s-11.333 -154 -34 -222s-56.667 -141 -102 -219c-4 -6 -9 -9 -15 -9h-66c-4.66699 0 -7.66699 1.33301 -9 4s-1 5.66699 1 9
c36 77.333 62.833 151 80.5 221s26.5 141.667 26.5 215c0 76.667 -10 153.167 -30 229.5s-47.333 148.833 -82 217.5c-0.666992 1.33301 -1 3 -1 5c0 4 3 6 9 6h62z" />
    <glyph glyph-name="asterisk" unicode="*" horiz-adv-x="436" 
d="M225 487c-0.666992 1.33301 -1.83301 1.99902 -3.5 1.99902s-3.16699 -0.666992 -4.5 -2l-74 -123c-2 -2.66699 -5.33301 -4 -10 -4c-2.66699 0 -6 1 -10 3l-48 34c-4 3.33301 -6 6.33301 -6 9s1.33301 5.33398 4 8.00098l88 108l2 4c0 3.33301 -2 5.33301 -6 6l-123 34
c-7.33301 2 -9.33301 8 -6 18l19 51c3.33301 7.33301 8.33301 9.33301 15 6l116 -49l4 -1c4 0 6 2.33301 6 7l-10 133v2c0 2 1 4 3 6s4.66699 3 8 3h64c4 0 6.83301 -1.16699 8.5 -3.5s2.5 -4.83301 2.5 -7.5l-10 -134v-2c0 -2 0.666992 -3.33301 2 -4s3 -0.666992 5 0
l120 52c2.66699 1.33301 4.66699 2 6 2c5.33301 0 8.66602 -3.33301 9.99902 -10l16 -50c0.666992 -1.33301 1 -3.33301 1 -6c0 -6 -3 -9.66699 -9 -11l-120 -36c-2.66699 -0.666992 -4.16699 -2.16699 -4.5 -4.5s0.5 -4.5 2.5 -6.5l84 -102c2.66699 -4 4 -7 4 -9
c0 -4.66699 -3.33301 -9 -10 -13l-42 -29c-5.33301 -3.33301 -9.66602 -5 -12.999 -5c-4 0 -7 1.66699 -9 5z" />
    <glyph glyph-name="plus" unicode="+" horiz-adv-x="574" 
d="M522 407l0.000976562 -62.001c0 -13.333 -7.66699 -20 -23 -20h-163v-173c0 -8.66699 -4.66699 -13 -14 -13h-63c-12.667 0 -19 7.66699 -19 23v163h-169c-6.66699 0 -11.334 1.33301 -14.001 4s-4 7 -4 13v63c0 10.667 4.33301 16 13 16h174v169
c0 6.66699 1.33301 11.334 4 14.001s7 4 13 4h63c10.667 0 16 -4.33301 16 -13v-174h173c8.66699 0 13 -4.66699 13 -14z" />
    <glyph glyph-name="comma" unicode="," horiz-adv-x="239" 
d="M43 -145.5c-2 3.66699 -2 7.83301 0 12.5l47 111c2 4.66699 3 8.66699 3 12c0 6.66699 -4 10 -12 10h-16c-12.667 0 -19 5.66699 -19 17v114c0 10 4.66699 15 14 15h119c8.66699 0 13 -4.66699 13 -14v-107c0 -5.33301 -1 -10 -3 -14l-89 -147
c-8 -10 -18.333 -15 -31 -15h-16c-4.66699 0 -8 1.83301 -10 5.5z" />
    <glyph glyph-name="hyphen" unicode="-" horiz-adv-x="380" 
d="M327 235c0 -12.667 -7.66602 -19 -22.999 -19h-232c-6.66699 0 -11.334 1.33301 -14.001 4s-4 7 -4 13v63c0 10.667 4.33301 16 13 16h247c8.66699 0 13 -4.33301 13 -13v-64z" />
    <glyph glyph-name="period" unicode="." horiz-adv-x="237" 
d="M190 21c0 -7.33301 -2 -12.667 -6 -16s-10.333 -5 -19 -5h-101c-7.33301 0 -12.5 1.5 -15.5 4.5s-4.5 7.5 -4.5 13.5v113c0 11.333 4.66699 17 14 17h118c9.33301 0 14 -5 14 -15v-112z" />
    <glyph glyph-name="slash" unicode="/" horiz-adv-x="357" 
d="M9 -22.5c-2 2.33301 -2.33301 5.5 -1 9.5l250 742c3.33301 8.66699 9.33301 13 18 13h59c10 0 15 -3.66699 15 -11c0 -2.66699 -1 -6.66699 -3 -12l-244 -727c-4 -12 -12 -18 -24 -18h-60c-4.66699 0 -8 1.16699 -10 3.5z" />
    <glyph glyph-name="zero" unicode="0" horiz-adv-x="701" 
d="M504.5 706.5c45 -31 80.334 -75.668 106.001 -134.001s38.5 -126.166 38.5 -203.499s-12.667 -144.5 -38 -201.5s-60.5 -100.667 -105.5 -131s-96.5 -45.5 -154.5 -45.5s-109.5 15.167 -154.5 45.5s-80.333 73.833 -106 130.5s-38.5 123.667 -38.5 201
c0 78 13 146 39 204s61.667 102.667 107 134s96.666 47 153.999 47c56.667 0 107.5 -15.5 152.5 -46.5zM462.001 161.499c24.667 43 37 111.833 37 206.5c0 96.667 -12.5 167.5 -37.5 212.5s-61.833 67.5 -110.5 67.5c-99.333 0 -149 -93.333 -149 -280
c0 -94 12.667 -162.667 38 -206s62.333 -65 111 -65c49.333 0 86.333 21.5 111 64.5z" />
    <glyph glyph-name="one" unicode="1" horiz-adv-x="494" 
d="M457 97v-81.999c0 -4 -1.33301 -7.5 -4 -10.5s-7 -4.5 -13 -4.5h-380c-10.667 0 -16 4.66699 -16 14v83c0 9.33301 5 14 15 14h112c6 0 9 2 9 6v465c0 4.66699 -0.833008 7.66699 -2.5 9s-4.83398 1.66602 -9.50098 0.999023l-106 -35
c-1.33301 -0.666992 -3.33301 -1 -6 -1c-8.66699 0 -13 5.66699 -13 17v58c0 6 0.833008 10.167 2.5 12.5s5.16699 4.83301 10.5 7.5l161 81c7.33301 3.33301 13.833 5.83301 19.5 7.5s11.834 2.5 18.501 2.5h60c8.66699 0 13 -5.33301 13 -16v-606c0 -6 3 -9 9 -9h104
c10.667 0 16 -4.66699 16 -14z" />
    <glyph glyph-name="two" unicode="2" horiz-adv-x="628" 
d="M276 318c42 37.333 73.833 67.832 95.5 91.499s36.834 45 45.501 64s13 39.167 13 60.5c0 33.333 -12 59.833 -36 79.5s-53.333 29.5 -88 29.5c-61.333 0 -112.666 -34.333 -153.999 -103c-2 -4.66699 -6 -7 -12 -7c-4 0 -8.33301 1.33301 -13 4l-74 39
c-6.66699 4 -10 9 -10 15c0 4 1.66699 8.66699 5 14c63.333 98 152.666 147 267.999 147c50 0 94.5 -8.66699 133.5 -26s69.5 -42.5 91.5 -75.5s33 -72.167 33 -117.5c0 -41.333 -11.333 -79.833 -34 -115.5s-61.334 -76.5 -116.001 -122.5l-191 -161
c-3.33301 -3.33301 -5 -5.66602 -5 -6.99902c0 -3.33301 3.66699 -5 11 -5h325c6 0 10.333 -1 13 -3s4 -5.66699 4 -11v-92c0 -10.667 -6 -16 -18 -16h-501c-8 -0 -13.5 1.33301 -16.5 4s-4.5 7.66699 -4.5 15v65c0 6 2.33301 12.5 7 19.5s15.667 17.5 33 31.5z" />
    <glyph glyph-name="three" unicode="3" horiz-adv-x="658" 
d="M65 639c0 2 1.32812 5.66504 3.99512 10.998c28.667 32.667 64.834 57.834 108.501 75.501s90.834 26.5 141.501 26.5c54.667 0 102.334 -8.16699 143.001 -24.5s71.834 -39 93.501 -68s32.5 -62.167 32.5 -99.5c0 -34 -10.667 -65.333 -32 -94s-51 -49 -89 -61
c-7.33301 -2 -11 -5 -11 -9c0 -3.33301 3.66699 -6 11 -8c42.667 -13.333 77.334 -35.666 104.001 -66.999s40 -68 40 -110c0 -69.333 -25.833 -123.5 -77.5 -162.5s-127.5 -58.5 -227.5 -58.5c-55.333 0 -106.333 10.333 -153 31s-84.667 49.667 -114 87
c-3.33301 4.66699 -5 8.33398 -5 11.001c0 5.33301 3 10 9 14l66 48c5.33301 3.33301 9.33301 5 12 5c3.33301 0 6 -1.66699 8 -5c30.667 -31.333 59.834 -53.333 87.501 -66s60.5 -19 98.5 -19c46.667 0 83.5 10.333 110.5 31s40.5 47.667 40.5 81
c0 37.333 -15.167 66.833 -45.5 88.5s-67.166 32.834 -110.499 33.501l-87 1c-10.667 0 -16 4.33301 -16 13v79c0 7.33301 5.33301 11.666 16 12.999l70 2c44 1.33301 80.167 12.5 108.5 33.5s42.5 47.833 42.5 80.5c0 27.333 -12 50.166 -36 68.499s-54.333 27.5 -91 27.5
c-31.333 0 -60.333 -6 -87 -18s-53.334 -30.667 -80.001 -56c-4.66699 -4.66699 -8.33398 -7 -11.001 -7s-6 2 -10 6l-60 57c-2.66699 4 -4 7 -4 9z" />
    <glyph glyph-name="four" unicode="4" horiz-adv-x="675" 
d="M386 739c4.66699 2 11.333 3.00098 20 3.00098h106c9.33301 0 14 -5.33301 14 -16v-429c0 -3.33301 1 -6 3 -8s4.33301 -3 7 -3h86c11.333 0 17 -4.33301 17 -13v-73c0 -11.333 -6 -17 -18 -17h-84c-7.33301 0 -11 -3.66699 -11 -11v-152
c0 -7.33301 -1.66699 -12.5 -5 -15.5s-9 -4.5 -17 -4.5h-109c-12.667 0 -19 6 -19 18l1 157c0 5.33301 -3.66699 8 -11 8h-309c-12 0 -18 5.66699 -18 17v72c0 5.33301 1.66699 11.166 5 17.499s9 14.833 17 25.5l310 411c5.33301 6.66699 10.333 11 15 13zM367.999 286.001
c2.66699 0 4.83203 0.666992 6.49902 2s2.5 3 2.5 5v278c0 9.33301 -1.33301 14 -4 14c-1.33301 0 -4.66602 -3.33301 -9.99902 -10l-202 -276c-2.66699 -4 -4 -6.66699 -4 -8c0 -3.33301 3.66699 -5 11 -5h200z" />
    <glyph glyph-name="five" unicode="5" horiz-adv-x="669" 
d="M556 742c9.33301 0 15.1709 -1.33496 17.5039 -4.00195s3.16602 -8 2.49902 -16l-4 -84c-0.666992 -6 -2.33398 -10.167 -5.00098 -12.5s-7.66699 -3.5 -15 -3.5h-324c-10 0 -15 -4.33301 -15 -13l-14 -158v-3c0 -4 1.33301 -7 4 -9s5.66699 -2 9 0
c32.667 12.667 59.167 21.834 79.5 27.501s44.166 8.5 71.499 8.5c49.333 0 93.666 -8.83301 132.999 -26.5s70.5 -44 93.5 -79s34.5 -77.5 34.5 -127.5c0 -52 -12.5 -97 -37.5 -135s-59.833 -67 -104.5 -87s-96 -30 -154 -30c-59.333 0 -113.833 10.167 -163.5 30.5
s-88.834 48.5 -117.501 84.5c-4.66699 6 -7 11 -7 15c0 4.66699 2.66699 9.33398 8 14.001l69 50c3.33301 2 6.66602 3 9.99902 3c4 0 8.33301 -2.33301 13 -7c29.333 -29.333 56 -50.833 80 -64.5s54.333 -20.5 91 -20.5c52 0 92.833 13.333 122.5 40s44.5 61 44.5 103
c0 40.667 -13.333 72.667 -40 96s-62 35 -106 35c-24.667 0 -47 -3.66699 -67 -11s-45.667 -19 -77 -35c-5.33301 -2.66699 -9 -4 -11 -4c-1.33301 0 -5.33301 1.66699 -12 5l-76 42c-4.66699 2.66699 -7.66699 5 -9 7s-2 4.66699 -2 8l1 14l28 327
c0.666992 8 2.83398 13.333 6.50098 16s11.834 4 24.501 4h418z" />
    <glyph glyph-name="six" unicode="6" horiz-adv-x="677" 
d="M473 732.5c30.667 -12.333 56.1699 -27.834 76.5029 -46.501s34.833 -37.667 43.5 -57c1.33301 -4 2 -7 2 -9c0 -5.33301 -2.66699 -9 -8 -11l-91 -32l-4 -1c-4.66699 0 -9.33398 3.66699 -14.001 11c-14.667 19.333 -30 34 -46 44s-36.333 15 -61 15
c-55.333 0 -97.833 -19.833 -127.5 -59.5s-44.5 -92.167 -44.5 -157.5c0 -9.33301 0.5 -15.666 1.5 -18.999s3.16699 -5 6.5 -5c1.33301 0 5.33301 1.33301 12 4c30.667 13.333 57.667 23.5 81 30.5s50.666 10.5 81.999 10.5c50.667 0 95 -9.33301 133 -28
s67.333 -44.667 88 -78s31 -71 31 -113c0 -46 -12.333 -87.333 -37 -124s-58.334 -65.167 -101.001 -85.5s-89.667 -30.5 -141 -30.5c-62 0 -115.833 14.667 -161.5 44s-80.667 71.5 -105 126.5s-36.5 120.167 -36.5 195.5c0 81.333 13 151.5 39 210.5s63 104.333 111 136
s104.333 47.5 169 47.5c37.333 0 71.333 -6.16699 102 -18.5zM281.003 339.499c-26.667 -7.66699 -48.001 -16.499 -64.001 -26.499c-6.66699 -4.66699 -11 -9.33398 -13 -14.001s-3 -12.334 -3 -23.001c0 -30.667 5.83301 -60.167 17.5 -88.5s28.834 -51.5 51.501 -69.5
s50 -27 82 -27c38.667 0 71 12.833 97 38.5s39 57.834 39 96.501c0 36.667 -12.5 66.667 -37.5 90s-57.167 35 -96.5 35c-22 0 -46.333 -3.83301 -73 -11.5z" />
    <glyph glyph-name="seven" unicode="7" horiz-adv-x="612" 
d="M552 742c7.33301 0 13.1709 -1.83496 17.5039 -5.50195s6.16602 -7.83398 5.49902 -12.501l-2 -49c0 -9.33301 -7 -25.666 -21 -48.999c-40 -59.333 -77.5 -127.166 -112.5 -203.499s-63.833 -150.166 -86.5 -221.499s-36.334 -130 -41.001 -176
c-0.666992 -16.667 -7 -25 -19 -25h-132c-6.66699 0 -11.334 2 -14.001 6s-3 9.33301 -1 16c50 184.667 140 379.667 270 585c2 4 3 7 3 9c0 4 -3.66699 6 -11 6h-355c-12.667 0 -18.334 6 -17.001 18l9 89c0.666992 8.66699 7.66699 13 21 13h486z" />
    <glyph glyph-name="eight" unicode="8" horiz-adv-x="678" 
d="M472 725.5c40 -17.667 71.332 -42.1709 93.999 -73.5039s34 -66.666 34 -105.999c0 -29.333 -8 -55.666 -24 -78.999s-40.667 -45.333 -74 -66c-5.33301 -3.33301 -8 -6.33301 -8 -9s2.33301 -5.33398 7 -8.00098c46.667 -23.333 80.334 -49.333 101.001 -78
s31 -62.334 31 -101.001c0 -44 -12.667 -82.167 -38 -114.5s-60.833 -57.166 -106.5 -74.499s-98.167 -26 -157.5 -26c-86 0 -154.667 17 -206 51s-77 81.333 -77 142c0 34.667 8.83301 65.334 26.5 92.001s47.167 52.334 88.5 77.001c6.66699 4 10 7 10 9
c0 2.66699 -3 6 -9 10c-30 19.333 -53.5 41.333 -70.5 66s-25.5 55.334 -25.5 92.001c0 41.333 11 79 33 113s53.333 60.833 94 80.5s87.667 29.5 141 29.5c50.667 0 96 -8.83301 136 -26.5zM244.499 621.996c-25 -20 -37.5 -45.666 -37.5 -76.999c0 -48 27 -78.667 81 -92
l87 -24c2 -0.666992 4.66699 -1 8 -1c12.667 0 26.167 5.83301 40.5 17.5s26.333 26.5 36 44.5s14.5 36 14.5 54c0 31.333 -12.333 57.166 -37 77.499s-57.667 30.5 -99 30.5c-37.333 0 -68.5 -10 -93.5 -30zM446.999 118.497c26 19 38.999 44.8311 38.999 77.498
c0 24.667 -6.83301 44.834 -20.5 60.501s-36.5 27.834 -68.5 36.501l-107 29c-5.33301 1.33301 -9.33301 2 -12 2c-14 0 -29.167 -5.33301 -45.5 -16s-30 -25.167 -41 -43.5s-16.5 -38.5 -16.5 -60.5c0 -36 13.833 -64 41.5 -84s68.834 -30 123.501 -30
c45.333 0 81 9.5 107 28.5z" />
    <glyph glyph-name="nine" unicode="9" horiz-adv-x="675" 
d="M202 9.5c-31.333 12.333 -57.166 27.833 -77.499 46.5s-35.166 38 -44.499 58c-1.33301 4 -2 7 -2 9c0 5.33301 2.66699 9 8 11l91 31l4 1c6 0 10.667 -3.33301 14 -10c14 -20 29.667 -35 47 -45s39 -15 65 -15c54 0 95.667 20 125 60s44 92.667 44 158c0 16 -3 24 -9 24
c-1.33301 0 -5.33301 -1.33301 -12 -4c-29.333 -14 -55.5 -24.5 -78.5 -31.5s-50.167 -10.5 -81.5 -10.5c-50.667 0 -94.834 9.33301 -132.501 28s-66.834 44.667 -87.501 78s-31 71 -31 113c0 46 12.333 87.333 37 124s58.167 65.167 100.5 85.5s89.5 30.5 141.5 30.5
c61.333 0 114.5 -14.667 159.5 -44s79.667 -71.5 104 -126.5s36.5 -120.167 36.5 -195.5c0 -80.667 -13 -150.667 -39 -210s-62.833 -104.833 -110.5 -136.5s-103.167 -47.5 -166.5 -47.5c-38.667 0 -73.667 6.16699 -105 18.5zM395.5 403c26.333 8 47.498 17.667 63.498 29
c6.66699 4.66699 11 9.33398 13 14.001s3 12.334 3 23.001c0 30.667 -5.83301 60 -17.5 88s-28.667 50.833 -51 68.5s-49.166 26.5 -80.499 26.5c-38.667 0 -71 -12.833 -97 -38.5s-39 -57.834 -39 -96.501c0 -36.667 12.333 -66.834 37 -90.501s56.334 -35.5 95.001 -35.5
c22.667 0 47.167 4 73.5 12z" />
    <glyph glyph-name="colon" unicode=":" horiz-adv-x="237" 
d="M190 390c0 -7.33301 -2 -12.667 -6 -16s-10.333 -5 -19 -5h-101c-7.33301 0 -12.5 1.5 -15.5 4.5s-4.5 7.83301 -4.5 14.5v110c0 10.667 4.66699 16 14 16h118c9.33301 0 14 -5 14 -15v-109zM190 23.999c0 -7.33301 -2 -12.667 -6 -16s-10.333 -5 -19 -5h-101
c-7.33301 0 -12.5 1.5 -15.5 4.5s-4.5 7.83301 -4.5 14.5v110c0 10.667 4.66699 16 14 16h118c9.33301 0 14 -4.66699 14 -14v-110z" />
    <glyph glyph-name="semicolon" unicode=";" horiz-adv-x="249" 
d="M48.5 369.5c-3 3 -4.5 7.49902 -4.5 13.499v113c0 10.667 4.66699 16 14 16h118c9.33301 0 14 -4.66699 14 -14v-112c0 -7.33301 -2 -12.666 -6 -15.999s-10.333 -5 -19 -5h-101c-7.33301 0 -12.5 1.5 -15.5 4.5zM43 -148.001c-2 4 -2 8.33301 0 13l47 113
c2 4.66699 3 8.66699 3 12c0 6.66699 -4 10 -12 10h-16c-12.667 0 -19 5.66699 -19 17v114c0 10 4.66699 15 14 15h119c8.66699 0 13 -4.66699 13 -14v-107c0 -5.33301 -1 -10 -3 -14l-89 -149c-8.66699 -10.667 -19 -16 -31 -16h-16c-4.66699 0 -8 2 -10 6z" />
    <glyph glyph-name="less" unicode="&#x3c;" horiz-adv-x="566" 
d="M504 149c0 -6.66699 -1.49902 -11.833 -4.49902 -15.5s-7.16699 -5.5 -12.5 -5.5c-4 0 -8 1 -12 3l-410 159c-12.667 4.66699 -19 12.667 -19 24v77c0 12.667 6.33301 21 19 25l411 161c2.66699 1.33301 6 2 10 2c5.33301 0 9.66602 -1.83301 12.999 -5.5s5 -8.5 5 -14.5
v-65c0 -7.33301 -2.33301 -13.5 -7 -18.5s-12.667 -9.83301 -24 -14.5l-282 -109l282 -107c11.333 -4.66699 19.333 -9.16699 24 -13.5s7 -10.5 7 -18.5v-64z" />
    <glyph glyph-name="equal" unicode="=" horiz-adv-x="574" 
d="M522 442c0 -6.66699 -1.83203 -11.5 -5.49902 -14.5s-9.5 -4.5 -17.5 -4.5h-428c-6.66699 0 -11.334 1.33301 -14.001 4s-4 7 -4 13v63c0 10.667 4.33301 16 13 16h443c8.66699 0 13 -4.66699 13 -14v-63zM522.001 211c0 -13.333 -7.66602 -20 -22.999 -20h-428
c-6.66699 0 -11.334 1.33301 -14.001 4s-4 7 -4 13v63c0 10.667 4.33301 16 13 16h443c8.66699 0 13 -4.66699 13 -14v-62z" />
    <glyph glyph-name="greater" unicode="&#x3e;" horiz-adv-x="566" 
d="M69 231.5c4.66699 4.33301 12.668 8.83203 24.001 13.499l281 107l-281 109c-11.333 4.66699 -19.333 9.5 -24 14.5s-7 11.167 -7 18.5v65c0 6 1.66699 10.833 5 14.5s7.66602 5.5 12.999 5.5c4 0 7.33301 -0.666992 10 -2l411 -161c12.667 -4.66699 19 -13 19 -25v-77
c0 -11.333 -6.33301 -19.333 -19 -24l-411 -159c-4 -2 -7.66699 -3 -11 -3c-5.33301 0 -9.5 1.83301 -12.5 5.5s-4.5 8.83398 -4.5 15.501v64c0 8 2.33301 14.167 7 18.5z" />
    <glyph glyph-name="question" unicode="?" horiz-adv-x="532" 
d="M16 606c21.333 46.667 53.5 82.6631 96.5 107.996s93.5 38 151.5 38c46.667 0 88.167 -7.66699 124.5 -23s64.333 -36.5 84 -63.5s29.5 -56.833 29.5 -89.5c0 -25.333 -4.66699 -48.166 -14 -68.499s-20.666 -38.166 -33.999 -53.499s-31.333 -33.333 -54 -54
c-22 -20 -39.333 -37.167 -52 -51.5s-23.5 -31.166 -32.5 -50.499s-13.5 -40.666 -13.5 -63.999c0 -4.66699 -1.66699 -8.66699 -5 -12s-7.33301 -5 -12 -5h-71c-12 0 -18 6.66699 -18 20c0 30.667 4.83301 58.5 14.5 83.5s21.5 46.5 35.5 64.5s32 38.333 54 61
c24 24.667 42 46 54 64s18 37.667 18 59c0 28 -10.167 50.333 -30.5 67s-46.5 25 -78.5 25c-28.667 0 -56 -8.16699 -82 -24.5s-44.333 -37.5 -55 -63.5c-2 -4 -4.33301 -6.5 -7 -7.5s-6.33398 -1.16699 -11.001 -0.5l-85 22c-8.66699 2.66699 -11 9 -7 19zM321 20.9961
c0 -7.33301 -1.83203 -12.667 -5.49902 -16s-9.83398 -5 -18.501 -5h-102c-12.667 0 -19 6 -19 18v111c0 10.667 4.66699 16 14 16h118c8.66699 0 13 -4.66699 13 -14v-110z" />
    <glyph glyph-name="at" unicode="@" horiz-adv-x="834" 
d="M561.5 -94.5c-39.667 -12.333 -82.835 -18.5049 -129.502 -18.5049c-79.333 0 -148.5 16.667 -207.5 50s-104.167 78.5 -135.5 135.5s-47 120.167 -47 189.5c0 72 17 138.5 51 199.5s82 109.5 144 145.5s133 54 213 54c62.667 0 121.167 -11.5 175.5 -34.5
s98.333 -58.667 132 -107s50.5 -108.5 50.5 -180.5c0 -50 -8.33301 -94.5 -25 -133.5s-39.834 -69.5 -69.501 -91.5s-63.5 -33 -101.5 -33c-26.667 0 -47.667 4.5 -63 13.5s-25.666 20.833 -30.999 35.5c-2 4 -4 6 -6 6c-0.666992 0 -2.66699 -2 -6 -6
c-35.333 -42 -80.666 -63 -135.999 -63c-27.333 0 -52.333 7.16699 -75 21.5s-40.5 34.833 -53.5 61.5s-19.5 57.334 -19.5 92.001c0 41.333 8.33301 79.833 25 115.5s40.167 64.167 70.5 85.5s65.166 32 104.499 32c25.333 0 46.833 -4.83301 64.5 -14.5
s32.834 -23.167 45.501 -40.5c1.33301 -1.33301 2.83301 -1.83301 4.5 -1.5s2.83398 1.83301 3.50098 4.5l5 20c1.33301 4 4.33301 6 9 6h62c5.33301 0 7.66602 -2.33301 6.99902 -7l-36 -216c-2 -10 -3 -18.667 -3 -26c0 -28 12.333 -42 37 -42c18 0 35 6.83301 51 20.5
s28.833 33.667 38.5 60s14.5 57.833 14.5 94.5c0 59.333 -13 107.833 -39 145.5s-59.667 64.834 -101 81.501s-86.666 25 -135.999 25c-70 0 -129.167 -14.333 -177.5 -43s-84.5 -67.5 -108.5 -116.5s-36 -103.5 -36 -163.5c0 -61.333 12.667 -114.833 38 -160.5
s62 -81 110 -106s105.333 -37.5 172 -37.5c38.667 0 69.834 4.33301 93.501 13s50.167 22.334 79.5 41.001c3.33301 2.66699 7.33301 4 12 4c4 0 7 -1.66699 9 -5l27 -37c2 -3.33301 3 -5.66602 3 -6.99902c0 -3.33301 -3.33301 -7.66602 -10 -12.999
c-26.667 -20 -59.834 -36.167 -99.501 -48.5zM336.999 177.495c12.667 -19 30.999 -28.5 54.999 -28.5c30 0 56 12.667 78 38s34.667 55 38 89c0.666992 4 1 10 1 18c0 30 -7.66699 54 -23 72s-34.666 27 -57.999 27c-31.333 0 -57.5 -13.5 -78.5 -40.5
s-31.5 -60.5 -31.5 -100.5c0 -30.667 6.33301 -55.5 19 -74.5z" />
    <glyph glyph-name="A" unicode="A" horiz-adv-x="756" 
d="M37 14c0 2 0.666016 5.66602 1.99902 10.999l252 699c2.66699 6.66699 5.66699 11.334 9 14.001s8.33301 4 15 4h125c14.667 0 24 -6.66699 28 -20l250 -698c1.33301 -4 2 -7 2 -9c0 -4 -1.16699 -7.5 -3.5 -10.5s-5.5 -4.5 -9.5 -4.5h-121
c-9.33301 -0 -15.333 4.33301 -18 13l-58 162c-1.33301 3.33301 -2.66602 5.83301 -3.99902 7.5s-4 2.5 -8 2.5h-261c-6 0 -10 -3 -12 -9l-60 -164c-2 -8 -8 -12 -18 -12h-97c-8.66699 0 -13 4.66699 -13 14zM461.999 297.999c6 0 9 2.66699 9 8c0 3.33301 -0.333008 6 -1 8
l-96 267c-2 4.66699 -4.33301 7 -7 7s-5 -2.66699 -7 -8l-97 -266c-1.33301 -4 -2 -7 -2 -9c0 -4.66699 3.33301 -7 10 -7h191z" />
    <glyph glyph-name="B" unicode="B" horiz-adv-x="715" 
d="M84 4.5c-3.33301 3 -4.99805 6.83105 -4.99805 11.498v707c0 6 1.66699 10.667 5 14s7.66602 5 12.999 5h257c95.333 0 168.166 -16.5 218.499 -49.5s75.5 -81.167 75.5 -144.5c0 -38 -10.167 -70.167 -30.5 -96.5s-53.833 -48.833 -100.5 -67.5
c-2 -0.666992 -3 -2 -3 -4s1 -3.33301 3 -4c50.667 -15.333 88.167 -37.166 112.5 -65.499s36.5 -65.166 36.5 -110.499c0 -133.333 -100.333 -200 -301 -200h-269c-4.66699 0 -8.66699 1.5 -12 4.5zM369.002 426.998c37.333 0 68.667 8.49902 94 25.499s38 43.167 38 78.5
s-12.833 62.333 -38.5 81s-60.5 28 -104.5 28h-114c-6 0 -10.333 -1.16699 -13 -3.5s-4 -6.16602 -4 -11.499v-181c0 -6 1 -10.333 3 -13s5.33301 -4 10 -4h129zM360.003 101.997c50 0 87.834 9.33301 113.501 28s38.5 45.667 38.5 81c0 36.667 -13 64.5 -39 83.5
s-60.667 28.5 -104 28.5h-124c-6.66699 0 -11.334 -1.16699 -14.001 -3.5s-4 -6.5 -4 -12.5v-188c0 -6 1 -10.333 3 -13s5.33301 -4 10 -4h120z" />
    <glyph glyph-name="C" unicode="C" horiz-adv-x="719" 
d="M516.5 723.5c41.667 -19 75.998 -44.833 102.998 -77.5s43.833 -69 50.5 -109c0.666992 -3.33301 1 -7.33301 1 -12c0 -4 -0.833008 -6.66699 -2.5 -8s-4.5 -2.33301 -8.5 -3l-114 -8c-4.66699 0 -7.83398 0.833008 -9.50098 2.5s-3.16699 5.5 -4.5 11.5
c-8 38.667 -24.667 69.5 -50 92.5s-57.666 34.5 -96.999 34.5c-119.333 0 -179 -91.333 -179 -274c0 -92.667 15 -161.167 45 -205.5s75.667 -66.5 137 -66.5c42.667 0 78.5 10.5 107.5 31.5s52.5 54.833 70.5 101.5c2 5.33301 8 7 18 5l85 -18
c3.33301 -1.33301 6 -3.5 8 -6.5s2.33301 -8.16699 1 -15.5c-8 -30 -24.167 -61 -48.5 -93s-57.5 -59.333 -99.5 -82s-91.333 -34 -148 -34c-67.333 0 -126 15.833 -176 47.5s-88.333 76.667 -115 135s-40 125.833 -40 202.5c0 77.333 13.333 144.333 40 201
s64.834 100.167 114.501 130.5s108.167 45.5 175.5 45.5c48.667 0 93.834 -9.5 135.501 -28.5z" />
    <glyph glyph-name="D" unicode="D" horiz-adv-x="741" 
d="M299 741c260.667 -6 391 -128.334 391 -367.001c0 -119.333 -33.5 -211.5 -100.5 -276.5s-166.167 -97.5 -297.5 -97.5h-193c-13.333 0 -20 7 -20 21v703c0 6.66699 1.33301 11.334 4 14.001s7.66699 4 15 4c95.333 0 162.333 -0.333008 201 -1zM227 621.999
l-0.00195312 -503.999c0 -4.66699 1 -7.83398 3 -9.50098s5.33301 -2.5 10 -2.5h25c94 0 162.5 20.667 205.5 62s64.5 110 64.5 206c0 62 -8.66699 111.5 -26 148.5s-43.166 64.167 -77.499 81.5s-79.166 27.333 -134.499 30l-61 2c-6 0 -9 -4.66699 -9 -14z" />
    <glyph glyph-name="E" unicode="E" horiz-adv-x="645" 
d="M94 742h485c8.66699 0 13 -5 13 -15v-76c0 -12.667 -6 -19 -18 -19h-330c-11.333 0 -17 -4.66699 -17 -14v-175c0 -10 4.66699 -15 14 -15h228c10 0 15 -5 15 -15v-81c0 -8 -4.66699 -12 -14 -12h-230c-8.66699 0 -13 -4 -13 -12v-186
c0 -4.66699 0.833008 -7.83398 2.5 -9.50098s4.5 -2.5 8.5 -2.5h350c6 0 10.167 -1 12.5 -3s3.5 -5.66699 3.5 -11v-81c0 -4 -1.33301 -7.5 -4 -10.5s-7 -4.5 -13 -4.5h-489c-6.66699 0 -11.5 1.33301 -14.5 4s-4.5 7.33398 -4.5 14.001v707c0 11.333 5 17 15 17z" />
    <glyph glyph-name="F" unicode="F" horiz-adv-x="621" 
d="M94 742l477 -0.000976562c8.66699 0 13 -5 13 -15l-1 -76c0 -12.667 -5.66699 -19 -17 -19h-322c-11.333 0 -17 -4.66699 -17 -14v-186c0 -10 4.66699 -15 14 -15h234c9.33301 0 14 -4.66699 14 -14v-80c0 -4 -1 -7 -3 -9s-5.66699 -3 -11 -3h-235
c-8.66699 0 -13 -4.33301 -13 -13v-279c0 -6.66699 -1.83301 -11.5 -5.5 -14.5s-9.16699 -4.5 -16.5 -4.5h-107c-7.33301 0 -12.333 1.33301 -15 4s-4 7.33398 -4 14.001v707c0 11.333 5 17 15 17z" />
    <glyph glyph-name="G" unicode="G" horiz-adv-x="747" 
d="M204.5 36.5c-49 31 -86.833 75 -113.5 132s-40 123.5 -40 199.5c0 78 13.833 146 41.5 204s66.667 102.5 117 133.5s108.833 46.5 175.5 46.5c50 0 95.833 -9.83301 137.5 -29.5s75.667 -45.334 102 -77.001s42.833 -65.5 49.5 -101.5l2 -11
c0 -6.66699 -4 -10.667 -12 -12l-111 -17c-5.33301 0 -8.83301 1 -10.5 3s-3.16699 5.66699 -4.5 11c-6 36.667 -23 67.167 -51 91.5s-63 36.5 -105 36.5c-117.333 0 -176 -90.667 -176 -272c0 -96 15.333 -166.333 46 -211s75.334 -67 134.001 -67
c46.667 0 84 13.5 112 40.5s44.667 59.167 50 96.5l1 40c0.666992 1.33301 1 3 1 5c0 5.33301 -3.33301 8 -10 8h-136c-5.33301 0 -9 1 -11 3s-3 6 -3 12v64c0 8 4.66699 12 14 12l260 -1c8 0 14 -1.83301 18 -5.5s6 -8.5 6 -14.5v-342c0 -9.33301 -4.33301 -14 -13 -14h-29
c-6 0 -10.833 1 -14.5 3s-6.83398 6 -9.50098 12l-22 79c-1.33301 2.66699 -2.83301 3.83398 -4.5 3.50098s-3.5 -1.83301 -5.5 -4.5c-50 -68.667 -121 -103 -213 -103c-66 0 -123.5 15.5 -172.5 46.5z" />
    <glyph glyph-name="H" unicode="H" horiz-adv-x="746" 
d="M239 327c-8 0 -12 -3.66699 -12 -11v-296c0 -13.333 -7.66699 -20 -23 -20h-106c-7.33301 0 -12.333 1.5 -15 4.5s-4 7.5 -4 13.5v707c0 11.333 5 17 15 17h119c9.33301 0 14 -5.33301 14 -16v-269c0 -10.667 4.66699 -16 14 -16h264c9.33301 0 14 5 14 15v270
c0 10.667 4.66699 16 14 16h119c10 0 15 -5.66699 15 -17v-707c0 -12 -6.33301 -18 -19 -18h-106c-8 0 -13.833 1.5 -17.5 4.5s-5.5 8.16699 -5.5 15.5v296c0 7.33301 -4 11 -12 11h-268z" />
    <glyph glyph-name="I" unicode="I" horiz-adv-x="306" 
d="M213 742c9.33301 0 14.001 -5.33398 14.001 -16.001v-704c0 -8 -1.83301 -13.667 -5.5 -17s-9.83398 -5 -18.501 -5h-104c-8 0 -13.333 1.33301 -16 4s-4 7.33398 -4 14.001v707c0 11.333 5 17 15 17h119z" />
    <glyph glyph-name="J" unicode="J" horiz-adv-x="437" 
d="M316.5 36c-31 -30.667 -79.167 -45.999 -144.5 -45.999c-20.667 0 -39.667 1.5 -57 4.5s-37.333 7.5 -60 13.5c-7.33301 1.33301 -12.5 4.16602 -15.5 8.49902s-4.16699 10.833 -3.5 19.5l9 78c1.33301 11.333 7 16 17 14l25.5 -8.5c13 -4.33301 28.167 -6.5 45.5 -6.5
c28.667 0 49.5 7.83301 62.5 23.5s19.5 42.834 19.5 81.501v507c0 11.333 5 17 15 17h119c9.33301 0 14 -5.33301 14 -16v-544c0 -66.667 -15.5 -115.334 -46.5 -146.001z" />
    <glyph glyph-name="K" unicode="K" horiz-adv-x="729" 
d="M695 11c0 -7.33301 -4.33203 -11.001 -12.999 -11.001h-126c-12.667 0 -21 4.33301 -25 13l-182 334c-2 3.33301 -4.33301 5 -7 5s-6 -2.66699 -10 -8l-98 -115c-4.66699 -4.66699 -7 -11.334 -7 -20.001v-189c0 -13.333 -7.66699 -20 -23 -20h-105
c-7.33301 0 -12.5 1.33301 -15.5 4s-4.5 7.33398 -4.5 14.001v708c0 4.66699 1.33301 8.5 4 11.5s6 4.5 10 4.5h120c9.33301 0 14 -5 14 -15v-322c0 -6 1.33301 -9 4 -9c1.33301 0 3.66602 1.66699 6.99902 5l272 327c4 5.33301 7.83301 9 11.5 11s9.5 3 17.5 3h102
c4.66699 0 8.66699 -1 12 -3s5 -4.66699 5 -8s-1.33301 -6.33301 -4 -9l-206 -237c-2.66699 -3.33301 -4 -6.66602 -4 -9.99902c0 -2.66699 1 -6 3 -10l245 -444c2 -4 3 -7.33301 3 -10z" />
    <glyph glyph-name="L" unicode="L" horiz-adv-x="619" 
d="M94 742l119 0.000976562c9.33301 0 14 -5.33301 14 -16v-604c0 -4.66699 0.833008 -7.83398 2.5 -9.50098s4.5 -2.5 8.5 -2.5h328c10.667 0 16 -4.66699 16 -14v-81c0 -4 -1.33301 -7.5 -4 -10.5s-7 -4.5 -13 -4.5h-467c-7.33301 0 -12.333 1.5 -15 4.5s-4 7.5 -4 13.5
v707c0 11.333 5 17 15 17z" />
    <glyph glyph-name="M" unicode="M" horiz-adv-x="934" 
d="M84 5.5c-3.33301 3.66699 -4.99707 8.49805 -4.99707 14.498v705c0 6 1.16699 10.333 3.5 13s6.5 4 12.5 4h169c6.66699 0 11.5 -1 14.5 -3s5.16699 -5.66699 6.5 -11l176 -472c2 -5.33301 4.33301 -8 7 -8s5 3 7 9l171 466c3.33301 12.667 10 19 20 19h175
c9.33301 0 14 -5.33301 14 -16v-705c0 -7.33301 -1.66699 -12.666 -5 -15.999s-9 -5 -17 -5h-107c-6.66699 0 -11.5 1.33301 -14.5 4s-4.5 7.33398 -4.5 14.001v523c0 4 -1 6 -3 6c-0.666992 0 -2.33398 -2.33301 -5.00098 -7l-190 -525
c-2.66699 -10 -9.33398 -15 -20.001 -15h-71c-10.667 0 -18 5 -22 15l-188 519c-0.666992 4.66699 -2.33398 7 -5.00098 7c-2 0 -3 -2.66699 -3 -8v-517c0 -6 -1.16699 -10.167 -3.5 -12.5s-6.83301 -3.5 -13.5 -3.5h-85c-6 -0 -10.667 1.83301 -14 5.5z" />
    <glyph glyph-name="N" unicode="N" horiz-adv-x="758" 
d="M667 742c4.66699 0 7.83203 -1 9.49902 -3s2.5 -5.66699 2.5 -11v-713c0 -10 -5.66699 -15 -17 -15h-83c-5.33301 0 -9.66602 0.666992 -12.999 2s-7 4.33301 -11 9l-342 486c-2.66699 4 -5.16699 5.83301 -7.5 5.5s-3.5 -2.5 -3.5 -6.5v-480v-3
c0 -8.66699 -5.66699 -13 -17 -13h-88c-12 -0 -18 5.33301 -18 16v709c0 11.333 5.33301 17 16 17h100c6.66699 0 11.667 -0.833008 15 -2.5s7 -5.16699 11 -10.5l322 -464c2.66699 -4.66699 5.66699 -7 9 -7c4 0 6 3.33301 6 10v458c0 10.667 5.33301 16 16 16h93z" />
    <glyph glyph-name="O" unicode="O" horiz-adv-x="770" 
d="M208 35c-50 30 -88.5 73.501 -115.5 130.501s-40.5 124.5 -40.5 202.5c0 79.333 13.667 147.833 41 205.5s66 101.834 116 132.501s109 46 177 46c67.333 0 126 -15.333 176 -46s88.667 -74.834 116 -132.501s41 -125.834 41 -204.501c0 -78 -13.5 -145.5 -40.5 -202.5
s-65.5 -100.667 -115.5 -131s-109 -45.5 -177 -45.5c-68.667 0 -128 15 -178 45zM521 161.001c28.667 43.333 43 112 43 206c0 96 -14.5 166.667 -43.5 212s-73.833 68 -134.5 68s-105.834 -22.667 -135.501 -68s-44.5 -116 -44.5 -212c0 -94 14.667 -162.667 44 -206
s75 -65 137 -65c60.667 0 105.334 21.667 134.001 65z" />
    <glyph glyph-name="P" unicode="P" horiz-adv-x="706" 
d="M589.5 351c-49 -38.667 -114.167 -58 -195.5 -58h-157c-6.66699 0 -10 -3.33301 -10 -10v-263c0 -13.333 -7.33301 -20 -22 -20h-108c-12 0 -18 6 -18 18v707c0 11.333 5 17 15 17h283c84.667 0 153.5 -19 206.5 -57s79.5 -94.333 79.5 -169
c0 -71.333 -24.5 -126.333 -73.5 -165zM473 606.5c-25.333 19 -60 28.5 -104 28.5h-125c-11.333 0 -17 -5.33301 -17 -16v-202c0 -6 1 -10.333 3 -13s5.33301 -4 10 -4h135c42 0 75.167 10.167 99.5 30.5s36.5 49.833 36.5 88.5c0 39.333 -12.667 68.5 -38 87.5z" />
    <glyph glyph-name="Q" unicode="Q" horiz-adv-x="772" 
d="M92.5 574c27 57.333 65.6689 101.331 116.002 131.998s109.5 46 177.5 46s127 -15.333 177 -46s88.5 -74.667 115.5 -132s40.5 -125.666 40.5 -204.999c0 -141.333 -42 -244.666 -126 -309.999c-2 -1.33301 -3 -4 -3 -8c0 -7.33301 5.5 -15.833 16.5 -25.5
s25.167 -18.667 42.5 -27s35 -13.833 53 -16.5c8.66699 -1.33301 13 -5.66602 13 -12.999v-71c0 -9.33301 -2.33301 -15.5 -7 -18.5s-13.334 -4.5 -26.001 -4.5c-78.667 0 -147.334 39 -206.001 117c-3.33301 4.66699 -8.33301 6 -15 4c-24 -4 -49 -6 -75 -6
c-68 0 -127.167 14.833 -177.5 44.5s-89 73 -116 130s-40.5 125.167 -40.5 204.5s13.5 147.666 40.5 204.999zM250.002 160.998c29.333 -43.333 74.666 -65.001 135.999 -65.001s106.5 21.833 135.5 65.5s43.5 112.5 43.5 206.5c0 94.667 -14.667 164.834 -44 210.501
s-74.333 68.5 -135 68.5c-61.333 0 -106.666 -22.833 -135.999 -68.5s-44 -116.167 -44 -211.5c0 -94 14.667 -162.667 44 -206z" />
    <glyph glyph-name="R" unicode="R" horiz-adv-x="713" 
d="M658 15c0 -4 -1.33301 -7.50098 -4 -10.501s-6.33398 -4.5 -11.001 -4.5h-122c-5.33301 0 -9.5 1.16699 -12.5 3.5s-5.5 6.5 -7.5 12.5l-115 292c-2 4.66699 -5 8 -9 10s-10 3 -18 3h-120c-8 0 -12 -3.66699 -12 -11v-289c0 -7.33301 -1.83301 -12.666 -5.5 -15.999
s-9.5 -5 -17.5 -5h-106c-7.33301 0 -12.333 1.5 -15 4.5s-4 7.5 -4 13.5v707c0 11.333 5 17 15 17h301c86 0 152.667 -17.333 200 -52s71 -84 71 -148c0 -50 -13.333 -91.667 -40 -125s-60 -57 -100 -71c-5.33301 -2 -6.66602 -6.33301 -3.99902 -13l134 -309
c1.33301 -2 2 -5 2 -9zM513 530.999c0 36 -11.166 63.332 -33.499 81.999s-53.5 28 -93.5 28h-141c-6.66699 0 -11.334 -1 -14.001 -3s-4 -5.66699 -4 -11v-189c0 -5.33301 1 -9.16602 3 -11.499s5.33301 -3.5 10 -3.5h134c92.667 0 139 36 139 108z" />
    <glyph glyph-name="S" unicode="S" horiz-adv-x="665" 
d="M434 628.5c-24 11.667 -54.668 17.499 -92.001 17.499c-44 0 -77.833 -8.5 -101.5 -25.5s-35.5 -40.167 -35.5 -69.5c0 -40.667 29.667 -70.334 89 -89.001l154 -46c115.333 -34.667 173 -103 173 -205c0 -44.667 -11.667 -83.667 -35 -117s-56.5 -59 -99.5 -77
s-93.833 -27 -152.5 -27c-65.333 0 -123.666 11.167 -174.999 33.5s-90.333 53.833 -117 94.5c-2.66699 6.66699 -4 10.667 -4 12c0 5.33301 3.33301 10.333 10 15l63 44c7.33301 4 13 6 17 6c5.33301 0 9.66602 -2.33301 12.999 -7c26 -34 52.167 -58 78.5 -72
s61.5 -21 105.5 -21c48 0 85.667 8 113 24s41 40.333 41 73c0 21.333 -6.83301 39.333 -20.5 54s-37.834 27.667 -72.501 39l-151 46c-55.333 16.667 -97.666 43.167 -126.999 79.5s-44 77.166 -44 122.499c0 42.667 11.333 80.5 34 113.5s54.834 58.833 96.501 77.5
s89.834 28 144.501 28c52.667 0 101.167 -9.16699 145.5 -27.5s79.5 -43.5 105.5 -75.5c4 -5.33301 6 -9.66602 6 -12.999s-2 -6.66602 -6 -9.99902l-71 -53c-2.66699 -2 -5.33398 -3 -8.00098 -3c-3.33301 0 -8 3.33301 -14 10c-18 20.667 -39 36.834 -63 48.501z" />
    <glyph glyph-name="T" unicode="T" horiz-adv-x="669" 
d="M36 726c0 10.667 5.66699 15.999 17 15.999h562c11.333 0 17 -5.33301 17 -16v-78c0 -9.33301 -5.33301 -14 -16 -14h-192c-4 0 -6.83301 -0.666992 -8.5 -2s-2.5 -4 -2.5 -8v-607c0 -11.333 -5 -17 -15 -17h-119c-9.33301 0 -14 5.33301 -14 16v606
c0 4.66699 -0.833008 7.83398 -2.5 9.50098s-4.5 2.5 -8.5 2.5h-201c-6 0 -10.333 1 -13 3s-4 5.66699 -4 11v78z" />
    <glyph glyph-name="U" unicode="U" horiz-adv-x="717" 
d="M572.5 55c-49 -43.333 -120.5 -65 -214.5 -65c-102 0 -175.5 24.167 -220.5 72.5s-67.5 121.833 -67.5 220.5v441c0 6 1.33301 10.5 4 13.5s6 4.5 10 4.5h120c9.33301 0 14 -5.33301 14 -16v-465c0 -56 12.667 -97.167 38 -123.5s63 -39.5 113 -39.5
c103.333 0 155 55.333 155 166v461c0 11.333 4.66699 17 14 17h95c8.66699 0 13 -5.33301 13 -16v-461c0 -96.667 -24.5 -166.667 -73.5 -210z" />
    <glyph glyph-name="V" unicode="V" horiz-adv-x="724" 
d="M686 736c2.66699 -4 2.99902 -8.66602 0.999023 -13.999l-245 -703c-4 -12.667 -13.333 -19 -28 -19h-105c-15.333 0 -25 6 -29 18l-242 703c-0.666992 1.33301 -1 3.66602 -1 6.99902c0 4 1.33301 7.33301 4 10s6.33398 4 11.001 4h119c10 0 16.333 -5 19 -15l179 -540
c2 -5.33301 4 -8 6 -8c2.66699 0 5 3 7 9l177 539c3.33301 10 10 15 20 15h94c6 0 10.333 -2 13 -6z" />
    <glyph glyph-name="W" unicode="W" horiz-adv-x="1071" 
d="M1029.5 735c3.66699 -4.66699 4.50391 -11 2.50391 -19l-205 -697c-4 -12.667 -13 -19 -27 -19h-92c-14.667 0 -24 6 -28 18l-138 482c-0.666992 6 -2 9 -4 9s-4 -3.33301 -6 -10l-139 -480c-2 -6.66699 -5.16699 -11.5 -9.5 -14.5s-10.5 -4.5 -18.5 -4.5h-94
c-14.667 0 -24 6 -28 18l-203 697l-2 9c0 5.33301 2 9.66602 6 12.999s9.33301 5 16 5h104c7.33301 0 12.666 -1.16699 15.999 -3.5s5.66602 -6.16602 6.99902 -11.499l141 -499c2 -7.33301 4 -11 6 -11s4 3 6 9l141 501c2 5.33301 4.66699 9.16602 8 11.499
s8.66602 3.5 15.999 3.5h90c7.33301 0 12.666 -1.16699 15.999 -3.5s5.66602 -6.16602 6.99902 -11.499l143 -504c2 -5.33301 4 -8 6 -8c2.66699 0 4.33398 2.33301 5.00098 7l140 505c2 10 10 15 24 15h76c8 0 13.833 -2.33301 17.5 -7z" />
    <glyph glyph-name="X" unicode="X" horiz-adv-x="715" 
d="M679 11c0 -7.33301 -6.33496 -10.999 -19.002 -10.999h-117c-12.667 0 -21.334 4.33301 -26.001 13l-158 247c-5.33301 8 -9.33301 12 -12 12c-4 0 -8.33301 -4.33301 -13 -13l-156 -246c-4 -8.66699 -13.333 -13 -28 -13h-95c-12.667 0 -19 3.33301 -19 10
c0 6 3.33301 13.667 10 23l217 329c4 6 6 10.667 6 14c0 4 -2.33301 9.33301 -7 16l-215 327c-2 3.33301 -3 7 -3 11c0 3.33301 1.16699 6.16602 3.5 8.49902s5.5 3.5 9.5 3.5h124c7.33301 0 12.833 -1 16.5 -3s6.83398 -5.66699 9.50098 -11l142 -225
c2.66699 -4.66699 5.66699 -7 9 -7c4 0 7.66699 2.66699 11 8l142 224c2.66699 5.33301 5.83398 9 9.50098 11s8.83398 3 15.501 3h105c8.66699 0 13 -3 13 -9c0 -3.33301 -1.66699 -7.33301 -5 -12l-208 -315c-3.33301 -5.33301 -5 -9.66602 -5 -12.999
c0 -2.66699 1.66699 -7.33398 5 -14.001l229 -346c6 -10 9 -17.333 9 -22z" />
    <glyph glyph-name="Y" unicode="Y" horiz-adv-x="715" 
d="M680 733c0 -2.66699 -0.99707 -5.66504 -2.99707 -8.99805l-236 -390c-3.33301 -4.66699 -5.33301 -9.5 -6 -14.5s-1 -15.167 -1 -30.5v-267c0 -8 -1.83301 -13.667 -5.5 -17s-10.167 -5 -19.5 -5h-103c-7.33301 0 -12.5 1.5 -15.5 4.5s-4.5 7.83301 -4.5 14.5v272
c0 7.33301 -0.666992 13.166 -2 17.499s-4 9.83301 -8 16.5l-238 396c-2.66699 3.33301 -4 6.66602 -4 9.99902c0 7.33301 5.66699 11 17 11h123c7.33301 0 12.666 -1 15.999 -3s7 -6.33301 11 -13l161 -281c4 -7.33301 7.33301 -11 10 -11c2 0 5.33301 3.33301 10 10
l159 282c3.33301 6.66699 6.66602 11 9.99902 13s8.66602 3 15.999 3h100c8.66699 0 13 -3 13 -9z" />
    <glyph glyph-name="Z" unicode="Z" horiz-adv-x="664" 
d="M43 3.5c-2.66699 2.33301 -3.99902 6.83301 -3.99902 13.5v32c0 6.66699 0.833008 12 2.5 16s5.83398 10.667 12.501 20l357 535c2 3.33301 3 5.66602 3 6.99902c0 3.33301 -3.33301 5 -10 5h-327c-6 0 -10 1.16699 -12 3.5s-3 6.5 -3 12.5v80c0 9.33301 4 14 12 14h535
c8.66699 0 13 -4.66699 13 -14v-36c0 -5.33301 -0.833008 -9.66602 -2.5 -12.999s-4.83398 -8.33301 -9.50098 -15l-365 -542l-2 -5c0 -4 3.33301 -6 10 -6h351c10 0 15 -4.33301 15 -13v-83c0 -4 -1.33301 -7.5 -4 -10.5s-7 -4.5 -13 -4.5h-545
c-6.66699 0 -11.334 1.16699 -14.001 3.5z" />
    <glyph glyph-name="bracketleft" unicode="[" horiz-adv-x="306" 
d="M90 742l190 0.000976562c7.33301 0 11 -3 11 -9v-57c0 -6.66699 -3.66699 -10 -11 -10h-82c-11.333 0 -17 -6.33301 -17 -19v-721c0 -6.66699 1 -10.834 3 -12.501s5.66699 -2.5 11 -2.5h82c9.33301 0 14 -4 14 -12v-50c0 -9.33301 -4.66699 -14 -14 -14h-184
c-13.333 0 -20 6 -20 18l-1 874c0 10 6 15 18 15z" />
    <glyph glyph-name="backslash" unicode="\" horiz-adv-x="357" 
d="M263 -22c-4 2.66699 -7.33301 7.33301 -10 14l-244 727l-2 12c0 7.33301 4.66699 11 14 11h59c10 0 16 -4.33301 18 -13l250 -742c0.666992 -1.33301 1 -3 1 -5c0 -5.33301 -4 -8 -12 -8h-59c-6 0 -11 1.33301 -15 4z" />
    <glyph glyph-name="bracketright" unicode="]" horiz-adv-x="306" 
d="M233 -147c0 -12 -6.66699 -18.001 -20 -18.001h-184c-9.33301 0 -14 4.66699 -14 14v50c0 8 4.66699 12 14 12h82c6 0 9.83301 0.833008 11.5 2.5s2.5 5.83398 2.5 12.501v721c0 12.667 -5.66699 19 -17 19h-82c-7.33301 0 -11 3.33301 -11 10v57c0 6 3.66699 9 11 9h190
c12 0 18 -5 18 -15z" />
    <glyph glyph-name="asciicircum" unicode="^" horiz-adv-x="475" 
d="M245 382c-2 5.33301 -4.66504 8.00195 -7.99805 8.00195c-4 0 -7 -2.66699 -9 -8l-99 -246c-2 -5.33301 -8.33301 -8 -19 -8h-60c-4.66699 0 -7.83398 1.66699 -9.50098 5s-1.5 7.66602 0.5 12.999l150 358c4.66699 11.333 11.167 20.166 19.5 26.499
s17.166 9.5 26.499 9.5s18 -3 26 -9s14.333 -14.667 19 -26l151 -362c0.666992 -2 1 -4.33301 1 -7c0 -6 -4 -9 -12 -9h-58c-11.333 0 -18 3 -20 9z" />
    <glyph glyph-name="underscore" unicode="_" horiz-adv-x="535" 
d="M482 -115c0 -6.66699 -1.83203 -11.5 -5.49902 -14.5s-9.5 -4.5 -17.5 -4.5l-388 -1c-6.66699 0 -11.334 1.33301 -14.001 4s-4 7 -4 13v64c0 10.667 4.33301 16 13 16h403c8.66699 0 13 -4.66699 13 -14v-63z" />
    <glyph glyph-name="grave" unicode="`" horiz-adv-x="299" 
d="M38.5 750.5c3 1.66699 6.16699 1.83301 9.5 0.5l234 -98c7.33301 -3.33301 9 -9.33301 5 -18l-10 -31c-2.66699 -6.66699 -7 -10 -13 -10c-3.33301 0 -6 0.333008 -8 1l-231 65c-10 3.33301 -15 8.33301 -15 15l2 8l20 60c1.33301 3.33301 3.5 5.83301 6.5 7.5z" />
    <glyph glyph-name="a" unicode="a" horiz-adv-x="558" 
d="M196 -10c-50.667 0 -90.8301 13.502 -120.497 40.502s-44.5 62.167 -44.5 105.5c0 55.333 24.667 99.333 74 132s118.333 50.667 207 54l50 3c10.667 1.33301 16 6.33301 16 15v23c0 29.333 -8.83301 52.166 -26.5 68.499s-41.834 24.5 -72.501 24.5
c-50.667 0 -89.667 -22 -117 -66c-2 -2.66699 -3.83301 -4.83398 -5.5 -6.50098s-3.83398 -2.5 -6.50098 -2.5c-3.33301 0 -6 0.333008 -8 1l-84 21c-5.33301 1.33301 -8 4.33301 -8 9c0 3.33301 1.33301 7.66602 4 12.999c17.333 37.333 45.833 65.833 85.5 85.5
s88.167 29.5 145.5 29.5c74.667 0 129.5 -14.667 164.5 -44s52.5 -70.666 52.5 -123.999v-352c0 -7.33301 -1.16699 -12.5 -3.5 -15.5s-6.83301 -4.5 -13.5 -4.5h-85c-6 0 -10.333 2 -13 6s-4.66699 10 -6 18l-1 30c-0.666992 6 -3 9 -7 9c-2 0 -6.33301 -2.66699 -13 -8
c-46.667 -43.333 -101.334 -65 -164.001 -65zM374.504 255.002c-2.33301 2.66699 -6.16602 4.00098 -11.499 4.00098l-41 -3c-46.667 -3.33301 -85.5 -13.833 -116.5 -31.5s-46.5 -41.834 -46.5 -72.501c0 -22.667 8.16699 -40.667 24.5 -54s38.166 -20 65.499 -20
c34.667 0 65 10.667 91 32c25.333 20 38 40.333 38 61v71c0 6 -1.16699 10.333 -3.5 13z" />
    <glyph glyph-name="b" unicode="b" horiz-adv-x="606" 
d="M83 0c-7.33301 0 -12.501 1.5 -15.501 4.5s-4.5 8.16699 -4.5 15.5v705c0 11.333 5 17 15 17h101c9.33301 0 14 -5.66699 14 -17v-237c0 -8 2 -12 6 -12c2 0 5.33301 1.66699 10 5c42.667 39.333 91.667 59 147 59c68 0 120.167 -24.833 156.5 -74.5
s54.5 -115.5 54.5 -197.5c0 -86 -20 -153.833 -60 -203.5s-96 -74.5 -168 -74.5c-36 0 -67.333 7.83301 -94 23.5s-48.667 34.5 -66 56.5c-2 3.33301 -4 5 -6 5s-3.66699 -2.66699 -5 -8l-10 -48c-1.33301 -6.66699 -3.66602 -11.5 -6.99902 -14.5s-8 -4.5 -14 -4.5h-54z
M192.999 182c0 -31.333 11.3301 -57.5 33.9971 -78.5s49.334 -31.5 80.001 -31.5c39.333 0 70.333 15.833 93 47.5s34 80.5 34 146.5c0 126 -40.667 189 -122 189c-23.333 0 -45.166 -5.5 -65.499 -16.5s-38.166 -25.833 -53.499 -44.5v-212z" />
    <glyph glyph-name="c" unicode="c" horiz-adv-x="548" 
d="M437 499c37.333 -27.333 63.999 -61.0029 79.999 -101.003l2 -9c0 -5.33301 -4 -8.66602 -12 -9.99902l-88 -11l-4 -1c-4.66699 0 -8 3.33301 -10 10c-16 26 -31.167 45.167 -45.5 57.5s-33.5 18.5 -57.5 18.5c-41.333 0 -74 -16.333 -98 -49s-36 -79 -36 -139
c0 -61.333 12.333 -108.166 37 -140.499s59 -48.5 103 -48.5c28.667 0 52.667 7.33301 72 22s38 37 56 67c2 2.66699 4.16699 4.33398 6.5 5.00098s5.5 0.333984 9.5 -0.999023l63 -17c6.66699 -2 8.66699 -7.66699 6 -17c-16.667 -38.667 -43.667 -72.5 -81 -101.5
s-85 -43.5 -143 -43.5c-50 0 -94.833 11.5 -134.5 34.5s-70.667 55.167 -93 96.5s-33.5 88.666 -33.5 141.999c0 54 11.333 102 34 144s53.834 74.667 93.501 98s84.167 35 133.5 35c56 0 102.667 -13.667 140 -41z" />
    <glyph glyph-name="d" unicode="d" horiz-adv-x="606" 
d="M415 18v33c0 6 -1.66699 9 -5 9c-2 0 -4.66699 -1.66699 -8 -5c-19.333 -18.667 -40.833 -34.167 -64.5 -46.5s-52.5 -18.5 -86.5 -18.5c-41.333 0 -78 10.167 -110 30.5s-57.167 50.666 -75.5 90.999s-27.5 89.833 -27.5 148.5c0 54.667 9.83301 103.334 29.5 146.001
s46.5 75.667 80.5 99s72 35 114 35c28 0 52.5 -4.5 73.5 -13.5s41.167 -22.167 60.5 -39.5c3.33301 -3.33301 7 -5 11 -5s6 4.33301 6 13v231c0 10.667 4.66699 16 14 16h101c10 0 15 -5.66699 15 -17v-706c0 -6.66699 -1.5 -11.5 -4.5 -14.5s-8.5 -4.5 -16.5 -4.5h-88
c-12.667 0 -19 6 -19 18zM360.5 440.5c-17 9 -36.167 13.499 -57.5 13.499c-40 0 -72.167 -16.167 -96.5 -48.5s-36.5 -80.166 -36.5 -143.499c0 -64 11.833 -111.333 35.5 -142s55.167 -46 94.5 -46c20.667 0 39.667 4.83301 57 14.5s31 22.167 41 37.5s15 31 15 47v226
c-18 18.667 -35.5 32.5 -52.5 41.5z" />
    <glyph glyph-name="e" unicode="e" horiz-adv-x="584" 
d="M190 150.5c12.667 -21.667 30.167 -38.668 52.5 -51.001s46.833 -18.5 73.5 -18.5c27.333 0 52.166 5.83301 74.499 17.5s43.5 29.834 63.5 54.501c3.33301 3.33301 6 5 8 5s5 -1 9 -3l61 -27c4.66699 -2 7 -5 7 -9c0 -2 -1.33301 -5 -4 -9
c-30 -43.333 -63.167 -74.166 -99.5 -92.499s-81.166 -27.5 -134.499 -27.5c-50.667 0 -96.167 11.333 -136.5 34s-71.833 54.334 -94.5 95.001s-34 87 -34 139c0 56 11.667 105.333 35 148s55 75.667 95 99s84.333 35 133 35c50 0 94.167 -11 132.5 -33
s68 -53.833 89 -95.5s31.5 -91.167 31.5 -148.5v-4c0 -6.66699 -1 -11.334 -3 -14.001s-6.33301 -4.33398 -13 -5.00098h-354c-7.33301 0 -11 -5.33301 -11 -16c0 -27.333 6.33301 -51.833 19 -73.5zM408 313.999c6.66699 0 11.1631 0.833984 13.4961 2.50098
s3.5 5.5 3.5 11.5c0 21.333 -4.66699 42 -14 62s-23.166 36.333 -41.499 49s-40.166 19 -65.499 19c-39.333 0 -71.166 -13.833 -95.499 -41.5s-36.166 -61.834 -35.499 -102.501h235z" />
    <glyph glyph-name="f" unicode="f" horiz-adv-x="394" 
d="M373 515v-63c0 -8.66699 -5 -13 -15 -13h-93c-6.66699 0 -10 -3.33301 -10 -10v-412c0 -11.333 -5 -17 -15 -17h-101c-9.33301 -0 -14 5.33301 -14 16v414c0 6 -2.33301 9 -7 9h-81c-10 0 -15 4.33301 -15 13v63c0 10 5.33301 15 16 15h76c7.33301 0 11 4.33301 11 13v65
c0 42.667 12 75.667 36 99s58 35 102 35h95c12.667 0 19 -6 19 -18l1 -56c0 -4 -1.16699 -7.33301 -3.5 -10s-5.83301 -4 -10.5 -4h-59c-17.333 0 -30.5 -5.83301 -39.5 -17.5s-13.5 -27.167 -13.5 -46.5v-50c0 -6.66699 3.66699 -10 11 -10h94c10.667 0 16 -5 16 -15z" />
    <glyph glyph-name="g" unicode="g" horiz-adv-x="622" 
d="M599 528l-0.00195312 -56.002c0 -16.667 -7.33301 -24 -22 -22c-5.33301 0.666992 -12.666 1 -21.999 1c-10 0 -19 -1 -27 -3c-17.333 -4 -24 -11.667 -20 -23c4 -10.667 7 -19.5 9 -26.5s3 -15.833 3 -26.5c0 -30.667 -8.83301 -58.334 -26.5 -83.001
s-44 -44.167 -79 -58.5s-77.5 -21.5 -127.5 -21.5c-41.333 0 -71.166 -3.33301 -89.499 -10s-27.5 -15.667 -27.5 -27c0 -9.33301 5.5 -16 16.5 -20s29.5 -6.66699 55.5 -8l138 -8c63.333 -3.33301 110.5 -17.5 141.5 -42.5s46.5 -58.5 46.5 -100.5
c0 -51.333 -23.833 -92.166 -71.5 -122.499s-115.5 -45.5 -203.5 -45.5c-92.667 0 -162.5 11.167 -209.5 33.5s-70.5 55.5 -70.5 99.5c0 22 8.16699 41.167 24.5 57.5s39.833 30.833 70.5 43.5c4 1.33301 6 3 6 5s-2 4 -6 6c-36 16 -54 38.667 -54 68
c0 17.333 8.33301 33.333 25 48s38.667 27.334 66 38.001c4.66699 2.66699 7 4.66699 7 6c0 2 -2 4 -6 6c-62 29.333 -93 74.333 -93 135c0 51.333 21.167 92 63.5 122s102.5 45 180.5 45c67.333 0 119.333 -15 156 -45c4.66699 -3.33301 9 -5 13 -5c4.66699 0 9 2 13 6
c12 14.667 27.833 27.334 47.5 38.001s37.167 16 52.5 16c13.333 0 20 -6.66699 20 -20zM371.998 301.998c19.333 16.667 29 39.332 29 67.999c0 30.667 -9.66699 54.834 -29 72.501s-48 26.5 -86 26.5c-36 0 -64.167 -9 -84.5 -27s-30.5 -42 -30.5 -72
c0 -28 10.167 -50.5 30.5 -67.5s48.5 -25.5 84.5 -25.5c38 0 66.667 8.33301 86 25zM206.998 41.9961c-20 1.33301 -39.167 -4.66895 -57.5 -18.002s-27.5 -29.666 -27.5 -48.999c0 -27.333 14.5 -48 43.5 -62s74.833 -21 137.5 -21c48.667 0 85.667 6.83301 111 20.5
s38 33.5 38 59.5c0 38.667 -28.667 59.334 -86 62.001z" />
    <glyph glyph-name="h" unicode="h" horiz-adv-x="592" 
d="M63 18l0.000976562 706.999c0 11.333 5 17 15 17h99c8.66699 0 13 -5 13 -15v-260c0 -4 1 -6.33301 3 -7s4.66699 0.333008 8 3c33.333 28 63.166 47.833 89.499 59.5s54.833 17.5 85.5 17.5c51.333 0 90.666 -13.833 117.999 -41.5s41 -66.167 41 -115.5v-362
c0 -14 -7 -21 -21 -21h-92c-6.66699 0 -11.167 1.33301 -13.5 4s-3.5 7.33398 -3.5 14.001v344c0 26 -7 46.167 -21 60.5s-34.667 21.5 -62 21.5c-23.333 0 -44.666 -5.33301 -63.999 -16s-41 -28 -65 -52v-356c0 -7.33301 -1.66699 -12.5 -5 -15.5s-9 -4.5 -17 -4.5h-89
c-12.667 0 -19 6 -19 18z" />
    <glyph glyph-name="i" unicode="i" horiz-adv-x="256" 
d="M195 628c0 -8 -1.83301 -13.833 -5.5 -17.5s-9.83398 -5.5 -18.501 -5.5h-91c-7.33301 0 -12.333 1.66699 -15 5s-4 8.33301 -4 15v98c0 12.667 5.33301 19 16 19h103c4.66699 0 8.33398 -1.5 11.001 -4.5s4 -7.16699 4 -12.5v-97zM193 22
c0 -8 -1.83203 -13.668 -5.49902 -17.001s-9.83398 -5 -18.501 -5h-87c-7.33301 0 -12.333 1.33301 -15 4s-4 7.33398 -4 14.001v495c0 11.333 5 17 15 17h101c9.33301 0 14 -5.33301 14 -16v-492z" />
    <glyph glyph-name="j" unicode="j" horiz-adv-x="256" 
d="M196 628c0 -8 -1.83203 -13.833 -5.49902 -17.5s-9.83398 -5.5 -18.501 -5.5h-91c-13.333 0 -20 6.66699 -20 20v98c0 6 1.5 10.667 4.5 14s7.16699 5 12.5 5h102c4.66699 0 8.5 -1.5 11.5 -4.5s4.5 -7.16699 4.5 -12.5v-97zM153.501 -130
c-26.333 -26.667 -68.833 -39.998 -127.5 -39.998c-28.667 0 -47 1.16699 -55 3.5s-12 7.16602 -12 14.499v67c0 4 1.16699 7.66699 3.5 11s5.5 5.33301 9.5 6l46 4c16 1.33301 27.5 6.66602 34.5 15.999s10.5 25.333 10.5 48v513c0 11.333 5.33301 17 16 17h101
c8.66699 0 13 -5.33301 13 -16v-520c0 -56 -13.167 -97.333 -39.5 -124z" />
    <glyph glyph-name="k" unicode="k" horiz-adv-x="590" 
d="M569 12c0 -8 -5 -12.002 -15 -12.002h-110c-10.667 0 -18.667 6 -24 18l-120 224c-2 5.33301 -4.33301 8 -7 8c-2 0 -4.66699 -1.66699 -8 -5l-83 -82c-6 -4.66699 -9 -12.334 -9 -23.001v-118c0 -8.66699 -1.66699 -14.5 -5 -17.5s-9.33301 -4.5 -18 -4.5h-87
c-7.33301 0 -12.5 1.33301 -15.5 4s-4.5 7.33398 -4.5 14.001v707c0 11.333 5 17 15 17h101c9.33301 0 14 -5.33301 14 -16v-429c0 -5.33301 1.33301 -8 4 -8s5.33398 1.66699 8.00098 5l208 222c9.33301 9.33301 17.666 14 24.999 14h91c10 0 15 -3.33301 15 -10
c0 -3.33301 -2 -7.66602 -6 -12.999l-147 -148c-3.33301 -4.66699 -5 -8.66699 -5 -12s1.33301 -7.66602 4 -12.999l176 -313c2 -2.66699 3 -5.66699 3 -9z" />
    <glyph glyph-name="l" unicode="l" horiz-adv-x="257" 
d="M193 22c0 -8.66699 -1.66699 -14.501 -5 -17.501s-9.33301 -4.5 -18 -4.5h-88c-7.33301 0 -12.5 1.33301 -15.5 4s-4.5 7.33398 -4.5 14.001l3 707c0 11.333 5 17 15 17h99c9.33301 0 14 -5.33301 14 -16v-704z" />
    <glyph glyph-name="m" unicode="m" horiz-adv-x="914" 
d="M67 4c-2.66699 2.66699 -4 7.33301 -4 14v495c0 11.333 4.66699 17 14 17h99c9.33301 0 14 -5 14 -15v-52c0 -4 1 -6.33301 3 -7s4.66699 0.333008 8 3c30 27.333 58.333 47.833 85 61.5s55 20.5 85 20.5c36 0 66.333 -8.5 91 -25.5s41.667 -39.167 51 -66.5
c1.33301 -2 3 -3 5 -3c2.66699 0 5.66699 1.66699 9 5c59.333 59.333 118.333 89 177 89c47.333 0 84.666 -14 111.999 -42s41 -66.667 41 -116v-361c0 -14 -7 -21 -21 -21h-92c-6 -0 -10.333 1.33301 -13 4s-4 7.33398 -4 14.001v344c0 26 -6.66699 46.167 -20 60.5
s-32.666 21.5 -57.999 21.5c-20.667 0 -40.667 -5.5 -60 -16.5s-36.666 -24.167 -51.999 -39.5c-8 -8.66699 -12 -18.334 -12 -29.001v-338c0 -14 -7 -21 -21 -21h-92c-11.333 0 -17 6 -17 18v344c0 26 -6.5 46.167 -19.5 60.5s-32.5 21.5 -58.5 21.5
c-22 0 -42.5 -5.33301 -61.5 -16s-39.833 -28 -62.5 -52v-356c0 -7.33301 -1.66699 -12.5 -5 -15.5s-9.33301 -4.5 -18 -4.5h-89c-6.66699 -0 -11.334 1.33301 -14.001 4z" />
    <glyph glyph-name="n" unicode="n" horiz-adv-x="592" 
d="M67 4c-2.66699 2.66699 -3.99902 7.33301 -3.99902 14v495c0 11.333 4.66699 17 14 17h100c8.66699 0 13 -5 13 -15v-52c0 -4 1 -6.33301 3 -7s4.66699 0.333008 8 3c31.333 27.333 60.5 47.666 87.5 60.999s56.167 20 87.5 20c49.333 0 88.166 -14.167 116.499 -42.5
s42.5 -65.833 42.5 -112.5v-364c0 -14 -7 -21 -21 -21h-92c-6.66699 0 -11.167 1.33301 -13.5 4s-3.5 7.33398 -3.5 14.001v344c0 26 -7.16699 46.167 -21.5 60.5s-35.166 21.5 -62.499 21.5c-23.333 0 -44.5 -5.33301 -63.5 -16s-40.5 -28 -64.5 -52v-356
c0 -7.33301 -1.66699 -12.5 -5 -15.5s-9.33301 -4.5 -18 -4.5h-89c-6.66699 -0 -11.334 1.33301 -14.001 4z" />
    <glyph glyph-name="o" unicode="o" horiz-adv-x="599" 
d="M162 24.5c-40 23 -71 55.167 -93 96.5s-33 88.333 -33 141c0 54 11.333 102.167 34 144.5s54 75.166 94 98.499s85.333 35 136 35c51.333 0 97 -11.833 137 -35.5s71 -56.5 93 -98.5s33 -89.667 33 -143c0 -52.667 -11.167 -99.667 -33.5 -141
s-53.5 -73.666 -93.5 -96.999s-85.667 -35 -137 -35s-97 11.5 -137 34.5zM397.5 127c22.333 32 33.5 78 33.5 138c0 60.667 -11.333 107.334 -34 140.001s-55 49 -97 49s-74.5 -16.333 -97.5 -49s-34.5 -79.334 -34.5 -140.001c0 -60 11.5 -106 34.5 -138s55.5 -48 97.5 -48
c42.667 0 75.167 16 97.5 48z" />
    <glyph glyph-name="p" unicode="p" horiz-adv-x="605" 
d="M193 512l-0.00195312 -34c0 -5.33301 1.66699 -8 5 -8c2 0 4.66699 1.66699 8 5c21.333 20 42.833 35.833 64.5 47.5s50.167 17.5 85.5 17.5c40.667 0 76.834 -10 108.501 -30s56.5 -50.167 74.5 -90.5s27 -89.833 27 -148.5c0 -91.333 -20 -161 -60 -209
s-93 -72 -159 -72c-53.333 0 -98.666 17 -135.999 51c-6.66699 5.33301 -11 8 -13 8c-3.33301 0 -5 -4.66699 -5 -14v-184c0 -10.667 -4.66699 -16 -14 -16h-102c-9.33301 0 -14 5.33301 -14 16v659c0 7.33301 1.5 12.5 4.5 15.5s8.16699 4.5 15.5 4.5h91
c12.667 0 19 -6 19 -18zM301.998 75c41.333 0 73.667 16.167 97 48.5s35 81.833 35 148.5c0 64 -11.5 110.5 -34.5 139.5s-54.167 43.5 -93.5 43.5c-21.333 0 -40.666 -4.5 -57.999 -13.5s-30.833 -20.5 -40.5 -34.5s-14.5 -28.667 -14.5 -44v-233
c33.333 -36.667 69.666 -55 108.999 -55z" />
    <glyph glyph-name="q" unicode="q" horiz-adv-x="606" 
d="M523 530c7.33301 0 12.5 -1.50195 15.5 -4.50195s4.5 -8.16699 4.5 -15.5v-658c0 -11.333 -5 -17 -15 -17h-101c-9.33301 0 -14 5.33301 -14 16v180c0 9.33301 -1.66699 14 -5 14c-2 0 -5.66699 -1.66699 -11 -5c-42.667 -33.333 -89 -50 -139 -50
c-68 0 -121.667 24.5 -161 73.5s-59 116.5 -59 202.5c0 54.667 9 102.834 27 144.501s44 73.834 78 96.501s74.333 34 121 34c40 0 72.833 -7.33301 98.5 -22s48.167 -33 67.5 -55c3.33301 -3.33301 5.33301 -5 6 -5c2 0 4 2.66699 6 8l10 44c2 6.66699 4.5 11.5 7.5 14.5
s7.5 4.5 13.5 4.5h50zM413 347.998c0 30.667 -10.666 56.832 -31.999 78.499s-48.333 32.5 -81 32.5c-38.667 0 -70 -16.167 -94 -48.5s-36 -80.166 -36 -143.499c0 -64 11.667 -112.167 35 -144.5s54.666 -48.5 93.999 -48.5c21.333 0 42 4.66699 62 14s37.333 22 52 38
v222z" />
    <glyph glyph-name="r" unicode="r" horiz-adv-x="411" 
d="M63 18l0.000976562 495c0 11.333 4.66699 17 14 17h97c9.33301 0 14 -5 14 -15v-61c0 -5.33301 1.66699 -8 5 -8c2 0 4.66699 1.66699 8 5c22 28 46.333 49.833 73 65.5s52.667 23.5 78 23.5c24 0 36 -5.33301 36 -16v-96c0 -9.33301 -4.33301 -13.333 -13 -12
c-18.667 4.66699 -39.334 7 -62.001 7c-17.333 0 -35.5 -4.66699 -54.5 -14s-34.667 -21.5 -47 -36.5s-18.5 -30.5 -18.5 -46.5v-306c0 -13.333 -7.66699 -20 -23 -20h-89c-12 0 -18 6 -18 18z" />
    <glyph glyph-name="s" unicode="s" horiz-adv-x="524" 
d="M335 442c-21.333 10.667 -46.002 15.998 -74.002 15.998c-29.333 0 -53.5 -6 -72.5 -18s-28.5 -27.667 -28.5 -47c0 -11.333 4.66699 -21.5 14 -30.5s26.333 -16.833 51 -23.5l119 -32c50 -12.667 86.667 -32 110 -58s35 -57 35 -93c0 -34 -9.83301 -63.5 -29.5 -88.5
s-47 -44.167 -82 -57.5s-74.833 -20 -119.5 -20c-55.333 0 -103.666 10.167 -144.999 30.5s-70.666 46.833 -87.999 79.5c-2.66699 5.33301 -4 9 -4 11c0 4 2 7.33301 6 10l59 30c4.66699 2.66699 8.66699 4 12 4c2.66699 0 5.66699 -1.66699 9 -5
c16 -22.667 35.5 -40.667 58.5 -54s52.833 -20 89.5 -20c34 0 61.833 5.83301 83.5 17.5s32.5 27.834 32.5 48.501c0 14 -5.83301 25.833 -17.5 35.5s-31.834 18.167 -60.501 25.5l-102 24c-50.667 12 -87.834 30 -111.501 54s-35.5 54.667 -35.5 92
c0 32.667 8.83301 61.667 26.5 87s43 45 76 59s71.5 21 115.5 21c47.333 0 89.333 -8.83301 126 -26.5s63.667 -40.167 81 -67.5c3.33301 -5.33301 5 -9.66602 5 -12.999s-1.66699 -6 -5 -8l-62 -31c-4 -1.33301 -6.33301 -2 -7 -2c-5.33301 0 -9.66602 2.33301 -12.999 7
c-13.333 18 -30.666 32.333 -51.999 43z" />
    <glyph glyph-name="t" unicode="t" horiz-adv-x="417" 
d="M257 439c-6.66699 0 -9.99902 -3.66797 -9.99902 -11.001v-267c0 -25.333 5.16699 -43.166 15.5 -53.499s27.166 -15.5 50.499 -15.5h59c4 0 7.33301 -1.33301 10 -4s4 -6 4 -10l-1 -52c0 -11.333 -6.33301 -18 -19 -20c-24 -4 -60.667 -6 -110 -6
c-45.333 0 -79.833 10.5 -103.5 31.5s-35.5 52.833 -35.5 95.5v299c0 8.66699 -4 13 -12 13h-67c-10.667 0 -16 5 -16 15v63c0 8.66699 5 13 15 13h74c6 0 9 3.33301 9 10l13 154c0.666992 6 2 10.167 4 12.5s5.33301 3.5 10 3.5h89c4 0 7.33301 -1.5 10 -4.5
s4 -7.16699 4 -12.5v-153c0 -6 3 -9 9 -9h113c10 0 15 -4.66699 15 -14v-63c0 -10 -5.66699 -15 -17 -15h-113z" />
    <glyph glyph-name="u" unicode="u" horiz-adv-x="588" 
d="M395 154v355.999c0 13.333 7.66699 20 23 20h90c12 0 18 -6.33301 18 -19l-2 -495c0 -10.667 -4.66699 -16 -14 -16h-98c-9.33301 0 -14 5 -14 15v53c0 3.33301 -1 5.33301 -3 6s-4.33301 -0.333008 -7 -3c-30.667 -29.333 -59.834 -50.166 -87.501 -62.499
s-57.167 -18.5 -88.5 -18.5c-45.333 0 -82.5 14.333 -111.5 43s-43.5 67 -43.5 115v361c0 14 7 21 21 21h92c6 0 10.333 -1.5 13 -4.5s4 -7.83301 4 -14.5v-341c0 -26 7.33301 -46.667 22 -62s34.334 -23 59.001 -23c40.667 0 83 23 127 69z" />
    <glyph glyph-name="v" unicode="v" horiz-adv-x="564" 
d="M539.5 524c2.33301 -4 2.49805 -8.66602 0.498047 -13.999l-199 -491c-3.33301 -6.66699 -7.16602 -11.5 -11.499 -14.5s-10.166 -4.5 -17.499 -4.5h-59c-8 0 -14.167 1.5 -18.5 4.5s-8.16602 7.5 -11.499 13.5l-199 491c-0.666992 1.33301 -1 3.66602 -1 6.99902
c0 4 1.33301 7.33301 4 10s6.33398 4 11.001 4h105c10 0 16.667 -5 20 -15l129 -328c2 -6.66699 4.33301 -10 7 -10s5.66699 3.66699 9 11l128 328c3.33301 9.33301 9.66602 14 18.999 14h73c5.33301 0 9.16602 -2 11.499 -6z" />
    <glyph glyph-name="w" unicode="w" horiz-adv-x="811" 
d="M784 524c2.66699 -4 3.00098 -8.66602 1.00098 -13.999l-160 -495c-2.66699 -10 -9.33398 -15 -20.001 -15h-71c-12 0 -20 5.66699 -24 17l-97 309c-2 6 -4.33301 9 -7 9s-5 -3 -7 -9l-96 -311c-1.33301 -5.33301 -3.5 -9.16602 -6.5 -11.499s-7.5 -3.5 -13.5 -3.5h-74
c-12.667 0 -20.334 5.66699 -23.001 17l-160 492c-0.666992 1.33301 -1 3.66602 -1 6.99902c0 4 1.33301 7.33301 4 10s6.33398 4 11.001 4h97c5.33301 0 9.83301 -1.33301 13.5 -4s5.83398 -6.33398 6.50098 -11.001l100 -319c0.666992 -2.66699 1.5 -5 2.5 -7
s2.16699 -3 3.5 -3c3.33301 0 6 3.66699 8 11l97 319c3.33301 9.33301 9.66602 14 18.999 14h72c9.33301 0 15.666 -5 18.999 -15l99 -319c2 -6.66699 4.33301 -10 7 -10s5 3.66699 7 11l97 319c1.33301 4 3.83301 7.33301 7.5 10s7.83398 4 12.501 4h64
c5.33301 0 9.33301 -2 12 -6z" />
    <glyph glyph-name="x" unicode="x" horiz-adv-x="575" 
d="M554 8c0 -5.33301 -5.66602 -8 -16.999 -8h-108c-13.333 -0 -23 4.33301 -29 13l-116 163c-4.66699 6.66699 -8.33398 10 -11.001 10s-6.33398 -3.33301 -11.001 -10l-119 -163c-6 -8.66699 -15.667 -13 -29 -13h-70c-14 -0 -21 4.33301 -21 13c0 4 3.66699 11.333 11 22
l170 218c4 5.33301 6 9.33301 6 12c0 4 -2.33301 9.33301 -7 16l-166 225c-2.66699 2.66699 -4 6.33398 -4 11.001c0 4 1.5 7.16699 4.5 9.5s7.16699 3.5 12.5 3.5h103c7.33301 0 12.833 -1 16.5 -3s7.5 -5.33301 11.5 -10l107 -150c3.33301 -4 6 -6 8 -6
c2.66699 0 5.33398 2 8.00098 6l103 150c3.33301 4.66699 7 8 11 10s9.66699 3 17 3h77c10 0 15 -3 15 -9c0 -2.66699 -1.66699 -6.33398 -5 -11.001l-156 -210c-4 -4.66699 -6 -9 -6 -13c0 -2.66699 2.33301 -7.66699 7 -15l176 -243c7.33301 -9.33301 11 -16.333 11 -21z
" />
    <glyph glyph-name="y" unicode="y" horiz-adv-x="554" 
d="M58 -162c-8.66699 2 -12.998 6.66895 -12.998 14.002v64c0 10 9.66699 15 29 15h66c21.333 0 39.666 9 54.999 27s23 37 23 57c0 6.66699 -1 13 -3 19l-192 474c-0.666992 1.33301 -1 3.66602 -1 6.99902c0 4 1.5 7.5 4.5 10.5s6.83301 4.5 11.5 4.5h104
c4.66699 0 8.83398 -1.33301 12.501 -4s6.16699 -6.33398 7.5 -11.001l124 -329c2 -6 4.66699 -9 8 -9s6.33301 3.66699 9 11l123 328c4.66699 9.33301 11 14 19 14h73c5.33301 0 9.16602 -2.16699 11.499 -6.5s2.5 -8.83301 0.5 -13.5l-210 -526
c-16.667 -40.667 -34.5 -71.667 -53.5 -93s-41 -36 -66 -44s-56.833 -12 -95.5 -12c-22.667 0 -38.334 1 -47.001 3z" />
    <glyph glyph-name="z" unicode="z" horiz-adv-x="506" 
d="M30 3.5c-2.66699 2.33301 -3.99902 6.83594 -3.99902 13.5029v36c0 7.33301 1 13.166 3 17.499s6.33301 10.833 13 19.5l260 344c2 3.33301 3 5.66602 3 6.99902c0 3.33301 -3.33301 5 -10 5h-231c-6 0 -10.167 1 -12.5 3s-3.5 6.33301 -3.5 13v54
c0 9.33301 4.33301 14 13 14h399c8.66699 0 13 -4.33301 13 -13v-40c0 -10.667 -4.33301 -21.667 -13 -33l-263 -345c-2.66699 -2.66699 -4 -5.33398 -4 -8.00098c0 -4 3 -6 9 -6h259c10 0 15 -4.33301 15 -13v-56c0 -10.667 -5.66699 -16 -17 -16h-415
c-6.66699 0 -11.334 1.16699 -14.001 3.5z" />
    <glyph glyph-name="braceleft" unicode="{" horiz-adv-x="345" 
d="M160 711c29.333 20.667 64.335 31 105.002 31h54c7.33301 0 11 -3 11 -9v-57c0 -6.66699 -3.66699 -10 -11 -10h-30c-26 0 -43.167 -4.5 -51.5 -13.5s-12.5 -22.167 -12.5 -39.5v-209c-0.666992 -34 -11.334 -60 -32.001 -78s-45.334 -28.333 -74.001 -31
c-4 -0.666992 -6.16699 -1.83398 -6.5 -3.50098s1.83398 -2.83398 6.50098 -3.50098c29.333 -2.66699 54.166 -12.5 74.499 -29.5s30.833 -44.5 31.5 -82.5v-211c0 -19.333 4.5 -33.166 13.5 -41.499s25.833 -12.5 50.5 -12.5h28c8.66699 0 13 -4 13 -12v-50
c0 -5.33301 -1 -9 -3 -11s-5.33301 -3 -10 -3h-50c-42.667 0 -78.5 10.333 -107.5 31s-43.5 49.334 -43.5 86.001v213c0 26 -9.16699 47.833 -27.5 65.5s-44.833 26.5 -79.5 26.5c-6 0 -9 4.66699 -9 14v42c0 9.33301 3 14 9 14c71.333 0 107 31.667 107 95v204
c0 36 14.667 64.333 44 85z" />
    <glyph glyph-name="bar" unicode="|" horiz-adv-x="255" 
d="M98 -165c-6.66699 0 -11.333 1.66797 -14 5.00098s-4 8.66602 -4 15.999l-1 973c0 12 5.66699 18 17 18h63c11.333 0 17 -5 17 -15v-983c0 -9.33301 -5 -14 -15 -14h-63z" />
    <glyph glyph-name="braceright" unicode="}" horiz-adv-x="345" 
d="M229 422c0 -63.333 35.6689 -95 107.002 -95c6 0 9 -4.66699 9 -14v-42c0 -9.33301 -3 -14 -9 -14c-34.667 0 -61.167 -8.83301 -79.5 -26.5s-27.5 -39.5 -27.5 -65.5v-213c0 -36.667 -14.5 -65.334 -43.5 -86.001s-64.833 -31 -107.5 -31h-50c-4.66699 0 -8 1 -10 3
s-3 5.66699 -3 11v50c0 8 4.33301 12 13 12h28c24.667 0 41.5 4.16699 50.5 12.5s13.5 22.166 13.5 41.499v211c0.666992 38 11.167 65.5 31.5 82.5s45.166 26.833 74.499 29.5c4.66699 0.666992 6.83398 1.83398 6.50098 3.50098s-2.5 2.83398 -6.5 3.50098
c-28.667 2.66699 -53.334 13 -74.001 31s-31.334 44 -32.001 78v209c0 17.333 -4.16699 30.5 -12.5 39.5s-25.5 13.5 -51.5 13.5h-30c-7.33301 0 -11 3.33301 -11 10v57c0 6 3.66699 9 11 9h54c40.667 0 75.667 -10.333 105 -31s44 -49 44 -85v-204z" />
    <glyph glyph-name="asciitilde" unicode="~" horiz-adv-x="595" 
d="M476.5 320.5c-23.667 -12.333 -49.501 -18.499 -77.501 -18.499c-19.333 0 -36.5 2.66699 -51.5 8s-33.167 13.333 -54.5 24c-18 9.33301 -33.333 16.333 -46 21s-26 7 -40 7c-22 0 -40.833 -5 -56.5 -15s-32.5 -24.333 -50.5 -43
c-2.66699 -2.66699 -5.33398 -4 -8.00098 -4s-5 1.66699 -7 5l-27 47c-1.33301 2.66699 -2 5 -2 7c0 3.33301 2.66699 7.66602 8 12.999c26 24.667 49.333 43 70 55s45 18 73 18c18.667 0 35.834 -2.83301 51.501 -8.5s33.167 -13.5 52.5 -23.5
c18.667 -9.33301 34.167 -16.166 46.5 -20.499s25.5 -6.5 39.5 -6.5c38.667 0 70.334 17.333 95.001 52c4 4 7.33301 6 10 6c4 0 8 -3 12 -9l22 -40c1.33301 -4 2 -6.66699 2 -8c0 -4.66699 -1.66699 -9.33398 -5 -14.001c-14 -22.667 -32.833 -40.167 -56.5 -52.5z" />
    <glyph glyph-name="uni00A0" unicode="&#xa0;" horiz-adv-x="212" 
 />
    <glyph glyph-name="exclamdown" unicode="&#xa1;" horiz-adv-x="257" 
d="M188 385l-118 -0.000976562c-9.33301 0 -14 5.33301 -14 16v111c0 6 1.5 10.5 4.5 13.5s8.16699 4.5 15.5 4.5h101c8.66699 0 15 -1.66699 19 -5s6 -8.66602 6 -15.999v-110c0 -9.33301 -4.66699 -14 -14 -14zM205 -153.001c0 -3.33301 -1.33398 -6.16699 -4.00098 -8.5
s-5.66699 -3.5 -9 -3.5h-125c-4 0 -7.16699 1.33301 -9.5 4s-3.16602 6.66699 -2.49902 12l32 448c1.33301 6 3 10.333 5 13s6.33301 4 13 4h45c8 0 13.667 -1.5 17 -4.5s5.33301 -8.16699 6 -15.5l32 -447v-2z" />
    <glyph glyph-name="cent" unicode="&#xa2;" horiz-adv-x="558" 
d="M521 246c-14.667 -32.667 -36.999 -62.5049 -66.999 -89.5049s-67.667 -44.5 -113 -52.5v-82c0 -14.667 -7.66699 -22 -23 -22h-45c-13.333 0 -20 6.66699 -20 20v84c-42.667 6.66699 -80.5 22.167 -113.5 46.5s-58.5 55.666 -76.5 93.999s-27 81.5 -27 129.5
c0 48.667 9.16699 92.5 27.5 131.5s44 70.833 77 95.5s70.5 40.334 112.5 47.001v74c0 7.33301 1.66699 12.5 5 15.5s8.66602 4.5 15.999 4.5h48c12.667 0 19 -6 19 -18v-76c44 -7.33301 80.833 -23.666 110.5 -48.999s51.5 -55.333 65.5 -90l2 -9
c0 -5.33301 -4 -8.66602 -12 -9.99902l-88 -11l-4 -1c-4.66699 0 -8 3.33301 -10 10c-16 26 -31.167 45.167 -45.5 57.5s-33.5 18.5 -57.5 18.5c-41.333 0 -74 -16.333 -98 -49s-36 -79 -36 -139c0 -61.333 12.333 -108.166 37 -140.499s59 -48.5 103 -48.5
c28.667 0 52.667 7.33301 72 22s38 37 56 67c2 2.66699 4.16699 4.33398 6.5 5.00098s5.5 0.333984 9.5 -0.999023l63 -17c6.66699 -2 8.66699 -7.66699 6 -17z" />
    <glyph glyph-name="sterling" unicode="&#xa3;" horiz-adv-x="635" 
d="M12 15l0.00488281 81.999c0 8 4 12 12 12h24c27.333 -0.666992 49.166 8.83301 65.499 28.5s24.5 49.5 24.5 89.5c0 22.667 -3.33301 60.667 -10 114c-0.666992 6 -3.66699 9 -9 9h-87c-6 0 -9 3.33301 -9 10v55c0 6 3 9 9 9h70c6.66699 0 9.66699 3.66699 9 11l-11 79
c-2 14 -3 27 -3 39c0 41.333 10.333 77 31 107s48.167 52.833 82.5 68.5s72.166 23.5 113.499 23.5c48 0 93 -11.333 135 -34s71.667 -54.334 89 -95.001l1 -4c0 -4.66699 -3.33301 -8 -10 -10l-87 -27c-1.33301 -0.666992 -3.66602 -1 -6.99902 -1c-5.33301 0 -9 2 -11 6
c-18.667 40 -49.334 60 -92.001 60c-28 0 -51.167 -8.66699 -69.5 -26s-27.5 -41 -27.5 -71c0 -28 5.66699 -66.667 17 -116c1.33301 -6 5 -9 11 -9h138c6 0 9 -3 9 -9v-57c0 -6 -3 -9 -9 -9h-126c-6 0 -9 -3 -9 -9c1.33301 -24 2 -40.667 2 -50c0 -18 -1 -35.667 -3 -53
c-4 -48.667 -19.667 -87.667 -47 -117c-3.33301 -3.33301 -5 -5.66602 -5 -6.99902c0 -2.66699 2.66699 -4 8 -4h138c31.333 0 56.166 5.33301 74.499 16s32.5 28.667 42.5 54c3.33301 8 9.66602 10.667 18.999 8l78 -17c11.333 -3.33301 15.666 -9.33301 12.999 -18
c-14 -49.333 -40.167 -87.166 -78.5 -113.499s-84.833 -39.5 -139.5 -39.5h-352c-9.33301 0 -14 5 -14 15z" />
    <glyph glyph-name="currency" unicode="&#xa4;" horiz-adv-x="562" 
d="M169 192c-3.33301 2 -5.66406 3 -6.99707 3c-2.66699 0 -5.33398 -1.33301 -8.00098 -4l-49 -50c-4 -2.66699 -7.33301 -4 -10 -4c-2 0 -5.33301 1.66699 -10 5l-38 38c-2.66699 2.66699 -4 5.66699 -4 9s1.33301 6.33301 4 9l50 50c2.66699 2.66699 4 5.33398 4 8.00098
c0 3.33301 -1 6.33301 -3 9c-20 33.333 -30 69 -30 107c0 40 10.333 77 31 111l2 8c0 2.66699 -1.33301 5 -4 7l-49 49c-2.66699 4 -4 7.33301 -4 10c0 2 1.33301 5 4 9l38 39c3.33301 3.33301 6.66602 5 9.99902 5s6.33301 -1.66699 9 -5l50 -50c2 -2 4.33301 -3 7 -3l8 2
c34.667 20.667 71 31 109 31c41.333 0 79.333 -10.667 114 -32c5.33301 -3.33301 9.33301 -3 12 1l51 50c3.33301 4 7 4 11 0l44 -46c4 -4 4 -8 0 -12l-50 -50c-2.66699 -2.66699 -3 -6.33398 -1 -11.001c22 -34.667 33 -72 33 -112c0 -20.667 -2.83301 -40.667 -8.5 -60
s-14.167 -36.666 -25.5 -51.999c-1.33301 -4.66699 -1 -7.66699 1 -9l51 -52c4 -4 4.33301 -8 1 -12l-45 -45c-4 -4 -7.66699 -4 -11 0l-50 50c-4 3.33301 -7.66699 3.66602 -11 0.999023c-36.667 -22.667 -74.334 -34 -113.001 -34c-42 0 -79.667 10.667 -113 32z
M344.002 266.5c18.667 11.667 33.5 27 44.5 46s16.5 39.167 16.5 60.5s-5.5 41.5 -16.5 60.5s-25.833 34.333 -44.5 46s-39.667 17.5 -63 17.5c-22.667 0 -43.5 -5.83301 -62.5 -17.5s-34 -27 -45 -46s-16.5 -39.167 -16.5 -60.5s5.5 -41.5 16.5 -60.5s26 -34.333 45 -46
s39.833 -17.5 62.5 -17.5c23.333 0 44.333 5.83301 63 17.5z" />
    <glyph glyph-name="yen" unicode="&#xa5;" horiz-adv-x="641" 
d="M646 732c0 -2 -0.996094 -4.66602 -2.99609 -7.99902l-227 -371h125c8.66699 0 13 -4.66699 13 -14v-40c0 -6.66699 -1.83301 -11.5 -5.5 -14.5s-9.5 -4.5 -17.5 -4.5h-131v-84h141c8.66699 0 13 -4.33301 13 -13v-41c0 -6.66699 -1.83301 -11.5 -5.5 -14.5
s-9.5 -4.5 -17.5 -4.5h-131v-101c0 -8 -1.83301 -13.667 -5.5 -17s-10.167 -5 -19.5 -5h-103c-7.33301 0 -12.5 1.5 -15.5 4.5s-4.5 7.83301 -4.5 14.5v104h-136c-6.66699 0 -11.334 1.33301 -14.001 4s-4 7 -4 13v40c0 10.667 4.33301 16 13 16h141v83h-136
c-6.66699 0 -11.334 1.5 -14.001 4.5s-4 7.5 -4 13.5v40c0 10.667 4.33301 16 13 16h115l-221 368c-2.66699 3.33301 -4 6.66602 -4 9.99902c0 7.33301 5.66699 11 17 11h125c7.33301 0 12.5 -1 15.5 -3s6.5 -6.33301 10.5 -13l161 -281c3.33301 -6.66699 6 -10 8 -10
c3.33301 0 6.33301 3 9 9l161 282c3.33301 6.66699 6.66602 11 9.99902 13s8.66602 3 15.999 3h98c9.33301 0 14 -3.33301 14 -10z" />
    <glyph glyph-name="brokenbar" unicode="&#xa6;" horiz-adv-x="255" 
d="M98 432c-6.66699 0 -11.332 1.66797 -13.999 5.00098s-4 8.66602 -4 15.999l-1 376c0 12 5.66699 18 17 18h63c11.333 0 17 -5 17 -15v-387c0 -4 -1.33301 -7.16699 -4 -9.5s-6.33398 -3.5 -11.001 -3.5h-63zM98.002 -164.999c-6.66699 0 -11.333 1.66797 -14 5.00098
s-4 8.66602 -4 15.999l-1 377c0 11.333 5.66699 17 17 17h63c11.333 0 17 -5 17 -15v-386c0 -9.33301 -5 -14 -15 -14h-63z" />
    <glyph glyph-name="section" unicode="&#xa7;" horiz-adv-x="500" 
d="M448.5 155c15 -20.667 22.5 -44.668 22.5 -72.001c0 -31.333 -8.5 -59.166 -25.5 -83.499s-41.667 -43.333 -74 -57s-70.833 -20.5 -115.5 -20.5c-52 0 -97.833 9.66699 -137.5 29s-67.834 44 -84.501 74c-3.33301 5.33301 -5 10 -5 14
c0 3.33301 1.66699 5.66602 5 6.99902l62 31c4 1.33301 6.66699 2 8 2c4 0 8 -2.33301 12 -7c34 -44.667 80 -67 138 -67c30 0 54.167 5.33301 72.5 16s27.5 26 27.5 46c0 16 -6.5 30.167 -19.5 42.5s-35.5 24.833 -67.5 37.5l-83 31c-52 20 -89.5 42.333 -112.5 67
s-34.5 55.334 -34.5 92.001c0 30.667 8.33301 57.667 25 81s39.667 41 69 53c-33.333 18.667 -56.5 38.167 -69.5 58.5s-19.5 43.5 -19.5 69.5c0 28.667 8.33301 54.667 25 78s40.167 41.666 70.5 54.999s65.833 20 106.5 20c45.333 0 85.833 -9 121.5 -27
s61.834 -40.333 78.501 -67c3.33301 -5.33301 5 -9.66602 5 -12.999c0 -2 -1.66699 -4.66699 -5 -8l-61 -30c-2.66699 -2 -5.66699 -3 -9 -3c-2.66699 0 -7 2.33301 -13 7c-34 39.333 -71.333 59 -112 59c-28 0 -50 -5.33301 -66 -16s-24 -24.667 -24 -42
c0 -13.333 5 -25.333 15 -36s28 -21 54 -31l79 -31c56 -22 96.333 -46 121 -72s37 -58.333 37 -97c0 -57.333 -28.667 -101.333 -86 -132c31.333 -18 54.5 -37.333 69.5 -58zM336 273.499c14 13 21 29.167 21 48.5c0 18.667 -5.33301 34.667 -16 48s-32.667 26.333 -66 39
l-49 20c-24.667 -2.66699 -44.5 -11 -59.5 -25s-22.5 -30.333 -22.5 -49c0 -16.667 5.5 -30.167 16.5 -40.5s33.167 -22.5 66.5 -36.5l55 -22c22 -1.33301 40 4.5 54 17.5z" />
    <glyph glyph-name="dieresis" unicode="&#xa8;" horiz-adv-x="322" 
d="M128 637c0 -6.66699 -1.66797 -11.333 -5.00098 -14s-8.66602 -4 -15.999 -4h-80c-6.66699 0 -11.167 1.33301 -13.5 4s-3.5 6.66699 -3.5 12v91c0 10.667 4.33301 16 13 16h92c8.66699 0 13 -4.66699 13 -14v-91zM311.999 637.001c0 -6.66699 -1.66699 -11.333 -5 -14
s-9 -4 -17 -4h-79c-6.66699 0 -11.167 1.16699 -13.5 3.5s-3.5 6.5 -3.5 12.5v91c0 10.667 4.33301 16 13 16h92c8.66699 0 13 -4.66699 13 -14v-91z" />
    <glyph glyph-name="copyright" unicode="&#xa9;" horiz-adv-x="830" 
d="M223.5 41c-58.333 34 -104.5 80.167 -138.5 138.5s-51 122.166 -51 191.499c0 68.667 17 132.167 51 190.5s80.167 104.666 138.5 138.999s122.166 51.5 191.499 51.5c68.667 0 132.167 -17.167 190.5 -51.5s104.666 -80.666 138.999 -138.999s51.5 -121.833 51.5 -190.5
c0 -69.333 -17.167 -133.166 -51.5 -191.499s-80.666 -104.5 -138.999 -138.5s-121.833 -51 -190.5 -51c-69.333 0 -133.166 17 -191.499 51zM567 103.5c45.333 25 81 60.667 107 107s39 99.833 39 160.5c0 60 -13 113.167 -39 159.5s-61.667 82.333 -107 108
s-96 38.5 -152 38.5c-57.333 0 -108.666 -12.833 -153.999 -38.5s-80.666 -61.667 -105.999 -108s-38 -99.5 -38 -159.5c0 -60.667 12.667 -114.167 38 -160.5s60.666 -82 105.999 -107s96.666 -37.5 153.999 -37.5c56 0 106.667 12.5 152 37.5zM525 554
c28.667 -22 49.999 -48.9971 63.999 -80.9971c0.666992 -1.33301 1 -3 1 -5c0 -4.66699 -3 -7.66699 -9 -9l-71 -10h-3c-3.33301 0 -6 2.66699 -8 8c-9.33301 18 -20 32.167 -32 42.5s-27 15.5 -45 15.5c-30 0 -54 -12.167 -72 -36.5s-27 -59.166 -27 -104.499
c0 -46 9.16699 -81.333 27.5 -106s43.5 -37 75.5 -37c22 0 40.833 6 56.5 18s29.5 29 41.5 51c2 3.33301 6.33301 4 13 2l49 -13c3.33301 -0.666992 5.33301 -1.83398 6 -3.50098s0.333984 -4.83398 -0.999023 -9.50098c-13.333 -30.667 -34.333 -57.667 -63 -81
s-65.334 -35 -110.001 -35c-38.667 0 -73.334 8.83301 -104.001 26.5s-54.667 42.667 -72 75s-26 69.166 -26 110.499c0 42 8.66699 79.167 26 111.5s41.333 57.666 72 75.999s65.334 27.5 104.001 27.5c42.667 0 78.334 -11 107.001 -33z" />
    <glyph glyph-name="ordfeminine" unicode="&#xaa;" horiz-adv-x="395" 
d="M296.5 722.5c22.333 -18.333 33.499 -45.167 33.499 -80.5v-168c0 -15.333 2.66699 -31.333 8 -48c0.666992 -0.666992 1 -2 1 -4c0 -6 -7 -9 -21 -9h-52c-4.66699 0 -7.83398 0.833008 -9.50098 2.5s-3.16699 4.5 -4.5 8.5l-3 19
c-1.33301 3.33301 -2.66602 5 -3.99902 5c-2.66699 0 -5.66699 -1.33301 -9 -4c-17.333 -13.333 -33 -22.833 -47 -28.5s-30.333 -8.5 -49 -8.5c-34 0 -60.667 8.5 -80 25.5s-29 39.833 -29 68.5c0 32.667 14.5 58.667 43.5 78s71.833 31 128.5 35l34 3
c7.33301 0.666992 11 4 11 10v13c0 17.333 -5.16699 30.666 -15.5 39.999s-25.5 14 -45.5 14c-31.333 0 -54.666 -13 -69.999 -39c-1.33301 -2.66699 -2.83301 -4.16699 -4.5 -4.5s-4.5 -0.166016 -8.5 0.500977l-56 13c-1.33301 1.33301 -2.33301 3.5 -3 6.5
s-0.333984 5.5 0.999023 7.5c12 24.667 29.333 43 52 55s53.334 18 92.001 18c48.667 -0.666992 84.167 -10.167 106.5 -28.5zM131.499 473.999c10.333 -8 24.167 -12 41.5 -12c21.333 0 40 7 56 21c12.667 10.667 19 22 19 34v41c0 4 -0.833008 7 -2.5 9
s-4.5 2.66699 -8.5 2l-30 -3c-27.333 -2 -49.333 -8.33301 -66 -19s-25 -24.667 -25 -42c0 -12.667 5.16699 -23 15.5 -31z" />
    <glyph glyph-name="guillemotleft" unicode="&#xab;" horiz-adv-x="473" 
d="M232 77c0.666992 -0.666992 1 -1.66699 1 -3c0 -4 -4.33301 -6 -13 -6h-47c-5.33301 0 -9.33301 2.33301 -12 7l-112 167c-3.33301 4 -5 9 -5 15s1.33301 10.667 4 14l113 177c2 3.33301 3.83301 5.33301 5.5 6s4.16699 1 7.5 1h48c4 0 7 -1 9 -3s2 -5 0 -9l-82 -176
c-1.33301 -5.33301 -2 -9 -2 -11s0.666992 -5 2 -9zM422 77c0.666992 -0.666992 1 -1.66699 1 -3c0 -4 -4.33301 -6 -13 -6h-47c-5.33301 0 -9.33301 2.33301 -12 7l-112 167c-3.33301 5.33301 -5 10.333 -5 15c0 4 1.33301 8.66699 4 14l113 177
c2 3.33301 3.83301 5.33301 5.5 6s4.16699 1 7.5 1h48c4 0 7 -1 9 -3s2 -5 0 -9l-82 -176c-1.33301 -5.33301 -2 -9 -2 -11s0.666992 -5 2 -9z" />
    <glyph glyph-name="logicalnot" unicode="&#xac;" horiz-adv-x="574" 
d="M522 407l0.000976562 -215.998c0 -6.66699 -1.5 -11.334 -4.5 -14.001s-8.16699 -4 -15.5 -4h-69c-6 0 -10.333 1.16699 -13 3.5s-4 6.16602 -4 11.499v137h-345c-6.66699 0 -11.334 1.33301 -14.001 4s-4 7 -4 13v63c0 10.667 4.33301 16 13 16h443
c8.66699 0 13 -4.66699 13 -14z" />
    <glyph glyph-name="uni00AD" unicode="&#xad;" horiz-adv-x="380" 
d="M327 235c0 -12.667 -7.66602 -19 -22.999 -19h-232c-6.66699 0 -11.334 1.33301 -14.001 4s-4 7 -4 13v63c0 10.667 4.33301 16 13 16h247c8.66699 0 13 -4.33301 13 -13v-64z" />
    <glyph glyph-name="registered" unicode="&#xae;" horiz-adv-x="545" 
d="M153 307c-36.667 21.333 -65.6699 50.166 -87.0029 86.499s-32 76.166 -32 119.499s10.667 83.333 32 120s50.333 65.667 87 87s76.667 32 120 32c42.667 0 82.334 -10.667 119.001 -32s65.667 -50.333 87 -87s32 -76.667 32 -120s-10.667 -83.166 -32 -119.499
s-50.166 -65.166 -86.499 -86.499s-76.166 -32 -119.499 -32s-83.333 10.667 -120 32zM401.997 380c32.667 33.333 49 77.667 49 133s-16.333 99.833 -49 133.5s-75.667 50.5 -129 50.5c-54 0 -97.333 -16.833 -130 -50.5s-49 -78.167 -49 -133.5
c0 -56 16.333 -100.5 49 -133.5s76 -49.5 130 -49.5c53.333 0 96.333 16.667 129 50zM364.997 394.001h-45c-4 0 -6.33301 1.66699 -7 5l-34 95c0 0.666992 -0.5 1.66699 -1.5 3s-3.5 2 -7.5 2h-35c-2.66699 0 -4 -1.33301 -4 -4v-95c0 -4 -2.33301 -6 -7 -6h-40
c-4 0 -6 1.66699 -6 5v225c0 4 1.33301 6 4 6h105c28 0 49.667 -5.33301 65 -16s23 -26 23 -46c0 -16 -4.16699 -29 -12.5 -39s-19.166 -17.667 -32.499 -23c-1.33301 0 -2 -1.33301 -2 -4l42 -101c1.33301 -4.66699 -0.333984 -7 -5.00098 -7zM308.997 544.001
c6.66699 4.66699 10 11.333 10 20c0 18 -12.667 27 -38 27h-44c-0.666992 0 -1.83398 0.166992 -3.50098 0.5s-2.5 -1.16699 -2.5 -4.5v-44c0 -4 1.33301 -6 4 -6h48c10.667 0 19.334 2.33301 26.001 7z" />
    <glyph glyph-name="macron" unicode="&#xaf;" horiz-adv-x="361" 
d="M351 664c0 -11.333 -6.66699 -17 -20 -17h-306c-6 0 -10 1.33301 -12 4s-3 6.66699 -3 12v56c0 9.33301 3.66699 14 11 14h319c7.33301 0 11 -4 11 -12v-57z" />
    <glyph glyph-name="degree" unicode="&#xb0;" horiz-adv-x="464" 
d="M378 602.5c-14.667 -25.667 -34.667 -45.667 -60 -60s-54 -21.5 -86 -21.5s-60.833 7.16699 -86.5 21.5s-45.667 34.333 -60 60s-21.5 54.5 -21.5 86.5c0 32.667 7.16699 61.667 21.5 87s34.333 45.166 60 59.499s54.5 21.5 86.5 21.5s60.667 -7.16699 86 -21.5
s45.333 -34.166 60 -59.499s22 -54.333 22 -87c0 -32 -7.33301 -60.833 -22 -86.5zM294 754c-16 16.667 -37.334 25 -64.001 25c-26 0 -47 -8.16699 -63 -24.5s-24 -37.833 -24 -64.5c0 -28 7.83301 -50.5 23.5 -67.5s37.167 -25.5 64.5 -25.5
c26.667 0 47.834 8.33301 63.501 25s23.5 38.667 23.5 66s-8 49.333 -24 66z" />
    <glyph glyph-name="plusminus" unicode="&#xb1;" horiz-adv-x="574" 
d="M522 491l0.000976562 -62.001c0 -13.333 -7.66699 -20 -23 -20h-163v-173c0 -4 -1.33301 -7.16699 -4 -9.5s-6 -3.5 -10 -3.5h-63c-12.667 0 -19 7.66699 -19 23v163h-169c-6.66699 0 -11.334 1.33301 -14.001 4s-4 7 -4 13v63c0 10.667 4.33301 16 13 16h174v169
c0 6.66699 1.33301 11.334 4 14.001s7 4 13 4h63c10.667 0 16 -4.33301 16 -13v-174h173c8.66699 0 13 -4.66699 13 -14zM522.001 126.999l0.000976562 -63c0 -12.667 -7.66699 -19 -23 -19h-428c-6.66699 0 -11.334 1.33301 -14.001 4s-4 7 -4 13v63
c0 10.667 4.33301 16 13 16h443c8.66699 0 13 -4.66699 13 -14z" />
    <glyph glyph-name="uni00B2" unicode="&#xb2;" horiz-adv-x="452" 
d="M192 584c38.667 34.667 64.335 61.002 77.002 79.002s19 37 19 57c0 20.667 -7.5 37.167 -22.5 49.5s-33.5 18.5 -55.5 18.5c-38.667 0 -70.667 -21.333 -96 -64c-2 -3.33301 -4.66699 -5 -8 -5c-2.66699 0 -5.33398 1 -8.00098 3l-47 24
c-4 3.33301 -6 6.66602 -6 9.99902s1 6.33301 3 9c40 61.333 96.333 92 169 92c48 0 87 -12.333 117 -37s45 -58.334 45 -101.001c0 -26 -7.16699 -50.167 -21.5 -72.5s-38.5 -47.833 -72.5 -76.5l-120 -102c-2.66699 -1.33301 -3.83398 -2.83301 -3.50098 -4.5
s2.5 -2.5 6.5 -2.5h205c6.66699 0 10 -3 10 -9v-58c0 -6.66699 -3.66699 -10 -11 -10h-315c-8.66699 0 -13 4 -13 12v41c0 4 1.5 8 4.5 12s9.83301 10.667 20.5 20z" />
    <glyph glyph-name="uni00B3" unicode="&#xb3;" horiz-adv-x="467" 
d="M71 793c18 20.667 40.833 36.5 68.5 47.5s57.5 16.5 89.5 16.5c52 0 93.167 -11.167 123.5 -33.5s45.5 -51.5 45.5 -87.5c0 -21.333 -6.66699 -41 -20 -59s-32 -30.667 -56 -38c-4.66699 -0.666992 -7 -2.33398 -7 -5.00098c0 -2 2.33301 -4 7 -6
c26.667 -8 48.334 -22 65.001 -42s25 -43 25 -69c0 -44 -16.167 -78.167 -48.5 -102.5s-80.166 -36.5 -143.499 -36.5c-34.667 0 -66.5 6.5 -95.5 19.5s-52.833 31.167 -71.5 54.5c-2 3.33301 -3 5.66602 -3 6.99902c0 2.66699 1.66699 5.66699 5 9l42 30c6 4 10 4 12 0
c20 -20 38.5 -34 55.5 -42s37.5 -12 61.5 -12c29.333 0 52.5 6.5 69.5 19.5s25.5 30.167 25.5 51.5c0 23.333 -9.5 41.833 -28.5 55.5s-42.167 20.834 -69.5 21.501h-55c-6.66699 0 -10 2.66699 -10 8v50c0 2.66699 1 4.66699 3 6s4.33301 2 7 2l44 2
c27.333 0.666992 50 7.5 68 20.5s27 29.833 27 50.5c0 17.333 -7.5 31.833 -22.5 43.5s-34.167 17.5 -57.5 17.5c-19.333 0 -37.333 -3.83301 -54 -11.5s-33.667 -19.5 -51 -35.5c-2.66699 -2.66699 -4.83398 -4.16699 -6.50098 -4.5s-3.83398 0.833984 -6.50098 3.50098
l-38 36c-2.66699 4 -2.66699 8.33301 0 13z" />
    <glyph glyph-name="acute" unicode="&#xb4;" horiz-adv-x="299" 
d="M287 683l1.99902 -8c0 -6.66699 -5 -11.667 -15 -15l-231 -65c-2 -0.666992 -4.66699 -1 -8 -1c-6 0 -10.333 3.33301 -13 10l-10 31c-1.33301 4 -2 6.66699 -2 8c0 4.66699 2.33301 8 7 10l234 98c1.33301 0.666992 3 1 5 1c4.66699 0 8.33398 -3 11.001 -9z" />
    <glyph glyph-name="paragraph" unicode="&#xb6;" horiz-adv-x="589" 
d="M477 667c-2.66699 0 -4.83203 -1 -6.49902 -3s-2.5 -4.33301 -2.5 -7v-730c0 -8 -3.33301 -12 -10 -12h-58c-4 0 -7.16699 1.16699 -9.5 3.5s-3.5 5.16602 -3.5 8.49902v731c0 2.66699 -1 4.83398 -3 6.50098s-4.33301 2.5 -7 2.5h-37
c-2.66699 0 -4.83398 -1 -6.50098 -3s-2.5 -4.33301 -2.5 -7v-730c0 -8 -4 -12 -12 -12h-59c-7.33301 0 -11 4 -11 12v373c0 4 -2.66699 6.33301 -8 7c-39.333 2.66699 -74.5 13 -105.5 31s-55.333 42.667 -73 74s-26.5 67.333 -26.5 108c0 40 9.16699 77 27.5 111
s45.5 61 81.5 81s79 30 129 30h247c7.33301 0 11 -3 11 -9v-58c0 -3.33301 -0.833008 -5.5 -2.5 -6.5s-4.5 -1.5 -8.5 -1.5h-44z" />
    <glyph glyph-name="periodcentered" unicode="&#xb7;" horiz-adv-x="232" 
d="M185 325c0 -6.66699 -1.66602 -11.5 -4.99902 -14.5s-9 -4.5 -17 -4.5h-101c-6.66699 0 -11.334 1.33301 -14.001 4s-4 7 -4 13v103c0 10 4.33301 15 13 15h116c8 0 12 -4.33301 12 -13v-103z" />
    <glyph glyph-name="cedilla" unicode="&#xb8;" horiz-adv-x="247" 
d="M203 -194c-22.667 -14.667 -50.667 -22.001 -84 -22.001c-40.667 0 -75.334 7.66699 -104.001 23c-5.33301 4 -6.66602 8 -3.99902 12l13 32c2 4 5.33301 5 10 3c24 -14 47 -21 69 -21c17.333 0 30.5 3 39.5 9s13.5 14.333 13.5 25c0 14 -6.66699 24.5 -20 31.5
s-35 10.833 -65 11.5c-8 0 -10.667 3 -8 9l37 86h61l-21 -54c-2 -4 -0.666992 -6 4 -6c32 -1.33301 55.5 -9.66602 70.5 -24.999s22.5 -33.333 22.5 -54c0 -25.333 -11.333 -45.333 -34 -60z" />
    <glyph glyph-name="uni00B9" unicode="&#xb9;" horiz-adv-x="367" 
d="M293 441v-52c0 -6 -3.33301 -9 -10 -9h-239c-6.66699 0 -10 3 -10 9v52c0 6 3 9 9 9h71c3.33301 0 5 1.33301 5 4v292c0 3.33301 -0.5 5.33301 -1.5 6s-2.83301 0.666992 -5.5 0l-67 -22l-4 -1c-5.33301 0 -8 3.66699 -8 11v37c0 3.33301 0.5 5.83301 1.5 7.5
s3.16699 3.16699 6.5 4.5l101 51c10 4.66699 18 7 24 7h38c5.33301 0 8 -3.33301 8 -10v-382c0 -3.33301 2 -5 6 -5h65c6.66699 0 10 -3 10 -9z" />
    <glyph glyph-name="ordmasculine" unicode="&#xba;" horiz-adv-x="403" 
d="M321.5 703.5c30.333 -32.333 45.5 -74.167 45.5 -125.5c0 -50 -15 -90.833 -45 -122.5s-70.333 -47.5 -121 -47.5c-50 0 -90 15.833 -120 47.5s-45 72.5 -45 122.5c0 52 15.5 94 46.5 126s70.5 48 118.5 48c50 0 90.167 -16.167 120.5 -48.5zM144 663.499
c-12.667 -19 -19 -46.5 -19 -82.5c0 -76 25.333 -114 76 -114c51.333 0 77 38 77 114c0 36 -6.5 63.5 -19.5 82.5s-32.167 28.5 -57.5 28.5s-44.333 -9.5 -57 -28.5z" />
    <glyph glyph-name="guillemotright" unicode="&#xbb;" horiz-adv-x="472" 
d="M135 257c0 4.66699 -0.666992 7.99805 -2 9.99805l-82 176l-1 4c0 5.33301 3.33301 8 10 8h48c3.33301 0 5.83301 -0.333008 7.5 -1s3.5 -2.66699 5.5 -6l114 -177c2.66699 -5.33301 4 -9.66602 4 -12.999c0 -5.33301 -1.66699 -10.666 -5 -15.999l-113 -167
c-2 -4.66699 -6 -7 -12 -7h-46c-10.667 0 -14.667 3 -12 9l82 170c1.33301 2.66699 2 6 2 10zM325 256.998c0 4.66699 -0.667969 8 -2.00098 10l-82 176l-1 4c0 5.33301 3.33301 8 10 8h48c3.33301 0 5.83301 -0.333008 7.5 -1s3.5 -2.66699 5.5 -6l114 -177
c2.66699 -3.33301 4 -8 4 -14s-1.66699 -11 -5 -15l-112 -167c-3.33301 -4.66699 -7.66602 -7 -12.999 -7h-46c-10.667 0 -14.667 3 -12 9l82 170c1.33301 2.66699 2 6 2 10z" />
    <glyph glyph-name="onequarter" unicode="&#xbc;" horiz-adv-x="924" 
d="M259 337v-52c0 -6 -3.33301 -9 -10 -9h-239c-6.66699 0 -10 3 -10 9v52c0 6 3 9 9 9h71c3.33301 0 5 1.33301 5 4v292c0 3.33301 -0.5 5.33301 -1.5 6s-2.83301 0.666992 -5.5 0l-67 -22l-4 -1c-5.33301 0 -8 3.66699 -8 11v37c0 3.33301 0.5 5.83301 1.5 7.5
s3.16699 3.16699 6.5 4.5l101 51c10 4.66699 18 7 24 7h38c5.33301 0 8 -3.33301 8 -10v-382c0 -3.33301 2 -5 6 -5h65c6.66699 0 10 -3 10 -9zM216 6c-4.66699 -6.66699 -12.333 -10 -23 -10l-36 1c-10 0 -15 4 -15 12c0 2.66699 1.33301 6.66699 4 12l478 720
c3.33301 4 6.5 6.5 9.5 7.5s6.83301 1.5 11.5 1.5h46c7.33301 0 11 -2.33301 11 -7c0 -2 -1 -4.66699 -3 -8zM737.501 465c3 1.33301 7.16699 2 12.5 2h67c6 0 9 -3.33301 9 -10v-270c0 -4.66699 2 -7 6 -7h54c7.33301 0 11 -2.66699 11 -8v-46c0 -3.33301 -1 -6 -3 -8
s-4.66699 -3 -8 -3h-53c-4.66699 0 -7 -2.33301 -7 -7v-95c0 -8.66699 -4.66699 -13 -14 -13h-69c-7.33301 0 -11 3.66699 -11 11v99c0 3.33301 -2.33301 5 -7 5h-194c-7.33301 0 -11 3.66699 -11 11v45c0 6.66699 4.33301 15.667 13 27l195 259
c3.33301 4 6.5 6.66699 9.5 8zM726.001 180c4 0 5.99902 1.33301 5.99902 4v175c0 6 -0.666992 9 -2 9s-3.66602 -2 -6.99902 -6l-127 -174c-4 -5.33301 -2.33301 -8 5 -8h125z" />
    <glyph glyph-name="onehalf" unicode="&#xbd;" horiz-adv-x="978" 
d="M259 337v-52c0 -6 -3.33301 -9 -10 -9h-239c-6.66699 0 -10 3 -10 9v52c0 6 3 9 9 9h71c3.33301 0 5 1.33301 5 4v292c0 3.33301 -0.5 5.33301 -1.5 6s-2.83301 0.666992 -5.5 0l-67 -22l-4 -1c-5.33301 0 -8 3.66699 -8 11v37c0 3.33301 0.5 5.83301 1.5 7.5
s3.16699 3.16699 6.5 4.5l101 51c10 4.66699 18 7 24 7h38c5.33301 0 8 -3.33301 8 -10v-382c0 -3.33301 2 -5 6 -5h65c6.66699 0 10 -3 10 -9zM279 6c-4.66699 -6.66699 -12.333 -10 -23 -10l-36 1c-10 0 -15 4 -15 12c0 2.66699 1.33301 6.66699 4 12l478 720
c3.33301 4 6.5 6.5 9.5 7.5s6.83301 1.5 11.5 1.5h46c7.33301 0 11 -2.33301 11 -7c0 -2 -1 -4.66699 -3 -8zM739.001 200c38.667 34.667 64.334 61.002 77.001 79.002s19 37 19 57c0 20.667 -7.5 37.167 -22.5 49.5s-33.5 18.5 -55.5 18.5
c-38.667 0 -70.667 -21.333 -96 -64c-2 -3.33301 -4.66699 -5 -8 -5c-2 0 -4.66699 1 -8 3l-47 24c-4 3.33301 -6 6.66602 -6 9.99902s1 6.33301 3 9c40 61.333 96.333 92 169 92c48 0 87 -12.333 117 -37s45 -58.334 45 -101.001c0 -26 -7.16699 -50.167 -21.5 -72.5
s-38.5 -47.833 -72.5 -76.5l-120 -102c-2.66699 -1.33301 -3.83398 -2.83301 -3.50098 -4.5s2.5 -2.5 6.5 -2.5h205c6.66699 0 10 -3 10 -9v-58c0 -6.66699 -3.66699 -10 -11 -10h-315c-8.66699 0 -13 4 -13 12v41c0 4 1.5 8 4.5 12s9.83301 10.667 20.5 20z" />
    <glyph glyph-name="threequarters" unicode="&#xbe;" horiz-adv-x="984" 
d="M37 688c18 20.667 40.833 36.5 68.5 47.5s57.5 16.5 89.5 16.5c52 0 93.167 -11.167 123.5 -33.5s45.5 -51.5 45.5 -87.5c0 -21.333 -6.66699 -41 -20 -59s-32 -30.667 -56 -38c-4.66699 -0.666992 -7 -2.33398 -7 -5.00098c0 -2 2.33301 -4 7 -6
c26.667 -8 48.334 -22 65.001 -42s25 -43 25 -69c0 -44 -16.167 -78.167 -48.5 -102.5s-80.166 -36.5 -143.499 -36.5c-34.667 0 -66.5 6.5 -95.5 19.5s-52.833 31.167 -71.5 54.5c-2 3.33301 -3 5.66602 -3 6.99902c0 2.66699 1.66699 5.66699 5 9l42 30c6 4 10 4 12 0
c20 -20 38.5 -34 55.5 -42s37.5 -12 61.5 -12c29.333 0 52.5 6.5 69.5 19.5s25.5 30.167 25.5 51.5c0 23.333 -9.5 41.833 -28.5 55.5s-42.167 20.834 -69.5 21.501h-55c-6.66699 0 -10 2.66699 -10 8v50c0 2.66699 1 4.66699 3 6s4.33301 2 7 2l44 2
c27.333 0.666992 50 7.5 68 20.5s27 29.833 27 50.5c0 17.333 -7.5 31.833 -22.5 43.5s-34.167 17.5 -57.5 17.5c-19.333 0 -37.333 -3.83301 -54 -11.5s-33.667 -19.5 -51 -35.5c-2.66699 -2.66699 -4.83398 -4.16699 -6.50098 -4.5s-3.83398 0.833984 -6.50098 3.50098
l-38 36c-2.66699 4 -2.66699 8.33301 0 13zM316 6c-4.66699 -6.66699 -12.333 -10 -23 -10l-36 1c-10 0 -15 4 -15 12c0 2.66699 1.33301 6.66699 4 12l478 720c3.33301 4 6.5 6.5 9.5 7.5s6.83301 1.5 11.5 1.5h46c7.33301 0 11 -2.33301 11 -7c0 -2 -1 -4.66699 -3 -8z
M792.501 465c3 1.33301 7.16699 2 12.5 2h67c6 0 9 -3.33301 9 -10v-270c0 -4.66699 2 -7 6 -7h54c7.33301 0 11 -2.66699 11 -8v-46c0 -3.33301 -1 -6 -3 -8s-4.66699 -3 -8 -3h-53c-4.66699 0 -7 -2.33301 -7 -7v-95c0 -8.66699 -4.66699 -13 -14 -13h-69
c-7.33301 0 -11 3.66699 -11 11v99c0 3.33301 -2.33301 5 -7 5h-194c-7.33301 0 -11 3.66699 -11 11v45c0 6.66699 4.33301 15.667 13 27l195 259c3.33301 4 6.5 6.66699 9.5 8zM781.001 180c4 0 5.99902 1.33301 5.99902 4v175c0 6 -0.666992 9 -2 9
s-3.66602 -2 -6.99902 -6l-127 -174c-4 -5.33301 -2.33301 -8 5 -8h125z" />
    <glyph glyph-name="questiondown" unicode="&#xbf;" horiz-adv-x="527" 
d="M206 509c0 7.33301 2 12.667 6 16s10.333 5 19 5h102c12.667 0 19 -6 19 -18v-111c0 -10.667 -4.66699 -16 -14 -16h-119c-8.66699 0 -13 4.66699 -13 14v110zM512 -28.999c-21.333 -46.667 -53.667 -82.666 -97 -107.999s-94 -38 -152 -38
c-50 0 -92.833 7.66699 -128.5 23s-62.667 36.333 -81 63s-27.5 56.667 -27.5 90c0 24.667 4.66699 46.5 14 65.5s20.833 35 34.5 48s31.834 28.167 54.501 45.5c32 24 56 46 72 66s24 45.333 24 76c0 4.66699 1.66699 8.66699 5 12s7.33301 5 12 5h71c12 0 18 -7 18 -21
c0 -28.667 -4.83301 -53.834 -14.5 -75.501s-21.5 -40 -35.5 -55s-31.667 -31.5 -53 -49.5c-24.667 -22 -43 -40.667 -55 -56s-18 -33.333 -18 -54c0 -26 10.167 -47.333 30.5 -64s46.5 -25 78.5 -25c28.667 0 56.167 8 82.5 24s44.833 36.333 55.5 61
c2 4 4.16699 6.5 6.5 7.5s6.16602 0.833008 11.499 -0.5l85 -21c8.66699 -2.66699 11 -9 7 -19z" />
    <glyph glyph-name="Agrave" unicode="&#xc0;" horiz-adv-x="756" 
d="M37 14c0 2 0.666016 5.66602 1.99902 10.999l252 699c2.66699 6.66699 5.66699 11.334 9 14.001s8.33301 4 15 4h125c14.667 0 24 -6.66699 28 -20l250 -698c1.33301 -4 2 -7 2 -9c0 -4 -1.16699 -7.5 -3.5 -10.5s-5.5 -4.5 -9.5 -4.5h-121
c-9.33301 -0 -15.333 4.33301 -18 13l-58 162c-1.33301 3.33301 -2.66602 5.83301 -3.99902 7.5s-4 2.5 -8 2.5h-261c-6 0 -10 -3 -12 -9l-60 -164c-2 -8 -8 -12 -18 -12h-97c-8.66699 0 -13 4.66699 -13 14zM461.999 297.999c6 0 9 2.66699 9 8c0 3.33301 -0.333008 6 -1 8
l-96 267c-2 4.66699 -4.33301 7 -7 7s-5 -2.66699 -7 -8l-97 -266c-1.33301 -4 -2 -7 -2 -9c0 -4.66699 3.33301 -7 10 -7h191zM256.499 962.499c3 1.66699 6.16699 1.83301 9.5 0.5l234 -98c7.33301 -3.33301 9 -9.33301 5 -18l-10 -31c-2.66699 -6.66699 -7 -10 -13 -10
c-3.33301 0 -6 0.333008 -8 1l-231 65c-10 3.33301 -15 8.33301 -15 15l2 8l20 60c1.33301 3.33301 3.5 5.83301 6.5 7.5z" />
    <glyph glyph-name="Aacute" unicode="&#xc1;" horiz-adv-x="756" 
d="M37 14c0 2 0.666016 5.66602 1.99902 10.999l252 699c2.66699 6.66699 5.66699 11.334 9 14.001s8.33301 4 15 4h125c14.667 0 24 -6.66699 28 -20l250 -698c1.33301 -4 2 -7 2 -9c0 -4 -1.16699 -7.5 -3.5 -10.5s-5.5 -4.5 -9.5 -4.5h-121
c-9.33301 -0 -15.333 4.33301 -18 13l-58 162c-1.33301 3.33301 -2.66602 5.83301 -3.99902 7.5s-4 2.5 -8 2.5h-261c-6 0 -10 -3 -12 -9l-60 -164c-2 -8 -8 -12 -18 -12h-97c-8.66699 0 -13 4.66699 -13 14zM461.999 297.999c6 0 9 2.66699 9 8c0 3.33301 -0.333008 6 -1 8
l-96 267c-2 4.66699 -4.33301 7 -7 7s-5 -2.66699 -7 -8l-97 -266c-1.33301 -4 -2 -7 -2 -9c0 -4.66699 3.33301 -7 10 -7h191zM511.999 894.999l1.99902 -8c0 -6.66699 -5 -11.667 -15 -15l-231 -65c-2 -0.666992 -4.66699 -1 -8 -1c-6 0 -10.333 3.33301 -13 10l-10 31
c-1.33301 4 -2 6.66699 -2 8c0 4.66699 2.33301 8 7 10l234 98c1.33301 0.666992 3 1 5 1c4.66699 0 8.33398 -3 11.001 -9z" />
    <glyph glyph-name="Acircumflex" unicode="&#xc2;" horiz-adv-x="756" 
d="M37 14c0 2 0.666016 5.66602 1.99902 10.999l252 699c2.66699 6.66699 5.66699 11.334 9 14.001s8.33301 4 15 4h125c14.667 0 24 -6.66699 28 -20l250 -698c1.33301 -4 2 -7 2 -9c0 -4 -1.16699 -7.5 -3.5 -10.5s-5.5 -4.5 -9.5 -4.5h-121
c-9.33301 -0 -15.333 4.33301 -18 13l-58 162c-1.33301 3.33301 -2.66602 5.83301 -3.99902 7.5s-4 2.5 -8 2.5h-261c-6 0 -10 -3 -12 -9l-60 -164c-2 -8 -8 -12 -18 -12h-97c-8.66699 0 -13 4.66699 -13 14zM461.999 297.999c6 0 9 2.66699 9 8c0 3.33301 -0.333008 6 -1 8
l-96 267c-2 4.66699 -4.33301 7 -7 7s-5 -2.66699 -7 -8l-97 -266c-1.33301 -4 -2 -7 -2 -9c0 -4.66699 3.33301 -7 10 -7h191zM387.999 887.999c-6 7.33301 -10.333 11.001 -13 11.001s-7.66699 -3.66699 -15 -11l-53 -52c-3.33301 -4 -6.16602 -6.33301 -8.49902 -7
s-6.5 -1 -12.5 -1h-72c-5.33301 0 -8 1.66699 -8 5c0 2.66699 2 6 6 10l106 105c4 4 8.16699 7 12.5 9s10.166 3 17.499 3h61c8 0 15.667 -3.66699 23 -11l105 -106c4.66699 -4.66699 7 -8.33398 7 -11.001s-3 -4 -9 -4h-77c-9.33301 0 -16.333 2.66699 -21 8z" />
    <glyph glyph-name="Atilde" unicode="&#xc3;" horiz-adv-x="756" 
d="M37 14c0 2 0.666016 5.66602 1.99902 10.999l252 699c2.66699 6.66699 5.66699 11.334 9 14.001s8.33301 4 15 4h125c14.667 0 24 -6.66699 28 -20l250 -698c1.33301 -4 2 -7 2 -9c0 -4 -1.16699 -7.5 -3.5 -10.5s-5.5 -4.5 -9.5 -4.5h-121
c-9.33301 -0 -15.333 4.33301 -18 13l-58 162c-1.33301 3.33301 -2.66602 5.83301 -3.99902 7.5s-4 2.5 -8 2.5h-261c-6 0 -10 -3 -12 -9l-60 -164c-2 -8 -8 -12 -18 -12h-97c-8.66699 0 -13 4.66699 -13 14zM461.999 297.999c6 0 9 2.66699 9 8c0 3.33301 -0.333008 6 -1 8
l-96 267c-2 4.66699 -4.33301 7 -7 7s-5 -2.66699 -7 -8l-97 -266c-1.33301 -4 -2 -7 -2 -9c0 -4.66699 3.33301 -7 10 -7h191zM446.999 848.999c-21.333 0 -46.332 5 -74.999 15c-2.66699 0.666992 -10.834 3 -24.501 7s-27.5 6 -41.5 6
c-13.333 0 -24.5 -1.83301 -33.5 -5.5s-19.167 -9.5 -30.5 -17.5c-5.33301 -2.66699 -8.33301 -4 -9 -4c-4 0 -7 3.33301 -9 10l-13 38c-0.666992 2 -1 4.66699 -1 8c0 4 2.33301 8.33301 7 13c13.333 11.333 26.333 19.833 39 25.5s28 8.5 46 8.5c20 0 46 -5.33301 78 -16
c11.333 -3.33301 22.833 -6.5 34.5 -9.5s22.5 -4.5 32.5 -4.5c21.333 0 43 7.66699 65 23c4 2.66699 7 4 9 4c4.66699 0 8 -3.66699 10 -11l12 -44l1 -5c0 -6 -3.66699 -11.333 -11 -16c-25.333 -16.667 -54 -25 -86 -25z" />
    <glyph glyph-name="Adieresis" unicode="&#xc4;" horiz-adv-x="756" 
d="M37 14c0 2 0.666016 5.66602 1.99902 10.999l252 699c2.66699 6.66699 5.66699 11.334 9 14.001s8.33301 4 15 4h125c14.667 0 24 -6.66699 28 -20l250 -698c1.33301 -4 2 -7 2 -9c0 -4 -1.16699 -7.5 -3.5 -10.5s-5.5 -4.5 -9.5 -4.5h-121
c-9.33301 -0 -15.333 4.33301 -18 13l-58 162c-1.33301 3.33301 -2.66602 5.83301 -3.99902 7.5s-4 2.5 -8 2.5h-261c-6 0 -10 -3 -12 -9l-60 -164c-2 -8 -8 -12 -18 -12h-97c-8.66699 0 -13 4.66699 -13 14zM461.999 297.999c6 0 9 2.66699 9 8c0 3.33301 -0.333008 6 -1 8
l-96 267c-2 4.66699 -4.33301 7 -7 7s-5 -2.66699 -7 -8l-97 -266c-1.33301 -4 -2 -7 -2 -9c0 -4.66699 3.33301 -7 10 -7h191zM341.999 848.999c0 -6.66699 -1.66797 -11.333 -5.00098 -14s-8.66602 -4 -15.999 -4h-80c-6.66699 0 -11.167 1.33301 -13.5 4
s-3.5 6.66699 -3.5 12v91c0 10.667 4.33301 16 13 16h92c8.66699 0 13 -4.66699 13 -14v-91zM525.998 849c0 -6.66699 -1.66699 -11.333 -5 -14s-9 -4 -17 -4h-79c-6.66699 0 -11.167 1.16699 -13.5 3.5s-3.5 6.5 -3.5 12.5v91c0 10.667 4.33301 16 13 16h92
c8.66699 0 13 -4.66699 13 -14v-91z" />
    <glyph glyph-name="Aring" unicode="&#xc5;" horiz-adv-x="756" 
d="M37 14c0 2 0.666016 5.66602 1.99902 10.999l252 699c2.66699 6.66699 5.66699 11.334 9 14.001s8.33301 4 15 4h125c14.667 0 24 -6.66699 28 -20l250 -698c1.33301 -4 2 -7 2 -9c0 -4 -1.16699 -7.5 -3.5 -10.5s-5.5 -4.5 -9.5 -4.5h-121
c-9.33301 -0 -15.333 4.33301 -18 13l-58 162c-1.33301 3.33301 -2.66602 5.83301 -3.99902 7.5s-4 2.5 -8 2.5h-261c-6 0 -10 -3 -12 -9l-60 -164c-2 -8 -8 -12 -18 -12h-97c-8.66699 0 -13 4.66699 -13 14zM461.999 297.999c6 0 9 2.66699 9 8c0 3.33301 -0.333008 6 -1 8
l-96 267c-2 4.66699 -4.33301 7 -7 7s-5 -2.66699 -7 -8l-97 -266c-1.33301 -4 -2 -7 -2 -9c0 -4.66699 3.33301 -7 10 -7h191zM452.499 774.999c-21 -21.333 -46.833 -32.001 -77.5 -32.001s-56.667 10.833 -78 32.5s-32 48.167 -32 79.5
c0 28.667 10.833 53.334 32.5 74.001s47.5 31 77.5 31c30.667 0 56.5 -10.333 77.5 -31s31.5 -46 31.5 -76c0 -30.667 -10.5 -56.667 -31.5 -78zM410.999 888.998c-10 10 -22.333 15 -37 15s-27.334 -5 -38.001 -15s-16 -22.333 -16 -37s5.33301 -27.334 16 -38.001
s23.334 -16 38.001 -16s27 5.33301 37 16s15 23.334 15 38.001s-5 27 -15 37z" />
    <glyph glyph-name="AE" unicode="&#xc6;" horiz-adv-x="1056" 
d="M1010.5 107c2.33301 -2 3.50098 -5.66895 3.50098 -11.002v-81c0 -10 -5.33301 -15 -16 -15h-476c-6.66699 0 -11.5 1.33301 -14.5 4s-4.5 7.33398 -4.5 14.001v157c0 6.66699 -3.33301 10 -10 10h-224c-6.66699 0 -11.667 -3 -15 -9l-89 -164
c-4.66699 -8 -11.334 -12 -20.001 -12h-97c-7.33301 0 -11 3.66699 -11 11c0 4.66699 1.33301 9.33398 4 14.001l380 699c3.33301 6.66699 6.83301 11.334 10.5 14.001s8.83398 4 15.501 4h543c8.66699 0 13 -5 13 -15l-1 -76c0 -12.667 -6 -19 -18 -19h-317
c-10.667 0 -16 -4.66699 -16 -14v-175c0 -10 4.66699 -15 14 -15h219c9.33301 0 14 -5 14 -15v-81c0 -8 -4.33301 -12 -13 -12h-221c-8.66699 0 -13 -4 -13 -12v-186c0 -4.66699 0.666992 -7.83398 2 -9.50098s4 -2.5 8 -2.5h338c5.33301 0 9.16602 -1 11.499 -3z
M503.001 312.998v285c-1.33301 11.333 -5 17 -11 17s-12 -5.66699 -18 -17l-157 -284c-2.66699 -3.33301 -4 -7 -4 -11c0 -3.33301 2.66699 -5 8 -5h168c9.33301 0 14 5 14 15z" />
    <glyph glyph-name="Ccedilla" unicode="&#xc7;" horiz-adv-x="719" 
d="M677 214.5c2 -3 2.33105 -8.16699 0.998047 -15.5c-7.33301 -28 -22.166 -57.333 -44.499 -88s-52.5 -57.334 -90.5 -80.001s-82.333 -36 -133 -40l-16 -40c-2 -4 -0.666992 -6 4 -6c32 -1.33301 55.5 -9.66602 70.5 -24.999s22.5 -33.333 22.5 -54
c0 -25.333 -11.333 -45.333 -34 -60s-50.667 -22 -84 -22c-40.667 0 -75.334 7.66699 -104.001 23c-5.33301 4 -6.66602 8 -3.99902 12l13 32c2 4 5.33301 5 10 3c24 -14 47 -21 69 -21c17.333 0 30.5 3 39.5 9s13.5 14.333 13.5 25c0 14 -6.66699 24.5 -20 31.5
s-35 10.833 -65 11.5c-8 0 -10.667 3 -8 9l31 72c-61.333 5.33301 -114.333 24.5 -159 57.5s-78.834 77.5 -102.501 133.5s-35.5 120.333 -35.5 193c0 77.333 13.333 144.333 40 201s64.834 100.167 114.501 130.5s108.167 45.5 175.5 45.5
c48.667 0 93.834 -9.5 135.501 -28.5s76 -44.833 103 -77.5s43.833 -69 50.5 -109c0.666992 -3.33301 1 -7.33301 1 -12c0 -4 -0.833008 -6.66699 -2.5 -8s-4.5 -2.33301 -8.5 -3l-114 -8c-4.66699 0 -7.83398 0.833008 -9.50098 2.5s-3.16699 5.5 -4.5 11.5
c-8 38.667 -24.667 69.5 -50 92.5s-57.666 34.5 -96.999 34.5c-119.333 0 -179 -91.333 -179 -274c0 -92.667 15 -161.167 45 -205.5s75.667 -66.5 137 -66.5c42.667 0 78.5 10.5 107.5 31.5s52.5 54.833 70.5 101.5c2 5.33301 8 7 18 5l85 -18
c3.33301 -1.33301 6 -3.5 8 -6.5z" />
    <glyph glyph-name="Egrave" unicode="&#xc8;" horiz-adv-x="645" 
d="M94 742h485c8.66699 0 13 -5 13 -15v-76c0 -12.667 -6 -19 -18 -19h-330c-11.333 0 -17 -4.66699 -17 -14v-175c0 -10 4.66699 -15 14 -15h228c10 0 15 -5 15 -15v-81c0 -8 -4.66699 -12 -14 -12h-230c-8.66699 0 -13 -4 -13 -12v-186
c0 -4.66699 0.833008 -7.83398 2.5 -9.50098s4.5 -2.5 8.5 -2.5h350c6 0 10.167 -1 12.5 -3s3.5 -5.66699 3.5 -11v-81c0 -4 -1.33301 -7.5 -4 -10.5s-7 -4.5 -13 -4.5h-489c-6.66699 0 -11.5 1.33301 -14.5 4s-4.5 7.33398 -4.5 14.001v707c0 11.333 5 17 15 17z
M221.5 962.5c3 1.66699 6.16699 1.83301 9.5 0.5l234 -98c7.33301 -3.33301 9 -9.33301 5 -18l-10 -31c-2.66699 -6.66699 -7 -10 -13 -10c-3.33301 0 -6 0.333008 -8 1l-231 65c-10 3.33301 -15 8.33301 -15 15l2 8l20 60c1.33301 3.33301 3.5 5.83301 6.5 7.5z" />
    <glyph glyph-name="Eacute" unicode="&#xc9;" horiz-adv-x="645" 
d="M94 742h485c8.66699 0 13 -5 13 -15v-76c0 -12.667 -6 -19 -18 -19h-330c-11.333 0 -17 -4.66699 -17 -14v-175c0 -10 4.66699 -15 14 -15h228c10 0 15 -5 15 -15v-81c0 -8 -4.66699 -12 -14 -12h-230c-8.66699 0 -13 -4 -13 -12v-186
c0 -4.66699 0.833008 -7.83398 2.5 -9.50098s4.5 -2.5 8.5 -2.5h350c6 0 10.167 -1 12.5 -3s3.5 -5.66699 3.5 -11v-81c0 -4 -1.33301 -7.5 -4 -10.5s-7 -4.5 -13 -4.5h-489c-6.66699 0 -11.5 1.33301 -14.5 4s-4.5 7.33398 -4.5 14.001v707c0 11.333 5 17 15 17zM477 895
l1.99902 -8c0 -6.66699 -5 -11.667 -15 -15l-231 -65c-2 -0.666992 -4.66699 -1 -8 -1c-6 0 -10.333 3.33301 -13 10l-10 31c-1.33301 4 -2 6.66699 -2 8c0 4.66699 2.33301 8 7 10l234 98c1.33301 0.666992 3 1 5 1c4.66699 0 8.33398 -3 11.001 -9z" />
    <glyph glyph-name="Ecircumflex" unicode="&#xca;" horiz-adv-x="645" 
d="M94 742h485c8.66699 0 13 -5 13 -15v-76c0 -12.667 -6 -19 -18 -19h-330c-11.333 0 -17 -4.66699 -17 -14v-175c0 -10 4.66699 -15 14 -15h228c10 0 15 -5 15 -15v-81c0 -8 -4.66699 -12 -14 -12h-230c-8.66699 0 -13 -4 -13 -12v-186
c0 -4.66699 0.833008 -7.83398 2.5 -9.50098s4.5 -2.5 8.5 -2.5h350c6 0 10.167 -1 12.5 -3s3.5 -5.66699 3.5 -11v-81c0 -4 -1.33301 -7.5 -4 -10.5s-7 -4.5 -13 -4.5h-489c-6.66699 0 -11.5 1.33301 -14.5 4s-4.5 7.33398 -4.5 14.001v707c0 11.333 5 17 15 17zM353 888
c-6 7.33301 -10.333 11.001 -13 11.001s-7.66699 -3.66699 -15 -11l-53 -52c-3.33301 -4 -6.16602 -6.33301 -8.49902 -7s-6.5 -1 -12.5 -1h-72c-5.33301 0 -8 1.66699 -8 5c0 2.66699 2 6 6 10l106 105c4 4 8.16699 7 12.5 9s10.166 3 17.499 3h61
c8 0 15.667 -3.66699 23 -11l105 -106c4.66699 -4.66699 7 -8.33398 7 -11.001s-3 -4 -9 -4h-77c-9.33301 0 -16.333 2.66699 -21 8z" />
    <glyph glyph-name="Edieresis" unicode="&#xcb;" horiz-adv-x="645" 
d="M94 742h485c8.66699 0 13 -5 13 -15v-76c0 -12.667 -6 -19 -18 -19h-330c-11.333 0 -17 -4.66699 -17 -14v-175c0 -10 4.66699 -15 14 -15h228c10 0 15 -5 15 -15v-81c0 -8 -4.66699 -12 -14 -12h-230c-8.66699 0 -13 -4 -13 -12v-186
c0 -4.66699 0.833008 -7.83398 2.5 -9.50098s4.5 -2.5 8.5 -2.5h350c6 0 10.167 -1 12.5 -3s3.5 -5.66699 3.5 -11v-81c0 -4 -1.33301 -7.5 -4 -10.5s-7 -4.5 -13 -4.5h-489c-6.66699 0 -11.5 1.33301 -14.5 4s-4.5 7.33398 -4.5 14.001v707c0 11.333 5 17 15 17zM307 849
c0 -6.66699 -1.66797 -11.333 -5.00098 -14s-8.66602 -4 -15.999 -4h-80c-6.66699 0 -11.167 1.33301 -13.5 4s-3.5 6.66699 -3.5 12v91c0 10.667 4.33301 16 13 16h92c8.66699 0 13 -4.66699 13 -14v-91zM490.999 849.001c0 -6.66699 -1.66699 -11.333 -5 -14s-9 -4 -17 -4
h-79c-6.66699 0 -11.167 1.16699 -13.5 3.5s-3.5 6.5 -3.5 12.5v91c0 10.667 4.33301 16 13 16h92c8.66699 0 13 -4.66699 13 -14v-91z" />
    <glyph glyph-name="Igrave" unicode="&#xcc;" horiz-adv-x="306" 
d="M213 742c9.33301 0 14.001 -5.33398 14.001 -16.001v-704c0 -8 -1.83301 -13.667 -5.5 -17s-9.83398 -5 -18.501 -5h-104c-8 0 -13.333 1.33301 -16 4s-4 7.33398 -4 14.001v707c0 11.333 5 17 15 17h119zM36.501 962.499c3 1.66699 6.16699 1.83301 9.5 0.5l234 -98
c7.33301 -3.33301 9 -9.33301 5 -18l-10 -31c-2.66699 -6.66699 -7 -10 -13 -10c-3.33301 0 -6 0.333008 -8 1l-231 65c-10 3.33301 -15 8.33301 -15 15l2 8l20 60c1.33301 3.33301 3.5 5.83301 6.5 7.5z" />
    <glyph glyph-name="Iacute" unicode="&#xcd;" horiz-adv-x="306" 
d="M213 742c9.33301 0 14.001 -5.33398 14.001 -16.001v-704c0 -8 -1.83301 -13.667 -5.5 -17s-9.83398 -5 -18.501 -5h-104c-8 0 -13.333 1.33301 -16 4s-4 7.33398 -4 14.001v707c0 11.333 5 17 15 17h119zM292.001 894.999l1.99902 -8c0 -6.66699 -5 -11.667 -15 -15
l-231 -65c-2 -0.666992 -4.66699 -1 -8 -1c-6 0 -10.333 3.33301 -13 10l-10 31c-1.33301 4 -2 6.66699 -2 8c0 4.66699 2.33301 8 7 10l234 98c1.33301 0.666992 3 1 5 1c4.66699 0 8.33398 -3 11.001 -9z" />
    <glyph glyph-name="Icircumflex" unicode="&#xce;" horiz-adv-x="306" 
d="M213 742c9.33301 0 14.001 -5.33398 14.001 -16.001v-704c0 -8 -1.83301 -13.667 -5.5 -17s-9.83398 -5 -18.501 -5h-104c-8 0 -13.333 1.33301 -16 4s-4 7.33398 -4 14.001v707c0 11.333 5 17 15 17h119zM168.001 887.999c-6 7.33301 -10.333 11.001 -13 11.001
s-7.66699 -3.66699 -15 -11l-53 -52c-3.33301 -4 -6.16602 -6.33301 -8.49902 -7s-6.5 -1 -12.5 -1h-72c-5.33301 0 -8 1.66699 -8 5c0 2.66699 2 6 6 10l106 105c4 4 8.16699 7 12.5 9s10.166 3 17.499 3h61c8 0 15.667 -3.66699 23 -11l105 -106
c4.66699 -4.66699 7 -8.33398 7 -11.001s-3 -4 -9 -4h-77c-9.33301 0 -16.333 2.66699 -21 8z" />
    <glyph glyph-name="Idieresis" unicode="&#xcf;" horiz-adv-x="306" 
d="M213 742c9.33301 0 14.001 -5.33398 14.001 -16.001v-704c0 -8 -1.83301 -13.667 -5.5 -17s-9.83398 -5 -18.501 -5h-104c-8 0 -13.333 1.33301 -16 4s-4 7.33398 -4 14.001v707c0 11.333 5 17 15 17h119zM122.001 848.999c0 -6.66699 -1.66797 -11.333 -5.00098 -14
s-8.66602 -4 -15.999 -4h-80c-6.66699 0 -11.167 1.33301 -13.5 4s-3.5 6.66699 -3.5 12v91c0 10.667 4.33301 16 13 16h92c8.66699 0 13 -4.66699 13 -14v-91zM306 849c0 -6.66699 -1.66699 -11.333 -5 -14s-9 -4 -17 -4h-79c-6.66699 0 -11.167 1.16699 -13.5 3.5
s-3.5 6.5 -3.5 12.5v91c0 10.667 4.33301 16 13 16h92c8.66699 0 13 -4.66699 13 -14v-91z" />
    <glyph glyph-name="Eth" unicode="&#xd0;" horiz-adv-x="753" 
d="M701 374c0 -119.333 -33.5 -211.501 -100.5 -276.501s-166.167 -97.5 -297.5 -97.5h-193c-13.333 0 -20 7 -20 21v298h-42c-7.33301 0 -12.333 1.5 -15 4.5s-4 7.83301 -4 14.5v62c0 11.333 4.66699 17 14 17h47v307c0 6.66699 1.33301 11.334 4 14.001s7.66699 4 15 4
c95.333 0 162.333 -0.333008 201 -1c260.667 -6 391 -128.333 391 -367zM481.5 167.999c43 41.333 64.498 110.001 64.498 206.001c0 62 -8.66699 111.5 -26 148.5s-43.166 64.167 -77.499 81.5s-79.166 27.333 -134.499 30l-61 2c-6 0 -9 -4.66699 -9 -14v-205h141
c9.33301 0 14 -5 14 -15v-62c0 -14 -8.33301 -21 -25 -21h-130v-201c0 -4.66699 1 -7.83398 3 -9.50098s5.33301 -2.5 10 -2.5h25c94 0 162.5 20.667 205.5 62z" />
    <glyph glyph-name="Ntilde" unicode="&#xd1;" horiz-adv-x="758" 
d="M667 742c4.66699 0 7.83203 -1 9.49902 -3s2.5 -5.66699 2.5 -11v-713c0 -10 -5.66699 -15 -17 -15h-83c-5.33301 0 -9.66602 0.666992 -12.999 2s-7 4.33301 -11 9l-342 486c-2.66699 4 -5.16699 5.83301 -7.5 5.5s-3.5 -2.5 -3.5 -6.5v-480v-3
c0 -8.66699 -5.66699 -13 -17 -13h-88c-12 -0 -18 5.33301 -18 16v709c0 11.333 5.33301 17 16 17h100c6.66699 0 11.667 -0.833008 15 -2.5s7 -5.16699 11 -10.5l322 -464c2.66699 -4.66699 5.66699 -7 9 -7c4 0 6 3.33301 6 10v458c0 10.667 5.33301 16 16 16h93z
M458.998 849c-21.333 0 -46.332 5 -74.999 15c-2.66699 0.666992 -10.834 3 -24.501 7s-27.5 6 -41.5 6c-13.333 0 -24.5 -1.83301 -33.5 -5.5s-19.167 -9.5 -30.5 -17.5c-5.33301 -2.66699 -8.33301 -4 -9 -4c-4 0 -7 3.33301 -9 10l-13 38c-0.666992 2 -1 4.66699 -1 8
c0 4 2.33301 8.33301 7 13c13.333 11.333 26.333 19.833 39 25.5s28 8.5 46 8.5c20 0 46 -5.33301 78 -16c11.333 -3.33301 22.833 -6.5 34.5 -9.5s22.5 -4.5 32.5 -4.5c21.333 0 43 7.66699 65 23c4 2.66699 7 4 9 4c4.66699 0 8 -3.66699 10 -11l12 -44l1 -5
c0 -6 -3.66699 -11.333 -11 -16c-25.333 -16.667 -54 -25 -86 -25z" />
    <glyph glyph-name="Ograve" unicode="&#xd2;" horiz-adv-x="770" 
d="M208 35c-50 30 -88.5 73.501 -115.5 130.501s-40.5 124.5 -40.5 202.5c0 79.333 13.667 147.833 41 205.5s66 101.834 116 132.501s109 46 177 46c67.333 0 126 -15.333 176 -46s88.667 -74.834 116 -132.501s41 -125.834 41 -204.501c0 -78 -13.5 -145.5 -40.5 -202.5
s-65.5 -100.667 -115.5 -131s-109 -45.5 -177 -45.5c-68.667 0 -128 15 -178 45zM521 161.001c28.667 43.333 43 112 43 206c0 96 -14.5 166.667 -43.5 212s-73.833 68 -134.5 68s-105.834 -22.667 -135.501 -68s-44.5 -116 -44.5 -212c0 -94 14.667 -162.667 44 -206
s75 -65 137 -65c60.667 0 105.334 21.667 134.001 65zM267.5 962.501c3 1.66699 6.16699 1.83301 9.5 0.5l234 -98c7.33301 -3.33301 9 -9.33301 5 -18l-10 -31c-2.66699 -6.66699 -7 -10 -13 -10c-3.33301 0 -6 0.333008 -8 1l-231 65c-10 3.33301 -15 8.33301 -15 15l2 8
l20 60c1.33301 3.33301 3.5 5.83301 6.5 7.5z" />
    <glyph glyph-name="Oacute" unicode="&#xd3;" horiz-adv-x="770" 
d="M208 35c-50 30 -88.5 73.501 -115.5 130.501s-40.5 124.5 -40.5 202.5c0 79.333 13.667 147.833 41 205.5s66 101.834 116 132.501s109 46 177 46c67.333 0 126 -15.333 176 -46s88.667 -74.834 116 -132.501s41 -125.834 41 -204.501c0 -78 -13.5 -145.5 -40.5 -202.5
s-65.5 -100.667 -115.5 -131s-109 -45.5 -177 -45.5c-68.667 0 -128 15 -178 45zM521 161.001c28.667 43.333 43 112 43 206c0 96 -14.5 166.667 -43.5 212s-73.833 68 -134.5 68s-105.834 -22.667 -135.501 -68s-44.5 -116 -44.5 -212c0 -94 14.667 -162.667 44 -206
s75 -65 137 -65c60.667 0 105.334 21.667 134.001 65zM523 895.001l1.99902 -8c0 -6.66699 -5 -11.667 -15 -15l-231 -65c-2 -0.666992 -4.66699 -1 -8 -1c-6 0 -10.333 3.33301 -13 10l-10 31c-1.33301 4 -2 6.66699 -2 8c0 4.66699 2.33301 8 7 10l234 98
c1.33301 0.666992 3 1 5 1c4.66699 0 8.33398 -3 11.001 -9z" />
    <glyph glyph-name="Ocircumflex" unicode="&#xd4;" horiz-adv-x="770" 
d="M208 35c-50 30 -88.5 73.501 -115.5 130.501s-40.5 124.5 -40.5 202.5c0 79.333 13.667 147.833 41 205.5s66 101.834 116 132.501s109 46 177 46c67.333 0 126 -15.333 176 -46s88.667 -74.834 116 -132.501s41 -125.834 41 -204.501c0 -78 -13.5 -145.5 -40.5 -202.5
s-65.5 -100.667 -115.5 -131s-109 -45.5 -177 -45.5c-68.667 0 -128 15 -178 45zM521 161.001c28.667 43.333 43 112 43 206c0 96 -14.5 166.667 -43.5 212s-73.833 68 -134.5 68s-105.834 -22.667 -135.501 -68s-44.5 -116 -44.5 -212c0 -94 14.667 -162.667 44 -206
s75 -65 137 -65c60.667 0 105.334 21.667 134.001 65zM399 888.001c-6 7.33301 -10.333 11.001 -13 11.001s-7.66699 -3.66699 -15 -11l-53 -52c-3.33301 -4 -6.16602 -6.33301 -8.49902 -7s-6.5 -1 -12.5 -1h-72c-5.33301 0 -8 1.66699 -8 5c0 2.66699 2 6 6 10l106 105
c4 4 8.16699 7 12.5 9s10.166 3 17.499 3h61c8 0 15.667 -3.66699 23 -11l105 -106c4.66699 -4.66699 7 -8.33398 7 -11.001s-3 -4 -9 -4h-77c-9.33301 0 -16.333 2.66699 -21 8z" />
    <glyph glyph-name="Otilde" unicode="&#xd5;" horiz-adv-x="770" 
d="M208 35c-50 30 -88.5 73.501 -115.5 130.501s-40.5 124.5 -40.5 202.5c0 79.333 13.667 147.833 41 205.5s66 101.834 116 132.501s109 46 177 46c67.333 0 126 -15.333 176 -46s88.667 -74.834 116 -132.501s41 -125.834 41 -204.501c0 -78 -13.5 -145.5 -40.5 -202.5
s-65.5 -100.667 -115.5 -131s-109 -45.5 -177 -45.5c-68.667 0 -128 15 -178 45zM521 161.001c28.667 43.333 43 112 43 206c0 96 -14.5 166.667 -43.5 212s-73.833 68 -134.5 68s-105.834 -22.667 -135.501 -68s-44.5 -116 -44.5 -212c0 -94 14.667 -162.667 44 -206
s75 -65 137 -65c60.667 0 105.334 21.667 134.001 65zM458 849.001c-21.333 0 -46.332 5 -74.999 15c-2.66699 0.666992 -10.834 3 -24.501 7s-27.5 6 -41.5 6c-13.333 0 -24.5 -1.83301 -33.5 -5.5s-19.167 -9.5 -30.5 -17.5c-5.33301 -2.66699 -8.33301 -4 -9 -4
c-4 0 -7 3.33301 -9 10l-13 38c-0.666992 2 -1 4.66699 -1 8c0 4 2.33301 8.33301 7 13c13.333 11.333 26.333 19.833 39 25.5s28 8.5 46 8.5c20 0 46 -5.33301 78 -16c11.333 -3.33301 22.833 -6.5 34.5 -9.5s22.5 -4.5 32.5 -4.5c21.333 0 43 7.66699 65 23
c4 2.66699 7 4 9 4c4.66699 0 8 -3.66699 10 -11l12 -44l1 -5c0 -6 -3.66699 -11.333 -11 -16c-25.333 -16.667 -54 -25 -86 -25z" />
    <glyph glyph-name="Odieresis" unicode="&#xd6;" horiz-adv-x="770" 
d="M208 35c-50 30 -88.5 73.501 -115.5 130.501s-40.5 124.5 -40.5 202.5c0 79.333 13.667 147.833 41 205.5s66 101.834 116 132.501s109 46 177 46c67.333 0 126 -15.333 176 -46s88.667 -74.834 116 -132.501s41 -125.834 41 -204.501c0 -78 -13.5 -145.5 -40.5 -202.5
s-65.5 -100.667 -115.5 -131s-109 -45.5 -177 -45.5c-68.667 0 -128 15 -178 45zM521 161.001c28.667 43.333 43 112 43 206c0 96 -14.5 166.667 -43.5 212s-73.833 68 -134.5 68s-105.834 -22.667 -135.501 -68s-44.5 -116 -44.5 -212c0 -94 14.667 -162.667 44 -206
s75 -65 137 -65c60.667 0 105.334 21.667 134.001 65zM353 849.001c0 -6.66699 -1.66797 -11.333 -5.00098 -14s-8.66602 -4 -15.999 -4h-80c-6.66699 0 -11.167 1.33301 -13.5 4s-3.5 6.66699 -3.5 12v91c0 10.667 4.33301 16 13 16h92c8.66699 0 13 -4.66699 13 -14v-91z
M536.999 849.002c0 -6.66699 -1.66699 -11.333 -5 -14s-9 -4 -17 -4h-79c-6.66699 0 -11.167 1.16699 -13.5 3.5s-3.5 6.5 -3.5 12.5v91c0 10.667 4.33301 16 13 16h92c8.66699 0 13 -4.66699 13 -14v-91z" />
    <glyph glyph-name="multiply" unicode="&#xd7;" horiz-adv-x="564" 
d="M505 214c0 -3.33301 -1.66602 -6.66602 -4.99902 -9.99902l-45 -44c-4.66699 -4.66699 -9.33398 -7 -14.001 -7s-10 3 -16 9l-143 143l-149 -149c-2.66699 -2.66699 -5.66699 -4 -9 -4c-4 0 -7.33301 1.33301 -10 4l-44 44c-5.33301 5.33301 -8 10 -8 14
s3.33301 9.33301 10 16l142 142l-147 147c-4 5.33301 -6 9.66602 -6 12.999c0 4 2 8 6 12l44 45c4 4 8 6 12 6c2 0 5 -1.33301 9 -4l150 -150l147 147c4.66699 4.66699 9 7 13 7s8 -2.33301 12 -7l45 -44c4 -4 6 -8 6 -12c0 -2 -1.33301 -5 -4 -9l-151 -150l150 -150
c3.33301 -2 5 -5 5 -9z" />
    <glyph glyph-name="Oslash" unicode="&#xd8;" horiz-adv-x="752" 
d="M741 694c0 -3.33301 -1.66602 -6.66992 -4.99902 -10.0029l-80 -85c36 -62 54 -138.667 54 -230c0 -78 -13.5 -145.5 -40.5 -202.5s-65.5 -100.667 -115.5 -131s-109 -45.5 -177 -45.5c-92.667 0 -167.667 27 -225 81l-64 -68c-6.66699 -6.66699 -12 -10 -16 -10
c-4.66699 0 -10 3 -16 9l-30 29c-6 7.33301 -9 13 -9 17c0 2.66699 1.66699 6.33398 5 11.001l75 79c-36.667 61.333 -55 138 -55 230c0 79.333 13.667 147.833 41 205.5s66.166 101.834 116.499 132.501s109.5 46 177.5 46c91.333 0 166.333 -28.333 225 -85l69 74
c4.66699 4.66699 9.66699 7 15 7c3.33301 0 6 -1 8 -3l42 -41c3.33301 -3.33301 5 -6.66602 5 -9.99902zM215.001 255.996l296.001 321c-28.667 46.667 -73.334 70 -134.001 70s-105.5 -22.667 -134.5 -68s-43.5 -116 -43.5 -212c0 -44.667 5.33301 -81.667 16 -111z
M537.002 480.996l-295 -320c29.333 -42.667 74.333 -64 135 -64c61.333 0 106 21.5 134 64.5s42 111.5 42 205.5c0 46 -5.33301 84 -16 114z" />
    <glyph glyph-name="Ugrave" unicode="&#xd9;" horiz-adv-x="717" 
d="M572.5 55c-49 -43.333 -120.5 -65 -214.5 -65c-102 0 -175.5 24.167 -220.5 72.5s-67.5 121.833 -67.5 220.5v441c0 6 1.33301 10.5 4 13.5s6 4.5 10 4.5h120c9.33301 0 14 -5.33301 14 -16v-465c0 -56 12.667 -97.167 38 -123.5s63 -39.5 113 -39.5
c103.333 0 155 55.333 155 166v461c0 11.333 4.66699 17 14 17h95c8.66699 0 13 -5.33301 13 -16v-461c0 -96.667 -24.5 -166.667 -73.5 -210zM251.5 962.5c3 1.66699 6.16699 1.83301 9.5 0.5l234 -98c7.33301 -3.33301 9 -9.33301 5 -18l-10 -31
c-2.66699 -6.66699 -7 -10 -13 -10c-3.33301 0 -6 0.333008 -8 1l-231 65c-10 3.33301 -15 8.33301 -15 15l2 8l20 60c1.33301 3.33301 3.5 5.83301 6.5 7.5z" />
    <glyph glyph-name="Uacute" unicode="&#xda;" horiz-adv-x="717" 
d="M572.5 55c-49 -43.333 -120.5 -65 -214.5 -65c-102 0 -175.5 24.167 -220.5 72.5s-67.5 121.833 -67.5 220.5v441c0 6 1.33301 10.5 4 13.5s6 4.5 10 4.5h120c9.33301 0 14 -5.33301 14 -16v-465c0 -56 12.667 -97.167 38 -123.5s63 -39.5 113 -39.5
c103.333 0 155 55.333 155 166v461c0 11.333 4.66699 17 14 17h95c8.66699 0 13 -5.33301 13 -16v-461c0 -96.667 -24.5 -166.667 -73.5 -210zM507 895l1.99902 -8c0 -6.66699 -5 -11.667 -15 -15l-231 -65c-2 -0.666992 -4.66699 -1 -8 -1c-6 0 -10.333 3.33301 -13 10
l-10 31c-1.33301 4 -2 6.66699 -2 8c0 4.66699 2.33301 8 7 10l234 98c1.33301 0.666992 3 1 5 1c4.66699 0 8.33398 -3 11.001 -9z" />
    <glyph glyph-name="Ucircumflex" unicode="&#xdb;" horiz-adv-x="717" 
d="M572.5 55c-49 -43.333 -120.5 -65 -214.5 -65c-102 0 -175.5 24.167 -220.5 72.5s-67.5 121.833 -67.5 220.5v441c0 6 1.33301 10.5 4 13.5s6 4.5 10 4.5h120c9.33301 0 14 -5.33301 14 -16v-465c0 -56 12.667 -97.167 38 -123.5s63 -39.5 113 -39.5
c103.333 0 155 55.333 155 166v461c0 11.333 4.66699 17 14 17h95c8.66699 0 13 -5.33301 13 -16v-461c0 -96.667 -24.5 -166.667 -73.5 -210zM383 888c-6 7.33301 -10.333 11.001 -13 11.001s-7.66699 -3.66699 -15 -11l-53 -52c-3.33301 -4 -6.16602 -6.33301 -8.49902 -7
s-6.5 -1 -12.5 -1h-72c-5.33301 0 -8 1.66699 -8 5c0 2.66699 2 6 6 10l106 105c4 4 8.16699 7 12.5 9s10.166 3 17.499 3h61c8 0 15.667 -3.66699 23 -11l105 -106c4.66699 -4.66699 7 -8.33398 7 -11.001s-3 -4 -9 -4h-77c-9.33301 0 -16.333 2.66699 -21 8z" />
    <glyph glyph-name="Udieresis" unicode="&#xdc;" horiz-adv-x="717" 
d="M572.5 55c-49 -43.333 -120.5 -65 -214.5 -65c-102 0 -175.5 24.167 -220.5 72.5s-67.5 121.833 -67.5 220.5v441c0 6 1.33301 10.5 4 13.5s6 4.5 10 4.5h120c9.33301 0 14 -5.33301 14 -16v-465c0 -56 12.667 -97.167 38 -123.5s63 -39.5 113 -39.5
c103.333 0 155 55.333 155 166v461c0 11.333 4.66699 17 14 17h95c8.66699 0 13 -5.33301 13 -16v-461c0 -96.667 -24.5 -166.667 -73.5 -210zM337 849c0 -6.66699 -1.66797 -11.333 -5.00098 -14s-8.66602 -4 -15.999 -4h-80c-6.66699 0 -11.167 1.33301 -13.5 4
s-3.5 6.66699 -3.5 12v91c0 10.667 4.33301 16 13 16h92c8.66699 0 13 -4.66699 13 -14v-91zM520.999 849.001c0 -6.66699 -1.66699 -11.333 -5 -14s-9 -4 -17 -4h-79c-6.66699 0 -11.167 1.16699 -13.5 3.5s-3.5 6.5 -3.5 12.5v91c0 10.667 4.33301 16 13 16h92
c8.66699 0 13 -4.66699 13 -14v-91z" />
    <glyph glyph-name="Yacute" unicode="&#xdd;" horiz-adv-x="715" 
d="M680 733c0 -2.66699 -0.99707 -5.66504 -2.99707 -8.99805l-236 -390c-3.33301 -4.66699 -5.33301 -9.5 -6 -14.5s-1 -15.167 -1 -30.5v-267c0 -8 -1.83301 -13.667 -5.5 -17s-10.167 -5 -19.5 -5h-103c-7.33301 0 -12.5 1.5 -15.5 4.5s-4.5 7.83301 -4.5 14.5v272
c0 7.33301 -0.666992 13.166 -2 17.499s-4 9.83301 -8 16.5l-238 396c-2.66699 3.33301 -4 6.66602 -4 9.99902c0 7.33301 5.66699 11 17 11h123c7.33301 0 12.666 -1 15.999 -3s7 -6.33301 11 -13l161 -281c4 -7.33301 7.33301 -11 10 -11c2 0 5.33301 3.33301 10 10
l159 282c3.33301 6.66699 6.66602 11 9.99902 13s8.66602 3 15.999 3h100c8.66699 0 13 -3 13 -9zM501.003 895.002l1.99902 -8c0 -6.66699 -5 -11.667 -15 -15l-231 -65c-2 -0.666992 -4.66699 -1 -8 -1c-6 0 -10.333 3.33301 -13 10l-10 31c-1.33301 4 -2 6.66699 -2 8
c0 4.66699 2.33301 8 7 10l234 98c1.33301 0.666992 3 1 5 1c4.66699 0 8.33398 -3 11.001 -9z" />
    <glyph glyph-name="Thorn" unicode="&#xde;" horiz-adv-x="713" 
d="M597 216.5c-48.667 -37.667 -113.667 -56.5 -195 -56.5h-165c-6.66699 0 -10 -3.66699 -10 -11v-129c0 -13.333 -7.33301 -20 -22 -20h-108c-12 0 -18 6 -18 18v707c0 11.333 5 17 15 17h119c9.33301 0 14 -5.33301 14 -16v-122c0 -6 2.66699 -9 8 -9h149
c84.667 0 153.5 -18.167 206.5 -54.5s79.5 -89.833 79.5 -160.5c0 -71.333 -24.333 -125.833 -73 -163.5zM480.5 461.5c-25.667 17.667 -60.5 26.499 -104.5 26.499h-132c-6 0 -10.333 -1.16699 -13 -3.5s-4 -6.16602 -4 -11.499v-189c0 -6 1 -10.333 3 -13
s5.33301 -4 10 -4h143c42.667 0 76 9.83301 100 29.5s36 48.167 36 85.5c0 35.333 -12.833 61.833 -38.5 79.5z" />
    <glyph glyph-name="germandbls" unicode="&#xdf;" horiz-adv-x="635" 
d="M479 701.5c34 -27 50.999 -63.167 50.999 -108.5c0 -35.333 -10.333 -63.333 -31 -84s-53.667 -41 -99 -61c-15.333 -8 -25.666 -14.5 -30.999 -19.5s-8 -11.5 -8 -19.5s2.5 -13.833 7.5 -17.5s15.167 -8.16699 30.5 -13.5c44.667 -18 79.667 -34 105 -48
s47.666 -34 66.999 -60s29 -59.333 29 -100c0 -57.333 -19.333 -101.666 -58 -132.999s-89.667 -47 -153 -47c-25.333 0 -49 2.5 -71 7.5s-41 12.167 -57 21.5c-7.33301 4 -9 9.33301 -5 16l30 61c1.33301 2.66699 3.5 4.33398 6.5 5.00098s6.16699 0 9.5 -2
c12.667 -7.33301 25.167 -13 37.5 -17s26.833 -6 43.5 -6c30 0 54 7 72 21s27 34 27 60c0 18 -4.5 32.667 -13.5 44s-20.667 20.666 -35 27.999s-34.5 15.666 -60.5 24.999c-34 14 -60.833 30.5 -80.5 49.5s-29.5 44.833 -29.5 77.5c0 24 6.16699 44.667 18.5 62
s30.833 34.333 55.5 51l29 21.5c14.667 11 25.667 22.167 33 33.5s11 24 11 38c0 20.667 -7.66699 37.167 -23 49.5s-36.666 18.5 -63.999 18.5c-34.667 0 -62 -10.5 -82 -31.5s-30 -50.5 -30 -88.5v-518l1 -5c-0.666992 -8 -5 -12 -13 -12h-102c-9.33301 0 -14 5 -14 15
v395c0 6.66699 -2.66699 10 -8 10h-42c-10 0 -15 4.33301 -15 13v63c0 4 1.33301 7.5 4 10.5s6.66699 4.5 12 4.5h38c4.66699 0 7.66699 1.16699 9 3.5s2 5.83301 2 10.5c1.33301 63.333 22.5 115.333 63.5 156s102.5 61 184.5 61c64.667 0 114 -13.5 148 -40.5z" />
    <glyph glyph-name="agrave" unicode="&#xe0;" horiz-adv-x="558" 
d="M196 -10c-50.667 0 -90.8301 13.502 -120.497 40.502s-44.5 62.167 -44.5 105.5c0 55.333 24.667 99.333 74 132s118.333 50.667 207 54l50 3c10.667 1.33301 16 6.33301 16 15v23c0 29.333 -8.83301 52.166 -26.5 68.499s-41.834 24.5 -72.501 24.5
c-50.667 0 -89.667 -22 -117 -66c-2 -2.66699 -3.83301 -4.83398 -5.5 -6.50098s-3.83398 -2.5 -6.50098 -2.5c-3.33301 0 -6 0.333008 -8 1l-84 21c-5.33301 1.33301 -8 4.33301 -8 9c0 3.33301 1.33301 7.66602 4 12.999c17.333 37.333 45.833 65.833 85.5 85.5
s88.167 29.5 145.5 29.5c74.667 0 129.5 -14.667 164.5 -44s52.5 -70.666 52.5 -123.999v-352c0 -7.33301 -1.16699 -12.5 -3.5 -15.5s-6.83301 -4.5 -13.5 -4.5h-85c-6 0 -10.333 2 -13 6s-4.66699 10 -6 18l-1 30c-0.666992 6 -3 9 -7 9c-2 0 -6.33301 -2.66699 -13 -8
c-46.667 -43.333 -101.334 -65 -164.001 -65zM374.504 255.002c-2.33301 2.66699 -6.16602 4.00098 -11.499 4.00098l-41 -3c-46.667 -3.33301 -85.5 -13.833 -116.5 -31.5s-46.5 -41.834 -46.5 -72.501c0 -22.667 8.16699 -40.667 24.5 -54s38.166 -20 65.499 -20
c34.667 0 65 10.667 91 32c25.333 20 38 40.333 38 61v71c0 6 -1.16699 10.333 -3.5 13zM164.504 750.503c3 1.66699 6.16699 1.83301 9.5 0.5l234 -98c7.33301 -3.33301 9 -9.33301 5 -18l-10 -31c-2.66699 -6.66699 -7 -10 -13 -10c-3.33301 0 -6 0.333008 -8 1l-231 65
c-10 3.33301 -15 8.33301 -15 15l2 8l20 60c1.33301 3.33301 3.5 5.83301 6.5 7.5z" />
    <glyph glyph-name="aacute" unicode="&#xe1;" horiz-adv-x="558" 
d="M196 -10c-50.667 0 -90.8301 13.502 -120.497 40.502s-44.5 62.167 -44.5 105.5c0 55.333 24.667 99.333 74 132s118.333 50.667 207 54l50 3c10.667 1.33301 16 6.33301 16 15v23c0 29.333 -8.83301 52.166 -26.5 68.499s-41.834 24.5 -72.501 24.5
c-50.667 0 -89.667 -22 -117 -66c-2 -2.66699 -3.83301 -4.83398 -5.5 -6.50098s-3.83398 -2.5 -6.50098 -2.5c-3.33301 0 -6 0.333008 -8 1l-84 21c-5.33301 1.33301 -8 4.33301 -8 9c0 3.33301 1.33301 7.66602 4 12.999c17.333 37.333 45.833 65.833 85.5 85.5
s88.167 29.5 145.5 29.5c74.667 0 129.5 -14.667 164.5 -44s52.5 -70.666 52.5 -123.999v-352c0 -7.33301 -1.16699 -12.5 -3.5 -15.5s-6.83301 -4.5 -13.5 -4.5h-85c-6 0 -10.333 2 -13 6s-4.66699 10 -6 18l-1 30c-0.666992 6 -3 9 -7 9c-2 0 -6.33301 -2.66699 -13 -8
c-46.667 -43.333 -101.334 -65 -164.001 -65zM374.504 255.002c-2.33301 2.66699 -6.16602 4.00098 -11.499 4.00098l-41 -3c-46.667 -3.33301 -85.5 -13.833 -116.5 -31.5s-46.5 -41.834 -46.5 -72.501c0 -22.667 8.16699 -40.667 24.5 -54s38.166 -20 65.499 -20
c34.667 0 65 10.667 91 32c25.333 20 38 40.333 38 61v71c0 6 -1.16699 10.333 -3.5 13zM420.004 683.003l1.99902 -8c0 -6.66699 -5 -11.667 -15 -15l-231 -65c-2 -0.666992 -4.66699 -1 -8 -1c-6 0 -10.333 3.33301 -13 10l-10 31c-1.33301 4 -2 6.66699 -2 8
c0 4.66699 2.33301 8 7 10l234 98c1.33301 0.666992 3 1 5 1c4.66699 0 8.33398 -3 11.001 -9z" />
    <glyph glyph-name="acircumflex" unicode="&#xe2;" horiz-adv-x="558" 
d="M196 -10c-50.667 0 -90.8301 13.502 -120.497 40.502s-44.5 62.167 -44.5 105.5c0 55.333 24.667 99.333 74 132s118.333 50.667 207 54l50 3c10.667 1.33301 16 6.33301 16 15v23c0 29.333 -8.83301 52.166 -26.5 68.499s-41.834 24.5 -72.501 24.5
c-50.667 0 -89.667 -22 -117 -66c-2 -2.66699 -3.83301 -4.83398 -5.5 -6.50098s-3.83398 -2.5 -6.50098 -2.5c-3.33301 0 -6 0.333008 -8 1l-84 21c-5.33301 1.33301 -8 4.33301 -8 9c0 3.33301 1.33301 7.66602 4 12.999c17.333 37.333 45.833 65.833 85.5 85.5
s88.167 29.5 145.5 29.5c74.667 0 129.5 -14.667 164.5 -44s52.5 -70.666 52.5 -123.999v-352c0 -7.33301 -1.16699 -12.5 -3.5 -15.5s-6.83301 -4.5 -13.5 -4.5h-85c-6 0 -10.333 2 -13 6s-4.66699 10 -6 18l-1 30c-0.666992 6 -3 9 -7 9c-2 0 -6.33301 -2.66699 -13 -8
c-46.667 -43.333 -101.334 -65 -164.001 -65zM374.504 255.002c-2.33301 2.66699 -6.16602 4.00098 -11.499 4.00098l-41 -3c-46.667 -3.33301 -85.5 -13.833 -116.5 -31.5s-46.5 -41.834 -46.5 -72.501c0 -22.667 8.16699 -40.667 24.5 -54s38.166 -20 65.499 -20
c34.667 0 65 10.667 91 32c25.333 20 38 40.333 38 61v71c0 6 -1.16699 10.333 -3.5 13zM296.004 676.003c-6 7.33301 -10.333 11.001 -13 11.001s-7.66699 -3.66699 -15 -11l-53 -52c-3.33301 -4 -6.16602 -6.33301 -8.49902 -7s-6.5 -1 -12.5 -1h-72
c-5.33301 0 -8 1.66699 -8 5c0 2.66699 2 6 6 10l106 105c4 4 8.16699 7 12.5 9s10.166 3 17.499 3h61c8 0 15.667 -3.66699 23 -11l105 -106c4.66699 -4.66699 7 -8.33398 7 -11.001s-3 -4 -9 -4h-77c-9.33301 0 -16.333 2.66699 -21 8z" />
    <glyph glyph-name="atilde" unicode="&#xe3;" horiz-adv-x="558" 
d="M196 -10c-50.667 0 -90.8301 13.502 -120.497 40.502s-44.5 62.167 -44.5 105.5c0 55.333 24.667 99.333 74 132s118.333 50.667 207 54l50 3c10.667 1.33301 16 6.33301 16 15v23c0 29.333 -8.83301 52.166 -26.5 68.499s-41.834 24.5 -72.501 24.5
c-50.667 0 -89.667 -22 -117 -66c-2 -2.66699 -3.83301 -4.83398 -5.5 -6.50098s-3.83398 -2.5 -6.50098 -2.5c-3.33301 0 -6 0.333008 -8 1l-84 21c-5.33301 1.33301 -8 4.33301 -8 9c0 3.33301 1.33301 7.66602 4 12.999c17.333 37.333 45.833 65.833 85.5 85.5
s88.167 29.5 145.5 29.5c74.667 0 129.5 -14.667 164.5 -44s52.5 -70.666 52.5 -123.999v-352c0 -7.33301 -1.16699 -12.5 -3.5 -15.5s-6.83301 -4.5 -13.5 -4.5h-85c-6 0 -10.333 2 -13 6s-4.66699 10 -6 18l-1 30c-0.666992 6 -3 9 -7 9c-2 0 -6.33301 -2.66699 -13 -8
c-46.667 -43.333 -101.334 -65 -164.001 -65zM374.504 255.002c-2.33301 2.66699 -6.16602 4.00098 -11.499 4.00098l-41 -3c-46.667 -3.33301 -85.5 -13.833 -116.5 -31.5s-46.5 -41.834 -46.5 -72.501c0 -22.667 8.16699 -40.667 24.5 -54s38.166 -20 65.499 -20
c34.667 0 65 10.667 91 32c25.333 20 38 40.333 38 61v71c0 6 -1.16699 10.333 -3.5 13zM355.004 637.003c-21.333 0 -46.332 5 -74.999 15c-2.66699 0.666992 -10.834 3 -24.501 7s-27.5 6 -41.5 6c-13.333 0 -24.5 -1.83301 -33.5 -5.5s-19.167 -9.5 -30.5 -17.5
c-5.33301 -2.66699 -8.33301 -4 -9 -4c-4 0 -7 3.33301 -9 10l-13 38c-0.666992 2 -1 4.66699 -1 8c0 4 2.33301 8.33301 7 13c13.333 11.333 26.333 19.833 39 25.5s28 8.5 46 8.5c20 0 46 -5.33301 78 -16c11.333 -3.33301 22.833 -6.5 34.5 -9.5s22.5 -4.5 32.5 -4.5
c21.333 0 43 7.66699 65 23c4 2.66699 7 4 9 4c4.66699 0 8 -3.66699 10 -11l12 -44l1 -5c0 -6 -3.66699 -11.333 -11 -16c-25.333 -16.667 -54 -25 -86 -25z" />
    <glyph glyph-name="adieresis" unicode="&#xe4;" horiz-adv-x="558" 
d="M196 -10c-50.667 0 -90.8301 13.502 -120.497 40.502s-44.5 62.167 -44.5 105.5c0 55.333 24.667 99.333 74 132s118.333 50.667 207 54l50 3c10.667 1.33301 16 6.33301 16 15v23c0 29.333 -8.83301 52.166 -26.5 68.499s-41.834 24.5 -72.501 24.5
c-50.667 0 -89.667 -22 -117 -66c-2 -2.66699 -3.83301 -4.83398 -5.5 -6.50098s-3.83398 -2.5 -6.50098 -2.5c-3.33301 0 -6 0.333008 -8 1l-84 21c-5.33301 1.33301 -8 4.33301 -8 9c0 3.33301 1.33301 7.66602 4 12.999c17.333 37.333 45.833 65.833 85.5 85.5
s88.167 29.5 145.5 29.5c74.667 0 129.5 -14.667 164.5 -44s52.5 -70.666 52.5 -123.999v-352c0 -7.33301 -1.16699 -12.5 -3.5 -15.5s-6.83301 -4.5 -13.5 -4.5h-85c-6 0 -10.333 2 -13 6s-4.66699 10 -6 18l-1 30c-0.666992 6 -3 9 -7 9c-2 0 -6.33301 -2.66699 -13 -8
c-46.667 -43.333 -101.334 -65 -164.001 -65zM374.504 255.002c-2.33301 2.66699 -6.16602 4.00098 -11.499 4.00098l-41 -3c-46.667 -3.33301 -85.5 -13.833 -116.5 -31.5s-46.5 -41.834 -46.5 -72.501c0 -22.667 8.16699 -40.667 24.5 -54s38.166 -20 65.499 -20
c34.667 0 65 10.667 91 32c25.333 20 38 40.333 38 61v71c0 6 -1.16699 10.333 -3.5 13zM250.004 637.003c0 -6.66699 -1.66797 -11.333 -5.00098 -14s-8.66602 -4 -15.999 -4h-80c-6.66699 0 -11.167 1.33301 -13.5 4s-3.5 6.66699 -3.5 12v91c0 10.667 4.33301 16 13 16
h92c8.66699 0 13 -4.66699 13 -14v-91zM434.003 637.004c0 -6.66699 -1.66699 -11.333 -5 -14s-9 -4 -17 -4h-79c-6.66699 0 -11.167 1.16699 -13.5 3.5s-3.5 6.5 -3.5 12.5v91c0 10.667 4.33301 16 13 16h92c8.66699 0 13 -4.66699 13 -14v-91z" />
    <glyph glyph-name="aring" unicode="&#xe5;" horiz-adv-x="558" 
d="M196 -10c-50.667 0 -90.8301 13.502 -120.497 40.502s-44.5 62.167 -44.5 105.5c0 55.333 24.667 99.333 74 132s118.333 50.667 207 54l50 3c10.667 1.33301 16 6.33301 16 15v23c0 29.333 -8.83301 52.166 -26.5 68.499s-41.834 24.5 -72.501 24.5
c-50.667 0 -89.667 -22 -117 -66c-2 -2.66699 -3.83301 -4.83398 -5.5 -6.50098s-3.83398 -2.5 -6.50098 -2.5c-3.33301 0 -6 0.333008 -8 1l-84 21c-5.33301 1.33301 -8 4.33301 -8 9c0 3.33301 1.33301 7.66602 4 12.999c17.333 37.333 45.833 65.833 85.5 85.5
s88.167 29.5 145.5 29.5c74.667 0 129.5 -14.667 164.5 -44s52.5 -70.666 52.5 -123.999v-352c0 -7.33301 -1.16699 -12.5 -3.5 -15.5s-6.83301 -4.5 -13.5 -4.5h-85c-6 0 -10.333 2 -13 6s-4.66699 10 -6 18l-1 30c-0.666992 6 -3 9 -7 9c-2 0 -6.33301 -2.66699 -13 -8
c-46.667 -43.333 -101.334 -65 -164.001 -65zM374.504 255.002c-2.33301 2.66699 -6.16602 4.00098 -11.499 4.00098l-41 -3c-46.667 -3.33301 -85.5 -13.833 -116.5 -31.5s-46.5 -41.834 -46.5 -72.501c0 -22.667 8.16699 -40.667 24.5 -54s38.166 -20 65.499 -20
c34.667 0 65 10.667 91 32c25.333 20 38 40.333 38 61v71c0 6 -1.16699 10.333 -3.5 13zM360.504 617.003c-21 -21.333 -46.833 -32.001 -77.5 -32.001s-56.667 10.833 -78 32.5s-32 48.167 -32 79.5c0 28.667 10.833 53.334 32.5 74.001s47.5 31 77.5 31
c30.667 0 56.5 -10.333 77.5 -31s31.5 -46 31.5 -76c0 -30.667 -10.5 -56.667 -31.5 -78zM319.004 731.002c-10 10 -22.333 15 -37 15s-27.334 -5 -38.001 -15s-16 -22.333 -16 -37s5.33301 -27.334 16 -38.001s23.334 -16 38.001 -16s27 5.33301 37 16s15 23.334 15 38.001
s-5 27 -15 37z" />
    <glyph glyph-name="ae" unicode="&#xe6;" horiz-adv-x="922" 
d="M511.5 235.5c-2.33301 -3 -3.5 -8.49805 -3.5 -16.498c0 -24.667 6.5 -47.5 19.5 -68.5s30.5 -37.833 52.5 -50.5s46.333 -19 73 -19c30 0 55.167 6 75.5 18s41.5 30 63.5 54c3.33301 3.33301 5.66602 5 6.99902 5c2 0 5 -1 9 -3l61 -27c4.66699 -2 7 -5 7 -9
c0 -0.666992 -1.33301 -3.66699 -4 -9c-28 -42 -60.833 -72.5 -98.5 -91.5s-83.167 -28.5 -136.5 -28.5c-45.333 0 -85 9.16699 -119 27.5s-63 41.5 -87 69.5c-2 2 -3.66699 3 -5 3s-2.66602 -1 -3.99902 -3c-28.667 -30.667 -60.167 -54.5 -94.5 -71.5
s-76.5 -25.5 -126.5 -25.5c-54 0 -95.833 13.5 -125.5 40.5s-44.5 63.5 -44.5 109.5c0 52.667 22.333 94.667 67 126s111.334 49.666 200.001 54.999l62 4c12 1.33301 18 6.33301 18 15v23c0 29.333 -8.66699 52.166 -26 68.499s-42.333 24.5 -75 24.5
c-49.333 0 -88 -22 -116 -66c-2.66699 -6 -6.33398 -9 -11.001 -9c-3.33301 0 -6.33301 0.333008 -9 1l-83 21c-4 1.33301 -6 5.66602 -6 12.999c0 2 0.666992 5 2 9c20.667 38.667 49.167 67.5 85.5 86.5s84.166 28.5 143.499 28.5c46.667 -0.666992 84.834 -7 114.501 -19
s52.167 -30.667 67.5 -56c20 24.667 44.667 43.334 74 56.001s61.666 19 96.999 19c50 0 94 -11 132 -33s67.667 -53.833 89 -95.5s32 -91.167 32 -148.5c0 -8 -1.16699 -13.667 -3.5 -17s-7.16602 -5.33301 -14.499 -6h-346c-6.66699 0 -11.167 -1.5 -13.5 -4.5z
M547.5 419.002c-25 -26 -37.5 -60.667 -37.5 -104l235 -1c6.66699 0 11.167 1 13.5 3s3.5 6 3.5 12c0 20.667 -5 41 -15 61s-24.333 36.333 -43 49s-40 19 -64 19c-36.667 0 -67.5 -13 -92.5 -39zM361 254.002l-49.001 -4.00098c-45.333 -4 -82.166 -14.667 -110.499 -32
s-42.5 -40.666 -42.5 -69.999c0 -23.333 8.16699 -41.833 24.5 -55.5s38.833 -20.167 67.5 -19.5c34.667 1.33301 64.5 11 89.5 29s37.5 39.667 37.5 65v70c0 11.333 -5.66699 17 -17 17z" />
    <glyph glyph-name="ccedilla" unicode="&#xe7;" horiz-adv-x="548" 
d="M521 135c-15.333 -35.333 -39.334 -67.0039 -72.001 -95.0039s-74 -44.333 -124 -49l-16 -40c-2 -4 -0.666992 -6 4 -6c32 -1.33301 55.5 -9.66602 70.5 -24.999s22.5 -33.333 22.5 -54c0 -25.333 -11.333 -45.333 -34 -60s-50.667 -22 -84 -22
c-40.667 0 -75.334 7.66699 -104.001 23c-5.33301 4 -6.66602 8 -3.99902 12l13 32c2 4 5.33301 5 10 3c24 -14 47 -21 69 -21c17.333 0 30.5 3 39.5 9s13.5 14.333 13.5 25c0 14 -6.66699 24.5 -20 31.5s-35 10.833 -65 11.5c-8 0 -10.667 3 -8 9l31 73
c-44.667 4.66699 -84.167 19 -118.5 43s-61 55.667 -80 95s-28.5 83.666 -28.5 132.999c0 54 11.333 102 34 144s53.834 74.667 93.501 98s84.167 35 133.5 35c56 0 102.667 -13.667 140 -41s64 -61 80 -101l2 -9c0 -5.33301 -4 -8.66602 -12 -9.99902l-88 -11l-4 -1
c-4.66699 0 -8 3.33301 -10 10c-16 26 -31.167 45.167 -45.5 57.5s-33.5 18.5 -57.5 18.5c-41.333 0 -74 -16.333 -98 -49s-36 -79 -36 -139c0 -61.333 12.333 -108.166 37 -140.499s59 -48.5 103 -48.5c28.667 0 52.667 7.33301 72 22s38 37 56 67
c2 2.66699 4.16699 4.33398 6.5 5.00098s5.5 0.333984 9.5 -0.999023l63 -17c6.66699 -2 8.66699 -7.66699 6 -17z" />
    <glyph glyph-name="egrave" unicode="&#xe8;" horiz-adv-x="584" 
d="M190 150.5c12.667 -21.667 30.167 -38.668 52.5 -51.001s46.833 -18.5 73.5 -18.5c27.333 0 52.166 5.83301 74.499 17.5s43.5 29.834 63.5 54.501c3.33301 3.33301 6 5 8 5s5 -1 9 -3l61 -27c4.66699 -2 7 -5 7 -9c0 -2 -1.33301 -5 -4 -9
c-30 -43.333 -63.167 -74.166 -99.5 -92.499s-81.166 -27.5 -134.499 -27.5c-50.667 0 -96.167 11.333 -136.5 34s-71.833 54.334 -94.5 95.001s-34 87 -34 139c0 56 11.667 105.333 35 148s55 75.667 95 99s84.333 35 133 35c50 0 94.167 -11 132.5 -33
s68 -53.833 89 -95.5s31.5 -91.167 31.5 -148.5v-4c0 -6.66699 -1 -11.334 -3 -14.001s-6.33301 -4.33398 -13 -5.00098h-354c-7.33301 0 -11 -5.33301 -11 -16c0 -27.333 6.33301 -51.833 19 -73.5zM408 313.999c6.66699 0 11.1631 0.833984 13.4961 2.50098
s3.5 5.5 3.5 11.5c0 21.333 -4.66699 42 -14 62s-23.166 36.333 -41.499 49s-40.166 19 -65.499 19c-39.333 0 -71.166 -13.833 -95.499 -41.5s-36.166 -61.834 -35.499 -102.501h235zM180.496 750.5c3 1.66699 6.16699 1.83301 9.5 0.5l234 -98
c7.33301 -3.33301 9 -9.33301 5 -18l-10 -31c-2.66699 -6.66699 -7 -10 -13 -10c-3.33301 0 -6 0.333008 -8 1l-231 65c-10 3.33301 -15 8.33301 -15 15l2 8l20 60c1.33301 3.33301 3.5 5.83301 6.5 7.5z" />
    <glyph glyph-name="eacute" unicode="&#xe9;" horiz-adv-x="584" 
d="M190 150.5c12.667 -21.667 30.167 -38.668 52.5 -51.001s46.833 -18.5 73.5 -18.5c27.333 0 52.166 5.83301 74.499 17.5s43.5 29.834 63.5 54.501c3.33301 3.33301 6 5 8 5s5 -1 9 -3l61 -27c4.66699 -2 7 -5 7 -9c0 -2 -1.33301 -5 -4 -9
c-30 -43.333 -63.167 -74.166 -99.5 -92.499s-81.166 -27.5 -134.499 -27.5c-50.667 0 -96.167 11.333 -136.5 34s-71.833 54.334 -94.5 95.001s-34 87 -34 139c0 56 11.667 105.333 35 148s55 75.667 95 99s84.333 35 133 35c50 0 94.167 -11 132.5 -33
s68 -53.833 89 -95.5s31.5 -91.167 31.5 -148.5v-4c0 -6.66699 -1 -11.334 -3 -14.001s-6.33301 -4.33398 -13 -5.00098h-354c-7.33301 0 -11 -5.33301 -11 -16c0 -27.333 6.33301 -51.833 19 -73.5zM408 313.999c6.66699 0 11.1631 0.833984 13.4961 2.50098
s3.5 5.5 3.5 11.5c0 21.333 -4.66699 42 -14 62s-23.166 36.333 -41.499 49s-40.166 19 -65.499 19c-39.333 0 -71.166 -13.833 -95.499 -41.5s-36.166 -61.834 -35.499 -102.501h235zM435.996 683l1.99902 -8c0 -6.66699 -5 -11.667 -15 -15l-231 -65
c-2 -0.666992 -4.66699 -1 -8 -1c-6 0 -10.333 3.33301 -13 10l-10 31c-1.33301 4 -2 6.66699 -2 8c0 4.66699 2.33301 8 7 10l234 98c1.33301 0.666992 3 1 5 1c4.66699 0 8.33398 -3 11.001 -9z" />
    <glyph glyph-name="ecircumflex" unicode="&#xea;" horiz-adv-x="584" 
d="M190 150.5c12.667 -21.667 30.167 -38.668 52.5 -51.001s46.833 -18.5 73.5 -18.5c27.333 0 52.166 5.83301 74.499 17.5s43.5 29.834 63.5 54.501c3.33301 3.33301 6 5 8 5s5 -1 9 -3l61 -27c4.66699 -2 7 -5 7 -9c0 -2 -1.33301 -5 -4 -9
c-30 -43.333 -63.167 -74.166 -99.5 -92.499s-81.166 -27.5 -134.499 -27.5c-50.667 0 -96.167 11.333 -136.5 34s-71.833 54.334 -94.5 95.001s-34 87 -34 139c0 56 11.667 105.333 35 148s55 75.667 95 99s84.333 35 133 35c50 0 94.167 -11 132.5 -33
s68 -53.833 89 -95.5s31.5 -91.167 31.5 -148.5v-4c0 -6.66699 -1 -11.334 -3 -14.001s-6.33301 -4.33398 -13 -5.00098h-354c-7.33301 0 -11 -5.33301 -11 -16c0 -27.333 6.33301 -51.833 19 -73.5zM408 313.999c6.66699 0 11.1631 0.833984 13.4961 2.50098
s3.5 5.5 3.5 11.5c0 21.333 -4.66699 42 -14 62s-23.166 36.333 -41.499 49s-40.166 19 -65.499 19c-39.333 0 -71.166 -13.833 -95.499 -41.5s-36.166 -61.834 -35.499 -102.501h235zM311.996 676c-6 7.33301 -10.333 11.001 -13 11.001s-7.66699 -3.66699 -15 -11l-53 -52
c-3.33301 -4 -6.16602 -6.33301 -8.49902 -7s-6.5 -1 -12.5 -1h-72c-5.33301 0 -8 1.66699 -8 5c0 2.66699 2 6 6 10l106 105c4 4 8.16699 7 12.5 9s10.166 3 17.499 3h61c8 0 15.667 -3.66699 23 -11l105 -106c4.66699 -4.66699 7 -8.33398 7 -11.001s-3 -4 -9 -4h-77
c-9.33301 0 -16.333 2.66699 -21 8z" />
    <glyph glyph-name="edieresis" unicode="&#xeb;" horiz-adv-x="584" 
d="M190 150.5c12.667 -21.667 30.167 -38.668 52.5 -51.001s46.833 -18.5 73.5 -18.5c27.333 0 52.166 5.83301 74.499 17.5s43.5 29.834 63.5 54.501c3.33301 3.33301 6 5 8 5s5 -1 9 -3l61 -27c4.66699 -2 7 -5 7 -9c0 -2 -1.33301 -5 -4 -9
c-30 -43.333 -63.167 -74.166 -99.5 -92.499s-81.166 -27.5 -134.499 -27.5c-50.667 0 -96.167 11.333 -136.5 34s-71.833 54.334 -94.5 95.001s-34 87 -34 139c0 56 11.667 105.333 35 148s55 75.667 95 99s84.333 35 133 35c50 0 94.167 -11 132.5 -33
s68 -53.833 89 -95.5s31.5 -91.167 31.5 -148.5v-4c0 -6.66699 -1 -11.334 -3 -14.001s-6.33301 -4.33398 -13 -5.00098h-354c-7.33301 0 -11 -5.33301 -11 -16c0 -27.333 6.33301 -51.833 19 -73.5zM408 313.999c6.66699 0 11.1631 0.833984 13.4961 2.50098
s3.5 5.5 3.5 11.5c0 21.333 -4.66699 42 -14 62s-23.166 36.333 -41.499 49s-40.166 19 -65.499 19c-39.333 0 -71.166 -13.833 -95.499 -41.5s-36.166 -61.834 -35.499 -102.501h235zM265.996 637c0 -6.66699 -1.66797 -11.333 -5.00098 -14s-8.66602 -4 -15.999 -4h-80
c-6.66699 0 -11.167 1.33301 -13.5 4s-3.5 6.66699 -3.5 12v91c0 10.667 4.33301 16 13 16h92c8.66699 0 13 -4.66699 13 -14v-91zM449.995 637.001c0 -6.66699 -1.66699 -11.333 -5 -14s-9 -4 -17 -4h-79c-6.66699 0 -11.167 1.16699 -13.5 3.5s-3.5 6.5 -3.5 12.5v91
c0 10.667 4.33301 16 13 16h92c8.66699 0 13 -4.66699 13 -14v-91z" />
    <glyph glyph-name="igrave" unicode="&#xec;" horiz-adv-x="256" 
d="M193 22c0 -8 -1.83203 -13.668 -5.49902 -17.001s-9.83398 -5 -18.501 -5h-87c-7.33301 0 -12.333 1.33301 -15 4s-4 7.33398 -4 14.001v495c0 11.333 5 17 15 17h101c9.33301 0 14 -5.33301 14 -16v-492zM11.501 750.499c3 1.66699 6.16699 1.83301 9.5 0.5l234 -98
c7.33301 -3.33301 9 -9.33301 5 -18l-10 -31c-2.66699 -6.66699 -7 -10 -13 -10c-3.33301 0 -6 0.333008 -8 1l-231 65c-10 3.33301 -15 8.33301 -15 15l2 8l20 60c1.33301 3.33301 3.5 5.83301 6.5 7.5z" />
    <glyph glyph-name="iacute" unicode="&#xed;" horiz-adv-x="256" 
d="M193 22c0 -8 -1.83203 -13.668 -5.49902 -17.001s-9.83398 -5 -18.501 -5h-87c-7.33301 0 -12.333 1.33301 -15 4s-4 7.33398 -4 14.001v495c0 11.333 5 17 15 17h101c9.33301 0 14 -5.33301 14 -16v-492zM267.001 682.999l1.99902 -8c0 -6.66699 -5 -11.667 -15 -15
l-231 -65c-2 -0.666992 -4.66699 -1 -8 -1c-6 0 -10.333 3.33301 -13 10l-10 31c-1.33301 4 -2 6.66699 -2 8c0 4.66699 2.33301 8 7 10l234 98c1.33301 0.666992 3 1 5 1c4.66699 0 8.33398 -3 11.001 -9z" />
    <glyph glyph-name="icircumflex" unicode="&#xee;" horiz-adv-x="256" 
d="M193 22c0 -8 -1.83203 -13.668 -5.49902 -17.001s-9.83398 -5 -18.501 -5h-87c-7.33301 0 -12.333 1.33301 -15 4s-4 7.33398 -4 14.001v495c0 11.333 5 17 15 17h101c9.33301 0 14 -5.33301 14 -16v-492zM143.001 675.999c-6 7.33301 -10.333 11.001 -13 11.001
s-7.66699 -3.66699 -15 -11l-53 -52c-3.33301 -4 -6.16602 -6.33301 -8.49902 -7s-6.5 -1 -12.5 -1h-72c-5.33301 0 -8 1.66699 -8 5c0 2.66699 2 6 6 10l106 105c4 4 8.16699 7 12.5 9s10.166 3 17.499 3h61c8 0 15.667 -3.66699 23 -11l105 -106
c4.66699 -4.66699 7 -8.33398 7 -11.001s-3 -4 -9 -4h-77c-9.33301 0 -16.333 2.66699 -21 8z" />
    <glyph glyph-name="idieresis" unicode="&#xef;" horiz-adv-x="256" 
d="M193 22c0 -8 -1.83203 -13.668 -5.49902 -17.001s-9.83398 -5 -18.501 -5h-87c-7.33301 0 -12.333 1.33301 -15 4s-4 7.33398 -4 14.001v495c0 11.333 5 17 15 17h101c9.33301 0 14 -5.33301 14 -16v-492zM97.001 636.999c0 -6.66699 -1.66797 -11.333 -5.00098 -14
s-8.66602 -4 -15.999 -4h-80c-6.66699 0 -11.167 1.33301 -13.5 4s-3.5 6.66699 -3.5 12v91c0 10.667 4.33301 16 13 16h92c8.66699 0 13 -4.66699 13 -14v-91zM281 637c0 -6.66699 -1.66699 -11.333 -5 -14s-9 -4 -17 -4h-79c-6.66699 0 -11.167 1.16699 -13.5 3.5
s-3.5 6.5 -3.5 12.5v91c0 10.667 4.33301 16 13 16h92c8.66699 0 13 -4.66699 13 -14v-91z" />
    <glyph glyph-name="eth" unicode="&#xf0;" horiz-adv-x="599" 
d="M530.5 123.5c-21.667 -42.333 -52.5029 -75.167 -92.5029 -98.5s-86.667 -35 -140 -35c-50.667 0 -96 11.333 -136 34s-71 53.834 -93 93.501s-33 84.5 -33 134.5c0 51.333 11.333 97.333 34 138s53.667 72.5 93 95.5s83.666 34.5 132.999 34.5c32.667 0 58 -9 76 -27
c-24.667 46.667 -61.667 87.334 -111 122.001l-128 -72c-4 -1.33301 -6.33301 -2 -7 -2c-4 0 -8 3 -12 9l-12 19c-2.66699 3.33301 -4 6.66602 -4 9.99902s1.66699 5.66602 5 6.99902l108 60c-32 18 -63.667 32.667 -95 44c-3.33301 1.33301 -5.16602 3 -5.49902 5
s0.833984 4.33301 3.50098 7l55 44c4 4 7.66699 6 11 6l9 -2c46.667 -15.333 86.334 -32 119.001 -50l87 49c2.66699 2 5.33398 2.83301 8.00098 2.5s4.66699 -1.5 6 -3.5l18 -31c2.66699 -4.66699 1.66699 -8.33398 -3 -11.001l-65 -37c68 -46.667 119 -104.167 153 -172.5
s51 -143.833 51 -226.5c0 -55.333 -10.833 -104.166 -32.5 -146.499zM395.997 126.499c23.333 31.667 35 74.5 35 128.5c0 54.667 -11.833 98.167 -35.5 130.5s-55.5 48.5 -95.5 48.5s-72 -16.167 -96 -48.5s-36 -75.833 -36 -130.5c0 -54 12 -96.833 36 -128.5
s56 -47.5 96 -47.5c40.667 0 72.667 15.833 96 47.5z" />
    <glyph glyph-name="ntilde" unicode="&#xf1;" horiz-adv-x="592" 
d="M67 4c-2.66699 2.66699 -3.99902 7.33301 -3.99902 14v495c0 11.333 4.66699 17 14 17h100c8.66699 0 13 -5 13 -15v-52c0 -4 1 -6.33301 3 -7s4.66699 0.333008 8 3c31.333 27.333 60.5 47.666 87.5 60.999s56.167 20 87.5 20c49.333 0 88.166 -14.167 116.499 -42.5
s42.5 -65.833 42.5 -112.5v-364c0 -14 -7 -21 -21 -21h-92c-6.66699 0 -11.167 1.33301 -13.5 4s-3.5 7.33398 -3.5 14.001v344c0 26 -7.16699 46.167 -21.5 60.5s-35.166 21.5 -62.499 21.5c-23.333 0 -44.5 -5.33301 -63.5 -16s-40.5 -28 -64.5 -52v-356
c0 -7.33301 -1.66699 -12.5 -5 -15.5s-9.33301 -4.5 -18 -4.5h-89c-6.66699 -0 -11.334 1.33301 -14.001 4zM376.001 636.999c-21.333 0 -46.332 5 -74.999 15c-2.66699 0.666992 -10.834 3 -24.501 7s-27.5 6 -41.5 6c-13.333 0 -24.5 -1.83301 -33.5 -5.5
s-19.167 -9.5 -30.5 -17.5c-5.33301 -2.66699 -8.33301 -4 -9 -4c-4 0 -7 3.33301 -9 10l-13 38c-0.666992 2 -1 4.66699 -1 8c0 4 2.33301 8.33301 7 13c13.333 11.333 26.333 19.833 39 25.5s28 8.5 46 8.5c20 0 46 -5.33301 78 -16
c11.333 -3.33301 22.833 -6.5 34.5 -9.5s22.5 -4.5 32.5 -4.5c21.333 0 43 7.66699 65 23c4 2.66699 7 4 9 4c4.66699 0 8 -3.66699 10 -11l12 -44l1 -5c0 -6 -3.66699 -11.333 -11 -16c-25.333 -16.667 -54 -25 -86 -25z" />
    <glyph glyph-name="ograve" unicode="&#xf2;" horiz-adv-x="599" 
d="M162 24.5c-40 23 -71 55.167 -93 96.5s-33 88.333 -33 141c0 54 11.333 102.167 34 144.5s54 75.166 94 98.499s85.333 35 136 35c51.333 0 97 -11.833 137 -35.5s71 -56.5 93 -98.5s33 -89.667 33 -143c0 -52.667 -11.167 -99.667 -33.5 -141
s-53.5 -73.666 -93.5 -96.999s-85.667 -35 -137 -35s-97 11.5 -137 34.5zM397.5 127c22.333 32 33.5 78 33.5 138c0 60.667 -11.333 107.334 -34 140.001s-55 49 -97 49s-74.5 -16.333 -97.5 -49s-34.5 -79.334 -34.5 -140.001c0 -60 11.5 -106 34.5 -138s55.5 -48 97.5 -48
c42.667 0 75.167 16 97.5 48zM181.5 750.5c3 1.66699 6.16699 1.83301 9.5 0.5l234 -98c7.33301 -3.33301 9 -9.33301 5 -18l-10 -31c-2.66699 -6.66699 -7 -10 -13 -10c-3.33301 0 -6 0.333008 -8 1l-231 65c-10 3.33301 -15 8.33301 -15 15l2 8l20 60
c1.33301 3.33301 3.5 5.83301 6.5 7.5z" />
    <glyph glyph-name="oacute" unicode="&#xf3;" horiz-adv-x="599" 
d="M162 24.5c-40 23 -71 55.167 -93 96.5s-33 88.333 -33 141c0 54 11.333 102.167 34 144.5s54 75.166 94 98.499s85.333 35 136 35c51.333 0 97 -11.833 137 -35.5s71 -56.5 93 -98.5s33 -89.667 33 -143c0 -52.667 -11.167 -99.667 -33.5 -141
s-53.5 -73.666 -93.5 -96.999s-85.667 -35 -137 -35s-97 11.5 -137 34.5zM397.5 127c22.333 32 33.5 78 33.5 138c0 60.667 -11.333 107.334 -34 140.001s-55 49 -97 49s-74.5 -16.333 -97.5 -49s-34.5 -79.334 -34.5 -140.001c0 -60 11.5 -106 34.5 -138s55.5 -48 97.5 -48
c42.667 0 75.167 16 97.5 48zM437 683l1.99902 -8c0 -6.66699 -5 -11.667 -15 -15l-231 -65c-2 -0.666992 -4.66699 -1 -8 -1c-6 0 -10.333 3.33301 -13 10l-10 31c-1.33301 4 -2 6.66699 -2 8c0 4.66699 2.33301 8 7 10l234 98c1.33301 0.666992 3 1 5 1
c4.66699 0 8.33398 -3 11.001 -9z" />
    <glyph glyph-name="ocircumflex" unicode="&#xf4;" horiz-adv-x="599" 
d="M162 24.5c-40 23 -71 55.167 -93 96.5s-33 88.333 -33 141c0 54 11.333 102.167 34 144.5s54 75.166 94 98.499s85.333 35 136 35c51.333 0 97 -11.833 137 -35.5s71 -56.5 93 -98.5s33 -89.667 33 -143c0 -52.667 -11.167 -99.667 -33.5 -141
s-53.5 -73.666 -93.5 -96.999s-85.667 -35 -137 -35s-97 11.5 -137 34.5zM397.5 127c22.333 32 33.5 78 33.5 138c0 60.667 -11.333 107.334 -34 140.001s-55 49 -97 49s-74.5 -16.333 -97.5 -49s-34.5 -79.334 -34.5 -140.001c0 -60 11.5 -106 34.5 -138s55.5 -48 97.5 -48
c42.667 0 75.167 16 97.5 48zM313 676c-6 7.33301 -10.333 11.001 -13 11.001s-7.66699 -3.66699 -15 -11l-53 -52c-3.33301 -4 -6.16602 -6.33301 -8.49902 -7s-6.5 -1 -12.5 -1h-72c-5.33301 0 -8 1.66699 -8 5c0 2.66699 2 6 6 10l106 105c4 4 8.16699 7 12.5 9
s10.166 3 17.499 3h61c8 0 15.667 -3.66699 23 -11l105 -106c4.66699 -4.66699 7 -8.33398 7 -11.001s-3 -4 -9 -4h-77c-9.33301 0 -16.333 2.66699 -21 8z" />
    <glyph glyph-name="otilde" unicode="&#xf5;" horiz-adv-x="599" 
d="M162 24.5c-40 23 -71 55.167 -93 96.5s-33 88.333 -33 141c0 54 11.333 102.167 34 144.5s54 75.166 94 98.499s85.333 35 136 35c51.333 0 97 -11.833 137 -35.5s71 -56.5 93 -98.5s33 -89.667 33 -143c0 -52.667 -11.167 -99.667 -33.5 -141
s-53.5 -73.666 -93.5 -96.999s-85.667 -35 -137 -35s-97 11.5 -137 34.5zM397.5 127c22.333 32 33.5 78 33.5 138c0 60.667 -11.333 107.334 -34 140.001s-55 49 -97 49s-74.5 -16.333 -97.5 -49s-34.5 -79.334 -34.5 -140.001c0 -60 11.5 -106 34.5 -138s55.5 -48 97.5 -48
c42.667 0 75.167 16 97.5 48zM372 637c-21.333 0 -46.332 5 -74.999 15c-2.66699 0.666992 -10.834 3 -24.501 7s-27.5 6 -41.5 6c-13.333 0 -24.5 -1.83301 -33.5 -5.5s-19.167 -9.5 -30.5 -17.5c-5.33301 -2.66699 -8.33301 -4 -9 -4c-4 0 -7 3.33301 -9 10l-13 38
c-0.666992 2 -1 4.66699 -1 8c0 4 2.33301 8.33301 7 13c13.333 11.333 26.333 19.833 39 25.5s28 8.5 46 8.5c20 0 46 -5.33301 78 -16c11.333 -3.33301 22.833 -6.5 34.5 -9.5s22.5 -4.5 32.5 -4.5c21.333 0 43 7.66699 65 23c4 2.66699 7 4 9 4
c4.66699 0 8 -3.66699 10 -11l12 -44l1 -5c0 -6 -3.66699 -11.333 -11 -16c-25.333 -16.667 -54 -25 -86 -25z" />
    <glyph glyph-name="odieresis" unicode="&#xf6;" horiz-adv-x="599" 
d="M162 24.5c-40 23 -71 55.167 -93 96.5s-33 88.333 -33 141c0 54 11.333 102.167 34 144.5s54 75.166 94 98.499s85.333 35 136 35c51.333 0 97 -11.833 137 -35.5s71 -56.5 93 -98.5s33 -89.667 33 -143c0 -52.667 -11.167 -99.667 -33.5 -141
s-53.5 -73.666 -93.5 -96.999s-85.667 -35 -137 -35s-97 11.5 -137 34.5zM397.5 127c22.333 32 33.5 78 33.5 138c0 60.667 -11.333 107.334 -34 140.001s-55 49 -97 49s-74.5 -16.333 -97.5 -49s-34.5 -79.334 -34.5 -140.001c0 -60 11.5 -106 34.5 -138s55.5 -48 97.5 -48
c42.667 0 75.167 16 97.5 48zM267 637c0 -6.66699 -1.66797 -11.333 -5.00098 -14s-8.66602 -4 -15.999 -4h-80c-6.66699 0 -11.167 1.33301 -13.5 4s-3.5 6.66699 -3.5 12v91c0 10.667 4.33301 16 13 16h92c8.66699 0 13 -4.66699 13 -14v-91zM450.999 637.001
c0 -6.66699 -1.66699 -11.333 -5 -14s-9 -4 -17 -4h-79c-6.66699 0 -11.167 1.16699 -13.5 3.5s-3.5 6.5 -3.5 12.5v91c0 10.667 4.33301 16 13 16h92c8.66699 0 13 -4.66699 13 -14v-91z" />
    <glyph glyph-name="divide" unicode="&#xf7;" horiz-adv-x="575" 
d="M360 518c0 -7.33301 -1.66602 -12.333 -4.99902 -15s-9.33301 -4 -18 -4h-102c-6.66699 0 -11.334 1.33301 -14.001 4s-4 7 -4 13v105c0 10 4.33301 15 13 15h118c8 0 12 -4.66699 12 -14v-104zM522.001 345c0 -13.333 -7.66602 -20 -22.999 -20h-428
c-6.66699 0 -11.334 1.33301 -14.001 4s-4 7 -4 13v63c0 10.667 4.33301 16 13 16h443c8.66699 0 13 -4.66699 13 -14v-62zM360.002 130c0 -7.33301 -1.66602 -12.5 -4.99902 -15.5s-9.33301 -4.5 -18 -4.5h-102c-6.66699 0 -11.334 1.33301 -14.001 4s-4 7 -4 13v105
c0 10 4.33301 15 13 15h118c8 0 12 -4.33301 12 -13v-104z" />
    <glyph glyph-name="oslash" unicode="&#xf8;" horiz-adv-x="591" 
d="M572 488c0 -3.33301 -2 -7 -6 -11l-51 -48c31.333 -46.667 47 -102 47 -166c0 -52.667 -11.167 -99.667 -33.5 -141s-53.5 -73.666 -93.5 -96.999s-85.667 -35 -137 -35c-35.333 0 -68 5.5 -98 16.5s-56.333 26.5 -79 46.5l-46 -44c-6 -6 -11.333 -9 -16 -9
s-9.66699 3 -15 9l-15 16c-6 6 -9 11.333 -9 16s2.33301 9 7 13l51 49c-28.667 45.333 -43 98.333 -43 159c0 54 11.333 102.167 34 144.5s54 75.166 94 98.499s85.333 35 136 35c68.667 0 126.334 -20.333 173.001 -61l45 43c5.33301 5.33301 10.333 8 15 8
c3.33301 0 6.66602 -1.66699 9.99902 -5l25 -26c3.33301 -3.33301 5 -7 5 -11zM174 194l221 212.001c-22.667 32 -54.667 48 -96 48c-42 0 -74.5 -16.333 -97.5 -49s-34.5 -79.334 -34.5 -140.001c0 -28 2.33301 -51.667 7 -71zM423 340.001l-223 -211
c23.333 -33.333 56.333 -50 99 -50s75.167 16 97.5 48s33.5 78 33.5 138c0 24.667 -2.33301 49.667 -7 75z" />
    <glyph glyph-name="ugrave" unicode="&#xf9;" horiz-adv-x="588" 
d="M395 154v355.999c0 13.333 7.66699 20 23 20h90c12 0 18 -6.33301 18 -19l-2 -495c0 -10.667 -4.66699 -16 -14 -16h-98c-9.33301 0 -14 5 -14 15v53c0 3.33301 -1 5.33301 -3 6s-4.33301 -0.333008 -7 -3c-30.667 -29.333 -59.834 -50.166 -87.501 -62.499
s-57.167 -18.5 -88.5 -18.5c-45.333 0 -82.5 14.333 -111.5 43s-43.5 67 -43.5 115v361c0 14 7 21 21 21h92c6 0 10.333 -1.5 13 -4.5s4 -7.83301 4 -14.5v-341c0 -26 7.33301 -46.667 22 -62s34.334 -23 59.001 -23c40.667 0 83 23 127 69zM166.5 750.499
c3 1.66699 6.16699 1.83301 9.5 0.5l234 -98c7.33301 -3.33301 9 -9.33301 5 -18l-10 -31c-2.66699 -6.66699 -7 -10 -13 -10c-3.33301 0 -6 0.333008 -8 1l-231 65c-10 3.33301 -15 8.33301 -15 15l2 8l20 60c1.33301 3.33301 3.5 5.83301 6.5 7.5z" />
    <glyph glyph-name="uacute" unicode="&#xfa;" horiz-adv-x="588" 
d="M395 154v355.999c0 13.333 7.66699 20 23 20h90c12 0 18 -6.33301 18 -19l-2 -495c0 -10.667 -4.66699 -16 -14 -16h-98c-9.33301 0 -14 5 -14 15v53c0 3.33301 -1 5.33301 -3 6s-4.33301 -0.333008 -7 -3c-30.667 -29.333 -59.834 -50.166 -87.501 -62.499
s-57.167 -18.5 -88.5 -18.5c-45.333 0 -82.5 14.333 -111.5 43s-43.5 67 -43.5 115v361c0 14 7 21 21 21h92c6 0 10.333 -1.5 13 -4.5s4 -7.83301 4 -14.5v-341c0 -26 7.33301 -46.667 22 -62s34.334 -23 59.001 -23c40.667 0 83 23 127 69zM422 682.999l1.99902 -8
c0 -6.66699 -5 -11.667 -15 -15l-231 -65c-2 -0.666992 -4.66699 -1 -8 -1c-6 0 -10.333 3.33301 -13 10l-10 31c-1.33301 4 -2 6.66699 -2 8c0 4.66699 2.33301 8 7 10l234 98c1.33301 0.666992 3 1 5 1c4.66699 0 8.33398 -3 11.001 -9z" />
    <glyph glyph-name="ucircumflex" unicode="&#xfb;" horiz-adv-x="588" 
d="M395 154v355.999c0 13.333 7.66699 20 23 20h90c12 0 18 -6.33301 18 -19l-2 -495c0 -10.667 -4.66699 -16 -14 -16h-98c-9.33301 0 -14 5 -14 15v53c0 3.33301 -1 5.33301 -3 6s-4.33301 -0.333008 -7 -3c-30.667 -29.333 -59.834 -50.166 -87.501 -62.499
s-57.167 -18.5 -88.5 -18.5c-45.333 0 -82.5 14.333 -111.5 43s-43.5 67 -43.5 115v361c0 14 7 21 21 21h92c6 0 10.333 -1.5 13 -4.5s4 -7.83301 4 -14.5v-341c0 -26 7.33301 -46.667 22 -62s34.334 -23 59.001 -23c40.667 0 83 23 127 69zM298 675.999
c-6 7.33301 -10.333 11.001 -13 11.001s-7.66699 -3.66699 -15 -11l-53 -52c-3.33301 -4 -6.16602 -6.33301 -8.49902 -7s-6.5 -1 -12.5 -1h-72c-5.33301 0 -8 1.66699 -8 5c0 2.66699 2 6 6 10l106 105c4 4 8.16699 7 12.5 9s10.166 3 17.499 3h61
c8 0 15.667 -3.66699 23 -11l105 -106c4.66699 -4.66699 7 -8.33398 7 -11.001s-3 -4 -9 -4h-77c-9.33301 0 -16.333 2.66699 -21 8z" />
    <glyph glyph-name="udieresis" unicode="&#xfc;" horiz-adv-x="588" 
d="M395 154v355.999c0 13.333 7.66699 20 23 20h90c12 0 18 -6.33301 18 -19l-2 -495c0 -10.667 -4.66699 -16 -14 -16h-98c-9.33301 0 -14 5 -14 15v53c0 3.33301 -1 5.33301 -3 6s-4.33301 -0.333008 -7 -3c-30.667 -29.333 -59.834 -50.166 -87.501 -62.499
s-57.167 -18.5 -88.5 -18.5c-45.333 0 -82.5 14.333 -111.5 43s-43.5 67 -43.5 115v361c0 14 7 21 21 21h92c6 0 10.333 -1.5 13 -4.5s4 -7.83301 4 -14.5v-341c0 -26 7.33301 -46.667 22 -62s34.334 -23 59.001 -23c40.667 0 83 23 127 69zM252 636.999
c0 -6.66699 -1.66797 -11.333 -5.00098 -14s-8.66602 -4 -15.999 -4h-80c-6.66699 0 -11.167 1.33301 -13.5 4s-3.5 6.66699 -3.5 12v91c0 10.667 4.33301 16 13 16h92c8.66699 0 13 -4.66699 13 -14v-91zM435.999 637c0 -6.66699 -1.66699 -11.333 -5 -14s-9 -4 -17 -4h-79
c-6.66699 0 -11.167 1.16699 -13.5 3.5s-3.5 6.5 -3.5 12.5v91c0 10.667 4.33301 16 13 16h92c8.66699 0 13 -4.66699 13 -14v-91z" />
    <glyph glyph-name="yacute" unicode="&#xfd;" horiz-adv-x="554" 
d="M58 -162c-8.66699 2 -12.998 6.66895 -12.998 14.002v64c0 10 9.66699 15 29 15h66c21.333 0 39.666 9 54.999 27s23 37 23 57c0 6.66699 -1 13 -3 19l-192 474c-0.666992 1.33301 -1 3.66602 -1 6.99902c0 4 1.5 7.5 4.5 10.5s6.83301 4.5 11.5 4.5h104
c4.66699 0 8.83398 -1.33301 12.501 -4s6.16699 -6.33398 7.5 -11.001l124 -329c2 -6 4.66699 -9 8 -9s6.33301 3.66699 9 11l123 328c4.66699 9.33301 11 14 19 14h73c5.33301 0 9.16602 -2.16699 11.499 -6.5s2.5 -8.83301 0.5 -13.5l-210 -526
c-16.667 -40.667 -34.5 -71.667 -53.5 -93s-41 -36 -66 -44s-56.833 -12 -95.5 -12c-22.667 0 -38.334 1 -47.001 3zM432.002 683.002l1.99902 -8c0 -6.66699 -5 -11.667 -15 -15l-231 -65c-2 -0.666992 -4.66699 -1 -8 -1c-6 0 -10.333 3.33301 -13 10l-10 31
c-1.33301 4 -2 6.66699 -2 8c0 4.66699 2.33301 8 7 10l234 98c1.33301 0.666992 3 1 5 1c4.66699 0 8.33398 -3 11.001 -9z" />
    <glyph glyph-name="thorn" unicode="&#xfe;" horiz-adv-x="603" 
d="M193 724l-0.00195312 -246c0 -5.33301 1.66699 -8 5 -8c2 0 4.66699 1.66699 8 5c21.333 20 42.833 35.833 64.5 47.5s50.167 17.5 85.5 17.5c40.667 0 76.834 -10 108.501 -30s56.5 -50.167 74.5 -90.5s27 -89.833 27 -148.5c0 -91.333 -20 -161 -60 -209
s-93 -72 -159 -72c-53.333 0 -98.666 17 -135.999 51c-6.66699 5.33301 -11 8 -13 8c-3.33301 0 -5 -4.66699 -5 -14v-184c0 -10.667 -4.66699 -16 -14 -16h-102c-9.33301 0 -14 5.33301 -14 16v871c0 7.33301 1.5 12.5 4.5 15.5s8.16699 4.5 15.5 4.5h91
c12.667 0 19 -6 19 -18zM301.998 75c41.333 0 73.667 16.167 97 48.5s35 81.833 35 148.5c0 64 -11.5 110.5 -34.5 139.5s-54.167 43.5 -93.5 43.5c-21.333 0 -40.666 -4.5 -57.999 -13.5s-30.833 -20.5 -40.5 -34.5s-14.5 -28.667 -14.5 -44v-233
c33.333 -36.667 69.666 -55 108.999 -55z" />
    <glyph glyph-name="ydieresis" unicode="&#xff;" horiz-adv-x="554" 
d="M58 -162c-8.66699 2 -12.998 6.66895 -12.998 14.002v64c0 10 9.66699 15 29 15h66c21.333 0 39.666 9 54.999 27s23 37 23 57c0 6.66699 -1 13 -3 19l-192 474c-0.666992 1.33301 -1 3.66602 -1 6.99902c0 4 1.5 7.5 4.5 10.5s6.83301 4.5 11.5 4.5h104
c4.66699 0 8.83398 -1.33301 12.501 -4s6.16699 -6.33398 7.5 -11.001l124 -329c2 -6 4.66699 -9 8 -9s6.33301 3.66699 9 11l123 328c4.66699 9.33301 11 14 19 14h73c5.33301 0 9.16602 -2.16699 11.499 -6.5s2.5 -8.83301 0.5 -13.5l-210 -526
c-16.667 -40.667 -34.5 -71.667 -53.5 -93s-41 -36 -66 -44s-56.833 -12 -95.5 -12c-22.667 0 -38.334 1 -47.001 3zM262.002 637.002c0 -6.66699 -1.66797 -11.333 -5.00098 -14s-8.66602 -4 -15.999 -4h-80c-6.66699 0 -11.167 1.33301 -13.5 4s-3.5 6.66699 -3.5 12v91
c0 10.667 4.33301 16 13 16h92c8.66699 0 13 -4.66699 13 -14v-91zM446.001 637.003c0 -6.66699 -1.66699 -11.333 -5 -14s-9 -4 -17 -4h-79c-6.66699 0 -11.167 1.16699 -13.5 3.5s-3.5 6.5 -3.5 12.5v91c0 10.667 4.33301 16 13 16h92c8.66699 0 13 -4.66699 13 -14v-91z
" />
    <glyph glyph-name="Amacron" unicode="&#x100;" horiz-adv-x="756" 
d="M37 14c0 2 0.666016 5.66602 1.99902 10.999l252 699c2.66699 6.66699 5.66699 11.334 9 14.001s8.33301 4 15 4h125c14.667 0 24 -6.66699 28 -20l250 -698c1.33301 -4 2 -7 2 -9c0 -4 -1.16699 -7.5 -3.5 -10.5s-5.5 -4.5 -9.5 -4.5h-121
c-9.33301 -0 -15.333 4.33301 -18 13l-58 162c-1.33301 3.33301 -2.66602 5.83301 -3.99902 7.5s-4 2.5 -8 2.5h-261c-6 0 -10 -3 -12 -9l-60 -164c-2 -8 -8 -12 -18 -12h-97c-8.66699 0 -13 4.66699 -13 14zM461.999 297.999c6 0 9 2.66699 9 8c0 3.33301 -0.333008 6 -1 8
l-96 267c-2 4.66699 -4.33301 7 -7 7s-5 -2.66699 -7 -8l-97 -266c-1.33301 -4 -2 -7 -2 -9c0 -4.66699 3.33301 -7 10 -7h191zM544.999 875.999c0 -11.333 -6.66699 -17 -20 -17h-306c-6 0 -10 1.33301 -12 4s-3 6.66699 -3 12v56c0 9.33301 3.66699 14 11 14h319
c7.33301 0 11 -4 11 -12v-57z" />
    <glyph glyph-name="amacron" unicode="&#x101;" horiz-adv-x="558" 
d="M196 -10c-50.667 0 -90.8301 13.502 -120.497 40.502s-44.5 62.167 -44.5 105.5c0 55.333 24.667 99.333 74 132s118.333 50.667 207 54l50 3c10.667 1.33301 16 6.33301 16 15v23c0 29.333 -8.83301 52.166 -26.5 68.499s-41.834 24.5 -72.501 24.5
c-50.667 0 -89.667 -22 -117 -66c-2 -2.66699 -3.83301 -4.83398 -5.5 -6.50098s-3.83398 -2.5 -6.50098 -2.5c-3.33301 0 -6 0.333008 -8 1l-84 21c-5.33301 1.33301 -8 4.33301 -8 9c0 3.33301 1.33301 7.66602 4 12.999c17.333 37.333 45.833 65.833 85.5 85.5
s88.167 29.5 145.5 29.5c74.667 0 129.5 -14.667 164.5 -44s52.5 -70.666 52.5 -123.999v-352c0 -7.33301 -1.16699 -12.5 -3.5 -15.5s-6.83301 -4.5 -13.5 -4.5h-85c-6 0 -10.333 2 -13 6s-4.66699 10 -6 18l-1 30c-0.666992 6 -3 9 -7 9c-2 0 -6.33301 -2.66699 -13 -8
c-46.667 -43.333 -101.334 -65 -164.001 -65zM374.504 255.002c-2.33301 2.66699 -6.16602 4.00098 -11.499 4.00098l-41 -3c-46.667 -3.33301 -85.5 -13.833 -116.5 -31.5s-46.5 -41.834 -46.5 -72.501c0 -22.667 8.16699 -40.667 24.5 -54s38.166 -20 65.499 -20
c34.667 0 65 10.667 91 32c25.333 20 38 40.333 38 61v71c0 6 -1.16699 10.333 -3.5 13zM453.004 664.003c0 -11.333 -6.66699 -17 -20 -17h-306c-6 0 -10 1.33301 -12 4s-3 6.66699 -3 12v56c0 9.33301 3.66699 14 11 14h319c7.33301 0 11 -4 11 -12v-57z" />
    <glyph glyph-name="Abreve" unicode="&#x102;" horiz-adv-x="756" 
d="M37 14c0 2 0.666016 5.66602 1.99902 10.999l252 699c2.66699 6.66699 5.66699 11.334 9 14.001s8.33301 4 15 4h125c14.667 0 24 -6.66699 28 -20l250 -698c1.33301 -4 2 -7 2 -9c0 -4 -1.16699 -7.5 -3.5 -10.5s-5.5 -4.5 -9.5 -4.5h-121
c-9.33301 -0 -15.333 4.33301 -18 13l-58 162c-1.33301 3.33301 -2.66602 5.83301 -3.99902 7.5s-4 2.5 -8 2.5h-261c-6 0 -10 -3 -12 -9l-60 -164c-2 -8 -8 -12 -18 -12h-97c-8.66699 0 -13 4.66699 -13 14zM461.999 297.999c6 0 9 2.66699 9 8c0 3.33301 -0.333008 6 -1 8
l-96 267c-2 4.66699 -4.33301 7 -7 7s-5 -2.66699 -7 -8l-97 -266c-1.33301 -4 -2 -7 -2 -9c0 -4.66699 3.33301 -7 10 -7h191zM541.499 950.499c1.66699 -2.33301 1.83398 -5.83301 0.500977 -10.5c-10 -32.667 -30.167 -59.167 -60.5 -79.5s-66.166 -30.5 -107.499 -30.5
s-76.833 10 -106.5 30s-49.5 47.333 -59.5 82c-0.666992 0.666992 -1 2 -1 4c0 5.33301 3 8 9 8h58c4.66699 0 8.16699 -0.666992 10.5 -2s5.16602 -4.33301 8.49902 -9c21.333 -30 48.333 -45 81 -45c17.333 0 33.5 4.5 48.5 13.5s26.5 19.833 34.5 32.5
c2 4 4.16699 6.66699 6.5 8s5.16602 2 8.49902 2h59c5.33301 0 8.83301 -1.16699 10.5 -3.5z" />
    <glyph glyph-name="abreve" unicode="&#x103;" horiz-adv-x="558" 
d="M196 -10c-50.667 0 -90.8301 13.502 -120.497 40.502s-44.5 62.167 -44.5 105.5c0 55.333 24.667 99.333 74 132s118.333 50.667 207 54l50 3c10.667 1.33301 16 6.33301 16 15v23c0 29.333 -8.83301 52.166 -26.5 68.499s-41.834 24.5 -72.501 24.5
c-50.667 0 -89.667 -22 -117 -66c-2 -2.66699 -3.83301 -4.83398 -5.5 -6.50098s-3.83398 -2.5 -6.50098 -2.5c-3.33301 0 -6 0.333008 -8 1l-84 21c-5.33301 1.33301 -8 4.33301 -8 9c0 3.33301 1.33301 7.66602 4 12.999c17.333 37.333 45.833 65.833 85.5 85.5
s88.167 29.5 145.5 29.5c74.667 0 129.5 -14.667 164.5 -44s52.5 -70.666 52.5 -123.999v-352c0 -7.33301 -1.16699 -12.5 -3.5 -15.5s-6.83301 -4.5 -13.5 -4.5h-85c-6 0 -10.333 2 -13 6s-4.66699 10 -6 18l-1 30c-0.666992 6 -3 9 -7 9c-2 0 -6.33301 -2.66699 -13 -8
c-46.667 -43.333 -101.334 -65 -164.001 -65zM374.504 255.002c-2.33301 2.66699 -6.16602 4.00098 -11.499 4.00098l-41 -3c-46.667 -3.33301 -85.5 -13.833 -116.5 -31.5s-46.5 -41.834 -46.5 -72.501c0 -22.667 8.16699 -40.667 24.5 -54s38.166 -20 65.499 -20
c34.667 0 65 10.667 91 32c25.333 20 38 40.333 38 61v71c0 6 -1.16699 10.333 -3.5 13zM449.504 738.503c1.66699 -2.33301 1.83398 -5.83301 0.500977 -10.5c-10 -32.667 -30.167 -59.167 -60.5 -79.5s-66.166 -30.5 -107.499 -30.5s-76.833 10 -106.5 30
s-49.5 47.333 -59.5 82c-0.666992 0.666992 -1 2 -1 4c0 5.33301 3 8 9 8h58c4.66699 0 8.16699 -0.666992 10.5 -2s5.16602 -4.33301 8.49902 -9c21.333 -30 48.333 -45 81 -45c17.333 0 33.5 4.5 48.5 13.5s26.5 19.833 34.5 32.5c2 4 4.16699 6.66699 6.5 8
s5.16602 2 8.49902 2h59c5.33301 0 8.83301 -1.16699 10.5 -3.5z" />
    <glyph glyph-name="Aogonek" unicode="&#x104;" horiz-adv-x="756" 
d="M727 -93c4 0 5.99902 -3 5.99902 -9v-38c0 -6 -2.66699 -10.667 -8 -14c-9.33301 -4.66699 -22.833 -8.83398 -40.5 -12.501s-36.167 -5.5 -55.5 -5.5c-34 0 -60.5 7.16699 -79.5 21.5s-28.5 34.833 -28.5 61.5c0 18.667 6 35.167 18 49.5s33 27.5 63 39.5h-16
c-9.33301 0 -15.333 4.33301 -18 13l-58 162c-1.33301 3.33301 -2.66602 5.83301 -3.99902 7.5s-4 2.5 -8 2.5h-261c-6 0 -10 -3 -12 -9l-60 -164c-2 -8 -8 -12 -18 -12h-97c-8.66699 0 -13 4.66699 -13 14c0 2 0.666992 5.66699 2 11l252 699
c2.66699 6.66699 5.66699 11.334 9 14.001s8.33301 4 15 4h125c14.667 0 24 -6.66699 28 -20l250 -698c1.33301 -4 2 -7 2 -9c0 -4 -1.16699 -7.5 -3.5 -10.5s-5.5 -4.5 -9.5 -4.5h-1c-32.667 -12.667 -55.5 -24.667 -68.5 -36s-19.5 -24 -19.5 -38
c0 -12 3.16699 -20.833 9.5 -26.5s16.833 -8.5 31.5 -8.5c21.333 0 41.333 4.66699 60 14c2 1.33301 4.66699 2 8 2zM470.999 306c0 3.33301 -0.333008 6 -1 8l-96 267c-2 4.66699 -4.33301 7 -7 7s-5 -2.66699 -7 -8l-97 -266c-1.33301 -4 -2 -7 -2 -9
c0 -4.66699 3.33301 -7 10 -7h191c6 0 9 2.66699 9 8z" />
    <glyph glyph-name="aogonek" unicode="&#x105;" horiz-adv-x="558" 
d="M512 -91c4 0 6.00391 -2.99805 6.00391 -8.99805v-38c0 -6 -2.66699 -10.667 -8 -14c-9.33301 -4.66699 -22.833 -8.83398 -40.5 -12.501s-36.167 -5.5 -55.5 -5.5c-34 0 -60.5 7.16699 -79.5 21.5s-28.5 34.833 -28.5 61.5c0 18.667 6.16699 35.334 18.5 50.001
s34.166 28 65.499 40c-4.66699 4 -7.66699 11 -9 21l-1 30c-0.666992 6 -3 9 -7 9c-2 0 -6.33301 -2.66699 -13 -8c-46.667 -43.333 -101.334 -65 -164.001 -65c-50.667 0 -90.834 13.5 -120.501 40.5s-44.5 62.167 -44.5 105.5c0 55.333 24.667 99.333 74 132
s118.333 50.667 207 54l50 3c10.667 1.33301 16 6.33301 16 15v23c0 29.333 -8.83301 52.166 -26.5 68.499s-41.834 24.5 -72.501 24.5c-50.667 0 -89.667 -22 -117 -66c-2 -2.66699 -3.83301 -4.83398 -5.5 -6.50098s-3.83398 -2.5 -6.50098 -2.5
c-3.33301 0 -6 0.333008 -8 1l-84 21c-5.33301 1.33301 -8 4.33301 -8 9c0 3.33301 1.33301 7.66602 4 12.999c17.333 37.333 45.833 65.833 85.5 85.5s88.167 29.5 145.5 29.5c74.667 0 129.5 -14.667 164.5 -44s52.5 -70.666 52.5 -123.999v-352
c0 -6.66699 -1 -11.667 -3 -15c-3.33301 -3.33301 -7.66602 -5 -12.999 -5c-30.667 -12 -52.167 -23.5 -64.5 -34.5s-18.5 -23.5 -18.5 -37.5c0 -12 3.16699 -20.833 9.5 -26.5s16.833 -8.5 31.5 -8.5c21.333 0 41.333 4.66699 60 14c2 1.33301 4.66699 2 8 2z
M378.004 242.002c0 6 -1.16699 10.334 -3.5 13.001s-6.16602 4 -11.499 4l-41 -3c-46.667 -3.33301 -85.5 -13.833 -116.5 -31.5s-46.5 -41.834 -46.5 -72.501c0 -22.667 8.16699 -40.667 24.5 -54s38.166 -20 65.499 -20c34.667 0 65 10.667 91 32
c25.333 20 38 40.333 38 61v71z" />
    <glyph glyph-name="Cacute" unicode="&#x106;" horiz-adv-x="719" 
d="M516.5 723.5c41.667 -19 75.998 -44.833 102.998 -77.5s43.833 -69 50.5 -109c0.666992 -3.33301 1 -7.33301 1 -12c0 -4 -0.833008 -6.66699 -2.5 -8s-4.5 -2.33301 -8.5 -3l-114 -8c-4.66699 0 -7.83398 0.833008 -9.50098 2.5s-3.16699 5.5 -4.5 11.5
c-8 38.667 -24.667 69.5 -50 92.5s-57.666 34.5 -96.999 34.5c-119.333 0 -179 -91.333 -179 -274c0 -92.667 15 -161.167 45 -205.5s75.667 -66.5 137 -66.5c42.667 0 78.5 10.5 107.5 31.5s52.5 54.833 70.5 101.5c2 5.33301 8 7 18 5l85 -18
c3.33301 -1.33301 6 -3.5 8 -6.5s2.33301 -8.16699 1 -15.5c-8 -30 -24.167 -61 -48.5 -93s-57.5 -59.333 -99.5 -82s-91.333 -34 -148 -34c-67.333 0 -126 15.833 -176 47.5s-88.333 76.667 -115 135s-40 125.833 -40 202.5c0 77.333 13.333 144.333 40 201
s64.834 100.167 114.501 130.5s108.167 45.5 175.5 45.5c48.667 0 93.834 -9.5 135.501 -28.5zM517.998 895l1.99902 -8c0 -6.66699 -5 -11.667 -15 -15l-231 -65c-2 -0.666992 -4.66699 -1 -8 -1c-6 0 -10.333 3.33301 -13 10l-10 31c-1.33301 4 -2 6.66699 -2 8
c0 4.66699 2.33301 8 7 10l234 98c1.33301 0.666992 3 1 5 1c4.66699 0 8.33398 -3 11.001 -9z" />
    <glyph glyph-name="cacute" unicode="&#x107;" horiz-adv-x="548" 
d="M437 499c37.333 -27.333 63.999 -61.0029 79.999 -101.003l2 -9c0 -5.33301 -4 -8.66602 -12 -9.99902l-88 -11l-4 -1c-4.66699 0 -8 3.33301 -10 10c-16 26 -31.167 45.167 -45.5 57.5s-33.5 18.5 -57.5 18.5c-41.333 0 -74 -16.333 -98 -49s-36 -79 -36 -139
c0 -61.333 12.333 -108.166 37 -140.499s59 -48.5 103 -48.5c28.667 0 52.667 7.33301 72 22s38 37 56 67c2 2.66699 4.16699 4.33398 6.5 5.00098s5.5 0.333984 9.5 -0.999023l63 -17c6.66699 -2 8.66699 -7.66699 6 -17c-16.667 -38.667 -43.667 -72.5 -81 -101.5
s-85 -43.5 -143 -43.5c-50 0 -94.833 11.5 -134.5 34.5s-70.667 55.167 -93 96.5s-33.5 88.666 -33.5 141.999c0 54 11.333 102 34 144s53.834 74.667 93.501 98s84.167 35 133.5 35c56 0 102.667 -13.667 140 -41zM433.999 682.997l1.99902 -8
c0 -6.66699 -5 -11.667 -15 -15l-231 -65c-2 -0.666992 -4.66699 -1 -8 -1c-6 0 -10.333 3.33301 -13 10l-10 31c-1.33301 4 -2 6.66699 -2 8c0 4.66699 2.33301 8 7 10l234 98c1.33301 0.666992 3 1 5 1c4.66699 0 8.33398 -3 11.001 -9z" />
    <glyph glyph-name="Ccircumflex" unicode="&#x108;" horiz-adv-x="719" 
d="M516.5 723.5c41.667 -19 75.998 -44.833 102.998 -77.5s43.833 -69 50.5 -109c0.666992 -3.33301 1 -7.33301 1 -12c0 -4 -0.833008 -6.66699 -2.5 -8s-4.5 -2.33301 -8.5 -3l-114 -8c-4.66699 0 -7.83398 0.833008 -9.50098 2.5s-3.16699 5.5 -4.5 11.5
c-8 38.667 -24.667 69.5 -50 92.5s-57.666 34.5 -96.999 34.5c-119.333 0 -179 -91.333 -179 -274c0 -92.667 15 -161.167 45 -205.5s75.667 -66.5 137 -66.5c42.667 0 78.5 10.5 107.5 31.5s52.5 54.833 70.5 101.5c2 5.33301 8 7 18 5l85 -18
c3.33301 -1.33301 6 -3.5 8 -6.5s2.33301 -8.16699 1 -15.5c-8 -30 -24.167 -61 -48.5 -93s-57.5 -59.333 -99.5 -82s-91.333 -34 -148 -34c-67.333 0 -126 15.833 -176 47.5s-88.333 76.667 -115 135s-40 125.833 -40 202.5c0 77.333 13.333 144.333 40 201
s64.834 100.167 114.501 130.5s108.167 45.5 175.5 45.5c48.667 0 93.834 -9.5 135.501 -28.5zM393.998 888c-6 7.33301 -10.333 11.001 -13 11.001s-7.66699 -3.66699 -15 -11l-53 -52c-3.33301 -4 -6.16602 -6.33301 -8.49902 -7s-6.5 -1 -12.5 -1h-72
c-5.33301 0 -8 1.66699 -8 5c0 2.66699 2 6 6 10l106 105c4 4 8.16699 7 12.5 9s10.166 3 17.499 3h61c8 0 15.667 -3.66699 23 -11l105 -106c4.66699 -4.66699 7 -8.33398 7 -11.001s-3 -4 -9 -4h-77c-9.33301 0 -16.333 2.66699 -21 8z" />
    <glyph glyph-name="ccircumflex" unicode="&#x109;" horiz-adv-x="548" 
d="M437 499c37.333 -27.333 63.999 -61.0029 79.999 -101.003l2 -9c0 -5.33301 -4 -8.66602 -12 -9.99902l-88 -11l-4 -1c-4.66699 0 -8 3.33301 -10 10c-16 26 -31.167 45.167 -45.5 57.5s-33.5 18.5 -57.5 18.5c-41.333 0 -74 -16.333 -98 -49s-36 -79 -36 -139
c0 -61.333 12.333 -108.166 37 -140.499s59 -48.5 103 -48.5c28.667 0 52.667 7.33301 72 22s38 37 56 67c2 2.66699 4.16699 4.33398 6.5 5.00098s5.5 0.333984 9.5 -0.999023l63 -17c6.66699 -2 8.66699 -7.66699 6 -17c-16.667 -38.667 -43.667 -72.5 -81 -101.5
s-85 -43.5 -143 -43.5c-50 0 -94.833 11.5 -134.5 34.5s-70.667 55.167 -93 96.5s-33.5 88.666 -33.5 141.999c0 54 11.333 102 34 144s53.834 74.667 93.501 98s84.167 35 133.5 35c56 0 102.667 -13.667 140 -41zM309.999 675.997c-6 7.33301 -10.333 11.001 -13 11.001
s-7.66699 -3.66699 -15 -11l-53 -52c-3.33301 -4 -6.16602 -6.33301 -8.49902 -7s-6.5 -1 -12.5 -1h-72c-5.33301 0 -8 1.66699 -8 5c0 2.66699 2 6 6 10l106 105c4 4 8.16699 7 12.5 9s10.166 3 17.499 3h61c8 0 15.667 -3.66699 23 -11l105 -106
c4.66699 -4.66699 7 -8.33398 7 -11.001s-3 -4 -9 -4h-77c-9.33301 0 -16.333 2.66699 -21 8z" />
    <glyph glyph-name="Cdotaccent" unicode="&#x10a;" horiz-adv-x="719" 
d="M516.5 723.5c41.667 -19 75.998 -44.833 102.998 -77.5s43.833 -69 50.5 -109c0.666992 -3.33301 1 -7.33301 1 -12c0 -4 -0.833008 -6.66699 -2.5 -8s-4.5 -2.33301 -8.5 -3l-114 -8c-4.66699 0 -7.83398 0.833008 -9.50098 2.5s-3.16699 5.5 -4.5 11.5
c-8 38.667 -24.667 69.5 -50 92.5s-57.666 34.5 -96.999 34.5c-119.333 0 -179 -91.333 -179 -274c0 -92.667 15 -161.167 45 -205.5s75.667 -66.5 137 -66.5c42.667 0 78.5 10.5 107.5 31.5s52.5 54.833 70.5 101.5c2 5.33301 8 7 18 5l85 -18
c3.33301 -1.33301 6 -3.5 8 -6.5s2.33301 -8.16699 1 -15.5c-8 -30 -24.167 -61 -48.5 -93s-57.5 -59.333 -99.5 -82s-91.333 -34 -148 -34c-67.333 0 -126 15.833 -176 47.5s-88.333 76.667 -115 135s-40 125.833 -40 202.5c0 77.333 13.333 144.333 40 201
s64.834 100.167 114.501 130.5s108.167 45.5 175.5 45.5c48.667 0 93.834 -9.5 135.501 -28.5zM447.998 838c0 -7.33301 -1.66699 -12.667 -5 -16s-9.33301 -5 -18 -5h-92c-7.33301 0 -12.333 1.5 -15 4.5s-4 7.83301 -4 14.5v101c0 11.333 5 17 15 17h105
c9.33301 0 14 -5.33301 14 -16v-100z" />
    <glyph glyph-name="cdotaccent" unicode="&#x10b;" horiz-adv-x="548" 
d="M437 499c37.333 -27.333 63.999 -61.0029 79.999 -101.003l2 -9c0 -5.33301 -4 -8.66602 -12 -9.99902l-88 -11l-4 -1c-4.66699 0 -8 3.33301 -10 10c-16 26 -31.167 45.167 -45.5 57.5s-33.5 18.5 -57.5 18.5c-41.333 0 -74 -16.333 -98 -49s-36 -79 -36 -139
c0 -61.333 12.333 -108.166 37 -140.499s59 -48.5 103 -48.5c28.667 0 52.667 7.33301 72 22s38 37 56 67c2 2.66699 4.16699 4.33398 6.5 5.00098s5.5 0.333984 9.5 -0.999023l63 -17c6.66699 -2 8.66699 -7.66699 6 -17c-16.667 -38.667 -43.667 -72.5 -81 -101.5
s-85 -43.5 -143 -43.5c-50 0 -94.833 11.5 -134.5 34.5s-70.667 55.167 -93 96.5s-33.5 88.666 -33.5 141.999c0 54 11.333 102 34 144s53.834 74.667 93.501 98s84.167 35 133.5 35c56 0 102.667 -13.667 140 -41zM363.999 625.997c0 -7.33301 -1.66699 -12.667 -5 -16
s-9.33301 -5 -18 -5h-92c-7.33301 0 -12.333 1.5 -15 4.5s-4 7.83301 -4 14.5v101c0 11.333 5 17 15 17h105c9.33301 0 14 -5.33301 14 -16v-100z" />
    <glyph glyph-name="Ccaron" unicode="&#x10c;" horiz-adv-x="719" 
d="M516.5 723.5c41.667 -19 75.998 -44.833 102.998 -77.5s43.833 -69 50.5 -109c0.666992 -3.33301 1 -7.33301 1 -12c0 -4 -0.833008 -6.66699 -2.5 -8s-4.5 -2.33301 -8.5 -3l-114 -8c-4.66699 0 -7.83398 0.833008 -9.50098 2.5s-3.16699 5.5 -4.5 11.5
c-8 38.667 -24.667 69.5 -50 92.5s-57.666 34.5 -96.999 34.5c-119.333 0 -179 -91.333 -179 -274c0 -92.667 15 -161.167 45 -205.5s75.667 -66.5 137 -66.5c42.667 0 78.5 10.5 107.5 31.5s52.5 54.833 70.5 101.5c2 5.33301 8 7 18 5l85 -18
c3.33301 -1.33301 6 -3.5 8 -6.5s2.33301 -8.16699 1 -15.5c-8 -30 -24.167 -61 -48.5 -93s-57.5 -59.333 -99.5 -82s-91.333 -34 -148 -34c-67.333 0 -126 15.833 -176 47.5s-88.333 76.667 -115 135s-40 125.833 -40 202.5c0 77.333 13.333 144.333 40 201
s64.834 100.167 114.501 130.5s108.167 45.5 175.5 45.5c48.667 0 93.834 -9.5 135.501 -28.5zM463.998 955l77 0.000976562c6 0 9 -1.33301 9 -4s-2.33301 -6.33398 -7 -11.001l-105 -106c-7.33301 -7.33301 -15 -11 -23 -11h-61c-7.33301 0 -13.166 1 -17.499 3
s-8.5 5 -12.5 9l-106 105c-4 4 -6 7.33301 -6 10c0 3.33301 2.66699 5 8 5h72c6 0 10.167 -0.333008 12.5 -1s5.16602 -3 8.49902 -7l53 -52c7.33301 -7.33301 12.333 -11 15 -11s7 3.66699 13 11l49 52c4.66699 5.33301 11.667 8 21 8z" />
    <glyph glyph-name="ccaron" unicode="&#x10d;" horiz-adv-x="548" 
d="M437 499c37.333 -27.333 63.999 -61.0029 79.999 -101.003l2 -9c0 -5.33301 -4 -8.66602 -12 -9.99902l-88 -11l-4 -1c-4.66699 0 -8 3.33301 -10 10c-16 26 -31.167 45.167 -45.5 57.5s-33.5 18.5 -57.5 18.5c-41.333 0 -74 -16.333 -98 -49s-36 -79 -36 -139
c0 -61.333 12.333 -108.166 37 -140.499s59 -48.5 103 -48.5c28.667 0 52.667 7.33301 72 22s38 37 56 67c2 2.66699 4.16699 4.33398 6.5 5.00098s5.5 0.333984 9.5 -0.999023l63 -17c6.66699 -2 8.66699 -7.66699 6 -17c-16.667 -38.667 -43.667 -72.5 -81 -101.5
s-85 -43.5 -143 -43.5c-50 0 -94.833 11.5 -134.5 34.5s-70.667 55.167 -93 96.5s-33.5 88.666 -33.5 141.999c0 54 11.333 102 34 144s53.834 74.667 93.501 98s84.167 35 133.5 35c56 0 102.667 -13.667 140 -41zM379.999 742.997l77 0.000976562c6 0 9 -1.33301 9 -4
s-2.33301 -6.33398 -7 -11.001l-105 -106c-7.33301 -7.33301 -15 -11 -23 -11h-61c-7.33301 0 -13.166 1 -17.499 3s-8.5 5 -12.5 9l-106 105c-4 4 -6 7.33301 -6 10c0 3.33301 2.66699 5 8 5h72c6 0 10.167 -0.333008 12.5 -1s5.16602 -3 8.49902 -7l53 -52
c7.33301 -7.33301 12.333 -11 15 -11s7 3.66699 13 11l49 52c4.66699 5.33301 11.667 8 21 8z" />
    <glyph glyph-name="Dcaron" unicode="&#x10e;" horiz-adv-x="741" 
d="M299 741c260.667 -6 391 -128.334 391 -367.001c0 -119.333 -33.5 -211.5 -100.5 -276.5s-166.167 -97.5 -297.5 -97.5h-193c-13.333 0 -20 7 -20 21v703c0 6.66699 1.33301 11.334 4 14.001s7.66699 4 15 4c95.333 0 162.333 -0.333008 201 -1zM227 621.999
l-0.00195312 -503.999c0 -4.66699 1 -7.83398 3 -9.50098s5.33301 -2.5 10 -2.5h25c94 0 162.5 20.667 205.5 62s64.5 110 64.5 206c0 62 -8.66699 111.5 -26 148.5s-43.166 64.167 -77.499 81.5s-79.166 27.333 -134.499 30l-61 2c-6 0 -9 -4.66699 -9 -14zM448.998 955
l77 0.000976562c6 0 9 -1.33301 9 -4s-2.33301 -6.33398 -7 -11.001l-105 -106c-7.33301 -7.33301 -15 -11 -23 -11h-61c-7.33301 0 -13.166 1 -17.499 3s-8.5 5 -12.5 9l-106 105c-4 4 -6 7.33301 -6 10c0 3.33301 2.66699 5 8 5h72c6 0 10.167 -0.333008 12.5 -1
s5.16602 -3 8.49902 -7l53 -52c7.33301 -7.33301 12.333 -11 15 -11s7 3.66699 13 11l49 52c4.66699 5.33301 11.667 8 21 8z" />
    <glyph glyph-name="dcaron" unicode="&#x10f;" horiz-adv-x="724" 
d="M415 18v33c0 6 -1.66699 9 -5 9c-2 0 -4.66699 -1.66699 -8 -5c-19.333 -18.667 -40.833 -34.167 -64.5 -46.5s-52.5 -18.5 -86.5 -18.5c-41.333 0 -78 10.167 -110 30.5s-57.167 50.666 -75.5 90.999s-27.5 89.833 -27.5 148.5c0 54.667 9.83301 103.334 29.5 146.001
s46.5 75.667 80.5 99s72 35 114 35c28 0 52.5 -4.5 73.5 -13.5s41.167 -22.167 60.5 -39.5c3.33301 -3.33301 7 -5 11 -5s6 4.33301 6 13v231c0 10.667 4.66699 16 14 16h101c10 0 15 -5.66699 15 -17v-706c0 -6.66699 -1.5 -11.5 -4.5 -14.5s-8.5 -4.5 -16.5 -4.5h-88
c-12.667 0 -19 6 -19 18zM360.5 440.5c-17 9 -36.167 13.499 -57.5 13.499c-40 0 -72.167 -16.167 -96.5 -48.5s-36.5 -80.166 -36.5 -143.499c0 -64 11.833 -111.333 35.5 -142s55.167 -46 94.5 -46c20.667 0 39.667 4.83301 57 14.5s31 22.167 41 37.5s15 31 15 47v226
c-18 18.667 -35.5 32.5 -52.5 41.5zM604.5 530.499c-1.66699 2.33301 -1.83496 5.16602 -0.501953 8.49902l30 74c2 4 3 7 3 9c0 2.66699 -2.66699 4.66699 -8 6l-9 2c-5.33301 0.666992 -8.83301 1.83398 -10.5 3.50098s-2.5 4.83398 -2.5 9.50098v87c0 8 3.33301 12 10 12
h73c6.66699 0 10 -3.33301 10 -10v-102c0 -2 -0.333008 -3.5 -1 -4.5s-1 -2.16699 -1 -3.5l-36 -83c-1.33301 -4.66699 -3.66602 -7.83398 -6.99902 -9.50098s-8.66602 -2.5 -15.999 -2.5h-27c-3.33301 0 -5.83301 1.16699 -7.5 3.5z" />
    <glyph glyph-name="Dcroat" unicode="&#x110;" horiz-adv-x="753" 
d="M701 374c0 -119.333 -33.5 -211.501 -100.5 -276.501s-166.167 -97.5 -297.5 -97.5h-193c-13.333 0 -20 7 -20 21v298h-42c-7.33301 0 -12.333 1.5 -15 4.5s-4 7.83301 -4 14.5v62c0 11.333 4.66699 17 14 17h47v307c0 6.66699 1.33301 11.334 4 14.001s7.66699 4 15 4
c95.333 0 162.333 -0.333008 201 -1c260.667 -6 391 -128.333 391 -367zM481.5 167.999c43 41.333 64.498 110.001 64.498 206.001c0 62 -8.66699 111.5 -26 148.5s-43.166 64.167 -77.499 81.5s-79.166 27.333 -134.499 30l-61 2c-6 0 -9 -4.66699 -9 -14v-205h141
c9.33301 0 14 -5 14 -15v-62c0 -14 -8.33301 -21 -25 -21h-130v-201c0 -4.66699 1 -7.83398 3 -9.50098s5.33301 -2.5 10 -2.5h25c94 0 162.5 20.667 205.5 62z" />
    <glyph glyph-name="dcroat" unicode="&#x111;" horiz-adv-x="616" 
d="M597 663v-44.999c0 -6.66699 -1.5 -11.167 -4.5 -13.5s-8.16699 -3.5 -15.5 -3.5h-34v-582c0 -6.66699 -1.5 -11.5 -4.5 -14.5s-8.5 -4.5 -16.5 -4.5h-88c-12.667 0 -19 6 -19 18v33c0 6 -1.66699 9 -5 9c-2 0 -4.66699 -1.66699 -8 -5
c-19.333 -18.667 -40.833 -34.167 -64.5 -46.5s-52.5 -18.5 -86.5 -18.5c-41.333 0 -78 10.167 -110 30.5s-57.167 50.666 -75.5 90.999s-27.5 89.833 -27.5 148.5c0 54.667 9.83301 103.334 29.5 146.001s46.5 75.667 80.5 99s72 35 114 35c28 0 52.5 -4.5 73.5 -13.5
s41.167 -22.167 60.5 -39.5c3.33301 -3.33301 7 -5 11 -5s6 4.33301 6 13v106h-135c-6 0 -10.167 1.16699 -12.5 3.5s-3.5 6.16602 -3.5 11.499v46c0 9.33301 3.66699 14 11 14h140v50c0 10.667 4.66699 16 14 16h101c10 0 15 -5.66699 15 -17v-49h43
c7.33301 0 11 -4.33301 11 -13zM413 399.001c-18 18.667 -35.5 32.499 -52.5 41.499s-36.167 13.5 -57.5 13.5c-40 0 -72.167 -16.167 -96.5 -48.5s-36.5 -80.166 -36.5 -143.499c0 -64 11.833 -111.333 35.5 -142s55.167 -46 94.5 -46c20.667 0 39.667 4.83301 57 14.5
s31 22.167 41 37.5s15 31 15 47v226z" />
    <glyph glyph-name="Emacron" unicode="&#x112;" horiz-adv-x="645" 
d="M94 742h485c8.66699 0 13 -5 13 -15v-76c0 -12.667 -6 -19 -18 -19h-330c-11.333 0 -17 -4.66699 -17 -14v-175c0 -10 4.66699 -15 14 -15h228c10 0 15 -5 15 -15v-81c0 -8 -4.66699 -12 -14 -12h-230c-8.66699 0 -13 -4 -13 -12v-186
c0 -4.66699 0.833008 -7.83398 2.5 -9.50098s4.5 -2.5 8.5 -2.5h350c6 0 10.167 -1 12.5 -3s3.5 -5.66699 3.5 -11v-81c0 -4 -1.33301 -7.5 -4 -10.5s-7 -4.5 -13 -4.5h-489c-6.66699 0 -11.5 1.33301 -14.5 4s-4.5 7.33398 -4.5 14.001v707c0 11.333 5 17 15 17zM510 876
c0 -11.333 -6.66699 -17 -20 -17h-306c-6 0 -10 1.33301 -12 4s-3 6.66699 -3 12v56c0 9.33301 3.66699 14 11 14h319c7.33301 0 11 -4 11 -12v-57z" />
    <glyph glyph-name="emacron" unicode="&#x113;" horiz-adv-x="584" 
d="M190 150.5c12.667 -21.667 30.167 -38.668 52.5 -51.001s46.833 -18.5 73.5 -18.5c27.333 0 52.166 5.83301 74.499 17.5s43.5 29.834 63.5 54.501c3.33301 3.33301 6 5 8 5s5 -1 9 -3l61 -27c4.66699 -2 7 -5 7 -9c0 -2 -1.33301 -5 -4 -9
c-30 -43.333 -63.167 -74.166 -99.5 -92.499s-81.166 -27.5 -134.499 -27.5c-50.667 0 -96.167 11.333 -136.5 34s-71.833 54.334 -94.5 95.001s-34 87 -34 139c0 56 11.667 105.333 35 148s55 75.667 95 99s84.333 35 133 35c50 0 94.167 -11 132.5 -33
s68 -53.833 89 -95.5s31.5 -91.167 31.5 -148.5v-4c0 -6.66699 -1 -11.334 -3 -14.001s-6.33301 -4.33398 -13 -5.00098h-354c-7.33301 0 -11 -5.33301 -11 -16c0 -27.333 6.33301 -51.833 19 -73.5zM408 313.999c6.66699 0 11.1631 0.833984 13.4961 2.50098
s3.5 5.5 3.5 11.5c0 21.333 -4.66699 42 -14 62s-23.166 36.333 -41.499 49s-40.166 19 -65.499 19c-39.333 0 -71.166 -13.833 -95.499 -41.5s-36.166 -61.834 -35.499 -102.501h235zM468.996 664c0 -11.333 -6.66699 -17 -20 -17h-306c-6 0 -10 1.33301 -12 4
s-3 6.66699 -3 12v56c0 9.33301 3.66699 14 11 14h319c7.33301 0 11 -4 11 -12v-57z" />
    <glyph glyph-name="Ebreve" unicode="&#x114;" horiz-adv-x="645" 
d="M94 742h485c8.66699 0 13 -5 13 -15v-76c0 -12.667 -6 -19 -18 -19h-330c-11.333 0 -17 -4.66699 -17 -14v-175c0 -10 4.66699 -15 14 -15h228c10 0 15 -5 15 -15v-81c0 -8 -4.66699 -12 -14 -12h-230c-8.66699 0 -13 -4 -13 -12v-186
c0 -4.66699 0.833008 -7.83398 2.5 -9.50098s4.5 -2.5 8.5 -2.5h350c6 0 10.167 -1 12.5 -3s3.5 -5.66699 3.5 -11v-81c0 -4 -1.33301 -7.5 -4 -10.5s-7 -4.5 -13 -4.5h-489c-6.66699 0 -11.5 1.33301 -14.5 4s-4.5 7.33398 -4.5 14.001v707c0 11.333 5 17 15 17z
M506.5 950.5c1.66699 -2.33301 1.83398 -5.83301 0.500977 -10.5c-10 -32.667 -30.167 -59.167 -60.5 -79.5s-66.166 -30.5 -107.499 -30.5s-76.833 10 -106.5 30s-49.5 47.333 -59.5 82c-0.666992 0.666992 -1 2 -1 4c0 5.33301 3 8 9 8h58
c4.66699 0 8.16699 -0.666992 10.5 -2s5.16602 -4.33301 8.49902 -9c21.333 -30 48.333 -45 81 -45c17.333 0 33.5 4.5 48.5 13.5s26.5 19.833 34.5 32.5c2 4 4.16699 6.66699 6.5 8s5.16602 2 8.49902 2h59c5.33301 0 8.83301 -1.16699 10.5 -3.5z" />
    <glyph glyph-name="ebreve" unicode="&#x115;" horiz-adv-x="584" 
d="M190 150.5c12.667 -21.667 30.167 -38.668 52.5 -51.001s46.833 -18.5 73.5 -18.5c27.333 0 52.166 5.83301 74.499 17.5s43.5 29.834 63.5 54.501c3.33301 3.33301 6 5 8 5s5 -1 9 -3l61 -27c4.66699 -2 7 -5 7 -9c0 -2 -1.33301 -5 -4 -9
c-30 -43.333 -63.167 -74.166 -99.5 -92.499s-81.166 -27.5 -134.499 -27.5c-50.667 0 -96.167 11.333 -136.5 34s-71.833 54.334 -94.5 95.001s-34 87 -34 139c0 56 11.667 105.333 35 148s55 75.667 95 99s84.333 35 133 35c50 0 94.167 -11 132.5 -33
s68 -53.833 89 -95.5s31.5 -91.167 31.5 -148.5v-4c0 -6.66699 -1 -11.334 -3 -14.001s-6.33301 -4.33398 -13 -5.00098h-354c-7.33301 0 -11 -5.33301 -11 -16c0 -27.333 6.33301 -51.833 19 -73.5zM408 313.999c6.66699 0 11.1631 0.833984 13.4961 2.50098
s3.5 5.5 3.5 11.5c0 21.333 -4.66699 42 -14 62s-23.166 36.333 -41.499 49s-40.166 19 -65.499 19c-39.333 0 -71.166 -13.833 -95.499 -41.5s-36.166 -61.834 -35.499 -102.501h235zM465.496 738.5c1.66699 -2.33301 1.83398 -5.83301 0.500977 -10.5
c-10 -32.667 -30.167 -59.167 -60.5 -79.5s-66.166 -30.5 -107.499 -30.5s-76.833 10 -106.5 30s-49.5 47.333 -59.5 82c-0.666992 0.666992 -1 2 -1 4c0 5.33301 3 8 9 8h58c4.66699 0 8.16699 -0.666992 10.5 -2s5.16602 -4.33301 8.49902 -9
c21.333 -30 48.333 -45 81 -45c17.333 0 33.5 4.5 48.5 13.5s26.5 19.833 34.5 32.5c2 4 4.16699 6.66699 6.5 8s5.16602 2 8.49902 2h59c5.33301 0 8.83301 -1.16699 10.5 -3.5z" />
    <glyph glyph-name="Edotaccent" unicode="&#x116;" horiz-adv-x="645" 
d="M94 742h485c8.66699 0 13 -5 13 -15v-76c0 -12.667 -6 -19 -18 -19h-330c-11.333 0 -17 -4.66699 -17 -14v-175c0 -10 4.66699 -15 14 -15h228c10 0 15 -5 15 -15v-81c0 -8 -4.66699 -12 -14 -12h-230c-8.66699 0 -13 -4 -13 -12v-186
c0 -4.66699 0.833008 -7.83398 2.5 -9.50098s4.5 -2.5 8.5 -2.5h350c6 0 10.167 -1 12.5 -3s3.5 -5.66699 3.5 -11v-81c0 -4 -1.33301 -7.5 -4 -10.5s-7 -4.5 -13 -4.5h-489c-6.66699 0 -11.5 1.33301 -14.5 4s-4.5 7.33398 -4.5 14.001v707c0 11.333 5 17 15 17zM407 838
c0 -7.33301 -1.66699 -12.667 -5 -16s-9.33301 -5 -18 -5h-92c-7.33301 0 -12.333 1.5 -15 4.5s-4 7.83301 -4 14.5v101c0 11.333 5 17 15 17h105c9.33301 0 14 -5.33301 14 -16v-100z" />
    <glyph glyph-name="edotaccent" unicode="&#x117;" horiz-adv-x="584" 
d="M190 150.5c12.667 -21.667 30.167 -38.668 52.5 -51.001s46.833 -18.5 73.5 -18.5c27.333 0 52.166 5.83301 74.499 17.5s43.5 29.834 63.5 54.501c3.33301 3.33301 6 5 8 5s5 -1 9 -3l61 -27c4.66699 -2 7 -5 7 -9c0 -2 -1.33301 -5 -4 -9
c-30 -43.333 -63.167 -74.166 -99.5 -92.499s-81.166 -27.5 -134.499 -27.5c-50.667 0 -96.167 11.333 -136.5 34s-71.833 54.334 -94.5 95.001s-34 87 -34 139c0 56 11.667 105.333 35 148s55 75.667 95 99s84.333 35 133 35c50 0 94.167 -11 132.5 -33
s68 -53.833 89 -95.5s31.5 -91.167 31.5 -148.5v-4c0 -6.66699 -1 -11.334 -3 -14.001s-6.33301 -4.33398 -13 -5.00098h-354c-7.33301 0 -11 -5.33301 -11 -16c0 -27.333 6.33301 -51.833 19 -73.5zM408 313.999c6.66699 0 11.1631 0.833984 13.4961 2.50098
s3.5 5.5 3.5 11.5c0 21.333 -4.66699 42 -14 62s-23.166 36.333 -41.499 49s-40.166 19 -65.499 19c-39.333 0 -71.166 -13.833 -95.499 -41.5s-36.166 -61.834 -35.499 -102.501h235zM348.996 626c0 -7.33301 -1.66699 -12.667 -5 -16s-9.33301 -5 -18 -5h-92
c-7.33301 0 -12.333 1.5 -15 4.5s-4 7.83301 -4 14.5v101c0 11.333 5 17 15 17h105c9.33301 0 14 -5.33301 14 -16v-100z" />
    <glyph glyph-name="Eogonek" unicode="&#x118;" horiz-adv-x="645" 
d="M611 -93c4 0 6 -2.99902 6 -8.99902v-38c0 -6 -2.66699 -10.667 -8 -14c-9.33301 -4.66699 -22.833 -8.83398 -40.5 -12.501s-36.167 -5.5 -55.5 -5.5c-34 0 -60.5 7.16699 -79.5 21.5s-28.5 34.833 -28.5 61.5c0 18.667 6 35.167 18 49.5s33 27.5 63 39.5h-388
c-6.66699 -0 -11.5 1.33301 -14.5 4s-4.5 7.33398 -4.5 14.001v707c0 11.333 5 17 15 17h485c8.66699 0 13 -5 13 -15v-76c0 -12.667 -6 -19 -18 -19h-330c-11.333 0 -17 -4.66699 -17 -14v-175c0 -10 4.66699 -15 14 -15h228c10 0 15 -5 15 -15v-81
c0 -8 -4.66699 -12 -14 -12h-230c-8.66699 0 -13 -4 -13 -12v-186c0 -4.66699 0.833008 -7.83398 2.5 -9.50098s4.5 -2.5 8.5 -2.5h350c6 0 10.167 -1 12.5 -3s3.5 -5.66699 3.5 -11v-81c0 -8 -4.33301 -13 -13 -15c-32.667 -12 -55.667 -23.667 -69 -35
s-20 -24.333 -20 -39c0 -12 3.16699 -20.833 9.5 -26.5s16.833 -8.5 31.5 -8.5c21.333 0 41.333 4.66699 60 14c2 1.33301 4.66699 2 8 2z" />
    <glyph glyph-name="eogonek" unicode="&#x119;" horiz-adv-x="584" 
d="M171 224c0 -27.333 6.33203 -51.8311 18.999 -73.498s30.167 -38.667 52.5 -51s46.833 -18.5 73.5 -18.5c27.333 0 52.166 5.83301 74.499 17.5s43.5 29.834 63.5 54.501c3.33301 3.33301 6 5 8 5s5 -1 9 -3l61 -27c4.66699 -2 7 -5 7 -9c0 -2 -1.33301 -5 -4 -9
c-20 -29.333 -41.167 -52.666 -63.5 -69.999s-47.166 -30 -74.499 -38c-22.667 -10 -38.667 -20 -48 -30s-14 -21 -14 -33s3.16699 -20.833 9.5 -26.5s16.833 -8.5 31.5 -8.5c21.333 0 41.333 4.66699 60 14c2 1.33301 4.66699 2 8 2c4 0 6 -3 6 -9v-38
c0 -6 -2.66699 -10.667 -8 -14c-9.33301 -4.66699 -22.833 -8.83398 -40.5 -12.501s-36.167 -5.5 -55.5 -5.5c-34 0 -60.5 7.16699 -79.5 21.5s-28.5 34.833 -28.5 61.5c0 27.333 12.667 49.666 38 66.999c-46.667 3.33301 -88.167 16.833 -124.5 40.5
s-64.666 55 -84.999 94s-30.5 83.167 -30.5 132.5c0 56 11.667 105.333 35 148s55 75.667 95 99s84.333 35 133 35c50 0 94.167 -11 132.5 -33s68 -53.833 89 -95.5s31.5 -91.167 31.5 -148.5v-4c0 -6.66699 -1 -11.334 -3 -14.001s-6.33301 -4.33398 -13 -5.00098h-354
c-7.33301 0 -11 -5.33301 -11 -16zM208.499 416.502c-24.333 -27.667 -36.1699 -61.833 -35.5029 -102.5h235c6.66699 0 11.167 0.833008 13.5 2.5s3.5 5.5 3.5 11.5c0 21.333 -4.66699 42 -14 62s-23.166 36.333 -41.499 49s-40.166 19 -65.499 19
c-39.333 0 -71.166 -13.833 -95.499 -41.5z" />
    <glyph glyph-name="Ecaron" unicode="&#x11a;" horiz-adv-x="645" 
d="M94 742h485c8.66699 0 13 -5 13 -15v-76c0 -12.667 -6 -19 -18 -19h-330c-11.333 0 -17 -4.66699 -17 -14v-175c0 -10 4.66699 -15 14 -15h228c10 0 15 -5 15 -15v-81c0 -8 -4.66699 -12 -14 -12h-230c-8.66699 0 -13 -4 -13 -12v-186
c0 -4.66699 0.833008 -7.83398 2.5 -9.50098s4.5 -2.5 8.5 -2.5h350c6 0 10.167 -1 12.5 -3s3.5 -5.66699 3.5 -11v-81c0 -4 -1.33301 -7.5 -4 -10.5s-7 -4.5 -13 -4.5h-489c-6.66699 0 -11.5 1.33301 -14.5 4s-4.5 7.33398 -4.5 14.001v707c0 11.333 5 17 15 17zM423 955
l77 0.000976562c6 0 9 -1.33301 9 -4s-2.33301 -6.33398 -7 -11.001l-105 -106c-7.33301 -7.33301 -15 -11 -23 -11h-61c-7.33301 0 -13.166 1 -17.499 3s-8.5 5 -12.5 9l-106 105c-4 4 -6 7.33301 -6 10c0 3.33301 2.66699 5 8 5h72c6 0 10.167 -0.333008 12.5 -1
s5.16602 -3 8.49902 -7l53 -52c7.33301 -7.33301 12.333 -11 15 -11s7 3.66699 13 11l49 52c4.66699 5.33301 11.667 8 21 8z" />
    <glyph glyph-name="ecaron" unicode="&#x11b;" horiz-adv-x="584" 
d="M190 150.5c12.667 -21.667 30.167 -38.668 52.5 -51.001s46.833 -18.5 73.5 -18.5c27.333 0 52.166 5.83301 74.499 17.5s43.5 29.834 63.5 54.501c3.33301 3.33301 6 5 8 5s5 -1 9 -3l61 -27c4.66699 -2 7 -5 7 -9c0 -2 -1.33301 -5 -4 -9
c-30 -43.333 -63.167 -74.166 -99.5 -92.499s-81.166 -27.5 -134.499 -27.5c-50.667 0 -96.167 11.333 -136.5 34s-71.833 54.334 -94.5 95.001s-34 87 -34 139c0 56 11.667 105.333 35 148s55 75.667 95 99s84.333 35 133 35c50 0 94.167 -11 132.5 -33
s68 -53.833 89 -95.5s31.5 -91.167 31.5 -148.5v-4c0 -6.66699 -1 -11.334 -3 -14.001s-6.33301 -4.33398 -13 -5.00098h-354c-7.33301 0 -11 -5.33301 -11 -16c0 -27.333 6.33301 -51.833 19 -73.5zM408 313.999c6.66699 0 11.1631 0.833984 13.4961 2.50098
s3.5 5.5 3.5 11.5c0 21.333 -4.66699 42 -14 62s-23.166 36.333 -41.499 49s-40.166 19 -65.499 19c-39.333 0 -71.166 -13.833 -95.499 -41.5s-36.166 -61.834 -35.499 -102.501h235zM381.996 743l77 0.000976562c6 0 9 -1.33301 9 -4s-2.33301 -6.33398 -7 -11.001
l-105 -106c-7.33301 -7.33301 -15 -11 -23 -11h-61c-7.33301 0 -13.166 1 -17.499 3s-8.5 5 -12.5 9l-106 105c-4 4 -6 7.33301 -6 10c0 3.33301 2.66699 5 8 5h72c6 0 10.167 -0.333008 12.5 -1s5.16602 -3 8.49902 -7l53 -52c7.33301 -7.33301 12.333 -11 15 -11
s7 3.66699 13 11l49 52c4.66699 5.33301 11.667 8 21 8z" />
    <glyph glyph-name="Gcircumflex" unicode="&#x11c;" horiz-adv-x="747" 
d="M204.5 36.5c-49 31 -86.833 75 -113.5 132s-40 123.5 -40 199.5c0 78 13.833 146 41.5 204s66.667 102.5 117 133.5s108.833 46.5 175.5 46.5c50 0 95.833 -9.83301 137.5 -29.5s75.667 -45.334 102 -77.001s42.833 -65.5 49.5 -101.5l2 -11
c0 -6.66699 -4 -10.667 -12 -12l-111 -17c-5.33301 0 -8.83301 1 -10.5 3s-3.16699 5.66699 -4.5 11c-6 36.667 -23 67.167 -51 91.5s-63 36.5 -105 36.5c-117.333 0 -176 -90.667 -176 -272c0 -96 15.333 -166.333 46 -211s75.334 -67 134.001 -67
c46.667 0 84 13.5 112 40.5s44.667 59.167 50 96.5l1 40c0.666992 1.33301 1 3 1 5c0 5.33301 -3.33301 8 -10 8h-136c-5.33301 0 -9 1 -11 3s-3 6 -3 12v64c0 8 4.66699 12 14 12l260 -1c8 0 14 -1.83301 18 -5.5s6 -8.5 6 -14.5v-342c0 -9.33301 -4.33301 -14 -13 -14h-29
c-6 0 -10.833 1 -14.5 3s-6.83398 6 -9.50098 12l-22 79c-1.33301 2.66699 -2.83301 3.83398 -4.5 3.50098s-3.5 -1.83301 -5.5 -4.5c-50 -68.667 -121 -103 -213 -103c-66 0 -123.5 15.5 -172.5 46.5zM392 888c-6 7.33301 -10.333 11.001 -13 11.001
s-7.66699 -3.66699 -15 -11l-53 -52c-3.33301 -4 -6.16602 -6.33301 -8.49902 -7s-6.5 -1 -12.5 -1h-72c-5.33301 0 -8 1.66699 -8 5c0 2.66699 2 6 6 10l106 105c4 4 8.16699 7 12.5 9s10.166 3 17.499 3h61c8 0 15.667 -3.66699 23 -11l105 -106
c4.66699 -4.66699 7 -8.33398 7 -11.001s-3 -4 -9 -4h-77c-9.33301 0 -16.333 2.66699 -21 8z" />
    <glyph glyph-name="gcircumflex" unicode="&#x11d;" horiz-adv-x="622" 
d="M599 528l-0.00195312 -56.002c0 -16.667 -7.33301 -24 -22 -22c-5.33301 0.666992 -12.666 1 -21.999 1c-10 0 -19 -1 -27 -3c-17.333 -4 -24 -11.667 -20 -23c4 -10.667 7 -19.5 9 -26.5s3 -15.833 3 -26.5c0 -30.667 -8.83301 -58.334 -26.5 -83.001
s-44 -44.167 -79 -58.5s-77.5 -21.5 -127.5 -21.5c-41.333 0 -71.166 -3.33301 -89.499 -10s-27.5 -15.667 -27.5 -27c0 -9.33301 5.5 -16 16.5 -20s29.5 -6.66699 55.5 -8l138 -8c63.333 -3.33301 110.5 -17.5 141.5 -42.5s46.5 -58.5 46.5 -100.5
c0 -51.333 -23.833 -92.166 -71.5 -122.499s-115.5 -45.5 -203.5 -45.5c-92.667 0 -162.5 11.167 -209.5 33.5s-70.5 55.5 -70.5 99.5c0 22 8.16699 41.167 24.5 57.5s39.833 30.833 70.5 43.5c4 1.33301 6 3 6 5s-2 4 -6 6c-36 16 -54 38.667 -54 68
c0 17.333 8.33301 33.333 25 48s38.667 27.334 66 38.001c4.66699 2.66699 7 4.66699 7 6c0 2 -2 4 -6 6c-62 29.333 -93 74.333 -93 135c0 51.333 21.167 92 63.5 122s102.5 45 180.5 45c67.333 0 119.333 -15 156 -45c4.66699 -3.33301 9 -5 13 -5c4.66699 0 9 2 13 6
c12 14.667 27.833 27.334 47.5 38.001s37.167 16 52.5 16c13.333 0 20 -6.66699 20 -20zM371.998 301.998c19.333 16.667 29 39.332 29 67.999c0 30.667 -9.66699 54.834 -29 72.501s-48 26.5 -86 26.5c-36 0 -64.167 -9 -84.5 -27s-30.5 -42 -30.5 -72
c0 -28 10.167 -50.5 30.5 -67.5s48.5 -25.5 84.5 -25.5c38 0 66.667 8.33301 86 25zM206.998 41.9961c-20 1.33301 -39.167 -4.66895 -57.5 -18.002s-27.5 -29.666 -27.5 -48.999c0 -27.333 14.5 -48 43.5 -62s74.833 -21 137.5 -21c48.667 0 85.667 6.83301 111 20.5
s38 33.5 38 59.5c0 38.667 -28.667 59.334 -86 62.001zM308.998 675.994c-6 7.33301 -10.333 11.001 -13 11.001s-7.66699 -3.66699 -15 -11l-53 -52c-3.33301 -4 -6.16602 -6.33301 -8.49902 -7s-6.5 -1 -12.5 -1h-72c-5.33301 0 -8 1.66699 -8 5c0 2.66699 2 6 6 10
l106 105c4 4 8.16699 7 12.5 9s10.166 3 17.499 3h61c8 0 15.667 -3.66699 23 -11l105 -106c4.66699 -4.66699 7 -8.33398 7 -11.001s-3 -4 -9 -4h-77c-9.33301 0 -16.333 2.66699 -21 8z" />
    <glyph glyph-name="Gbreve" unicode="&#x11e;" horiz-adv-x="747" 
d="M204.5 36.5c-49 31 -86.833 75 -113.5 132s-40 123.5 -40 199.5c0 78 13.833 146 41.5 204s66.667 102.5 117 133.5s108.833 46.5 175.5 46.5c50 0 95.833 -9.83301 137.5 -29.5s75.667 -45.334 102 -77.001s42.833 -65.5 49.5 -101.5l2 -11
c0 -6.66699 -4 -10.667 -12 -12l-111 -17c-5.33301 0 -8.83301 1 -10.5 3s-3.16699 5.66699 -4.5 11c-6 36.667 -23 67.167 -51 91.5s-63 36.5 -105 36.5c-117.333 0 -176 -90.667 -176 -272c0 -96 15.333 -166.333 46 -211s75.334 -67 134.001 -67
c46.667 0 84 13.5 112 40.5s44.667 59.167 50 96.5l1 40c0.666992 1.33301 1 3 1 5c0 5.33301 -3.33301 8 -10 8h-136c-5.33301 0 -9 1 -11 3s-3 6 -3 12v64c0 8 4.66699 12 14 12l260 -1c8 0 14 -1.83301 18 -5.5s6 -8.5 6 -14.5v-342c0 -9.33301 -4.33301 -14 -13 -14h-29
c-6 0 -10.833 1 -14.5 3s-6.83398 6 -9.50098 12l-22 79c-1.33301 2.66699 -2.83301 3.83398 -4.5 3.50098s-3.5 -1.83301 -5.5 -4.5c-50 -68.667 -121 -103 -213 -103c-66 0 -123.5 15.5 -172.5 46.5zM545.5 950.5c1.66699 -2.33301 1.83398 -5.83301 0.500977 -10.5
c-10 -32.667 -30.167 -59.167 -60.5 -79.5s-66.166 -30.5 -107.499 -30.5s-76.833 10 -106.5 30s-49.5 47.333 -59.5 82c-0.666992 0.666992 -1 2 -1 4c0 5.33301 3 8 9 8h58c4.66699 0 8.16699 -0.666992 10.5 -2s5.16602 -4.33301 8.49902 -9
c21.333 -30 48.333 -45 81 -45c17.333 0 33.5 4.5 48.5 13.5s26.5 19.833 34.5 32.5c2 4 4.16699 6.66699 6.5 8s5.16602 2 8.49902 2h59c5.33301 0 8.83301 -1.16699 10.5 -3.5z" />
    <glyph glyph-name="gbreve" unicode="&#x11f;" horiz-adv-x="622" 
d="M599 528l-0.00195312 -56.002c0 -16.667 -7.33301 -24 -22 -22c-5.33301 0.666992 -12.666 1 -21.999 1c-10 0 -19 -1 -27 -3c-17.333 -4 -24 -11.667 -20 -23c4 -10.667 7 -19.5 9 -26.5s3 -15.833 3 -26.5c0 -30.667 -8.83301 -58.334 -26.5 -83.001
s-44 -44.167 -79 -58.5s-77.5 -21.5 -127.5 -21.5c-41.333 0 -71.166 -3.33301 -89.499 -10s-27.5 -15.667 -27.5 -27c0 -9.33301 5.5 -16 16.5 -20s29.5 -6.66699 55.5 -8l138 -8c63.333 -3.33301 110.5 -17.5 141.5 -42.5s46.5 -58.5 46.5 -100.5
c0 -51.333 -23.833 -92.166 -71.5 -122.499s-115.5 -45.5 -203.5 -45.5c-92.667 0 -162.5 11.167 -209.5 33.5s-70.5 55.5 -70.5 99.5c0 22 8.16699 41.167 24.5 57.5s39.833 30.833 70.5 43.5c4 1.33301 6 3 6 5s-2 4 -6 6c-36 16 -54 38.667 -54 68
c0 17.333 8.33301 33.333 25 48s38.667 27.334 66 38.001c4.66699 2.66699 7 4.66699 7 6c0 2 -2 4 -6 6c-62 29.333 -93 74.333 -93 135c0 51.333 21.167 92 63.5 122s102.5 45 180.5 45c67.333 0 119.333 -15 156 -45c4.66699 -3.33301 9 -5 13 -5c4.66699 0 9 2 13 6
c12 14.667 27.833 27.334 47.5 38.001s37.167 16 52.5 16c13.333 0 20 -6.66699 20 -20zM371.998 301.998c19.333 16.667 29 39.332 29 67.999c0 30.667 -9.66699 54.834 -29 72.501s-48 26.5 -86 26.5c-36 0 -64.167 -9 -84.5 -27s-30.5 -42 -30.5 -72
c0 -28 10.167 -50.5 30.5 -67.5s48.5 -25.5 84.5 -25.5c38 0 66.667 8.33301 86 25zM206.998 41.9961c-20 1.33301 -39.167 -4.66895 -57.5 -18.002s-27.5 -29.666 -27.5 -48.999c0 -27.333 14.5 -48 43.5 -62s74.833 -21 137.5 -21c48.667 0 85.667 6.83301 111 20.5
s38 33.5 38 59.5c0 38.667 -28.667 59.334 -86 62.001zM462.498 738.494c1.66699 -2.33301 1.83398 -5.83301 0.500977 -10.5c-10 -32.667 -30.167 -59.167 -60.5 -79.5s-66.166 -30.5 -107.499 -30.5s-76.833 10 -106.5 30s-49.5 47.333 -59.5 82
c-0.666992 0.666992 -1 2 -1 4c0 5.33301 3 8 9 8h58c4.66699 0 8.16699 -0.666992 10.5 -2s5.16602 -4.33301 8.49902 -9c21.333 -30 48.333 -45 81 -45c17.333 0 33.5 4.5 48.5 13.5s26.5 19.833 34.5 32.5c2 4 4.16699 6.66699 6.5 8s5.16602 2 8.49902 2h59
c5.33301 0 8.83301 -1.16699 10.5 -3.5z" />
    <glyph glyph-name="Gdotaccent" unicode="&#x120;" horiz-adv-x="747" 
d="M204.5 36.5c-49 31 -86.833 75 -113.5 132s-40 123.5 -40 199.5c0 78 13.833 146 41.5 204s66.667 102.5 117 133.5s108.833 46.5 175.5 46.5c50 0 95.833 -9.83301 137.5 -29.5s75.667 -45.334 102 -77.001s42.833 -65.5 49.5 -101.5l2 -11
c0 -6.66699 -4 -10.667 -12 -12l-111 -17c-5.33301 0 -8.83301 1 -10.5 3s-3.16699 5.66699 -4.5 11c-6 36.667 -23 67.167 -51 91.5s-63 36.5 -105 36.5c-117.333 0 -176 -90.667 -176 -272c0 -96 15.333 -166.333 46 -211s75.334 -67 134.001 -67
c46.667 0 84 13.5 112 40.5s44.667 59.167 50 96.5l1 40c0.666992 1.33301 1 3 1 5c0 5.33301 -3.33301 8 -10 8h-136c-5.33301 0 -9 1 -11 3s-3 6 -3 12v64c0 8 4.66699 12 14 12l260 -1c8 0 14 -1.83301 18 -5.5s6 -8.5 6 -14.5v-342c0 -9.33301 -4.33301 -14 -13 -14h-29
c-6 0 -10.833 1 -14.5 3s-6.83398 6 -9.50098 12l-22 79c-1.33301 2.66699 -2.83301 3.83398 -4.5 3.50098s-3.5 -1.83301 -5.5 -4.5c-50 -68.667 -121 -103 -213 -103c-66 0 -123.5 15.5 -172.5 46.5zM446 838c0 -7.33301 -1.66699 -12.667 -5 -16s-9.33301 -5 -18 -5h-92
c-7.33301 0 -12.333 1.5 -15 4.5s-4 7.83301 -4 14.5v101c0 11.333 5 17 15 17h105c9.33301 0 14 -5.33301 14 -16v-100z" />
    <glyph glyph-name="gdotaccent" unicode="&#x121;" horiz-adv-x="622" 
d="M599 528l-0.00195312 -56.002c0 -16.667 -7.33301 -24 -22 -22c-5.33301 0.666992 -12.666 1 -21.999 1c-10 0 -19 -1 -27 -3c-17.333 -4 -24 -11.667 -20 -23c4 -10.667 7 -19.5 9 -26.5s3 -15.833 3 -26.5c0 -30.667 -8.83301 -58.334 -26.5 -83.001
s-44 -44.167 -79 -58.5s-77.5 -21.5 -127.5 -21.5c-41.333 0 -71.166 -3.33301 -89.499 -10s-27.5 -15.667 -27.5 -27c0 -9.33301 5.5 -16 16.5 -20s29.5 -6.66699 55.5 -8l138 -8c63.333 -3.33301 110.5 -17.5 141.5 -42.5s46.5 -58.5 46.5 -100.5
c0 -51.333 -23.833 -92.166 -71.5 -122.499s-115.5 -45.5 -203.5 -45.5c-92.667 0 -162.5 11.167 -209.5 33.5s-70.5 55.5 -70.5 99.5c0 22 8.16699 41.167 24.5 57.5s39.833 30.833 70.5 43.5c4 1.33301 6 3 6 5s-2 4 -6 6c-36 16 -54 38.667 -54 68
c0 17.333 8.33301 33.333 25 48s38.667 27.334 66 38.001c4.66699 2.66699 7 4.66699 7 6c0 2 -2 4 -6 6c-62 29.333 -93 74.333 -93 135c0 51.333 21.167 92 63.5 122s102.5 45 180.5 45c67.333 0 119.333 -15 156 -45c4.66699 -3.33301 9 -5 13 -5c4.66699 0 9 2 13 6
c12 14.667 27.833 27.334 47.5 38.001s37.167 16 52.5 16c13.333 0 20 -6.66699 20 -20zM371.998 301.998c19.333 16.667 29 39.332 29 67.999c0 30.667 -9.66699 54.834 -29 72.501s-48 26.5 -86 26.5c-36 0 -64.167 -9 -84.5 -27s-30.5 -42 -30.5 -72
c0 -28 10.167 -50.5 30.5 -67.5s48.5 -25.5 84.5 -25.5c38 0 66.667 8.33301 86 25zM206.998 41.9961c-20 1.33301 -39.167 -4.66895 -57.5 -18.002s-27.5 -29.666 -27.5 -48.999c0 -27.333 14.5 -48 43.5 -62s74.833 -21 137.5 -21c48.667 0 85.667 6.83301 111 20.5
s38 33.5 38 59.5c0 38.667 -28.667 59.334 -86 62.001zM362.998 625.994c0 -7.33301 -1.66699 -12.667 -5 -16s-9.33301 -5 -18 -5h-92c-7.33301 0 -12.333 1.5 -15 4.5s-4 7.83301 -4 14.5v101c0 11.333 5 17 15 17h105c9.33301 0 14 -5.33301 14 -16v-100z" />
    <glyph glyph-name="Gcommaaccent" unicode="&#x122;" horiz-adv-x="747" 
d="M204.5 36.5c-49 31 -86.833 75 -113.5 132s-40 123.5 -40 199.5c0 78 13.833 146 41.5 204s66.667 102.5 117 133.5s108.833 46.5 175.5 46.5c50 0 95.833 -9.83301 137.5 -29.5s75.667 -45.334 102 -77.001s42.833 -65.5 49.5 -101.5l2 -11
c0 -6.66699 -4 -10.667 -12 -12l-111 -17c-5.33301 0 -8.83301 1 -10.5 3s-3.16699 5.66699 -4.5 11c-6 36.667 -23 67.167 -51 91.5s-63 36.5 -105 36.5c-117.333 0 -176 -90.667 -176 -272c0 -96 15.333 -166.333 46 -211s75.334 -67 134.001 -67
c46.667 0 84 13.5 112 40.5s44.667 59.167 50 96.5l1 40c0.666992 1.33301 1 3 1 5c0 5.33301 -3.33301 8 -10 8h-136c-5.33301 0 -9 1 -11 3s-3 6 -3 12v64c0 8 4.66699 12 14 12l260 -1c8 0 14 -1.83301 18 -5.5s6 -8.5 6 -14.5v-342c0 -9.33301 -4.33301 -14 -13 -14h-29
c-6 0 -10.833 1 -14.5 3s-6.83398 6 -9.50098 12l-22 79c-1.33301 2.66699 -2.83301 3.83398 -4.5 3.50098s-3.5 -1.83301 -5.5 -4.5c-50 -68.667 -121 -103 -213 -103c-66 0 -123.5 15.5 -172.5 46.5zM335 -236.5c-2 3.66699 -2.00098 6.83203 -0.000976562 9.49902l29 49
c2.66699 3.33301 4 7 4 11c0 2.66699 -1 4.83398 -3 6.50098s-4.33301 2.5 -7 2.5h-9c-6 0 -10.167 1.33301 -12.5 4s-3.5 7 -3.5 13v63c0 10 4.33301 15 13 15h72c8.66699 0 13 -4.33301 13 -13v-82c0 -2 -0.5 -3.83301 -1.5 -5.5s-1.5 -3.16699 -1.5 -4.5l-44 -63
c-2.66699 -4.66699 -5.66699 -7.66699 -9 -9s-8.66602 -2 -15.999 -2h-16c-3.33301 0 -6 1.83301 -8 5.5z" />
    <glyph glyph-name="gcommaaccent" unicode="&#x123;" horiz-adv-x="622" 
d="M247.5 616.5c-2.33301 2.33301 -3.5 5.49902 -3.5 9.49902v82c0 2.66699 1 6 3 10l44 63c2.66699 4.66699 5.66699 7.66699 9 9s8.66602 2 15.999 2h15c4 0 7 -1.66699 9 -5s2 -6.66602 0 -9.99902l-30 -49c-2.66699 -5.33301 -4 -8.66602 -4 -9.99902
c0 -6.66699 3.66699 -10 11 -10h9c6 0 10.167 -1.33301 12.5 -4s3.5 -7 3.5 -13v-63c0 -4.66699 -1.16699 -8.33398 -3.5 -11.001s-5.5 -4 -9.5 -4h-73c-3.33301 0 -6.16602 1.16699 -8.49902 3.5zM599 527.999l-0.00195312 -56.002c0 -16.667 -7.33301 -24 -22 -22
c-5.33301 0.666992 -12.666 1 -21.999 1c-10 0 -19 -1 -27 -3c-17.333 -4 -24 -11.667 -20 -23c4 -10.667 7 -19.5 9 -26.5s3 -15.833 3 -26.5c0 -30.667 -8.83301 -58.334 -26.5 -83.001s-44 -44.167 -79 -58.5s-77.5 -21.5 -127.5 -21.5
c-41.333 0 -71.166 -3.33301 -89.499 -10s-27.5 -15.667 -27.5 -27c0 -9.33301 5.5 -16 16.5 -20s29.5 -6.66699 55.5 -8l138 -8c63.333 -3.33301 110.5 -17.5 141.5 -42.5s46.5 -58.5 46.5 -100.5c0 -51.333 -23.833 -92.166 -71.5 -122.499s-115.5 -45.5 -203.5 -45.5
c-92.667 0 -162.5 11.167 -209.5 33.5s-70.5 55.5 -70.5 99.5c0 22 8.16699 41.167 24.5 57.5s39.833 30.833 70.5 43.5c4 1.33301 6 3 6 5s-2 4 -6 6c-36 16 -54 38.667 -54 68c0 17.333 8.33301 33.333 25 48s38.667 27.334 66 38.001c4.66699 2.66699 7 4.66699 7 6
c0 2 -2 4 -6 6c-62 29.333 -93 74.333 -93 135c0 51.333 21.167 92 63.5 122s102.5 45 180.5 45c67.333 0 119.333 -15 156 -45c4.66699 -3.33301 9 -5 13 -5c4.66699 0 9 2 13 6c12 14.667 27.833 27.334 47.5 38.001s37.167 16 52.5 16c13.333 0 20 -6.66699 20 -20z
M371.998 301.997c19.333 16.667 29 39.332 29 67.999c0 30.667 -9.66699 54.834 -29 72.501s-48 26.5 -86 26.5c-36 0 -64.167 -9 -84.5 -27s-30.5 -42 -30.5 -72c0 -28 10.167 -50.5 30.5 -67.5s48.5 -25.5 84.5 -25.5c38 0 66.667 8.33301 86 25zM206.998 41.9951
c-20 1.33301 -39.167 -4.66895 -57.5 -18.002s-27.5 -29.666 -27.5 -48.999c0 -27.333 14.5 -48 43.5 -62s74.833 -21 137.5 -21c48.667 0 85.667 6.83301 111 20.5s38 33.5 38 59.5c0 38.667 -28.667 59.334 -86 62.001z" />
    </font>
</defs>
</svg>
