<?xml version="1.0" standalone="no"?>
<!DOCTYPE svg PUBLIC "-//W3C//DTD SVG 1.1//EN" "http://www.w3.org/Graphics/SVG/1.1/DTD/svg11.dtd" >
<svg>
<metadata>
Created by FontForge 20090914 at Wed Jun 28 20:16:38 2017
 By www-data
Copyright (c) 2015, Impallari Type (www.impallari.com)
</metadata>
<defs>
<font id="LibreFranklin-Thin" horiz-adv-x="222" >
  <font-face 
    font-family="Libre Franklin Thin"
    font-weight="250"
    font-stretch="normal"
    units-per-em="1000"
    panose-1="0 0 3 0 0 0 0 0 0 0"
    ascent="800"
    descent="-200"
    x-height="530"
    cap-height="742"
    bbox="-323.5 -236.001 1230 964.502"
    underline-thickness="50"
    underline-position="-50"
    unicode-range="U+000D-U+FB02"
  />
<missing-glyph horiz-adv-x="736" 
d="M617 841.5c3.33301 -3.66699 5 -8.83301 5 -15.5v-962c0 -10.667 -2.66699 -18.167 -8 -22.5s-13.666 -6.5 -24.999 -6.5h-448c-10 0 -17 2 -21 6s-6 10.333 -6 19v964c0 7.33301 1.66699 13 5 17s8 6 14 6h471c5.33301 0 9.66602 -1.83301 12.999 -5.5zM566 792.001
c-2.66699 3.33301 -6.33301 5.00098 -11 5.00098h-353l368 -855v837c0 5.33301 -1.33301 9.66602 -4 12.999zM171.001 -109.998c3.33301 -3.33301 9.33301 -5.00098 18 -5.00098h344l-367 849v-828c0 -7.33301 1.66699 -12.666 5 -15.999z" />
    <glyph glyph-name="fi" unicode="fi" horiz-adv-x="586" 
d="M338 524v-23c0 -4 -2 -6 -6 -6h-133c-4.66699 0 -7 -2.33301 -7 -7v-477c0 -7.33301 -3 -11 -9 -11h-23c-5.33301 -0 -8 3.33301 -8 10v478c0 4.66699 -2 7 -6 7h-114c-4 0 -6 2 -6 6v23c0 4 2 6 6 6h113c4.66699 0 7 2.33301 7 7v81c0 42 9 73.167 27 93.5
s46.667 30.5 86 30.5h72c4 0 6 -2.33301 6 -7v-21c0 -4.66699 -2.66699 -7 -8 -7h-80c-24 0 -40.5 -6.5 -49.5 -19.5s-13.5 -33.167 -13.5 -60.5v-90c0 -4.66699 2.33301 -7 7 -7h134c3.33301 0 5 -2 5 -6zM500 660c0 -5.33301 -0.830078 -9.33301 -2.49707 -12
s-4.83398 -4 -9.50098 -4h-27c-7.33301 0 -11 4.66699 -11 14v71c0 4 1.16699 7.16699 3.5 9.5s5.16602 3.5 8.49902 3.5h26c3.33301 0 6.16602 -1.16699 8.49902 -3.5s3.5 -5.5 3.5 -9.5v-69zM495.003 12c0 -4.66699 -0.666016 -7.83301 -1.99902 -9.5
s-4.66602 -2.5 -9.99902 -2.5h-17c-4.66699 0 -7.66699 0.666992 -9 2s-2 4 -2 8v510c0 4 0.666992 6.66699 2 8s3.66602 2 6.99902 2h22c3.33301 0 5.66602 -0.666992 6.99902 -2s2 -4 2 -8v-508z" />
    <glyph glyph-name="fl" unicode="fl" horiz-adv-x="586" 
d="M338 524v-23c0 -4 -2 -6 -6 -6h-133c-4.66699 0 -7 -2.33301 -7 -7v-477c0 -7.33301 -3 -11 -9 -11h-23c-5.33301 -0 -8 3.33301 -8 10v478c0 4.66699 -2 7 -6 7h-114c-4 0 -6 2 -6 6v23c0 4 2 6 6 6h113c4.66699 0 7 2.33301 7 7v81c0 42 9 73.167 27 93.5
s46.667 30.5 86 30.5h72c4 0 6 -2.33301 6 -7v-21c0 -4.66699 -2.66699 -7 -8 -7h-80c-24 0 -40.5 -6.5 -49.5 -19.5s-13.5 -33.167 -13.5 -60.5v-90c0 -4.66699 2.33301 -7 7 -7h134c3.33301 0 5 -2 5 -6zM495 12c0 -4.66699 -0.666016 -7.83301 -1.99902 -9.5
s-4.66602 -2.5 -9.99902 -2.5h-17c-4.66699 0 -7.66699 0.666992 -9 2s-2 4 -2 8v722c0 4 0.666992 6.66699 2 8s3.66602 2 6.99902 2h22c3.33301 0 5.66602 -0.666992 6.99902 -2s2 -4 2 -8v-720z" />
    <glyph glyph-name=".notdef" horiz-adv-x="736" 
d="M617 841.5c3.33301 -3.66699 5 -8.83301 5 -15.5v-962c0 -10.667 -2.66699 -18.167 -8 -22.5s-13.666 -6.5 -24.999 -6.5h-448c-10 0 -17 2 -21 6s-6 10.333 -6 19v964c0 7.33301 1.66699 13 5 17s8 6 14 6h471c5.33301 0 9.66602 -1.83301 12.999 -5.5zM566 792.001
c-2.66699 3.33301 -6.33301 5.00098 -11 5.00098h-353l368 -855v837c0 5.33301 -1.33301 9.66602 -4 12.999zM171.001 -109.998c3.33301 -3.33301 9.33301 -5.00098 18 -5.00098h344l-367 849v-828c0 -7.33301 1.66699 -12.666 5 -15.999z" />
    <glyph glyph-name="uni0000" horiz-adv-x="0" 
 />
    <glyph glyph-name="uni0000" horiz-adv-x="0" 
 />
    <glyph glyph-name="nonmarkingreturn" unicode="&#xd;" horiz-adv-x="215" 
 />
    <glyph glyph-name="space" unicode=" " horiz-adv-x="220" 
 />
    <glyph glyph-name="exclam" unicode="!" horiz-adv-x="232" 
d="M132 156c0 -5.33301 -3.33301 -8 -10 -8h-14c-5.33301 0 -8 2.33301 -8 7l-10 580c0 4.66699 1.66699 7 5 7h42c4 0 6 -2 6 -6zM147 11c0 -4 -1 -6.83301 -3 -8.5s-5.33301 -2.5 -10 -2.5h-39c-4 -0 -6.66699 0.833008 -8 2.5s-2 4.16699 -2 7.5v60c0 6 2.33301 9 7 9h48
c4.66699 0 7 -2.66699 7 -8v-60z" />
    <glyph glyph-name="quotedbl" unicode="&#x22;" horiz-adv-x="371" 
d="M271 559c-0.666992 -6 -4 -9 -10 -9h-18c-2.66699 0 -4.5 0.5 -5.5 1.5s-1.83301 2.83301 -2.5 5.5l-19 179c0 4 2 6 6 6h63c4 0 6 -2 6 -6zM135 559c-0.666992 -6 -4 -9 -10 -9h-18c-2.66699 0 -4.5 0.5 -5.5 1.5s-1.83301 2.83301 -2.5 5.5l-19 179c0 4 2 6 6 6h63
c4 0 6 -2 6 -6z" />
    <glyph glyph-name="numbersign" unicode="#" horiz-adv-x="603" 
d="M558 492l0.00585938 -23.9961c0 -5.33301 -3.33301 -8 -10 -8h-106l-26 -172h102c4.66699 0 7 -2 7 -6v-24c0 -5.33301 -3.33301 -8 -10 -8h-105l-38 -243c-0.666992 -6 -3.33398 -8.33301 -8.00098 -7l-24 4c-4 0.666992 -6 2.66699 -6 6l37 240h-164l-38 -243
c-0.666992 -6 -3.33398 -8.33301 -8.00098 -7l-24 4c-4 0.666992 -6 2.66699 -6 6l37 240h-115c-5.33301 0 -8 2.33301 -8 7v24c0 4.66699 1.66699 7 5 7h124l26 172h-114c-5.33301 0 -8 2.33301 -8 7v24c0 4.66699 1.66699 7 5 7h123l37 238
c0.666992 2 1.66699 3.66699 3 5s2.66602 1.66602 3.99902 0.999023l24 -4c5.33301 -0.666992 7.66602 -4.33398 6.99902 -11.001l-36 -229h164l37 238c0.666992 2 1.66699 3.66699 3 5s2.66602 1.66602 3.99902 0.999023l24 -4
c5.33301 -0.666992 7.66602 -4.33398 6.99902 -11.001l-36 -229h103c4.66699 0 7 -2 7 -6zM403.006 460.004h-164l-26 -172h164z" />
    <glyph glyph-name="dollar" unicode="$" horiz-adv-x="574" 
d="M508 75.5c-17.333 -26.333 -41.3369 -47.165 -72.0039 -62.498s-65.667 -23 -105 -23c-5.33301 0 -8 -2 -8 -6v-69c0 -5.33301 -2.33301 -8 -7 -8h-24c-4.66699 0 -7 1.66699 -7 5v72c0 2 -0.333008 3.5 -1 4.5s-2 1.5 -4 1.5c-58 0 -105.5 10 -142.5 30
s-68.833 51 -95.5 93c-1.33301 2 -2 4.66699 -2 8c0 2.66699 1.33301 5 4 7l16 10c2.66699 1.33301 5.33398 2 8.00098 2c3.33301 0 6 -1 8 -3c26.667 -36 55.334 -62.333 86.001 -79s69.334 -25 116.001 -25c4.66699 0 7 2.33301 7 7v291c0 10.667 -7.66699 19.667 -23 27
c-51.333 23.333 -90.5 44 -117.5 62s-46.667 37.833 -59 59.5s-18.5 48.167 -18.5 79.5c0 54 19.5 98.5 58.5 133.5s89.5 54.833 151.5 59.5c4.66699 0 7 2.33301 7 7v56c0 4.66699 2 7 6 7h24c5.33301 0 8 -3.33301 8 -10v-54c0 -4.66699 2.33301 -7 7 -7
c39.333 -3.33301 74.333 -13 105 -29s59.334 -38 86.001 -66c5.33301 -5.33301 5.33301 -10 0 -14l-23 -17c-2.66699 -1.33301 -4.33398 -2 -5.00098 -2c-1.33301 0 -4 2.33301 -8 7c-16 20 -37.5 36.833 -64.5 50.5s-56.5 22.5 -88.5 26.5h-2c-4.66699 0 -7 -2.66699 -7 -8
v-302c0 -4.66699 0.666992 -7.83398 2 -9.50098s4.33301 -3.5 9 -5.5l27 -12c58.667 -24.667 102.334 -53.334 131.001 -86.001s43 -72.334 43 -119.001c0 -33.333 -8.66699 -63.166 -26 -89.499zM283.996 701.001c0 2.66699 -1 4.66895 -3 6.00195
s-4.33301 1.66602 -7 0.999023c-47.333 -4 -85.5 -19.833 -114.5 -47.5s-43.5 -61.834 -43.5 -102.501c0 -29.333 10.667 -55.333 32 -78s60 -46.667 116 -72c2 -1.33301 5 -2 9 -2c7.33301 0 11 4.33301 11 13v282zM329.996 33.0029c46.667 0 84.167 12.833 112.5 38.5
s42.5 58.167 42.5 97.5c0 35.333 -11.167 65 -33.5 89s-59.5 47 -111.5 69c-4 1.33301 -7 2 -9 2c-5.33301 0 -8 -3.33301 -8 -10v-280c0 -4 2.33301 -6 7 -6z" />
    <glyph glyph-name="percent" unicode="%" horiz-adv-x="898" 
d="M346.5 698c29.667 -36.667 44.5 -89 44.5 -157c0 -68.667 -14.833 -121.5 -44.5 -158.5s-68.834 -55.5 -117.501 -55.5c-49.333 0 -89 18.5 -119 55.5s-45 89.833 -45 158.5c0 68 15 120.333 45 157s69.667 55 119 55c48.667 0 87.834 -18.333 117.501 -55zM228 4
c-2 -3.33301 -4 -5.5 -6 -6.5s-5 -1.5 -9 -1.5h-16c-5.33301 0 -8 2 -8 6c0 2 1 4.33301 3 7l489 736c2 3.33301 6 5 12 5h20c6 0 7.33301 -2.66699 4 -8zM321 408.5c23.333 34.333 35 78.166 35 131.499s-11.667 97.166 -35 131.499s-54.333 51.5 -93 51.5
s-69.667 -17.167 -93 -51.5s-35 -78.166 -35 -131.499s11.667 -97.166 35 -131.499s54.333 -51.5 93 -51.5s69.667 17.167 93 51.5zM788.5 361c29.667 -36.667 44.5 -89 44.5 -157c0 -68.667 -14.833 -121.5 -44.5 -158.5s-68.834 -55.5 -117.501 -55.5
c-49.333 0 -89 18.5 -119 55.5s-45 89.833 -45 158.5c0 68 15 120.333 45 157s69.667 55 119 55c48.667 0 87.834 -18.333 117.501 -55zM736 44c19.333 16 34.5 38 45.5 66s16.5 59 16.5 93s-5.5 65 -16.5 93s-26.167 50 -45.5 66s-41.333 24 -66 24
s-46.667 -8.16699 -66 -24.5s-34.5 -38.333 -45.5 -66s-16.5 -58.5 -16.5 -92.5s5.5 -64.833 16.5 -92.5s26.167 -49.667 45.5 -66s41.333 -24.5 66 -24.5s46.667 8 66 24z" />
    <glyph glyph-name="ampersand" unicode="&#x26;" horiz-adv-x="740" 
d="M432.5 714c31.667 -26 47.498 -61.335 47.498 -106.002c0 -40 -15.167 -77.333 -45.5 -112s-79.166 -66.667 -146.499 -96c-5.33301 -2 -8 -4.33301 -8 -7c0 -1.33301 1.66699 -4.33301 5 -9l188 -224c3.33301 -3.33301 5.33301 -5 6 -5c1.33301 0 4.33301 2 9 6
c28 25.333 58.667 62 92 110s54.333 85 63 111c0.666992 2.66699 2.33398 4.5 5.00098 5.5s5.33398 0.833008 8.00098 -0.5l17 -7c5.33301 -2.66699 7.33301 -6 6 -10c-9.33301 -30.667 -30.5 -69.667 -63.5 -117s-67.167 -88.666 -102.5 -123.999c-2 -2 -3 -4 -3 -6
c0 -2.66699 1.66699 -5.66699 5 -9c20 -20 48.833 -37.5 86.5 -52.5s73.167 -22.5 106.5 -22.5c8 0 12 -3.33301 12 -10v-15c0 -5.33301 -1 -9 -3 -11s-6.33301 -3 -13 -3c-32.667 0 -71.834 9 -117.501 27s-81.5 38 -107.5 60c-2 2 -4.33301 3 -7 3
c-2 0 -4.33301 -1.33301 -7 -4c-64.667 -60.667 -137 -91 -217 -91c-63.333 0 -113.833 17.5 -151.5 52.5s-56.5 81.5 -56.5 139.5c0 40.667 11.167 77.5 33.5 110.5s59.5 65.5 111.5 97.5c6.66699 4 10 7.66699 10 11c0 2.66699 -3 7.33398 -9 14.001
c-23.333 24 -40.5 48 -51.5 72s-16.5 49.333 -16.5 76c0 34.667 8.5 66 25.5 94s40.5 50.167 70.5 66.5s63.333 24.5 100 24.5c47.333 0 86.833 -13 118.5 -39zM234.498 693.998c-22.333 -13.333 -39.5 -31.166 -51.5 -53.499s-18 -46.833 -18 -73.5
c0 -20.667 3.66699 -39.834 11 -57.501s20 -36.167 38 -55.5l23 -25c2.66699 -2.66699 5.66699 -4 9 -4l8 2c64.667 30.667 110.834 60.167 138.501 88.5s41.5 59.833 41.5 94.5c0 34 -11.333 59.833 -34 77.5s-51.334 26.5 -86.001 26.5
c-30.667 0 -57.167 -6.66699 -79.5 -20zM229.998 369.998c-2 0 -6.33594 -1.33203 -13.0029 -3.99902c-41.333 -19.333 -73.666 -45.166 -96.999 -77.499s-35 -67.5 -35 -105.5c0 -44.667 15.667 -80.834 47 -108.501s71.333 -41.5 120 -41.5c32.667 0 65.334 7 98.001 21
s61.334 32.333 86.001 55c4.66699 4 7 8.33301 7 13c0 3.33301 -1.33301 6.66602 -4 9.99902l-194 229c-4.66699 6 -9.66699 9 -15 9z" />
    <glyph glyph-name="quotesingle" unicode="'" horiz-adv-x="235" 
d="M135 559c-0.666992 -6 -4 -9 -10 -9h-18c-2.66699 0 -4.5 0.5 -5.5 1.5s-1.83301 2.83301 -2.5 5.5l-19 179c0 4 2 6 6 6h63c4 0 6 -2 6 -6z" />
    <glyph glyph-name="parenleft" unicode="(" horiz-adv-x="268" 
d="M247.5 739.5c1 -1.66699 0.833008 -3.16797 -0.5 -4.50098c-36 -70.667 -64.667 -144.667 -86 -222s-32 -153.666 -32 -228.999c0 -74 8.83301 -147 26.5 -219s44.5 -146.333 80.5 -223c1.33301 -1.33301 1.5 -2.83301 0.5 -4.5s-2.83301 -2.5 -5.5 -2.5h-10
c-3.33301 0 -6.33301 1.66699 -9 5c-44 75.333 -77 148 -99 218s-33 145.667 -33 227c0 79.333 12.833 157.833 38.5 235.5s60.5 149.5 104.5 215.5c3.33301 4 7.33301 6 12 6h7c2.66699 0 4.5 -0.833008 5.5 -2.5z" />
    <glyph glyph-name="parenright" unicode=")" horiz-adv-x="268" 
d="M33 742c5.33301 0 9.33301 -1.99902 12 -5.99902c44 -66 78.833 -137.833 104.5 -215.5s38.5 -156.167 38.5 -235.5c0 -81.333 -11 -157 -33 -227s-55 -142.667 -99 -218c-2.66699 -3.33301 -5.66699 -5 -9 -5h-10c-2.66699 0 -4.5 0.833008 -5.5 2.5
s-0.833008 3.16699 0.5 4.5c36 76.667 62.833 151 80.5 223s26.5 145 26.5 219c0 75.333 -10.667 151.666 -32 228.999s-50 151.333 -86 222c-1.33301 1.33301 -1.5 2.83301 -0.5 4.5s2.83301 2.5 5.5 2.5h7z" />
    <glyph glyph-name="asterisk" unicode="*" horiz-adv-x="327" 
d="M171 572c-0.666992 1.33301 -1.66406 1.33301 -2.99707 0l-75 -117c-0.666992 -0.666992 -1.83398 -1 -3.50098 -1s-3.16699 0.333008 -4.5 1l-22 15c-2.66699 2 -2.66699 4.66699 0 8l81 106c1.33301 2.66699 0.333008 4.33398 -3 5.00098l-109 32
c-2 0.666992 -2.66699 3 -2 7l8 22c1.33301 3.33301 3.66602 4 6.99902 2l104 -38c3.33301 -1.33301 5 0 5 4l-7 119c0 3.33301 2.33301 5 7 5h30c3.33301 0 5 -1.66699 5 -5l-5 -119c0 -4 1.33301 -5.33301 4 -4l107 45c3.33301 1.33301 5.33301 0.666016 6 -2.00098l7 -21
c0.666992 -4.66699 0 -7.33398 -2 -8.00098l-108 -38c-3.33301 -1.33301 -4 -3.33301 -2 -6l78 -99c2.66699 -3.33301 2 -6.66602 -2 -9.99902l-21 -15c-2 -1.33301 -3.83301 -2 -5.5 -2s-2.83398 0.666992 -3.50098 2z" />
    <glyph glyph-name="plus" unicode="+" horiz-adv-x="541" 
d="M471 386v-24c0 -5.33301 -3.33301 -8 -10 -8h-171v-175c0 -4.66699 -2 -7 -6 -7h-24c-5.33301 0 -8 3.33301 -8 10v171h-174c-5.33301 0 -8 2.33301 -8 7v24c0 4.66699 1.66699 7 5 7h176v174c0 5.33301 2.33301 8 7 8h24c4.66699 0 7 -1.66699 7 -5v-176h175
c4.66699 0 7 -2 7 -6z" />
    <glyph glyph-name="comma" unicode="," horiz-adv-x="187" 
d="M47 -124l43 114c0.666992 1.33301 1 3 1 5c0 3.33301 -3 5 -9 5h-9c-5.33301 -0 -8 2.33301 -8 7v66c0 4 2 6 6 6h50c4 0 6 -2 6 -6v-57c0 -4 -0.666992 -8 -2 -12l-57 -132c-2 -4 -5.66699 -6 -11 -6h-7c-4.66699 0 -5.66699 3.33301 -3 10z" />
    <glyph glyph-name="hyphen" unicode="-" horiz-adv-x="381" 
d="M311 254c0 -5.33301 -3.33301 -8 -10 -8l-223 -1c-5.33301 0 -8 2.33301 -8 7v26c0 4.66699 1.66699 7 5 7l229 1c4.66699 0 7 -2 7 -6v-26z" />
    <glyph glyph-name="period" unicode="." horiz-adv-x="182" 
d="M122 11c0 -4 -1 -6.83301 -3 -8.5s-5.33301 -2.5 -10 -2.5h-39c-4 -0 -6.66699 0.833008 -8 2.5s-2 4.16699 -2 7.5v60c0 6 2.33301 9 7 9h48c4.66699 0 7 -2.66699 7 -8v-60z" />
    <glyph glyph-name="slash" unicode="/" horiz-adv-x="328" 
d="M17 -55l251.001 791c1.33301 4 4 6 8 6h29c5.33301 0 7 -3.33301 5 -10l-248 -784c-2 -5.33301 -5.66699 -8 -11 -8h-29c-4.66699 0 -6.33398 1.66699 -5.00098 5z" />
    <glyph glyph-name="zero" unicode="0" horiz-adv-x="675" 
d="M470.5 709.5c39 -28.333 69.667 -71.334 92 -129.001s33.5 -128.167 33.5 -211.5s-11.167 -153.333 -33.5 -210s-53 -99 -92 -127s-83.5 -42 -133.5 -42s-94.333 14 -133 42s-69.167 70.167 -91.5 126.5s-33.5 125.833 -33.5 208.5c0 84 11.333 154.833 34 212.5
s53.5 100.834 92.5 129.501s83.167 43 132.5 43s93.5 -14.167 132.5 -42.5zM492 114.999c37.333 55.333 56 140 56 254c0 114.667 -19 200.167 -57 256.5s-89 84.5 -153 84.5s-115.167 -28.333 -153.5 -85s-57.5 -142 -57.5 -256c0 -113.333 19.167 -197.833 57.5 -253.5
s89.833 -83.5 154.5 -83.5s115.667 27.667 153 83z" />
    <glyph glyph-name="one" unicode="1" horiz-adv-x="438" 
d="M391 36l0.000976562 -30.001c0 -1.33301 -0.666992 -2.66602 -2 -3.99902s-3 -2 -5 -2h-322c-4 0 -6 2 -6 6v30c0 4 2 6 6 6h141c4 0 6 1.33301 6 4v632c0 5.33301 -2 7.33301 -6 6l-140 -56l-3 -1c-3.33301 0 -5 2.66699 -5 8v24c0 2.66699 0.5 4.5 1.5 5.5
s2.5 2.16699 4.5 3.5l137 68c7.33301 4 14.666 6 21.999 6h27c5.33301 0 8 -3 8 -9v-685c0 -4 1.66699 -6 5 -6h124c4.66699 0 7 -2 7 -6z" />
    <glyph glyph-name="two" unicode="2" horiz-adv-x="571" 
d="M302 304c53.333 53.333 91.5029 99.333 114.503 138s34.5 78 34.5 118c0 32 -8.33301 59.333 -25 82s-38.167 39.667 -64.5 51s-53.5 17 -81.5 17c-33.333 0 -67.333 -8 -102 -24s-62.667 -39.667 -84 -71c-2.66699 -2.66699 -5.33398 -4 -8.00098 -4
c-2 0 -4.66699 1 -8 3l-15 13c-4 4 -6 6.66699 -6 8s1.33301 4 4 8c26 36 59.5 63.167 100.5 81.5s82.833 27.5 125.5 27.5c36.667 0 71 -7 103 -21s57.833 -35.833 77.5 -65.5s29.5 -66.834 29.5 -111.501c0 -30 -5.66699 -58.5 -17 -85.5s-29 -55.5 -53 -85.5
s-58 -67.667 -102 -113l-212 -216c-2.66699 -2.66699 -4 -5 -4 -7c0 -3.33301 3.33301 -5 10 -5h377c3.33301 0 5.66602 -0.5 6.99902 -1.5s2 -3.16699 2 -6.5v-26c0 -5.33301 -2.66699 -8 -8 -8h-428c-4.66699 0 -7.83398 0.833008 -9.50098 2.5s-2.5 4.83398 -2.5 9.50098
v20c0 7.33301 1 13.333 3 18s5.66699 9.66699 11 15z" />
    <glyph glyph-name="three" unicode="3" horiz-adv-x="624" 
d="M84 657c33.333 33.333 66.998 57.501 100.998 72.501s71.667 22.5 113 22.5c46 0 86.5 -8.16699 121.5 -24.5s62 -38.333 81 -66s28.5 -58.834 28.5 -93.501c0 -38.667 -11.667 -72.667 -35 -102s-55.666 -51.333 -96.999 -66c-7.33301 -2 -11 -4 -11 -6
c0 -1.33301 3.66699 -3 11 -5c44 -11.333 80.833 -33.666 110.5 -66.999s44.5 -74.333 44.5 -123c0 -38.667 -10.167 -73.834 -30.5 -105.501s-50.666 -56.834 -90.999 -75.501s-89.166 -28 -146.499 -28c-47.333 0 -89.166 7.33301 -125.499 22s-71.833 39 -106.5 73
c-2 2 -3 3.5 -3 4.5s1.33301 2.83301 4 5.5l21 20c2.66699 2.66699 4.66699 3.83398 6 3.50098s3 -1.5 5 -3.5c28.667 -30 59.5 -51.333 92.5 -64s70.167 -19 111.5 -19c68 0 121.167 15 159.5 45s57.5 69.667 57.5 119c0 36.667 -10.5 68.167 -31.5 94.5
s-48.333 46.166 -82 59.499s-69.167 20 -106.5 20h-90c-6 0 -9 2.33301 -9 7v26c0 2 0.833008 3.66699 2.5 5s3.83398 2 6.50098 2h73c39.333 0 75.333 6.83301 108 20.5s58.5 32.5 77.5 56.5s28.5 51 28.5 81c0 26.667 -7.83301 50.834 -23.5 72.501
s-37.334 38.667 -65.001 51s-59.167 18.5 -94.5 18.5c-36 0 -70 -6.83301 -102 -20.5s-60.667 -33.167 -86 -58.5c-2.66699 -2.66699 -5.33398 -4 -8.00098 -4s-5.33398 1.33301 -8.00098 4l-12 14c-4 4 -4 8 0 12z" />
    <glyph glyph-name="four" unicode="4" horiz-adv-x="623" 
d="M415 742h31c6 0 9 -3 9 -9v-469c0 -5.33301 2.33301 -8 7 -8h102c6.66699 0 10 -2.33301 10 -7v-25c0 -6.66699 -3.33301 -10 -10 -10h-101c-5.33301 0 -8 -3 -8 -9v-196c0 -6 -3.33301 -9 -10 -9h-28c-5.33301 0 -8 3 -8 9v199c0 4 -2.66699 6 -8 6h-338
c-7.33301 0 -11 3.33301 -11 10v31c0 6 3 13.333 9 22l340 460c2 3.33301 6.66699 5 14 5zM396 256c2.66699 0 4.83301 0.666992 6.5 2s2.5 3 2.5 5v387c0 8 -1.33301 12 -4 12s-6 -2.66699 -10 -8l-285 -385c-2 -2.66699 -3 -5 -3 -7c0 -4 3.33301 -6 10 -6h283z" />
    <glyph glyph-name="five" unicode="5" horiz-adv-x="641" 
d="M533 742c4 0 6.66699 -0.671875 8 -2.00488s1.66602 -3.66602 0.999023 -6.99902l-3 -26v-4c0 -1.33301 -0.666992 -2.16602 -2 -2.49902s-3.33301 -0.5 -6 -0.5h-356c-6 0 -9 -2.66699 -9 -8l-21 -275v-2c0 -3.33301 1 -6 3 -8s4.33301 -2 7 0
c32 18.667 60.833 32.834 86.5 42.501s56.834 14.5 93.501 14.5c42.667 0 82 -7.66699 118 -23s65.167 -39.5 87.5 -72.5s33.5 -74.833 33.5 -125.5c0 -52 -11.833 -97.167 -35.5 -135.5s-56.334 -67.5 -98.001 -87.5s-88.5 -30 -140.5 -30
c-44.667 0 -87.167 7.83301 -127.5 23.5s-76.5 39.167 -108.5 70.5c-2.66699 2.66699 -4 4.33398 -4 5.00098c0 1.33301 1.66699 3.66602 5 6.99902l19 20c2.66699 2.66699 6 2 10 -2c34 -29.333 65 -50.666 93 -63.999s63 -20 105 -20
c48.667 0 90.834 8.83301 126.501 26.5s62.834 42.5 81.501 74.5s28 69 28 111c0 60.667 -18.333 106.167 -55 136.5s-82.334 45.5 -137.001 45.5c-38 0 -72.333 -6.5 -103 -19.5s-62.667 -30.167 -96 -51.5l-7 -3c-1.33301 0 -2.5 0.5 -3.5 1.5s-2.16699 1.83301 -3.5 2.5
l-22 14c-2 2 -3.66699 3.16699 -5 3.5s-2 0.833008 -2 1.5s0.333008 1.83398 1 3.50098s1 4.16699 1 7.5l27 350v3c0 2.66699 1 4.16699 3 4.5s5.33301 0.5 10 0.5h397z" />
    <glyph glyph-name="six" unicode="6" horiz-adv-x="646" 
d="M463 733c26 -12.667 50.333 -30.998 73 -54.998c4.66699 -4.66699 4.66699 -8.33398 0 -11.001l-24 -17c-0.666992 -0.666992 -2 -1 -4 -1c-2.66699 0 -5.66699 1.66699 -9 5c-16 18.667 -34.5 32.667 -55.5 42s-45.833 14 -74.5 14c-82.667 0 -144 -28.667 -184 -86
s-60 -133 -60 -227c0 -8.66699 0.333008 -14.667 1 -18s2.33398 -5 5.00098 -5c2 0 5 1 9 3c38 19.333 72.167 34 102.5 44s65.166 15 104.499 15c50 0 92.667 -9.33301 128 -28s62 -44.334 80 -77.001s27 -69.667 27 -111c0 -45.333 -10.667 -85.5 -32 -120.5
s-50.166 -62 -86.499 -81s-76.5 -28.5 -120.5 -28.5c-82.667 0 -147.334 32.5 -194.001 97.5s-70 156.833 -70 275.5c0 80.667 11.333 150.167 34 208.5s55.667 103 99 134s95.333 46.5 156 46.5c37.333 0 69 -6.33301 95 -19zM246 379.002
c-38.667 -10 -70.334 -22.668 -95.001 -38.001c-9.33301 -6.66699 -15.666 -13.167 -18.999 -19.5s-5 -16.166 -5 -29.499c0 -36.667 8.16699 -75.334 24.5 -116.001s41 -74.834 74 -102.501s73.167 -41.5 120.5 -41.5c35.333 0 67.5 8.33301 96.5 25
s51.833 39.334 68.5 68.001s25 60 25 94c0 32 -7.33301 61.333 -22 88s-36 47.834 -64 63.501s-61 23.5 -99 23.5c-31.333 0 -66.333 -5 -105 -15z" />
    <glyph glyph-name="seven" unicode="7" horiz-adv-x="587" 
d="M529 742c4.66699 0 7 -2.00098 7 -6.00098v-24c0 -4.66699 -0.5 -8.66699 -1.5 -12s-3.16699 -7.33301 -6.5 -12c-44.667 -65.333 -88.167 -141.666 -130.5 -228.999s-78.666 -171.666 -108.999 -252.999s-49.833 -145.333 -58.5 -192c-1.33301 -9.33301 -5 -14 -11 -14
h-29c-8 0 -11 4.33301 -9 13c20 86.667 56 192.5 108 317.5s114.667 244.167 188 357.5c2 3.33301 3 5.66602 3 6.99902c0 3.33301 -3 5 -9 5h-419c-3.33301 0 -5 2.33301 -5 7l3 28c0.666992 2.66699 1.66699 4.5 3 5.5s3.66602 1.5 6.99902 1.5h469z" />
    <glyph glyph-name="eight" unicode="8" horiz-adv-x="659" 
d="M450 727c34 -16.667 60.335 -40.333 79.002 -71s28 -66.334 28 -107.001c0 -32.667 -8 -62 -24 -88s-42.667 -53.333 -80 -82c-5.33301 -4 -8 -7 -8 -9s2.33301 -3.66699 7 -5c43.333 -13.333 77.166 -35.5 101.499 -66.5s36.5 -67.833 36.5 -110.5
c0 -39.333 -10.833 -74 -32.5 -104s-52.167 -53.167 -91.5 -69.5s-85 -24.5 -137 -24.5c-80 0 -142.667 17.333 -188 52s-68 82.334 -68 143.001c0 36.667 9.16699 69.5 27.5 98.5s47.166 57.167 86.499 84.5c9.33301 6 14 10.667 14 14s-4.66699 7 -14 11
c-30.667 15.333 -54 36 -70 62s-24 56.333 -24 91c0 38.667 10.333 73.667 31 105s49.167 56 85.5 74s76.833 27 121.5 27c45.333 0 85 -8.33301 119 -25zM233.002 688.501c-29.333 -14.333 -52.332 -33.998 -68.999 -58.998s-25 -52.833 -25 -83.5
c0 -73.333 41.333 -118.666 124 -135.999l117 -25c13.333 -2.66699 30.5 4.16602 51.5 20.499s39.5 38.166 55.5 65.499s24 55 24 83c0 47.333 -16.333 85.166 -49 113.499s-76.334 42.5 -131.001 42.5c-36 0 -68.667 -7.16699 -98 -21.5zM486.003 75.0029
c38.667 28.667 58 67.335 58 116.002c0 37.333 -9.83301 67.166 -29.5 89.499s-50.167 37.833 -91.5 46.5l-152 34c-14 3.33301 -33.333 -2.83398 -58 -18.501s-46.5 -37.5 -65.5 -65.5s-28.5 -58.333 -28.5 -91c0 -48.667 18.5 -86.5 55.5 -113.5s88.833 -40.5 155.5 -40.5
c65.333 0 117.333 14.333 156 43z" />
    <glyph glyph-name="nine" unicode="9" horiz-adv-x="641" 
d="M178 9c-28 12.667 -53.666 30.998 -76.999 54.998c-4.66699 4.66699 -4.66699 8.33398 0 11.001l24 17c0.666992 0.666992 2 1 4 1c2.66699 0 5.66699 -1.66699 9 -5c33.333 -37.333 80.333 -56 141 -56c79.333 0 138.666 28.667 177.999 86s59 133 59 227
c0 8.66699 -0.333008 14.667 -1 18s-2.33398 5 -5.00098 5c-2 0 -5 -1 -9 -3c-36.667 -18.667 -69.834 -33.167 -99.501 -43.5s-64.167 -15.5 -103.5 -15.5c-48.667 0 -90.667 9.33301 -126 28s-62 44.334 -80 77.001s-27 69.667 -27 111c0 45.333 10.667 85.5 32 120.5
s50.166 62 86.499 81s76.5 28.5 120.5 28.5c80.667 0 143.834 -32.5 189.501 -97.5s68.5 -156.833 68.5 -275.5c0 -80.667 -11.167 -150.167 -33.5 -208.5s-54.666 -103 -96.999 -134s-93.166 -46.5 -152.499 -46.5c-39.333 0 -73 6.33301 -101 19zM399.001 364.998
c38 11.333 69 25.668 93 43.001c9.33301 6.66699 15.666 13.167 18.999 19.5s5 16.166 5 29.499c0 36 -8 73.667 -24 113s-40.167 72.5 -72.5 99.5s-71.833 40.5 -118.5 40.5c-36 0 -68.333 -8.16699 -97 -24.5s-51.334 -38.833 -68.001 -67.5s-25 -60 -25 -94
c0 -32 7.33301 -61.333 22 -88s35.834 -48 63.501 -64s59.834 -24 96.501 -24c32.667 0 68 5.66699 106 17z" />
    <glyph glyph-name="colon" unicode=":" horiz-adv-x="182" 
d="M122 432c0 -4 -1 -6.83301 -3 -8.5s-5.33301 -2.5 -10 -2.5h-39c-4 0 -6.66699 0.833008 -8 2.5s-2 4.16699 -2 7.5v60c0 6 2.33301 9 7 9h48c4.66699 0 7 -2.66699 7 -8v-60zM122 14c0 -4 -1 -6.83301 -3 -8.5s-5.33301 -2.5 -10 -2.5h-39
c-4 0 -6.66699 0.833008 -8 2.5s-2 4.16699 -2 7.5v60c0 6 2.33301 9 7 9h48c4.66699 0 7 -2.66699 7 -8v-60z" />
    <glyph glyph-name="semicolon" unicode=";" horiz-adv-x="210" 
d="M62 423.5c-1.33301 1.66699 -2 4.16699 -2 7.5v60c0 6 2.33301 9 7 9h48c4.66699 0 7 -2.66699 7 -8v-60c0 -4 -1 -6.83301 -3 -8.5s-5.33301 -2.5 -10 -2.5h-39c-4 0 -6.66699 0.833008 -8 2.5zM47 -124l43 114c0.666992 1.33301 1 3 1 5c0 3.33301 -3 5 -9 5h-9
c-5.33301 -0 -8 2.33301 -8 7v66c0 4 2 6 6 6h50c4 0 6 -2 6 -6v-57c0 -4 -0.666992 -8 -2 -12l-57 -132c-2 -4 -5.66699 -6 -11 -6h-7c-4.66699 0 -5.66699 3.33301 -3 10z" />
    <glyph glyph-name="less" unicode="&#x3c;" horiz-adv-x="523" 
d="M452 195c0 -5.33301 -1.5 -9 -4.5 -11s-6.83301 -2 -11.5 0l-368 146c-5.33301 2 -8 5.33301 -8 10v35c0 4.66699 2.66699 8 8 10l368 148c5.33301 1.33301 8.33301 2 9 2c5.33301 0 8 -3.66699 8 -11v-26c0 -4.66699 -4.33301 -9 -13 -13l-319 -127l318 -128
c4.66699 -2 8 -4 10 -6s3 -4.66699 3 -8v-21z" />
    <glyph glyph-name="equal" unicode="=" horiz-adv-x="541" 
d="M471 462c0 -5.33301 -3.33301 -8 -10 -8l-383 -1c-5.33301 0 -8 2.33301 -8 7v24c0 4.66699 1.66699 7 5 7l389 1c4.66699 0 7 -2 7 -6v-24zM471 242c0 -5.33301 -3.33301 -8 -10 -8l-383 -1c-5.33301 0 -8 2.33301 -8 7v24c0 4.66699 1.66699 7 5 7l389 1
c4.66699 0 7 -2 7 -6v-24z" />
    <glyph glyph-name="greater" unicode="&#x3e;" horiz-adv-x="523" 
d="M74 224c2 2 5.33301 4 10 6l318 128l-319 127c-8.66699 4 -13 8.33301 -13 13v26c0 7.33301 2.66699 11 8 11c0.666992 0 3.66699 -0.666992 9 -2l368 -148c5.33301 -2 8 -5.33301 8 -10v-35c0 -4.66699 -2.66699 -8 -8 -10l-368 -146
c-2.66699 -1.33301 -4.66699 -2 -6 -2c-6.66699 0 -10 4.33301 -10 13v21c0 3.33301 1 6 3 8z" />
    <glyph glyph-name="question" unicode="?" horiz-adv-x="514" 
d="M41 629c21.333 37.333 52.1689 67.1689 92.502 89.502s84.166 33.5 131.499 33.5c64.667 0 116 -16.5 154 -49.5s57 -77.167 57 -132.5c0 -27.333 -4.66699 -52.5 -14 -75.5s-20.833 -43.5 -34.5 -61.5s-32.167 -40 -55.5 -66c-35.333 -38 -62 -72 -80 -102
s-27 -65.667 -27 -107c0 -2 -0.666992 -3.83301 -2 -5.5s-3 -2.5 -5 -2.5h-27c-5.33301 0 -8 3 -8 9c0 32 5.16699 61.167 15.5 87.5s22.666 49.166 36.999 68.499s33.833 43 58.5 71c32 35.333 56 66.166 72 92.499s24 56.833 24 91.5c0 42.667 -15 76.667 -45 102
s-70 38 -120 38c-38.667 0 -76 -9.83301 -112 -29.5s-59.667 -43.167 -71 -70.5c-0.666992 -1.33301 -1.66699 -2.33301 -3 -3s-3 -0.666992 -5 0l-30 14c-4 2 -5 4.66699 -3 8zM275.003 11.0029c0 -4 -1 -6.83301 -3 -8.5s-5.33301 -2.5 -10 -2.5h-39
c-6.66699 0 -10 3.33301 -10 10v60c0 6 2.33301 9 7 9h48c4.66699 0 7 -2.66699 7 -8v-60z" />
    <glyph glyph-name="at" unicode="@" horiz-adv-x="834" 
d="M437 -113c-78 0 -146.003 16.6631 -204.003 49.9961s-102.5 78.333 -133.5 135s-46.5 119.667 -46.5 189c0 72 16.833 138.5 50.5 199.5s80.667 109.667 141 146s128.5 54.5 204.5 54.5c59.333 0 115.5 -11.667 168.5 -35s96.167 -59.166 129.5 -107.499
s50 -107.833 50 -178.5c0 -50 -8.5 -94.667 -25.5 -134s-40 -70 -69 -92s-61.167 -33 -96.5 -33c-25.333 0 -44.833 4.16699 -58.5 12.5s-22.5 23.166 -26.5 44.499c-1.33301 5.33301 -2.66602 8 -3.99902 8s-3.66602 -2 -6.99902 -6
c-34.667 -48.667 -82.334 -73 -143.001 -73c-23.333 0 -45.333 7.33301 -66 22s-37.167 35.334 -49.5 62.001s-18.5 57.334 -18.5 92.001c0 42.667 8.16699 81.667 24.5 117s38.833 63.333 67.5 84s60.667 31 96 31c26.667 0 50.334 -6.33301 71.001 -19
s37 -30.334 49 -53.001c0.666992 -1.33301 1.66699 -1.66602 3 -0.999023s2.33301 2 3 4l10 38c0.666992 3.33301 3 5 7 5h29c5.33301 0 7.33301 -2 6 -6l-38 -229c-2 -14 -3 -26 -3 -36c0 -19.333 4 -33.166 12 -41.499s20.333 -12.5 37 -12.5
c25.333 0 48.833 8.83301 70.5 26.5s38.667 42.5 51 74.5s18.5 68.333 18.5 109c0 63.333 -14.667 116.333 -44 159s-66.833 74.167 -112.5 94.5s-93.167 30.5 -142.5 30.5c-68.667 0 -129.167 -16.167 -181.5 -48.5s-92.833 -76 -121.5 -131s-43 -115.167 -43 -180.5
c0 -59.333 13 -113.833 39 -163.5s65.167 -89.334 117.5 -119.001s115.833 -44.5 190.5 -44.5c38.667 0 69.834 4.83301 93.501 14.5s51.5 24.834 83.5 45.501c4 2 7.33301 3 10 3c4 0 7 -1.33301 9 -4l12 -16c2 -3.33301 3 -5.66602 3 -6.99902
c0 -4 -3.33301 -8.33301 -10 -13c-64.667 -44.667 -135.667 -67 -213 -67zM306.997 145.996c16 -23.333 37.667 -35.001 65 -35.001c36 0 68.167 15 96.5 45s46.166 66.667 53.499 110c2 14 3 27 3 39c0 40.667 -10.167 71.834 -30.5 93.501s-44.166 32.5 -71.499 32.5
c-42 0 -75.833 -18 -101.5 -54s-38.5 -80.333 -38.5 -133c0 -42 8 -74.667 24 -98z" />
    <glyph glyph-name="A" unicode="A" horiz-adv-x="700" 
d="M53 9l265.002 722c1.33301 4 3.16602 6.83301 5.49902 8.5s5.83301 2.5 10.5 2.5h33c10 0 16 -3.33301 18 -10l262 -722l1 -3c0 -4.66699 -3 -7 -9 -7h-24c-6.66699 0 -11 2.66699 -13 8l-81 223c-2 4.66699 -5.33301 7 -10 7h-322c-4.66699 0 -8 -2.33301 -10 -7
l-83 -224c-0.666992 -4.66699 -4.33398 -7 -11.001 -7h-25c-6.66699 0 -9 3 -7 9zM494.002 278c6.66699 0 8.99902 3.33301 6.99902 10l-143 390c-2 6.66699 -4.33301 10 -7 10c-2 0 -4.66699 -3.66699 -8 -11l-145 -391c-1.33301 -3.33301 -1.66602 -5.5 -0.999023 -6.5
s2.66699 -1.5 6 -1.5h291z" />
    <glyph glyph-name="B" unicode="B" horiz-adv-x="684" 
d="M114 8l0.000976562 724c0 4 0.666992 6.66699 2 8s3.66602 2 6.99902 2h205c83.333 0 148 -16.5 194 -49.5s69 -80.167 69 -141.5c0 -86 -43.667 -142.333 -131 -169c-2.66699 -0.666992 -4 -2.16699 -4 -4.5s1.33301 -3.83301 4 -4.5
c46.667 -8.66699 83.167 -28 109.5 -58s39.5 -69.333 39.5 -118c0 -65.333 -24.167 -114.5 -72.5 -147.5s-116.833 -49.5 -205.5 -49.5h-209c-5.33301 0 -8 2.66699 -8 8zM340.001 395c56.667 0 104.666 11.332 143.999 33.999s59 61.667 59 117
c0 52.667 -19.167 91.834 -57.5 117.501s-92.166 38.5 -161.499 38.5h-155c-6 0 -9 -2.66699 -9 -8v-289c0 -6.66699 2.33301 -10 7 -10h173zM326 39.999c80.667 0 140 11.832 178 35.499s57 62.167 57 115.5c0 56.667 -20 98.167 -60 124.5s-93.667 39.5 -161 39.5h-169
c-4 0 -6.83301 -0.666992 -8.5 -2s-2.5 -3.66602 -2.5 -6.99902v-296c0 -6.66699 2.33301 -10 7 -10h159z" />
    <glyph glyph-name="C" unicode="C" horiz-adv-x="695" 
d="M491.5 724.5c37.667 -18.333 69.001 -42.502 94.001 -72.502s39.5 -62 43.5 -96c0.666992 -4.66699 -1 -7 -5 -7l-36 -4h-2c-2.66699 0 -4.33398 2.33301 -5.00098 7c-11.333 47.333 -35.5 85.5 -72.5 114.5s-80.833 43.5 -131.5 43.5
c-81.333 0 -143.5 -29.167 -186.5 -87.5s-64.5 -143.166 -64.5 -254.499c0 -108.667 21.833 -191.834 65.5 -249.501s108.167 -86.5 193.5 -86.5c52 0 95 12.5 129 37.5s61 63.833 81 116.5c1.33301 2 3.33301 2.66699 6 2l34 -10c2 -1.33301 2.66699 -3.66602 2 -6.99902
c-17.333 -55.333 -49.166 -99.333 -95.499 -132s-99.833 -49 -160.5 -49c-96.667 0 -171.334 32.833 -224.001 98.5s-79 158.834 -79 279.501c0 80 11.667 148.833 35 206.5s57.333 101.667 102 132s98 45.5 160 45.5c40 0 78.833 -9.16699 116.5 -27.5z" />
    <glyph glyph-name="D" unicode="D" horiz-adv-x="703" 
d="M239 741c91.333 -0.666992 165.5 -14.167 222.5 -40.5s98.667 -66 125 -119s39.5 -121.5 39.5 -205.5c0 -130 -32.667 -225.167 -98 -285.5s-166.333 -90.5 -303 -90.5h-102c-6 -0 -9 3.33301 -9 10v724c0 5.33301 3 8 9 8zM162 697
c-1.33301 -2.66699 -2.00098 -5.99902 -2.00098 -9.99902v-638c0 -6 3.66699 -9 11 -9h50c87.333 0 156.833 10.833 208.5 32.5s89.334 56.667 113.001 105s35.5 113.166 35.5 194.499c0 84.667 -12 150.5 -36 197.5s-61 80.167 -111 99.5s-117 30 -201 32h-63
c-2 0 -3.66699 -1.33301 -5 -4z" />
    <glyph glyph-name="E" unicode="E" horiz-adv-x="612" 
d="M116 740c1.33301 1.33301 3.66602 2 6.99902 2h415c4.66699 0 7 -2.33301 7 -7v-26c0 -2.66699 -0.5 -4.5 -1.5 -5.5s-3.16699 -1.5 -6.5 -1.5h-368c-3.33301 0 -5.66602 -0.5 -6.99902 -1.5s-2 -3.5 -2 -7.5v-291c0 -2.66699 0.666992 -4.5 2 -5.5
s3.66602 -1.5 6.99902 -1.5h289c4.66699 0 7 -2.33301 7 -7v-26c0 -2.66699 -0.5 -4.5 -1.5 -5.5s-3.16699 -1.5 -6.5 -1.5h-288c-3.33301 0 -5.66602 -0.5 -6.99902 -1.5s-2 -3.5 -2 -7.5v-297c0 -4 0.666992 -6.5 2 -7.5s3.66602 -1.5 6.99902 -1.5h383
c3.33301 0 5.5 -0.5 6.5 -1.5s1.5 -2.83301 1.5 -5.5v-26c0 -4.66699 -2.33301 -7 -7 -7h-430c-3.33301 0 -5.66602 0.666992 -6.99902 2s-2 4 -2 8v722c0 4 0.666992 6.66699 2 8z" />
    <glyph glyph-name="F" unicode="F" horiz-adv-x="583" 
d="M116 740c1.33301 1.33301 3.66504 2 6.99805 2h405c4.66699 0 7 -2.33301 7 -7v-26c0 -2.66699 -0.5 -4.5 -1.5 -5.5s-3.16699 -1.5 -6.5 -1.5h-358c-3.33301 0 -5.66602 -0.5 -6.99902 -1.5s-2 -3.5 -2 -7.5v-304c0 -2.66699 0.666992 -4.5 2 -5.5
s3.66602 -1.5 6.99902 -1.5h299c4.66699 0 7 -2.33301 7 -7v-26c0 -2.66699 -0.5 -4.5 -1.5 -5.5s-3.16699 -1.5 -6.5 -1.5h-298c-3.33301 0 -5.66602 -0.5 -6.99902 -1.5s-2 -3.5 -2 -7.5v-326c0 -4.66699 -2.33301 -7 -7 -7h-30c-3.33301 0 -5.66602 0.666992 -6.99902 2
s-2 4 -2 8v722c0 4 0.666992 6.66699 2 8z" />
    <glyph glyph-name="G" unicode="G" horiz-adv-x="730" 
d="M214.5 34.5c-44.333 29.667 -78.166 72.8359 -101.499 129.503s-35 124.667 -35 204c0 80.667 12 149.834 36 207.501s58.167 101.5 102.5 131.5s96.833 45 157.5 45c40 0 79 -8.83301 117 -26.5s69.333 -41.334 94 -71.001s39 -61.5 43 -95.5
c0 -4.66699 -1.66699 -7.33398 -5 -8.00098l-35 -6h-1c-2.66699 0 -4.66699 2 -6 6c-5.33301 29.333 -17.666 56.166 -36.999 80.499s-43.833 43.5 -73.5 57.5s-61.834 21 -96.501 21c-80 0 -141.333 -29.5 -184 -88.5s-64 -141.5 -64 -247.5
c0 -110.667 21 -195.334 63 -254.001s103.667 -88 185 -88c49.333 0 91.333 11.5 126 34.5s60.667 51.667 78 86s26 68.5 26 102.5v79c0 5.33301 -3.66699 8 -11 8h-189c-4.66699 0 -7 2 -7 6v23c0 4 1.66699 6 5 6h236c4 0 6 -2 6 -6v-360c0 -4 -0.666992 -6.83301 -2 -8.5
s-4 -2.5 -8 -2.5h-17c-4.66699 0 -8 0.5 -10 1.5s-3 3.5 -3 7.5v106c0 3.33301 -0.833008 5 -2.5 5s-3.5 -1.66699 -5.5 -5c-20.667 -38 -49.834 -68.333 -87.501 -91s-82.834 -34 -135.501 -34c-61.333 0 -114.166 14.833 -158.499 44.5z" />
    <glyph glyph-name="H" unicode="H" horiz-adv-x="725" 
d="M166 366c-4 0 -5.99609 -2 -5.99609 -6v-351c0 -6 -3.33301 -9 -10 -9h-27c-6 -0 -9 3.33301 -9 10v722c0 4 0.666992 6.66699 2 8s3.66602 2 6.99902 2h28c3.33301 0 5.66602 -0.666992 6.99902 -2s2 -4 2 -8v-317c0 -4 0.666992 -6.5 2 -7.5s3.66602 -1.5 6.99902 -1.5
h388c5.33301 0 8 2.66699 8 8v319c0 6 2.66699 9 8 9h29c3.33301 0 5.66602 -0.666992 6.99902 -2s2 -4 2 -8v-722c0 -6.66699 -3 -10 -9 -10h-27c-6.66699 0 -10 3 -10 9v350c0 4.66699 -2.33301 7 -7 7h-392z" />
    <glyph glyph-name="I" unicode="I" horiz-adv-x="274" 
d="M151 742c3.33301 0 5.66699 -0.666016 7 -1.99902s2 -4 2 -8v-720c0 -4.66699 -0.666992 -7.83398 -2 -9.50098s-4.66602 -2.5 -9.99902 -2.5h-23c-4.66699 0 -7.66699 0.666992 -9 2s-2 4 -2 8v722c0 4 0.666992 6.66699 2 8s3.66602 2 6.99902 2h28z" />
    <glyph glyph-name="J" unicode="J" horiz-adv-x="399" 
d="M258.5 29.5c-20.333 -26.333 -53.835 -39.499 -100.502 -39.499c-24 0 -46.333 3 -67 9s-34 11.333 -40 16c-3.33301 2.66699 -4.66602 5.66699 -3.99902 9l9 31c0.666992 4.66699 3.33398 6 8.00098 4l18.5 -9.5c9.66699 -5 20.667 -8.83301 33 -11.5s25.833 -4 40.5 -4
c22 0 39.333 3.5 52 10.5s21.667 19.167 27 36.5s8 41.666 8 72.999v579c0 6 2.66699 9 8 9h30c5.33301 0 8 -3.33301 8 -10v-588c0 -50 -10.167 -88.167 -30.5 -114.5z" />
    <glyph glyph-name="K" unicode="K" horiz-adv-x="674" 
d="M624 2c-0.666992 -1.33301 -2 -2.00098 -4 -2.00098h-39c-5.33301 0 -9 1.66699 -11 5l-258 404c-2 2.66699 -3.83301 4 -5.5 4s-3.83398 -1.33301 -6.50098 -4l-132 -146c-2.66699 -2.66699 -4.66699 -5.16699 -6 -7.5s-2 -5.5 -2 -9.5v-237c0 -6 -3.33301 -9 -10 -9
h-26c-6.66699 0 -10 3 -10 9v725c0 5.33301 2.66699 8 8 8h30c5.33301 0 8 -2.66699 8 -8v-411c0 -5.33301 2.33301 -5.66602 7 -0.999023l383 416c2.66699 2.66699 6.33398 4 11.001 4h38c2.66699 0 4.33398 -0.833008 5.00098 -2.5s0 -3.5 -2 -5.5l-259 -283
c-0.666992 -0.666992 -1 -1.5 -1 -2.5s0.333008 -2.16699 1 -3.5l280 -438c1.33301 -2 1.66602 -3.66699 0.999023 -5z" />
    <glyph glyph-name="L" unicode="L" horiz-adv-x="587" 
d="M116 740c1.33301 1.33301 3.66895 2 7.00195 2h28c3.33301 0 5.66602 -0.666992 6.99902 -2s2 -4 2 -8v-683c0 -4 0.666992 -6.5 2 -7.5s3.66602 -1.5 6.99902 -1.5h363c3.33301 0 5.5 -0.5 6.5 -1.5s1.5 -2.83301 1.5 -5.5v-26c0 -4.66699 -2.33301 -7 -7 -7h-410
c-6 -0 -9 3.33301 -9 10v722c0 4 0.666992 6.66699 2 8z" />
    <glyph glyph-name="M" unicode="M" horiz-adv-x="879" 
d="M114 10l0.00292969 722c0 4 0.666992 6.66699 2 8s3.66602 2 6.99902 2h26c4 0 6.83301 -0.5 8.5 -1.5s3.16699 -3.16699 4.5 -6.5l267 -670c2 -6.66699 4.33301 -10 7 -10s5.66699 3.66699 9 11l271 670c2 4.66699 5.66699 7 11 7h29
c3.33301 0 5.66602 -0.666992 6.99902 -2s2 -4 2 -8v-722c0 -6.66699 -3 -10 -9 -10h-27c-6.66699 0 -10 3 -10 9v618c0 2 -0.333008 2.83301 -1 2.5s-1.33398 -1.16602 -2.00098 -2.49902l-249 -616c-1.33301 -4 -3.16602 -6.83301 -5.49902 -8.5s-5.83301 -2.5 -10.5 -2.5
h-27c-10 0 -16.333 3.33301 -19 10l-244 612c-0.666992 1.33301 -1.33398 2.16602 -2.00098 2.49902s-1 -0.5 -1 -2.5v-613c0 -6 -3.33301 -9 -10 -9h-25c-6 -0 -9 3.33301 -9 10z" />
    <glyph glyph-name="N" unicode="N" horiz-adv-x="755" 
d="M632 742c3.33301 0 5.66699 -0.667969 7 -2.00098s2 -4 2 -8v-722c0 -6.66699 -3 -10 -9 -10h-15h-5c-6 0 -10.667 2 -14 6l-428 631c-3.33301 4.66699 -6.16602 6.83398 -8.49902 6.50098s-3.5 -2.5 -3.5 -6.5v-628c0 -6 -3.33301 -9 -10 -9h-25c-6 -0 -9 3.33301 -9 10
v722c0 4 0.666992 6.66699 2 8s3.66602 2 6.99902 2h18c4 0 7 -0.5 9 -1.5s4 -2.83301 6 -5.5l427 -630c2.66699 -3.33301 5.33398 -5 8.00098 -5c1.33301 0 2.66602 0.666992 3.99902 2s2 3 2 5v626c0 6 2.66699 9 8 9h27z" />
    <glyph glyph-name="O" unicode="O" horiz-adv-x="758" 
d="M157 87c-52.667 64.667 -79.001 158 -79.001 280c0 124 26.667 219.167 80 285.5s127.333 99.5 222 99.5s168.334 -33 221.001 -99s79 -160.667 79 -284c0 -122 -26.333 -215.667 -79 -281s-126.667 -98 -222 -98s-169.333 32.333 -222 97zM631.999 369
c0 113.333 -21.3311 198.5 -63.998 255.5s-105.334 85.5 -188.001 85.5c-83.333 0 -146.5 -28.5 -189.5 -85.5s-64.5 -142.167 -64.5 -255.5c0 -112 21.667 -196.167 65 -252.5s106.666 -84.5 189.999 -84.5c167.333 0 251 112.333 251 337z" />
    <glyph glyph-name="P" unicode="P" horiz-adv-x="674" 
d="M541 378c-46.667 -34 -109.999 -51.001 -189.999 -51.001h-183c-5.33301 0 -8 -3 -8 -9v-309c0 -6 -2.66699 -9 -8 -9h-30c-5.33301 0 -8 2.66699 -8 8v724c0 4 0.666992 6.66699 2 8s3.66602 2 6.99902 2h222c82 0 146.833 -16.667 194.5 -50
s71.5 -85.666 71.5 -156.999c0 -70.667 -23.333 -123 -70 -157zM507.001 664.499c-37.333 25 -91.667 37.501 -163 37.501h-175c-6 0 -9 -2.66699 -9 -8v-317c0 -6.66699 2.33301 -10 7 -10h184c67.333 0 119.5 13.667 156.5 41s55.5 70.666 55.5 129.999
s-18.667 101.5 -56 126.5z" />
    <glyph glyph-name="Q" unicode="Q" horiz-adv-x="758" 
d="M157 653.5c52.667 65.667 126.667 98.5 222 98.5s169.333 -32.833 222 -98.5s79 -160.5 79 -284.5c0 -87.333 -13 -159 -39 -215s-64 -99 -114 -129c-4 -2.66699 -6 -5.66699 -6 -9c0 -9.33301 6.83301 -21 20.5 -35s31.5 -26.833 53.5 -38.5s44.667 -19.167 68 -22.5
c4.66699 -0.666992 7 -3 7 -7v-22c0 -5.33301 -1.5 -8.83301 -4.5 -10.5s-8.16699 -2.5 -15.5 -2.5c-26 0 -54.167 9 -84.5 27s-60.5 48 -90.5 90c-3.33301 4.66699 -8.33301 6 -15 4c-24.667 -6 -51.667 -9 -81 -9c-94 0 -167.667 32.167 -221 96.5s-80 158.5 -80 282.5
s26.333 218.833 79 284.5zM190.5 115.5c43 -55.667 105.833 -83.5 188.5 -83.5s145.5 28 188.5 84s64.5 140.333 64.5 253c0 112 -21.333 196.833 -64 254.5s-105.667 86.5 -189 86.5s-146.333 -29 -189 -87s-64 -143.333 -64 -256c0 -112 21.5 -195.833 64.5 -251.5z" />
    <glyph glyph-name="R" unicode="R" horiz-adv-x="679" 
d="M600 9c0 -2.66699 -0.833008 -4.83105 -2.5 -6.49805s-3.83398 -2.5 -6.50098 -2.5h-28c-3.33301 0 -5.66602 0.666992 -6.99902 2s-3 3.66602 -5 6.99902l-142 336c-1.33301 3.33301 -3.5 5.83301 -6.5 7.5s-7.83301 2.5 -14.5 2.5h-216c-8 0 -12 -3.66699 -12 -11v-333
c0 -4 -0.666992 -6.83301 -2 -8.5s-4 -2.5 -8 -2.5h-26c-6.66699 0 -10 3 -10 9v723c0 4 0.666992 6.66699 2 8s3.66602 2 6.99902 2h258c72.667 0 128.834 -15.667 168.501 -47s59.5 -77 59.5 -137c0 -56 -14.833 -99.333 -44.5 -130s-65.5 -51.334 -107.5 -62.001
c-4 -0.666992 -5.33301 -3 -4 -7l146 -345c0.666992 -1.33301 1 -3 1 -5zM508 432.003c35.333 24.667 53 64.333 53 119c0 50.667 -15 88.5 -45 113.5s-75.333 37.5 -136 37.5h-209c-7.33301 0 -11 -2.66699 -11 -8v-290c0 -6 2.33301 -9 7 -9h179
c72.667 0 126.667 12.333 162 37z" />
    <glyph glyph-name="S" unicode="S" horiz-adv-x="618" 
d="M421.5 687.5c-31 15 -66.5039 22.5 -106.504 22.5c-55.333 0 -99.666 -13.333 -132.999 -40s-50 -64.334 -50 -113.001c0 -62.667 40.667 -108.667 122 -138l138 -50c57.333 -20.667 98.5 -46.167 123.5 -76.5s37.5 -67.166 37.5 -110.499
c0 -60.667 -21.667 -107.834 -65 -141.501s-103 -50.5 -179 -50.5c-55.333 0 -103.166 10 -143.499 30s-75.166 51 -104.499 93c-2 3.33301 -3 6 -3 8c0 4 3 8 9 12l11 8c5.33301 3.33301 9.33301 5 12 5c2 0 4.66699 -1.66699 8 -5c30 -38.667 60 -66.5 90 -83.5
s70.333 -25.5 121 -25.5c132 0 198 49.333 198 148c0 32 -9.16699 58.667 -27.5 80s-53.166 42 -104.499 62l-151 58c-50 18.667 -85.5 43.5 -106.5 74.5s-31.5 64.833 -31.5 101.5c0 61.333 21.167 109.333 63.5 144s98.5 52 168.5 52c44.667 0 84.5 -8.16699 119.5 -24.5
s67.5 -40.166 97.5 -71.499c5.33301 -5.33301 5.33301 -10 0 -14l-22 -20l-4 -2c-2 0 -5 2.33301 -9 7c-21.333 25.333 -47.5 45.5 -78.5 60.5z" />
    <glyph glyph-name="T" unicode="T" horiz-adv-x="623" 
d="M47 735c0 4.66699 2.33203 7 6.99902 7h515c4.66699 0 7 -2.33301 7 -7v-26c0 -2.66699 -0.5 -4.5 -1.5 -5.5s-3.16699 -1.5 -6.5 -1.5h-213c-4 0 -6.66699 -0.5 -8 -1.5s-2 -3.5 -2 -7.5v-683c0 -4 -0.666992 -6.66699 -2 -8s-3.66602 -2 -6.99902 -2h-27
c-4 0 -6.66699 0.666992 -8 2s-2 4 -2 8v683c0 4 -0.666992 6.5 -2 7.5s-4 1.5 -8 1.5h-234c-3.33301 0 -5.5 0.5 -6.5 1.5s-1.5 2.83301 -1.5 5.5v26z" />
    <glyph glyph-name="U" unicode="U" horiz-adv-x="702" 
d="M536.5 49.5c-41 -39.667 -102.833 -59.5 -185.5 -59.5c-84 0 -146.167 20.833 -186.5 62.5s-60.5 105.834 -60.5 192.501v486c0 7.33301 2.66699 11 8 11h28c4 0 6.66699 -0.666992 8 -2s2 -4 2 -8v-506c0 -129.333 67.667 -194 203 -194c68.667 0 120 16.333 154 49
s51 82 51 148v504c0 6 2.66699 9 8 9h24c5.33301 0 8 -3 8 -9v-503c0 -80.667 -20.5 -140.834 -61.5 -180.501z" />
    <glyph glyph-name="V" unicode="V" horiz-adv-x="690" 
d="M636.5 739.5c1.66699 -1.66699 1.83105 -3.83301 0.498047 -6.5l-262 -722c-1.33301 -4 -3.16602 -6.83301 -5.49902 -8.5s-5.83301 -2.5 -10.5 -2.5h-32c-10.667 -0 -17 3.33301 -19 10l-255 722l-1 3c0 4.66699 3 7 9 7h23c4 0 6.83301 -0.5 8.5 -1.5
s3.16699 -3.16699 4.5 -6.5l237 -670c2 -6.66699 4.66699 -10 8 -10c2 0 4.66699 3.66699 8 11l244 670c2 4.66699 5.66699 7 11 7h25c2.66699 0 4.83398 -0.833008 6.50098 -2.5z" />
    <glyph glyph-name="W" unicode="W" horiz-adv-x="1021" 
d="M967 733l-206.997 -722c-1.33301 -4 -3.16602 -6.83301 -5.49902 -8.5s-5.83301 -2.5 -10.5 -2.5h-32c-10 -0 -16 3.33301 -18 10l-181 648c-0.666992 2 -1.33398 3 -2.00098 3s-1.33398 -1 -2.00098 -3l-185 -647c-1.33301 -4 -3.16602 -6.83301 -5.49902 -8.5
s-5.83301 -2.5 -10.5 -2.5h-32c-10 -0 -16 3.33301 -18 10l-202 722l-1 3c0 4.66699 3 7 9 7h25c4 0 6.66699 -0.5 8 -1.5s2.66602 -3.16699 3.99902 -6.5l185 -663c2 -6.66699 4 -10 6 -10s4 3.66699 6 11l189 663c1.33301 4.66699 5.66602 7 12.999 7h25
c4 0 6.66699 -0.5 8 -1.5s2.66602 -3.16699 3.99902 -6.5l185 -663c2 -6.66699 4 -10 6 -10s4 3.66699 6 11l189 663c0.666992 4.66699 4.66699 7 12 7h25c6 0 8.33301 -3 7 -9z" />
    <glyph glyph-name="X" unicode="X" horiz-adv-x="662" 
d="M603 0h-36.002c-2.66699 -0 -5 1.33301 -7 4l-220 323c-3.33301 5.33301 -6.33301 8 -9 8c-3.33301 0 -7.33301 -3.66699 -12 -11l-217 -320c-2 -2.66699 -4.66699 -4 -8 -4h-36c-6 -0 -7 3.33301 -3 10l242 360c2 3.33301 3 6.33301 3 9
c0 4.66699 -1.33301 8.66699 -4 12l-232 343c-1.33301 1.33301 -1.66602 3 -0.999023 5s2 3 4 3h39c4 0 7 -1.33301 9 -4l207 -308c2.66699 -4 5.33398 -6 8.00098 -6c3.33301 0 6.33301 2.33301 9 7l207 307c2 2.66699 4.66699 4 8 4h41c4 0 4.66699 -2 2 -6l-234 -346
c-4 -6 -4.33301 -11.333 -1 -16l245 -364c5.33301 -6.66699 4 -10 -4 -10z" />
    <glyph glyph-name="Y" unicode="Y" horiz-adv-x="638" 
d="M589 738.5c1.33301 -2.33301 0.999023 -4.83398 -1.00098 -7.50098l-239 -405c-2 -2.66699 -3.16699 -5.5 -3.5 -8.5s-0.5 -6.83301 -0.5 -11.5v-293c0 -8.66699 -5 -13 -15 -13h-19c-8 0 -12 3.66699 -12 11v284c0 7.33301 -1.66699 14 -5 20l-244 415
c-1.33301 2.66699 -2 4.66699 -2 6c0 4 3.33301 6 10 6h23c4.66699 0 8 -0.666992 10 -2s4 -3.66602 6 -6.99902l210 -357c5.33301 -8 9.66602 -12 12.999 -12c2.66699 0 6.33398 3.33301 11.001 10l209 359c2.66699 4 4.83398 6.5 6.50098 7.5s4.83398 1.5 9.50098 1.5h26
c3.33301 0 5.66602 -1.16699 6.99902 -3.5z" />
    <glyph glyph-name="Z" unicode="Z" horiz-adv-x="600" 
d="M55 7l-0.00195312 14.999c0 4.66699 2.33301 10.334 7 17.001l420 656c2.66699 4.66699 1.33398 7 -3.99902 7h-406c-4.66699 0 -7 2.33301 -7 7v27c0 4 2 6 6 6h467c4 0 6 -2 6 -6v-17c0 -2.66699 -1.66699 -6.66699 -5 -12l-424 -659
c-3.33301 -5.33301 -2.66602 -8 2.00098 -8h421c4 0 6 -1.66699 6 -5v-28c0 -4.66699 -2.33301 -7 -7 -7h-474c-5.33301 -0 -8 2.33301 -8 7z" />
    <glyph glyph-name="bracketleft" unicode="[" horiz-adv-x="268" 
d="M114 742l131.999 0.000976562c4.66699 0 7 -1.66699 7 -5v-26c0 -4 -2.33301 -6 -7 -6h-89c-4.66699 0 -7 -2.66699 -7 -8l-1 -819c0 -2.66699 0.333008 -4.33398 1 -5.00098s2.33398 -1 5.00098 -1h89c5.33301 0 8 -2.66699 8 -8v-21c0 -5.33301 -2.66699 -8 -8 -8h-128
c-6 0 -9 2.66699 -9 8l-1 893c0 4 2.66699 6 8 6z" />
    <glyph glyph-name="backslash" unicode="\" horiz-adv-x="328" 
d="M265 -52l-248 784c-2 6.66699 -0.333008 10 5 10h29c4.66699 0 7.33398 -2 8.00098 -6l251 -791c1.33301 -3.33301 -0.333984 -5 -5.00098 -5h-29c-5.33301 0 -9 2.66699 -11 8z" />
    <glyph glyph-name="bracketright" unicode="]" horiz-adv-x="268" 
d="M161 -157c0 -5.33301 -3.00098 -8.00098 -9.00098 -8.00098h-128c-5.33301 0 -8 2.66699 -8 8v21c0 5.33301 2.66699 8 8 8h89c2.66699 0 4.33398 0.333008 5.00098 1s1 2.33398 1 5.00098l-1 819c0 5.33301 -2.33301 8 -7 8h-89c-4.66699 0 -7 2 -7 6v26
c0 3.33301 2.33301 5 7 5h132c5.33301 0 8 -2 8 -6z" />
    <glyph glyph-name="asciicircum" unicode="^" horiz-adv-x="476" 
d="M242 462c-1.33301 3.33301 -3 5.00098 -5 5.00098s-3.66699 -1.66699 -5 -5l-125 -316c-2 -4.66699 -5.33301 -7 -10 -7h-31c-2.66699 0 -4.5 1 -5.5 3s-0.833008 4.33301 0.5 7l142 355c4.66699 11.333 10 20.166 16 26.499s12 9.5 18 9.5c12.667 0 24 -12 34 -36
l144 -358c0.666992 -0.666992 1 -2 1 -4c0 -3.33301 -2.33301 -5 -7 -5h-30c-6.66699 0 -11 2.66699 -13 8z" />
    <glyph glyph-name="underscore" unicode="_" horiz-adv-x="501" 
d="M431 -93c0 -5.33301 -3.33301 -8 -10 -8l-343 -1c-5.33301 0 -8 2.33301 -8 7v26c0 4.66699 1.66699 7 5 7l349 1c4.66699 0 7 -2 7 -6v-26z" />
    <glyph glyph-name="grave" unicode="`" horiz-adv-x="272" 
d="M24.5 751c1.66699 0.666992 3.16602 0.668945 4.49902 0.00195312l229 -94c1.33301 -0.666992 2.33301 -1.83398 3 -3.50098s0.666992 -3.83398 0 -6.50098l-5 -15c-2 -5.33301 -5.66699 -7 -11 -5l-227 77c-4 1.33301 -6.5 2.83301 -7.5 4.5s-0.833008 4.16699 0.5 7.5
l10 32c0.666992 1.33301 1.83398 2.33301 3.50098 3z" />
    <glyph glyph-name="a" unicode="a" horiz-adv-x="538" 
d="M218 -10c-52.667 0 -94.165 13.002 -124.498 39.002s-45.5 61.333 -45.5 106c0 101.333 82.333 159 247 173l105 9c11.333 1.33301 17 6.33301 17 15v31c0 42.667 -13.5 76.5 -40.5 101.5s-63.167 37.5 -108.5 37.5c-66 0 -122 -30.667 -168 -92
c-1.33301 -2 -2.83301 -3.5 -4.5 -4.5s-3.5 -0.833008 -5.5 0.5l-24 15c-3.33301 2 -3.33301 5.33301 0 10c22.667 33.333 51 59.833 85 79.5s73.667 29.5 119 29.5c56.667 0 102 -15.5 136 -46.5s51 -73.167 51 -126.5v-357c0 -6.66699 -3.33301 -10 -10 -10h-18
c-6 0 -9 3 -9 9l-2 61c-0.666992 3.33301 -1.83398 5.16602 -3.50098 5.49902s-3.83398 -0.833984 -6.50098 -3.50098c-54.667 -54.667 -118 -82 -190 -82zM403.002 280.002l-89.001 -7.00098c-77.333 -6 -134 -20.167 -170 -42.5s-54 -53.166 -54 -92.499
c0 -34 12.167 -60.833 36.5 -80.5s56.833 -29.5 97.5 -29.5c24 0 47.833 4.33301 71.5 13s45.167 20.667 64.5 36c18.667 14.667 32.834 30.167 42.501 46.5s14.5 32.166 14.5 47.499v95c0 10.667 -4.66699 15.334 -14 14.001z" />
    <glyph glyph-name="b" unicode="b" horiz-adv-x="592" 
d="M102 0c-4 0 -6.83398 1 -8.50098 3s-2.5 5.33301 -2.5 10v719c0 6.66699 3 10 9 10h23c5.33301 0 8 -3.66699 8 -11v-253c0 -6.66699 1.33301 -10 4 -10s5.66699 1.66699 9 5c18 16 40 31.167 66 45.5s61.333 21.5 106 21.5c72.667 0 127 -25.5 163 -76.5
s54 -116.5 54 -196.5c0 -86 -20.167 -153.667 -60.5 -203s-96.166 -74 -167.499 -74c-44 0 -79.5 8.5 -106.5 25.5s-46.5 34.167 -58.5 51.5c-2 3.33301 -4 5 -6 5c-2.66699 0 -4 -2.66699 -4 -8l-2 -51c0 -5.33301 -1 -8.83301 -3 -10.5s-6 -2.5 -12 -2.5h-11zM130.999 177
c0 -26 8.16895 -50.5 24.502 -73.5s37.666 -41.333 63.999 -55s53.5 -20.5 81.5 -20.5c55.333 0 100.666 20.333 135.999 61s53 100 53 178c0 72.667 -15.667 130 -47 172s-76 63 -134 63c-35.333 0 -68.5 -8 -99.5 -24s-57.167 -37 -78.5 -63v-238z" />
    <glyph glyph-name="c" unicode="c" horiz-adv-x="537" 
d="M408 512.5c32 -18.333 60.002 -44.8311 84.002 -79.498c3.33301 -4.66699 3.33301 -8 0 -10l-24 -16c-0.666992 -0.666992 -1.66699 -1 -3 -1c-2 0 -4.66699 1.66699 -8 5c-27.333 32.667 -53 56 -77 70s-50.333 21 -79 21c-40.667 0 -76.334 -9.83301 -107.001 -29.5
s-54.334 -47.5 -71.001 -83.5s-25 -77.333 -25 -124s8.33301 -88 25 -124s40.334 -63.833 71.001 -83.5s66 -29.5 106 -29.5c67.333 0 122.666 33.333 165.999 100c2 3.33301 3.66699 5.16602 5 5.49902s3 -0.166992 5 -1.5l23 -15c3.33301 -2.66699 4 -6 2 -10
c-24 -38.667 -53.5 -67.834 -88.5 -87.501s-73.833 -29.5 -116.5 -29.5c-47.333 0 -89.166 11.333 -125.499 34s-64.5 54.667 -84.5 96s-30 89 -30 143c0 53.333 10.167 101 30.5 143s48.666 74.833 84.999 98.5s77.833 35.5 124.5 35.5c42.667 0 80 -9.16699 112 -27.5z
" />
    <glyph glyph-name="d" unicode="d" horiz-adv-x="592" 
d="M463 11l0.00292969 51.001c0 6 -1.33301 9 -4 9c-2 0 -4.66699 -1.66699 -8 -5c-18.667 -19.333 -40.334 -36.833 -65.001 -52.5s-57.334 -23.5 -98.001 -23.5c-43.333 0 -82.5 10 -117.5 30s-62.667 49.833 -83 89.5s-30.5 88.167 -30.5 145.5c0 56 10 105.667 30 149
s48.333 76.833 85 100.5s79.334 35.5 128.001 35.5c32.667 0 60 -5 82 -15s43.667 -23 65 -39c5.33301 -4 8.66602 -6 9.99902 -6c2.66699 0 4 4.33301 4 13v239c0 6.66699 3 10 9 10h23c5.33301 0 8 -3 8 -9v-721c0 -4.66699 -0.833008 -7.83398 -2.5 -9.50098
s-4.83398 -2.5 -9.50098 -2.5h-16c-6.66699 0 -10 3.66699 -10 11zM384.003 483.001c-26 12.667 -53.6689 19.002 -83.002 19.002c-39.333 0 -74.166 -9.83301 -104.499 -29.5s-54.166 -47.834 -71.499 -84.501s-26 -79.667 -26 -129
c0 -50.667 8.83301 -93.334 26.5 -128.001s41.167 -60.5 70.5 -77.5s61.666 -25.5 96.999 -25.5c30.667 0 58.834 7.5 84.501 22.5s46 33.5 61 55.5s22.5 43.333 22.5 64v256c-25.333 25.333 -51 44.333 -77 57z" />
    <glyph glyph-name="e" unicode="e" horiz-adv-x="577" 
d="M125 135c18 -32.667 42.332 -58.665 72.999 -77.998s64.334 -29 101.001 -29c79.333 0 137.666 31 174.999 93c3.33301 5.33301 7 6.66602 11 3.99902l23 -15c4 -2.66699 4.33301 -6 1 -10c-46 -73.333 -116 -110 -210 -110c-47.333 0 -89.5 11.333 -126.5 34
s-65.667 54.5 -86 95.5s-30.5 88.167 -30.5 141.5c0 57.333 10.333 107 31 149s49.334 74.167 86.001 96.5s78.667 33.5 126 33.5c70.667 0 126.5 -23.5 167.5 -70.5s61.5 -112.167 61.5 -195.5v-5c0 -4.66699 -0.833008 -8.33398 -2.5 -11.001s-5.16699 -4 -10.5 -4h-411
c-4 0 -6 -4.66699 -6 -14c0 -37.333 9 -72.333 27 -105zM468.999 290.002c6.66699 0 11.166 1.00293 13.499 3.00293s3.5 5.66699 3.5 11c0 36.667 -7.66699 70.167 -23 100.5s-37.166 54.166 -65.499 71.499s-61.5 26 -99.5 26c-42 0 -78 -10.333 -108 -31
s-52.833 -47.334 -68.5 -80.001s-23.167 -66.334 -22.5 -101.001h370z" />
    <glyph glyph-name="f" unicode="f" horiz-adv-x="364" 
d="M338 524v-23c0 -4 -2 -6 -6 -6h-133c-4.66699 0 -7 -2.33301 -7 -7v-477c0 -7.33301 -3 -11 -9 -11h-23c-5.33301 -0 -8 3.33301 -8 10v478c0 4.66699 -2 7 -6 7h-114c-4 0 -6 2 -6 6v23c0 4 2 6 6 6h113c4.66699 0 7 2.33301 7 7v81c0 42 9 73.167 27 93.5
s46.667 30.5 86 30.5h72c4 0 6 -2.33301 6 -7v-21c0 -4.66699 -2.66699 -7 -8 -7h-80c-24 0 -40.5 -6.5 -49.5 -19.5s-13.5 -33.167 -13.5 -60.5v-90c0 -4.66699 2.33301 -7 7 -7h134c3.33301 0 5 -2 5 -6z" />
    <glyph glyph-name="g" unicode="g" horiz-adv-x="582" 
d="M548 527c2.66699 -2 4.00098 -5.3291 4.00098 -9.99609v-13c0 -4.66699 -1.16699 -8.33398 -3.5 -11.001s-6.83301 -4.33398 -13.5 -5.00098c-12.667 -0.666992 -23 -2 -31 -4s-16 -5.33301 -24 -10c-8.66699 -4.66699 -14.5 -8.83398 -17.5 -12.501
s-3.83301 -7.16699 -2.5 -10.5c1.33301 -2.66699 4 -8.33398 8 -17.001s7.16699 -18.5 9.5 -29.5s3.5 -22.833 3.5 -35.5c0 -47.333 -16.833 -85.833 -50.5 -115.5s-84.167 -44.5 -151.5 -44.5c-52.667 0 -90.5 -4.66699 -113.5 -14s-34.5 -21 -34.5 -35
c0 -12 8.33301 -20.667 25 -26s44.667 -9 84 -11l120 -7c52 -2.66699 90.667 -15.667 116 -39s38 -55.333 38 -96c0 -50 -20.833 -88.5 -62.5 -115.5s-100.5 -40.5 -176.5 -40.5c-76.667 0 -135.834 13 -177.501 39s-62.5 62.333 -62.5 109c0 49.333 30.667 91 92 125
c7.33301 4 7.33301 7.66699 0 11c-25.333 11.333 -38 28 -38 50c0 12 5.33301 23.833 16 35.5s27.667 21.167 51 28.5c3.33301 0.666992 5 2.33398 5 5.00098s-2 5 -6 7c-27.333 15.333 -47.333 33.666 -60 54.999s-19 47.666 -19 78.999c0 53.333 18.5 94.833 55.5 124.5
s88.5 44.5 154.5 44.5c32 0 59.5 -3.66699 82.5 -11s43.167 -18.666 60.5 -33.999c4.66699 -3.33301 7.66699 -5 9 -5c2 0 5 1.33301 9 4c15.333 11.333 29.5 20.5 42.5 27.5s27.5 10.5 43.5 10.5c7.33301 0 12.333 -1 15 -3zM441.001 371.004
c0 42 -13.667 74.001 -41 96.001s-67.333 33 -120 33c-52 0 -92.333 -11.333 -121 -34s-43 -54.334 -43 -95.001c0 -40 14.167 -70.667 42.5 -92s68.833 -32 121.5 -32c107.333 0 161 41.333 161 124zM183.001 86.0049c-11.333 0.666992 -25.5 -3.83203 -42.5 -13.499
s-31.833 -22.834 -44.5 -39.501s-19 -35.334 -19 -56.001c0 -36.667 18 -64.834 54 -84.501s87 -29.5 153 -29.5c62 0 108.833 9.66699 140.5 29s47.5 49 47.5 89c0 28.667 -8.66699 50.834 -26 66.501s-46.333 24.834 -87 27.501z" />
    <glyph glyph-name="h" unicode="h" horiz-adv-x="576" 
d="M91 9v724.001c0 6 2.66699 9 8 9h21c5.33301 0 8 -2.66699 8 -8v-274c0 -3.33301 0.666992 -5.33301 2 -6s3.33301 0.333008 6 3c43.333 30.667 78 52.167 104 64.5s56 18.5 90 18.5c52 0 92 -13.333 120 -40s42 -62.334 42 -107.001v-383c0 -6.66699 -3 -10 -9 -10h-22
c-6 0 -9 3 -9 9v368c0 83.333 -41 125 -123 125c-33.333 0 -63.5 -6.83301 -90.5 -20.5s-62.833 -37.5 -107.5 -71.5v-401c0 -6 -3 -9 -9 -9h-22c-6 0 -9 3 -9 9z" />
    <glyph glyph-name="i" unicode="i" 
d="M136 660c0 -5.33301 -0.830078 -9.33301 -2.49707 -12s-4.83398 -4 -9.50098 -4h-27c-7.33301 0 -11 4.66699 -11 14v71c0 4 1.16699 7.16699 3.5 9.5s5.16602 3.5 8.49902 3.5h26c3.33301 0 6.16602 -1.16699 8.49902 -3.5s3.5 -5.5 3.5 -9.5v-69zM131.003 12
c0 -4.66699 -0.666016 -7.83301 -1.99902 -9.5s-4.66602 -2.5 -9.99902 -2.5h-17c-4.66699 0 -7.66699 0.666992 -9 2s-2 4 -2 8v510c0 4 0.666992 6.66699 2 8s3.66602 2 6.99902 2h22c3.33301 0 5.66602 -0.666992 6.99902 -2s2 -4 2 -8v-508z" />
    <glyph glyph-name="j" unicode="j" 
d="M136 660c0 -5.33301 -0.830078 -9.33301 -2.49707 -12s-4.83398 -4 -9.50098 -4h-27c-7.33301 0 -11 4.66699 -11 14v71c0 4 1.16699 7.16699 3.5 9.5s5.16602 3.5 8.49902 3.5h26c3.33301 0 6.16602 -1.16699 8.49902 -3.5s3.5 -5.5 3.5 -9.5v-69zM107.503 -142.5
c-15.667 -18.333 -45.5 -27.5 -89.5 -27.5c-29.333 0 -47.5 0.5 -54.5 1.5s-10.5 3.5 -10.5 7.5v21c0 4 2 6 6 6l58 1c26.667 0.666992 45.667 7.5 57 20.5s17 35.167 17 66.5v566c0 6.66699 3.33301 10 10 10h22c5.33301 0 8 -3.33301 8 -10v-571
c0 -42.667 -7.83301 -73.167 -23.5 -91.5z" />
    <glyph glyph-name="k" unicode="k" horiz-adv-x="538" 
d="M507 4c0 -2.66699 -2.66406 -3.99707 -7.99707 -3.99707h-31c-5.33301 0 -9.33301 2.33301 -12 7l-182 292c-1.33301 2 -2.5 3 -3.5 3s-2.5 -1 -4.5 -3l-128 -130c-4.66699 -4.66699 -7 -10.334 -7 -17.001v-140c0 -4.66699 -0.666992 -7.83398 -2 -9.50098
s-4.66602 -2.5 -9.99902 -2.5h-17c-4.66699 0 -7.66699 0.666992 -9 2s-2 4 -2 8v722c0 4 0.666992 6.66699 2 8s3.66602 2 6.99902 2h22c3.33301 0 5.66602 -0.666992 6.99902 -2s2 -4 2 -8v-498c0 -6.66699 1 -10 3 -10c1.33301 0 3.66602 1.66699 6.99902 5l284 291
c3.33301 4 6.16602 6.66699 8.49902 8s5.16602 2 8.49902 2h32c5.33301 0 8 -1.66699 8 -5c0 -2.66699 -2 -6 -6 -10l-169 -173c-3.33301 -3.33301 -3.66602 -7 -0.999023 -11l198 -319c2 -2.66699 3 -5.33398 3 -8.00098z" />
    <glyph glyph-name="l" unicode="l" 
d="M131 12c0 -4.66699 -0.666016 -7.83301 -1.99902 -9.5s-4.66602 -2.5 -9.99902 -2.5h-17c-4.66699 0 -7.66699 0.666992 -9 2s-2 4 -2 8v722c0 4 0.666992 6.66699 2 8s3.66602 2 6.99902 2h22c3.33301 0 5.66602 -0.666992 6.99902 -2s2 -4 2 -8v-720z" />
    <glyph glyph-name="m" unicode="m" horiz-adv-x="897" 
d="M91 9l0.00390625 512.001c0 6 2.66699 9 8 9h21c5.33301 0 8 -2.66699 8 -8v-62c0 -3.33301 0.666992 -5.33301 2 -6s3.33301 0.333008 6 3c41.333 30.667 74.333 52.167 99 64.5s53 18.5 85 18.5c38.667 0 70.167 -8.5 94.5 -25.5s40.166 -37.167 47.499 -60.5
c1.33301 -2 2.66602 -3 3.99902 -3c2 0 5.66699 2 11 6c41.333 30.667 74.333 52.167 99 64.5s53 18.5 85 18.5c48.667 0 86.167 -13.333 112.5 -40s39.5 -62.334 39.5 -107.001v-383c0 -6.66699 -3 -10 -9 -10h-22c-6 0 -9 3 -9 9v368c0 83.333 -37.667 125 -113 125
c-32 0 -61.333 -7.33301 -88 -22s-54.334 -33.667 -83.001 -57c-6.66699 -5.33301 -11.167 -10 -13.5 -14s-3.5 -9.33301 -3.5 -16v-383c0 -6.66699 -3 -10 -9 -10h-22c-6 0 -9 3 -9 9v368c0 83.333 -37.667 125 -113 125c-31.333 0 -59.833 -6.83301 -85.5 -20.5
s-59.834 -37.5 -102.501 -71.5v-401c0 -6 -3 -9 -9 -9h-22c-6 0 -9 3 -9 9z" />
    <glyph glyph-name="n" unicode="n" horiz-adv-x="576" 
d="M91 9v512.001c0 6 2.66699 9 8 9h21c5.33301 0 8 -2.66699 8 -8v-62c0 -3.33301 0.666992 -5.33301 2 -6s3.33301 0.333008 6 3c43.333 30.667 78 52.167 104 64.5s56 18.5 90 18.5c52 0 92 -13.333 120 -40s42 -62.334 42 -107.001v-383c0 -6.66699 -3 -10 -9 -10h-22
c-6 0 -9 3 -9 9v368c0 83.333 -41 125 -123 125c-33.333 0 -63.5 -6.83301 -90.5 -20.5s-62.833 -37.5 -107.5 -71.5v-401c0 -6 -3 -9 -9 -9h-22c-6 0 -9 3 -9 9z" />
    <glyph glyph-name="o" unicode="o" horiz-adv-x="598" 
d="M171 24.5c-36.667 23 -64.999 55 -84.999 96s-30 88.167 -30 141.5c0 54 10.167 102 30.5 144s49 74.833 86 98.5s79.5 35.5 127.5 35.5c47.333 0 89.333 -11.667 126 -35s65.167 -56 85.5 -98s30.5 -89.667 30.5 -143s-10.167 -100.833 -30.5 -142.5
s-48.833 -74 -85.5 -97s-79 -34.5 -127 -34.5c-48.667 0 -91.334 11.5 -128.001 34.5zM446.501 92.5c35.667 43 53.4971 100.169 53.4971 171.502c0 47.333 -8.16699 88.833 -24.5 124.5s-39.666 63.5 -69.999 83.5s-65.5 30 -105.5 30c-40.667 0 -76.167 -10 -106.5 -30
s-53.833 -48 -70.5 -84s-25 -77.333 -25 -124s8.33301 -87.834 25 -123.501s40.334 -63.334 71.001 -83.001s66.334 -29.5 107.001 -29.5c61.333 0 109.833 21.5 145.5 64.5z" />
    <glyph glyph-name="p" unicode="p" horiz-adv-x="590" 
d="M129 519l-0.000976562 -51.001c0 -6 1.33301 -9 4 -9c2 0 4.66699 1.66699 8 5c1.33301 1.33301 8.16602 9 20.499 23s31.333 26.333 57 37s54.167 16 85.5 16c43.333 0 82.333 -10 117 -30s61.834 -49.833 81.501 -89.5s29.5 -88.167 29.5 -145.5
c0 -56.667 -9.83301 -106.5 -29.5 -149.5s-47.5 -76.333 -83.5 -100s-78.333 -35.5 -127 -35.5c-31.333 0 -59.333 4.83301 -84 14.5s-45.667 21.5 -63 35.5c-4.66699 3.33301 -7.66699 5 -9 5c-3.33301 0 -5 -4 -5 -12v-188c0 -6.66699 -3 -10 -9 -10h-23
c-5.33301 0 -8 3 -8 9v674c0 4.66699 0.833008 7.83398 2.5 9.50098s4.83398 2.5 9.50098 2.5h16c6.66699 0 10 -3.66699 10 -11zM208.499 47.499c25.667 -13 53.168 -19.5029 82.501 -19.5029c38.667 0 73 9.83301 103 29.5s53.5 47.834 70.5 84.501s25.5 79.667 25.5 129
c0 50.667 -8.66699 93.334 -26 128.001s-40.5 60.5 -69.5 77.5s-60.833 25.5 -95.5 25.5c-31.333 0 -59.833 -7.16699 -85.5 -21.5s-45.834 -32.166 -60.501 -53.499s-22 -42.333 -22 -63v-260c26 -24.667 51.833 -43.5 77.5 -56.5z" />
    <glyph glyph-name="q" unicode="q" horiz-adv-x="593" 
d="M491 530c4 0 6.8291 -0.999023 8.49609 -2.99902s2.5 -5.33301 2.5 -10v-672c0 -6.66699 -3 -10 -9 -10h-23c-5.33301 0 -8 3.66699 -8 11v188c0 3.33301 -0.166992 6.33301 -0.5 9s-1.5 4 -3.5 4c-1.33301 0 -4.66602 -2 -9.99902 -6
c-19.333 -14.667 -42.5 -26.834 -69.5 -36.501s-56.167 -14.5 -87.5 -14.5c-47.333 0 -88.666 11.5 -123.999 34.5s-62.333 55.5 -81 97.5s-28 90.667 -28 146c0 82.667 20.333 148.667 61 198s97.334 74 170.001 74c42 0 74.833 -6 98.5 -18s40.167 -22.667 49.5 -32
l17 -17c6 -6 9.33301 -5 10 3l4 41c0.666992 5.33301 1.83398 8.83301 3.50098 10.5s5.5 2.5 11.5 2.5h8zM461.996 353.001c0 25.333 -7.33301 49.498 -22 72.498s-35 41.5 -61 55.5s-54.667 21 -86 21c-36 0 -68.5 -8.83301 -97.5 -26.5s-52.167 -44 -69.5 -79
s-26 -77.5 -26 -127.5c0 -49.333 8.33301 -92.166 25 -128.499s39.834 -64.166 69.501 -83.499s63.5 -29 101.5 -29c31.333 0 61.666 6.83301 90.999 20.5s54.333 32.5 75 56.5v248z" />
    <glyph glyph-name="r" unicode="r" horiz-adv-x="356" 
d="M91 9v512c0 6 2.66699 9 8 9h21c5.33301 0 8 -2.66699 8 -8v-68c0 -3.33301 0.666992 -5.33301 2 -6s3.33301 0.333008 6 3c30 32 57.167 54.833 81.5 68.5s50.166 20.5 77.499 20.5c23.333 0 35 -3.33301 35 -10v-26c0 -3.33301 -1.66699 -5 -5 -5
c-2 0 -5.16699 0.166992 -9.5 0.5s-11.166 0.5 -20.499 0.5c-21.333 0 -45 -6.66699 -71 -20s-48 -30.5 -66 -51.5s-27 -42.167 -27 -63.5v-356c0 -6 -3 -9 -9 -9h-22c-6 0 -9 3 -9 9z" />
    <glyph glyph-name="s" unicode="s" horiz-adv-x="501" 
d="M339.5 482c-27 13.333 -58.4961 20 -94.4961 20c-43.333 0 -78.833 -9.5 -106.5 -28.5s-41.5 -44.167 -41.5 -75.5c0 -18.667 7.16699 -35.667 21.5 -51s39.5 -28.666 75.5 -39.999l135 -44c38.667 -12.667 67.667 -29.667 87 -51s29 -46.333 29 -75
c0 -28 -8.83301 -53.167 -26.5 -75.5s-41.834 -39.833 -72.501 -52.5s-65 -19 -103 -19c-48 0 -91.333 10.167 -130 30.5s-66.334 47.166 -83.001 80.499c-2 4 -1.33301 7.33301 2 10l22 14c4 2.66699 7 2.33398 9 -0.999023c18 -30.667 42.167 -54.334 72.5 -71.001
s66.166 -25 107.499 -25c45.333 0 83.333 9.66699 114 29s46 44.333 46 75c0 22.667 -9.33301 42 -28 58s-48.667 30.333 -90 43l-103 32c-46.667 14 -79.5 31.5 -98.5 52.5s-28.5 45.167 -28.5 72.5c0 44.667 18 80.834 54 108.501s81.667 41.5 137 41.5
c41.333 0 78.666 -8 111.999 -24s59.666 -38.667 78.999 -68c2.66699 -3.33301 2.33398 -6 -0.999023 -8l-23 -15c-4 -2.66699 -7 -2.33398 -9 0.999023c-16 24 -37.5 42.667 -64.5 56z" />
    <glyph glyph-name="t" unicode="t" horiz-adv-x="358" 
d="M179 495c-4.66699 0 -7.00098 -2.33398 -7.00098 -7.00098v-364c0 -34.667 5 -58.167 15 -70.5s25.667 -18.5 47 -18.5h79c5.33301 0 8 -2.33301 8 -7v-17c0 -3.33301 -2 -5.66602 -6 -6.99902c-11.333 -2.66699 -37.333 -4 -78 -4c-39.333 0 -66.666 9 -81.999 27
s-23 48.667 -23 92v369c0 4.66699 -2.33301 7 -7 7h-93c-4 0 -6 2 -6 6v23c0 4 2 6 6 6h94c4 0 6 2.33301 6 7l9 163c0 6.66699 2.66699 10 8 10h14c6 0 9 -3.66699 9 -11v-162c0 -4.66699 2.33301 -7 7 -7h139c4 0 6 -2 6 -6v-23c0 -4 -2 -6 -6 -6h-139z" />
    <glyph glyph-name="u" unicode="u" horiz-adv-x="571" 
d="M341.5 54.5c31 17.667 63.833 43.834 98.5 78.501v388c0 6 3 9 9 9h22c6 0 9 -3 9 -9v-512c0 -6 -2.66699 -9 -8 -9h-21c-5.33301 0 -8 2.66699 -8 8v64c0 3.33301 -0.666992 5.33301 -2 6s-3.33301 -0.333008 -6 -3c-40 -32 -74.333 -54.167 -103 -66.5
s-57 -18.5 -85 -18.5c-47.333 0 -86.5 13.667 -117.5 41s-46.5 62.666 -46.5 105.999v383c0 6.66699 3 10 9 10h22c6 0 9 -3 9 -9v-362c0 -39.333 11 -71 33 -95s52 -36 90 -36c32.667 0 64.5 8.83301 95.5 26.5z" />
    <glyph glyph-name="v" unicode="v" horiz-adv-x="530" 
d="M496.5 527.5c1.66699 -1.66699 1.83301 -3.83301 0.5 -6.5l-206 -510c-2.66699 -7.33301 -8.66699 -11 -18 -11h-14c-10.667 -0 -17.334 3.33301 -20.001 10l-206 510l-1 3c0 4.66699 3 7 9 7h22c6 0 10 -2.66699 12 -8l183 -454c2 -6.66699 4.33301 -10 7 -10
s5.66699 3.66699 9 11l183 454c2 4.66699 5.66699 7 11 7h22c2.66699 0 4.83398 -0.833008 6.50098 -2.5z" />
    <glyph glyph-name="w" unicode="w" horiz-adv-x="783" 
d="M744.5 527.5c1.66699 -1.66699 2.16699 -3.83301 1.5 -6.5l-147 -510c-2 -7.33301 -7.66699 -11 -17 -11h-27c-10 -0 -16 3.33301 -18 10l-140 436c-2 5.33301 -3.66699 8 -5 8s-3 -2.66699 -5 -8l-130 -435c-2 -7.33301 -7.33301 -11 -16 -11h-30
c-10 -0 -16 3.33301 -18 10l-156 510l-1 3c0 4.66699 3 7 9 7h23c6 0 10 -2.66699 12 -8l139 -455c2 -6.66699 4.33301 -10 7 -10s5 3.66699 7 11l138 456c1.33301 4 4.66602 6 9.99902 6h23c6 0 10 -2.66699 12 -8l146 -455c2 -6.66699 4 -10 6 -10
c2.66699 0 5 3.66699 7 11l133 455c2 4.66699 6.33301 7 13 7h17c2.66699 0 4.83398 -0.833008 6.50098 -2.5z" />
    <glyph glyph-name="x" unicode="x" horiz-adv-x="515" 
d="M476 0l-34.0039 0.000976562c-6 0 -10 1.66699 -12 5l-165 224c-1.33301 3.33301 -3.66602 5 -6.99902 5c-2 0 -4.33301 -1.66699 -7 -5l-173 -224c-2 -3.33301 -6 -5 -12 -5h-25c-6 0 -9 1.66699 -9 5c0 2.66699 1.33301 5.66699 4 9l194 245c2 3.33301 3 6 3 8
c0 3.33301 -1 6.33301 -3 9l-182 245c-0.666992 0.666992 -1 2 -1 4c0 3.33301 2 5 6 5h31c4.66699 0 8.33398 -1.66699 11.001 -5l162 -215c2 -3.33301 4.33301 -5 7 -5s5 1.66699 7 5l158 215c2.66699 3.33301 6.66699 5 12 5h27
c2.66699 0 4.33398 -0.833008 5.00098 -2.5s0.333984 -3.5 -0.999023 -5.5l-182 -241c-2 -2.66699 -3 -5.33398 -3 -8.00098s1 -5.66699 3 -9l188 -252c6 -8 5.33301 -12 -2 -12z" />
    <glyph glyph-name="y" unicode="y" horiz-adv-x="508" 
d="M57 -163.5c-8.66699 1 -13.002 3.83301 -13.002 8.5v15c0 4.66699 1.83301 7.66699 5.5 9s11.5 2 23.5 2h60c16.667 0 32.167 7.16699 46.5 21.5s25.833 32 34.5 53s13 41.167 13 60.5c0 10.667 -1.66699 21 -5 31l-189 481c-0.666992 1.33301 -1 3 -1 5
c0 4.66699 3 7 9 7h21c6 0 10 -2.66699 12 -8l174 -444c2 -6 4.66699 -9 8 -9c4 0 7.33301 4.33301 10 13l170 441c2 4.66699 5.33301 7 10 7h22c2.66699 0 4.83398 -1 6.50098 -3s1.83398 -4 0.500977 -6l-229 -598c-12.667 -32 -30.5 -54.667 -53.5 -68
s-51.167 -20 -84.5 -20c-25.333 0 -42.333 0.5 -51 1.5z" />
    <glyph glyph-name="z" unicode="z" horiz-adv-x="458" 
d="M36 7l0.000976562 23c0 6 2.66699 12.667 8 20l321 437c2 2.66699 2.66699 4.66699 2 6s-2.33398 2 -5.00098 2h-297c-2.66699 0 -4.5 0.5 -5.5 1.5s-1.5 2.83301 -1.5 5.5v21c0 4.66699 2 7 6 7h344c3.33301 0 5 -2 5 -6v-25c0 -8.66699 -2.33301 -15.667 -7 -21
l-321 -436c-4 -4.66699 -3.33301 -7 2 -7h327c4 0 6 -2 6 -6v-21c0 -5.33301 -2.66699 -8 -8 -8h-370c-4 -0 -6 2.33301 -6 7z" />
    <glyph glyph-name="braceleft" unicode="{" horiz-adv-x="267" 
d="M143.5 717.5c18.333 16.333 45.166 24.501 80.499 24.501h21c4.66699 0 7 -1.66699 7 -5v-26c0 -4 -2.33301 -6 -7 -6h-21c-22.667 0 -39 -4.16699 -49 -12.5s-15 -21.833 -15 -40.5v-233c0 -38.667 -8.83301 -68.834 -26.5 -90.501s-40.167 -33.834 -67.5 -36.501
c-4 -0.666992 -6.16699 -1.83398 -6.5 -3.50098s1.83398 -2.83398 6.50098 -3.50098c27.333 -2 49.833 -13.167 67.5 -33.5s26.5 -50.166 26.5 -89.499v-235c0 -19.333 4.66699 -33.333 14 -42s26.333 -13 51 -13h19c5.33301 0 8 -2.66699 8 -8v-21
c0 -5.33301 -2.66699 -8 -8 -8h-19c-37.333 0 -64.833 8.5 -82.5 25.5s-26.5 39.167 -26.5 66.5v235c0 16.667 -4.33301 33.334 -13 50.001s-21.5 30.334 -38.5 41.001s-37.167 16 -60.5 16c-2.66699 0 -4 2 -4 6v27c-0 4 1.33301 6 4 6
c36 0.666992 63.667 11.334 83 32.001s29 47 29 79v233c0 27.333 9.16699 49.166 27.5 65.499z" />
    <glyph glyph-name="bar" unicode="|" horiz-adv-x="267" 
d="M122 -165c-4.66699 0 -7 1.66699 -7 5l-1 1000c0 4.66699 2 7 6 7h25c5.33301 0 8 -3.33301 8 -10v-994c0 -5.33301 -2.33301 -8 -7 -8h-24z" />
    <glyph glyph-name="braceright" unicode="}" horiz-adv-x="267" 
d="M151 419c0 -32 9.66699 -58.334 29 -79.001s47 -31.334 83 -32.001c2.66699 0 4 -2 4 -6v-27c0 -4 -1.33301 -6 -4 -6c-23.333 0 -43.5 -5.33301 -60.5 -16s-29.833 -24.334 -38.5 -41.001s-13 -33.334 -13 -50.001v-235c0 -27.333 -8.83301 -49.5 -26.5 -66.5
s-45.167 -25.5 -82.5 -25.5h-19c-5.33301 0 -8 2.66699 -8 8v21c0 5.33301 2.66699 8 8 8h19c24.667 0 41.667 4.33301 51 13s14 22.667 14 42v235c0 39.333 8.83301 69.166 26.5 89.499s40.167 31.5 67.5 33.5c4.66699 0.666992 6.83398 1.83398 6.50098 3.50098
s-2.5 2.83398 -6.5 3.50098c-27.333 2.66699 -49.833 14.834 -67.5 36.501s-26.5 51.834 -26.5 90.501v233c0 18.667 -5 32.167 -15 40.5s-26.333 12.5 -49 12.5h-21c-4.66699 0 -7 2 -7 6v26c0 3.33301 2.33301 5 7 5h21c35.333 0 62.166 -8.16699 80.499 -24.5
s27.5 -38.166 27.5 -65.499v-233z" />
    <glyph glyph-name="asciitilde" unicode="~" horiz-adv-x="542" 
d="M434 346.5c-18 -7.66699 -40.3379 -11.499 -67.0049 -11.499c-18 0 -34.167 2 -48.5 6s-31.166 9.66699 -50.499 17c-17.333 7.33301 -32.166 12.666 -44.499 15.999s-26.166 5 -41.499 5c-40 0 -73.333 -12.667 -100 -38c-2.66699 -2.66699 -4.5 -3.83398 -5.5 -3.50098
s-2.16699 2.16602 -3.5 5.49902l-7 19c-2 4.66699 -1.66699 7.66699 1 9c16.667 14 33.334 25 50.001 33s37 12 61 12c16 0 31.333 -2 46 -6s31.334 -9.66699 50.001 -17s35.167 -12.833 49.5 -16.5s29.166 -5.5 44.499 -5.5c22 0 39.5 3.16699 52.5 9.5
s25.167 14.833 36.5 25.5c2.66699 2.66699 4.83398 3.83398 6.50098 3.50098s3.16699 -2.16602 4.5 -5.49902l8 -21c0.666992 -0.666992 1 -2 1 -4s-1.33301 -4.33301 -4 -7c-8 -9.33301 -21 -17.833 -39 -25.5z" />
    <glyph glyph-name="uni00A0" unicode="&#xa0;" horiz-adv-x="215" 
 />
    <glyph glyph-name="exclamdown" unicode="&#xa1;" horiz-adv-x="232" 
d="M140 451h-48c-4.66699 0 -7 3 -7 9v60c0 3.33301 0.666992 5.83301 2 7.5s4 2.5 8 2.5h39c4.66699 0 8 -0.833008 10 -2.5s3 -4.5 3 -8.5v-60c0 -5.33301 -2.33301 -8 -7 -8zM137 -165h-42c-3.33301 0 -5 2.33301 -5 7l10 533c0 4.66699 2.66699 7 8 7h14
c6.66699 0 10 -2.66699 10 -8l11 -533c0 -4 -2 -6 -6 -6z" />
    <glyph glyph-name="cent" unicode="&#xa2;" horiz-adv-x="558" 
d="M501 218c-22.667 -37.333 -50.832 -65.832 -84.499 -85.499s-70.834 -30.167 -111.501 -31.5v-88c0 -8.66699 -4.33301 -13 -13 -13h-16c-8 0 -12 4 -12 12v91c-41.333 4.66699 -77.666 19 -108.999 43s-55.666 55.5 -72.999 94.5s-26 83.5 -26 133.5
c0 49.333 8.66699 93.833 26 133.5s41.833 71.834 73.5 96.501s67.834 39.667 108.501 45v84c0 6 3 9 9 9h24c5.33301 0 8 -2.66699 8 -8v-83c77.333 -2.66699 139.666 -38.334 186.999 -107.001c3.33301 -4.66699 3.33301 -8 0 -10l-24 -16
c-0.666992 -0.666992 -1.66699 -1 -3 -1c-2 0 -4.66699 1.66699 -8 5c-27.333 32.667 -53 56 -77 70s-50.333 21 -79 21c-40.667 0 -76.334 -9.83301 -107.001 -29.5s-54.334 -47.5 -71.001 -83.5s-25 -77.333 -25 -124s8.33301 -88 25 -124s40.334 -63.833 71.001 -83.5
s66 -29.5 106 -29.5c67.333 0 122.666 33.333 165.999 100c2 3.33301 3.66699 5.16602 5 5.49902s3 -0.166992 5 -1.5l23 -15c3.33301 -2 4 -5.33301 2 -10z" />
    <glyph glyph-name="sterling" unicode="&#xa3;" horiz-adv-x="597" 
d="M12 8v24c0 4.66699 2.33301 7 7 7h35c28 -0.666992 51.333 14 70 44s28 73.667 28 131c0 32 -4.33301 78.333 -13 139c-0.666992 3.33301 -2.33398 5 -5.00098 5h-93c-3.33301 0 -5 2 -5 6v26c0 4 1.66699 6 5 6h84c5.33301 0 7.33301 2 6 6l-18 71
c-6.66699 26 -10 51 -10 75c0 40.667 9 76.5 27 107.5s42.167 54.833 72.5 71.5s63.5 25 99.5 25c40 0 77 -9.5 111 -28.5s56 -40.5 66 -64.5l1 -2c0 -1.33301 -1 -2.5 -3 -3.5s-3.33301 -1.83301 -4 -2.5l-23 -11c-5.33301 -2 -9 -1 -11 3c-24.667 44 -69.667 66 -135 66
c-45.333 0 -83.166 -12.667 -113.499 -38s-45.5 -60 -45.5 -104c0 -26.667 3 -55.5 9 -86.5s12.333 -56.833 19 -77.5c1.33301 -4 3.33301 -6 6 -6h171c4 0 6 -1.66699 6 -5v-27c0 -4 -2 -6 -6 -6h-161c-5.33301 0 -7.66602 -2.33301 -6.99902 -7
c8.66699 -41.333 13 -81.333 13 -120c0 -48.667 -5.83301 -88 -17.5 -118s-23.834 -52.333 -36.501 -67c-4 -4.66699 -3.33301 -7 2 -7h211c37.333 0 67.833 6 91.5 18s41.5 31.667 53.5 59c0.666992 2 2.16699 3.5 4.5 4.5s4.16602 1.16699 5.49902 0.5l22 -9
c4.66699 -2.66699 6.33398 -5.33398 5.00098 -8.00098c-14.667 -35.333 -37.5 -61.666 -68.5 -78.999s-68.833 -26 -113.5 -26h-334c-5.33301 0 -8 2.66699 -8 8z" />
    <glyph glyph-name="currency" unicode="&#xa4;" horiz-adv-x="513" 
d="M157 235c-4.66699 3.33301 -8.66895 2.99805 -12.002 -1.00195l-40 -41c-2.66699 -2.66699 -5.66699 -4 -9 -4s-6.66602 1.33301 -9.99902 4l-11 12c-2.66699 2.66699 -4 5.66699 -4 9c0 2.66699 1.33301 5.33398 4 8.00098l40 40c2 3.33301 3 6 3 8
c0 2.66699 -1 5.33398 -3 8.00098c-18.667 28 -28 59.667 -28 95c0 36 10.333 68.667 31 98c2.66699 4.66699 2.33398 8.66699 -0.999023 12l-40 40c-2.66699 3.33301 -4 6.66602 -4 9.99902s1.33301 6.33301 4 9l11 11c3.33301 3.33301 6.33301 5 9 5
c2 0 4.66699 -1.66699 8 -5l41 -41c3.33301 -3.33301 7.33301 -3.66602 12 -0.999023c28.667 20 61 30 97 30s68 -10.333 96 -31c5.33301 -2.66699 9.66602 -2.33398 12.999 0.999023l46 46c4.66699 4.66699 9 4.66699 13 0l17 -17c3.33301 -4 3.33301 -8 0 -12l-47 -47
c-3.33301 -3.33301 -3.66602 -7 -0.999023 -11c20.667 -29.333 31 -61.666 31 -96.999c0 -36 -10 -67.667 -30 -95c-3.33301 -5.33301 -3 -10 1 -14l46 -45c4 -4.66699 4 -9 0 -13l-17 -17c-4 -4 -7.66699 -4 -11 0l-45 45c-5.33301 4.66699 -9.66602 5.66699 -12.999 3
c-29.333 -22 -62.333 -33 -99 -33s-69.334 10.333 -98.001 31zM320.498 265.498c19 11.667 34 27 45 46s16.5 39.5 16.5 61.5s-5.5 42.5 -16.5 61.5s-26 34.333 -45 46s-40.167 17.5 -63.5 17.5s-44.5 -5.83301 -63.5 -17.5s-34 -27 -45 -46s-16.5 -39.5 -16.5 -61.5
s5.5 -42.5 16.5 -61.5s26 -34.333 45 -46s40.167 -17.5 63.5 -17.5s44.5 5.83301 63.5 17.5z" />
    <glyph glyph-name="yen" unicode="&#xa5;" horiz-adv-x="578" 
d="M557 738.5c1.33301 -2.33301 0.99707 -4.83398 -1.00293 -7.50098l-235 -394h147c4.66699 0 7 -2 7 -6v-24c0 -5.33301 -3.33301 -8 -10 -8h-150v-102h153c4.66699 0 7 -2 7 -6v-24c0 -5.33301 -3.33301 -8 -10 -8h-150v-146c0 -8.66699 -5 -13 -15 -13h-19
c-8 0 -12 3.66699 -12 11v147h-152c-5.33301 0 -8 2.33301 -8 7v24c0 4.66699 1.66699 7 5 7h155v102h-152c-5.33301 0 -8 2.33301 -8 7v24c0 4.66699 1.66699 7 5 7h140l-232 394c-1.33301 2.66699 -2 4.66699 -2 6c0 4 3.33301 6 10 6h27c4.66699 0 8 -0.666992 10 -2
s4 -3.66602 6 -6.99902l209 -358c0.666992 -0.666992 1.83398 -2.5 3.50098 -5.5s3.5 -4.5 5.5 -4.5c2.66699 0 5.33398 3 8.00098 9l213 359c2.66699 4 4.83398 6.5 6.50098 7.5s4.83398 1.5 9.50098 1.5h22c3.33301 0 5.66602 -1.16699 6.99902 -3.5z" />
    <glyph glyph-name="brokenbar" unicode="&#xa6;" horiz-adv-x="267" 
d="M122 443c-4.66699 0 -7 1.66699 -7 5l-1 392c0 4.66699 2 7 6 7h25c5.33301 0 8 -3.33301 8 -10v-386c0 -5.33301 -2.33301 -8 -7 -8h-24zM122 -165c-4.66699 0 -7 1.66699 -7 5l-1 392c0 4.66699 2 7 6 7h25c5.33301 0 8 -3.33301 8 -10v-386
c0 -5.33301 -2.33301 -8 -7 -8h-24z" />
    <glyph glyph-name="section" unicode="&#xa7;" horiz-adv-x="477" 
d="M406.5 135.5c17 -21 25.501 -44.8301 25.501 -71.4971c0 -24.667 -7.66699 -47 -23 -67s-36.833 -35.833 -64.5 -47.5s-59.167 -17.5 -94.5 -17.5c-41.333 0 -80.833 10.167 -118.5 30.5s-65.834 47.5 -84.501 81.5c-0.666992 1.33301 -1 2.83301 -1 4.5
s0.333008 2.83398 1 3.50098l24 15c4 2 7 1.33301 9 -2c17.333 -28 41.166 -50.5 71.499 -67.5s64.166 -25.5 101.499 -25.5c40 0 72.5 8.16699 97.5 24.5s37.5 38.833 37.5 67.5c0 22 -8.83301 42.167 -26.5 60.5s-48.167 36.166 -91.5 53.499l-98 38
c-76 29.333 -114 75 -114 137c0 30 10.333 56.667 31 80s47.334 40.666 80.001 51.999c-43.333 21.333 -72.666 42.833 -87.999 64.5s-23 46.167 -23 73.5c0 24 7.5 45.833 22.5 65.5s36 35.167 63 46.5s57.833 17 92.5 17c37.333 0 71.5 -8.66699 102.5 -26
s55.833 -39.333 74.5 -66c2 -3.33301 1.66699 -6 -1 -8l-20 -13c-6 -3.33301 -10 -3.33301 -12 0c-17.333 22.667 -37.833 40.5 -61.5 53.5s-49.5 19.5 -77.5 19.5c-43.333 0 -77.333 -7.83301 -102 -23.5s-37 -36.834 -37 -63.501c0 -20 7.16699 -38.5 21.5 -55.5
s40.833 -33.5 79.5 -49.5l90 -37c48.667 -20.667 84 -44 106 -70s33 -55.667 33 -89c0 -32.667 -9 -58.834 -27 -78.501s-42.333 -36.5 -73 -50.5c32.667 -18.667 57.5 -38.5 74.5 -59.5zM327.501 232.503c17.667 8.33301 31.999 20.335 42.999 36.002
s16.5 32.167 16.5 49.5c0 28 -6.66699 51 -20 69s-39 34.667 -77 50l-65 26c-21.333 -2 -41.5 -8.33301 -60.5 -19s-34.167 -23.834 -45.5 -39.501s-17 -31.834 -17 -48.501c0 -22.667 6.83301 -41.667 20.5 -57s39.834 -31 78.501 -47l71 -30
c19.333 -1.33301 37.833 2.16699 55.5 10.5z" />
    <glyph glyph-name="dieresis" unicode="&#xa8;" horiz-adv-x="181" 
d="M60 656c0 -4.66699 -0.830078 -7.83301 -2.49707 -9.5s-4.83398 -2.5 -9.50098 -2.5h-27c-4.66699 0 -7.66699 0.666992 -9 2s-2 4 -2 8v78c0 4 0.666992 6.66699 2 8s3.66602 2 6.99902 2h32c3.33301 0 5.66602 -0.666992 6.99902 -2s2 -4 2 -8v-76zM171.003 656.001
c0 -4.66699 -0.830078 -7.83301 -2.49707 -9.5s-4.83398 -2.5 -9.50098 -2.5h-27c-4.66699 0 -7.66699 0.666992 -9 2s-2 4 -2 8v78c0 4 0.666992 6.66699 2 8s3.66602 2 6.99902 2h32c3.33301 0 5.66602 -0.666992 6.99902 -2s2 -4 2 -8v-76z" />
    <glyph glyph-name="copyright" unicode="&#xa9;" horiz-adv-x="830" 
d="M223.5 41c-58.333 34 -104.5 80.167 -138.5 138.5s-51 122.166 -51 191.499c0 68.667 17 132.167 51 190.5s80.167 104.666 138.5 138.999s122.166 51.5 191.499 51.5c68.667 0 132.167 -17.167 190.5 -51.5s104.666 -80.666 138.999 -138.999s51.5 -121.833 51.5 -190.5
c0 -69.333 -17.167 -133.166 -51.5 -191.499s-80.666 -104.5 -138.999 -138.5s-121.833 -51 -190.5 -51c-69.333 0 -133.166 17 -191.499 51zM581 76c51.333 28 92.5 67.667 123.5 119s46.5 110 46.5 176c0 65.333 -15.5 123.666 -46.5 174.999s-72.167 91.333 -123.5 120
s-106.666 43 -165.999 43c-60.667 0 -116.667 -14.333 -168 -43s-92.166 -68.667 -122.499 -120s-45.5 -109.666 -45.5 -174.999c0 -66.667 15.167 -125.5 45.5 -176.5s71.166 -90.5 122.499 -118.5s107.333 -42 168 -42c59.333 0 114.666 14 165.999 42zM504 566
c25.333 -16 48.3389 -38.334 69.0059 -67.001c1.33301 -2 1.66602 -3.66699 0.999023 -5l-1 -2l-28 -17c-2.66699 -1.33301 -5.33398 0 -8.00098 4c-32 48 -70.667 72 -116 72c-43.333 0 -78.833 -16.333 -106.5 -49s-41.5 -75 -41.5 -127s13.667 -94.5 41 -127.5
s62.666 -49.5 105.999 -49.5c26.667 0 51 7.16699 73 21.5s39.667 33.5 53 57.5c0.666992 2 2.16699 3 4.5 3s4.16602 -0.666992 5.49902 -2l20 -12c2.66699 -2 3.33398 -4.66699 2.00098 -8c-19.333 -31.333 -42.833 -55.666 -70.5 -72.999s-57.834 -26 -90.501 -26
c-36.667 0 -69.334 9 -98.001 27s-50.834 43.167 -66.501 75.5s-23.5 69.5 -23.5 111.5s8 79.5 24 112.5s38.333 58.667 67 77s61 27.5 97 27.5c32.667 0 61.667 -8 87 -24z" />
    <glyph glyph-name="ordfeminine" unicode="&#xaa;" horiz-adv-x="406" 
d="M282.5 718.5c21.667 -20.333 32.5029 -48.5 32.5029 -84.5v-162c0 -11.333 0.5 -20.166 1.5 -26.499s3.5 -15.166 7.5 -26.499c0.666992 -2.66699 0.5 -4.66699 -0.5 -6s-2.5 -2 -4.5 -2h-25c-3.33301 0 -5.5 0.333008 -6.5 1s-1.83301 2.33398 -2.5 5.00098l-6 38
c-0.666992 2.66699 -1.5 4 -2.5 4s-2.83301 -1 -5.5 -3c-18 -18 -35.667 -31 -53 -39s-37 -12 -59 -12c-34.667 0 -61.834 8 -81.501 24s-29.5 38.333 -29.5 67c0 62.667 53 99 159 109l61 6c7.33301 1.33301 11 4.33301 11 9v18c0 51.333 -30.667 77 -92 77
c-22 0 -40.333 -3.66699 -55 -11s-28.334 -20.333 -41.001 -39c-2 -2.66699 -4.66699 -3.33398 -8 -2.00098l-24 10c-1.33301 1.33301 -1.33301 3.66602 0 6.99902c11.333 21.333 28.666 38.166 51.999 50.499s50 18.5 80 18.5c39.333 0 69.833 -10.167 91.5 -30.5z
M109.003 453.5c14.667 -11 34.333 -16.499 59 -16.499c30.667 0 57.667 10.667 81 32c20 18 30 35.333 30 52v49c0 4 -0.666992 6.66699 -2 8s-4 1.66602 -8 0.999023l-50 -4c-88 -6.66699 -132 -32.667 -132 -78c0 -18 7.33301 -32.5 22 -43.5z" />
    <glyph glyph-name="guillemotleft" unicode="&#xab;" horiz-adv-x="421" 
d="M203 83l1 -2c0 -2 -2.66699 -3 -8 -3h-12c-4 0 -6.66699 1.33301 -8 4l-138 168c-4 4.66699 -4.33301 9 -1 13l140 178c2 2.66699 4.33301 4 7 4h14c2 0 3.66699 -0.833008 5 -2.5s1.33301 -3.5 0 -5.5l-114 -174c-2.66699 -4.66699 -2.66699 -8.66699 0 -12zM370 83
l1 -2c0 -2 -2.66699 -3 -8 -3h-12c-4 0 -6.66699 1.33301 -8 4l-138 168c-4 4.66699 -4.33301 9 -1 13l140 178c2 2.66699 4.33301 4 7 4h14c2 0 3.66699 -0.833008 5 -2.5s1.33301 -3.5 0 -5.5l-114 -174c-2.66699 -4.66699 -2.66699 -8.66699 0 -12z" />
    <glyph glyph-name="logicalnot" unicode="&#xac;" horiz-adv-x="541" 
d="M471 386v-164c0 -5.33301 -2.33301 -8 -7 -8h-23c-4.66699 0 -7 1.66699 -7 5l-1 135l-355 -1c-5.33301 0 -8 2.33301 -8 7v24c0 4.66699 1.66699 7 5 7l389 1c4.66699 0 7 -2 7 -6z" />
    <glyph glyph-name="uni00AD" unicode="&#xad;" horiz-adv-x="381" 
d="M311 254c0 -5.33301 -3.33301 -8 -10 -8l-223 -1c-5.33301 0 -8 2.33301 -8 7v26c0 4.66699 1.66699 7 5 7l229 1c4.66699 0 7 -2 7 -6v-26z" />
    <glyph glyph-name="registered" unicode="&#xae;" horiz-adv-x="545" 
d="M153 307c-36.667 21.333 -65.6699 50.166 -87.0029 86.499s-32 76.166 -32 119.499s10.667 83.333 32 120s50.333 65.667 87 87s76.667 32 120 32c42.667 0 82.334 -10.667 119.001 -32s65.667 -50.333 87 -87s32 -76.667 32 -120s-10.667 -83.166 -32 -119.499
s-50.166 -65.166 -86.499 -86.499s-76.166 -32 -119.499 -32s-83.333 10.667 -120 32zM377.997 335c30.667 16.667 54.498 40.334 71.498 71.001s25.5 66.334 25.5 107.001s-8.66699 76.334 -26 107.001s-41.166 54.5 -71.499 71.5s-65.166 25.5 -104.499 25.5
c-40 0 -75.333 -8.5 -106 -25.5s-54.5 -40.833 -71.5 -71.5s-25.5 -66.334 -25.5 -107.001s8.5 -76.334 25.5 -107.001s40.833 -54.334 71.5 -71.001s66 -25 106 -25c39.333 0 74.333 8.33301 105 25zM350.995 393l-24.002 0.000976562c-1.33301 0 -2.66602 1 -3.99902 3
l-41 108v2c0 0.666992 -2.33301 1 -7 1h-56c-2.66699 0 -4 -1.33301 -4 -4v-106c0 -2.66699 -1 -4 -3 -4h-23c-2 0 -3 1 -3 3v230c0 2.66699 0.666992 4 2 4h100c24 0 42.333 -5 55 -15s19 -24.333 19 -43c0 -30.667 -16.333 -51.334 -49 -62.001
c-0.666992 0 -1.16699 -0.166992 -1.5 -0.5s-0.166016 -0.833008 0.500977 -1.5l42 -110c1.33301 -3.33301 0.333008 -5 -3 -5zM330.993 568.001c0 10.667 -3.83301 18.999 -11.5 24.999s-21.5 9 -41.5 9h-59c-0.666992 0 -1.5 0.333008 -2.5 1
s-1.5 -0.666016 -1.5 -3.99902v-61c0 -2 1 -3 3 -3h63c33.333 0 50 11 50 33z" />
    <glyph glyph-name="macron" unicode="&#xaf;" horiz-adv-x="272" 
d="M262 692c0 -5.33301 -3.33301 -8 -10 -8h-235c-4.66699 0 -7 2.66699 -7 8v23c0 4.66699 1.66699 7 5 7h242c3.33301 0 5 -2 5 -6v-24z" />
    <glyph glyph-name="degree" unicode="&#xb0;" horiz-adv-x="464" 
d="M339.5 600c-28.333 -28 -64.166 -42 -107.499 -42s-79.166 14 -107.499 42s-42.5 64 -42.5 108s14.167 80 42.5 108s64.166 42 107.499 42s79.166 -14 107.499 -42s42.5 -64 42.5 -108s-14.167 -80 -42.5 -108zM309.5 788c-19.667 20.667 -46.167 31 -79.5 31
c-32.667 0 -58.834 -10.167 -78.501 -30.5s-29.5 -46.833 -29.5 -79.5c0 -34.667 9.83301 -62.5 29.5 -83.5s46.167 -31.5 79.5 -31.5c32.667 0 58.834 10.333 78.501 31s29.5 48 29.5 82c0 33.333 -9.83301 60.333 -29.5 81z" />
    <glyph glyph-name="plusminus" unicode="&#xb1;" horiz-adv-x="541" 
d="M471 456v-24c0 -5.33301 -3.33301 -8 -10 -8h-172v-175c0 -4.66699 -2 -7 -6 -7h-23c-5.33301 0 -8 3.33301 -8 10v171h-174c-5.33301 0 -8 2.33301 -8 7v24c0 4.66699 1.66699 7 5 7h176v174c0 5.33301 2.33301 8 7 8h24c4.66699 0 7 -1.66699 7 -5v-176h175
c4.66699 0 7 -2 7 -6zM471 116v-24c0 -5.33301 -3.33301 -8 -10 -8l-383 -1c-5.33301 0 -8 2.33301 -8 7v24c0 4.66699 1.66699 7 5 7l389 1c4.66699 0 7 -2 7 -6z" />
    <glyph glyph-name="uni00B2" unicode="&#xb2;" horiz-adv-x="452" 
d="M208 575c33.333 34 57.334 62.998 72.001 86.998s22 48.667 22 74c0 30 -11 53.333 -33 70s-47 25 -75 25c-21.333 0 -42.833 -5 -64.5 -15s-39.167 -25 -52.5 -45c-2.66699 -4.66699 -6 -5 -10 -1l-9 8c-2.66699 2.66699 -4 4.5 -4 5.5s0.666992 2.5 2 4.5
c16.667 22.667 38 39.834 64 51.501s52.333 17.5 79 17.5c36 0 67 -10.5 93 -31.5s39 -52.167 39 -93.5c0 -27.333 -7.83301 -53.166 -23.5 -77.499s-44.167 -57.833 -85.5 -100.5l-133 -136c-2 -2 -2.5 -3.83301 -1.5 -5.5s2.83301 -2.5 5.5 -2.5h237c4 0 6 -1.66699 6 -5
v-16c0 -3.33301 -1.66699 -5 -5 -5h-270c-4.66699 0 -7 2.66699 -7 8v12c0 4.66699 0.666992 8.5 2 11.5s3.66602 6.16699 6.99902 9.5z" />
    <glyph glyph-name="uni00B3" unicode="&#xb3;" horiz-adv-x="467" 
d="M81 797c20.667 21.333 41.668 36.665 63.001 45.998s45 14 71 14c44 0 79.333 -11 106 -33s40 -49.667 40 -83c0 -24 -7.33301 -45.167 -22 -63.5s-35 -32.166 -61 -41.499c-4.66699 -2 -7 -3.33301 -7 -4s2.33301 -1.66699 7 -3
c27.333 -7.33301 50.333 -21.666 69 -42.999s28 -47 28 -77c0 -37.333 -14.667 -68.5 -44 -93.5s-70.666 -37.5 -123.999 -37.5c-30 0 -56.333 4.5 -79 13.5s-45 24.167 -67 45.5c-1.33301 1.33301 -2 2.5 -2 3.5s0.666992 2.16699 2 3.5l14 12
c2.66699 3.33301 4.66699 3.33301 6 0c18 -18.667 37.5 -32 58.5 -40s44.5 -12 70.5 -12c42.667 0 76 9.5 100 28.5s36 43.833 36 74.5c0 34.667 -13.833 61.667 -41.5 81s-59.834 29 -96.501 29h-57c-3.33301 0 -5 1.33301 -5 4v16c0 3.33301 1.66699 5 5 5h46
c38 0 70 9.5 96 28.5s39 42.5 39 70.5c0 26 -10.667 47.5 -32 64.5s-49 25.5 -83 25.5c-44.667 0 -84.334 -16.667 -119.001 -50c-2.66699 -4 -6 -4 -10 0l-7 9c-2.66699 2 -2.66699 4.33301 0 7z" />
    <glyph glyph-name="acute" unicode="&#xb4;" horiz-adv-x="272" 
d="M261 716l0.999023 -4.00195c0 -3.33301 -2.66699 -6 -8 -8l-227 -77c-1.33301 -0.666992 -3 -1 -5 -1c-3.33301 0 -5.33301 2 -6 6l-5 15c-0.666992 2.66699 -0.666992 4.83398 0 6.50098s1.66699 2.83398 3 3.50098l229 94c1.33301 0.666992 2.83301 0.666992 4.5 0
s2.83398 -1.66699 3.50098 -3z" />
    <glyph glyph-name="paragraph" unicode="&#xb6;" horiz-adv-x="534" 
d="M394 710c-2.66699 0 -4 -1.66699 -4 -5v-785c0 -3.33301 -1.33301 -5 -4 -5h-25c-3.33301 0 -5 1.66699 -5 5v786c0 2.66699 -1.66699 4 -5 4h-35c-2.66699 0 -4 -1.66699 -4 -5v-785c0 -3.33301 -1.66699 -5 -5 -5h-25c-3.33301 0 -5 1.66699 -5 5v381c0 2 -1 3 -3 3
c-45.333 0 -84.5 9.83301 -117.5 29.5s-58 45.5 -75 77.5s-25.5 66.333 -25.5 103c0 38.667 8.66699 75.5 26 110.5s43.5 63.333 78.5 85s77.5 32.5 127.5 32.5h158c2.66699 0 4 -1.33301 4 -4v-25c0 -2 -1.33301 -3 -4 -3h-52z" />
    <glyph glyph-name="periodcentered" unicode="&#xb7;" horiz-adv-x="172" 
d="M127 345c0 -4 -1 -6.83301 -3 -8.5s-5.33301 -2.5 -10 -2.5h-59c-4 0 -6.66699 0.833008 -8 2.5s-2 4.16699 -2 7.5v60c0 6 2.33301 9 7 9h68c4.66699 0 7 -2.66699 7 -8v-60z" />
    <glyph glyph-name="cedilla" unicode="&#xb8;" horiz-adv-x="196" 
d="M157.5 -184.5c-19 -13 -42.8301 -19.499 -71.4971 -19.499c-28 0 -52.333 7 -73 21c-2.66699 1.33301 -3.66699 3.33301 -3 6l9 20c1.33301 2.66699 3.66602 3 6.99902 1c7.33301 -6 15.166 -10.5 23.499 -13.5s19.166 -4.5 32.499 -4.5c40 0 60 14.333 60 43
c0 16 -6.16699 27.667 -18.5 35s-31.833 11.666 -58.5 12.999c-4 0 -5.33301 1.33301 -4 4l36 84h34l-24 -60c-1.33301 -2 -0.333008 -3 3 -3c27.333 -2.66699 46.833 -10.667 58.5 -24s17.5 -29 17.5 -47c0 -24 -9.5 -42.5 -28.5 -55.5z" />
    <glyph glyph-name="uni00B9" unicode="&#xb9;" horiz-adv-x="367" 
d="M252 403l-0.000976562 -18.999c0 -2.66699 -1.33301 -4 -4 -4h-203c-2.66699 0 -4 1.33301 -4 4v19c0 2 1.33301 3 4 3h89c2 0 3 1 3 3v397c0 1.33301 -0.166992 2.5 -0.5 3.5s-1.16602 1.16699 -2.49902 0.5l-88 -35c-3.33301 -0.666992 -5 0.666016 -5 3.99902v16
c0 2 1 3.66699 3 5l87 43c4.66699 2.66699 9 4 13 4h17c3.33301 0 5 -2 5 -6v-431c0 -2.66699 1.33301 -4 4 -4h78c2.66699 0 4 -1 4 -3z" />
    <glyph glyph-name="ordmasculine" unicode="&#xba;" horiz-adv-x="419" 
d="M321.5 703.5c27.667 -31.667 41.5 -73.834 41.5 -126.501c0 -50.667 -13.5 -91.667 -40.5 -123s-64.833 -47 -113.5 -47s-86.334 15.667 -113.001 47s-40 72.333 -40 123c0 52.667 13.833 94.834 41.5 126.501s64.834 47.5 111.501 47.5
c47.333 0 84.833 -15.833 112.5 -47.5zM126 679c-19.333 -24.667 -29 -57.667 -29 -99c0 -43.333 9.66699 -77.5 29 -102.5s47 -37.5 83 -37.5c36.667 0 64.667 12.5 84 37.5s29 59.167 29 102.5c0 41.333 -9.83301 74.333 -29.5 99s-47.5 37 -83.5 37
s-63.667 -12.333 -83 -37z" />
    <glyph glyph-name="guillemotright" unicode="&#xbb;" horiz-adv-x="420" 
d="M164 263l-114 174c-1.33301 2 -1.33301 3.83301 0 5.5s3 2.5 5 2.5h14c2.66699 0 5 -1.33301 7 -4l140 -178c3.33301 -4 3 -8.33301 -1 -13l-138 -168c-1.33301 -2.66699 -4 -4 -8 -4h-12c-6 0 -8.33301 1.66699 -7 5l114 168c2.66699 4 2.66699 8 0 12zM331 263
l-114 174c-1.33301 2 -1.33301 3.83301 0 5.5s3 2.5 5 2.5h14c2.66699 0 5 -1.33301 7 -4l140 -178c2 -2 3 -4 3 -6s-1.33301 -4.33301 -4 -7l-138 -168c-1.33301 -2.66699 -4 -4 -8 -4h-12c-6 0 -8.33301 1.66699 -7 5l114 168c2.66699 4 2.66699 8 0 12z" />
    <glyph glyph-name="onequarter" unicode="&#xbc;" horiz-adv-x="860" 
d="M218 299l-0.000976562 -18.999c0 -2.66699 -1.33301 -4 -4 -4h-203c-2.66699 0 -4 1.33301 -4 4v19c0 2 1.33301 3 4 3h89c2 0 3 1 3 3v397c0 1.33301 -0.166992 2.5 -0.5 3.5s-1.16602 1.16699 -2.49902 0.5l-88 -35c-3.33301 -0.666992 -5 0.666016 -5 3.99902v16
c0 2 1 3.66699 3 5l87 43c4.66699 2.66699 9 4 13 4h17c3.33301 0 5 -2 5 -6v-431c0 -2.66699 1.33301 -4 4 -4h78c2.66699 0 4 -1 4 -3zM195.999 4.00098c-2 -3.33301 -4 -5.5 -6 -6.5s-5 -1.5 -9 -1.5h-16c-5.33301 0 -8 2 -8 6c0 2 1 4.33301 3 7l489 736
c2 3.33301 6 5 12 5h20c6 0 7.33301 -2.66699 4 -8zM738.999 467.001l20 -0.000976562c3.33301 0 5 -2 5 -6v-295c0 -3.33301 1.66699 -5 5 -5h64c4 0 6 -1.33301 6 -4v-16c0 -4 -2 -6 -6 -6h-64c-3.33301 0 -5 -2 -5 -6v-123c0 -4 -2 -6 -6 -6h-18c-3.33301 0 -5 2 -5 6
v125c0 2.66699 -1.66699 4 -5 4h-212c-4.66699 0 -7 2 -7 6v19c0 4.66699 1.66699 9.33398 5 14.001l214 290c2 2 5 3 9 3zM726.999 161c1.33301 0 2.66699 0.333008 4 1s2 1.66699 2 3v244c0 4.66699 -1 7 -3 7c-1.33301 0 -3.33301 -1.66699 -6 -5l-179 -242
c-2 -2.66699 -2.66699 -4.66699 -2 -6s2.66699 -2 6 -2h178z" />
    <glyph glyph-name="onehalf" unicode="&#xbd;" horiz-adv-x="923" 
d="M218 299l-0.000976562 -18.999c0 -2.66699 -1.33301 -4 -4 -4h-203c-2.66699 0 -4 1.33301 -4 4v19c0 2 1.33301 3 4 3h89c2 0 3 1 3 3v397c0 1.33301 -0.166992 2.5 -0.5 3.5s-1.16602 1.16699 -2.49902 0.5l-88 -35c-3.33301 -0.666992 -5 0.666016 -5 3.99902v16
c0 2 1 3.66699 3 5l87 43c4.66699 2.66699 9 4 13 4h17c3.33301 0 5 -2 5 -6v-431c0 -2.66699 1.33301 -4 4 -4h78c2.66699 0 4 -1 4 -3zM245.999 4.00098c-2 -3.33301 -4 -5.5 -6 -6.5s-5 -1.5 -9 -1.5h-16c-5.33301 0 -8 2 -8 6c0 2 1 4.33301 3 7l489 736
c2 3.33301 6 5 12 5h20c6 0 7.33301 -2.66699 4 -8zM742.999 191.001c33.333 34 57.334 62.998 72.001 86.998s22 48.667 22 74c0 30 -11 53.333 -33 70s-47 25 -75 25c-21.333 0 -42.833 -5 -64.5 -15s-39.167 -25 -52.5 -45c-2.66699 -4.66699 -6 -5 -10 -1l-9 8
c-2.66699 2.66699 -4 4.5 -4 5.5s0.666992 2.5 2 4.5c16.667 22.667 38 39.834 64 51.501s52.333 17.5 79 17.5c36 0 67 -10.5 93 -31.5s39 -52.167 39 -93.5c0 -27.333 -7.83301 -53.166 -23.5 -77.499s-44.167 -57.833 -85.5 -100.5l-133 -136
c-2 -2 -2.5 -3.83301 -1.5 -5.5s2.83301 -2.5 5.5 -2.5h237c4 0 6 -1.66699 6 -5v-16c0 -3.33301 -1.66699 -5 -5 -5h-270c-4.66699 0 -7 2.66699 -7 8v12c0 4.66699 0.666992 8.5 2 11.5s3.66602 6.16699 6.99902 9.5z" />
    <glyph glyph-name="threequarters" unicode="&#xbe;" horiz-adv-x="882" 
d="M47 692c20.667 21.333 41.668 36.665 63.001 45.998s45 14 71 14c44 0 79.333 -11 106 -33s40 -49.667 40 -83c0 -24 -7.33301 -45.167 -22 -63.5s-35 -32.166 -61 -41.499c-4.66699 -2 -7 -3.33301 -7 -4s2.33301 -1.66699 7 -3
c27.333 -7.33301 50.333 -21.666 69 -42.999s28 -47 28 -77c0 -37.333 -14.667 -68.5 -44 -93.5s-70.666 -37.5 -123.999 -37.5c-30 0 -56.333 4.5 -79 13.5s-45 24.167 -67 45.5c-1.33301 1.33301 -2 2.5 -2 3.5s0.666992 2.16699 2 3.5l14 12
c2.66699 3.33301 4.66699 3.33301 6 0c18 -18.667 37.5 -32 58.5 -40s44.5 -12 70.5 -12c42.667 0 76 9.5 100 28.5s36 43.833 36 74.5c0 34.667 -13.833 61.667 -41.5 81s-59.834 29 -96.501 29h-57c-3.33301 0 -5 1.33301 -5 4v16c0 3.33301 1.66699 5 5 5h46
c38 0 70 9.5 96 28.5s39 42.5 39 70.5c0 26 -10.667 47.5 -32 64.5s-49 25.5 -83 25.5c-44.667 0 -84.334 -16.667 -119.001 -50c-2.66699 -4 -6 -4 -10 0l-7 9c-2.66699 2 -2.66699 4.33301 0 7zM296.001 3.99902c-2 -3.33301 -4 -5.5 -6 -6.5s-5 -1.5 -9 -1.5h-16
c-5.33301 0 -8 2 -8 6c0 2 1 4.33301 3 7l489 736c2 3.33301 6 5 12 5h20c6 0 7.33301 -2.66699 4 -8zM761.001 466.999l20 -0.000976562c3.33301 0 5 -2 5 -6v-295c0 -3.33301 1.66699 -5 5 -5h64c4 0 6 -1.33301 6 -4v-16c0 -4 -2 -6 -6 -6h-64c-3.33301 0 -5 -2 -5 -6
v-123c0 -4 -2 -6 -6 -6h-18c-3.33301 0 -5 2 -5 6v125c0 2.66699 -1.66699 4 -5 4h-212c-4.66699 0 -7 2 -7 6v19c0 4.66699 1.66699 9.33398 5 14.001l214 290c2 2 5 3 9 3zM749.001 160.998c1.33301 0 2.66699 0.333008 4 1s2 1.66699 2 3v244c0 4.66699 -1 7 -3 7
c-1.33301 0 -3.33301 -1.66699 -6 -5l-179 -242c-2 -2.66699 -2.66699 -4.66699 -2 -6s2.66699 -2 6 -2h178z" />
    <glyph glyph-name="questiondown" unicode="&#xbf;" horiz-adv-x="506" 
d="M231 519c0 4 1 6.83301 3 8.5s5.33301 2.5 10 2.5h39c6.66699 0 10 -3.33301 10 -10v-60c0 -6 -2.33301 -9 -7 -9h-48c-4.66699 0 -7 2.66699 -7 8v60zM465 -52c-21.333 -37.333 -52.168 -67.166 -92.501 -89.499s-84.166 -33.5 -131.499 -33.5
c-64.667 0 -116 16.5 -154 49.5s-57 77.167 -57 132.5c0 25.333 4.5 47.833 13.5 67.5s20.167 36.5 33.5 50.5s31 30.667 53 50c24 21.333 43.5 40.166 58.5 56.499s27.5 36.166 37.5 59.499s15 50.333 15 81c0 2 0.666992 3.83301 2 5.5s3 2.5 5 2.5h27
c5.33301 0 8 -3 8 -9c0 -34.667 -5.33301 -64.667 -16 -90s-23.667 -46.666 -39 -63.999s-35.333 -37 -60 -59c-31.333 -27.333 -54.5 -51.5 -69.5 -72.5s-22.5 -47.167 -22.5 -78.5c0 -42.667 15 -76.667 45 -102s70 -38 120 -38c38.667 0 76 9.83301 112 29.5
s59.667 43.167 71 70.5c0.666992 1.33301 1.66699 2.33301 3 3s3 0.666992 5 0l30 -14c4 -2 5 -4.66699 3 -8z" />
    <glyph glyph-name="Agrave" unicode="&#xc0;" horiz-adv-x="700" 
d="M53 9l265.002 722c1.33301 4 3.16602 6.83301 5.49902 8.5s5.83301 2.5 10.5 2.5h33c10 0 16 -3.33301 18 -10l262 -722l1 -3c0 -4.66699 -3 -7 -9 -7h-24c-6.66699 0 -11 2.66699 -13 8l-81 223c-2 4.66699 -5.33301 7 -10 7h-322c-4.66699 0 -8 -2.33301 -10 -7
l-83 -224c-0.666992 -4.66699 -4.33398 -7 -11.001 -7h-25c-6.66699 0 -9 3 -7 9zM494.002 278c6.66699 0 8.99902 3.33301 6.99902 10l-143 390c-2 6.66699 -4.33301 10 -7 10c-2 0 -4.66699 -3.66699 -8 -11l-145 -391c-1.33301 -3.33301 -1.66602 -5.5 -0.999023 -6.5
s2.66699 -1.5 6 -1.5h291zM220.501 963c1.66699 0.666992 3.16602 0.668945 4.49902 0.00195312l229 -94c1.33301 -0.666992 2.33301 -1.83398 3 -3.50098s0.666992 -3.83398 0 -6.50098l-5 -15c-2 -5.33301 -5.66699 -7 -11 -5l-227 77c-4 1.33301 -6.5 2.83301 -7.5 4.5
s-0.833008 4.16699 0.5 7.5l10 32c0.666992 1.33301 1.83398 2.33301 3.50098 3z" />
    <glyph glyph-name="Aacute" unicode="&#xc1;" horiz-adv-x="700" 
d="M53 9l265.002 722c1.33301 4 3.16602 6.83301 5.49902 8.5s5.83301 2.5 10.5 2.5h33c10 0 16 -3.33301 18 -10l262 -722l1 -3c0 -4.66699 -3 -7 -9 -7h-24c-6.66699 0 -11 2.66699 -13 8l-81 223c-2 4.66699 -5.33301 7 -10 7h-322c-4.66699 0 -8 -2.33301 -10 -7
l-83 -224c-0.666992 -4.66699 -4.33398 -7 -11.001 -7h-25c-6.66699 0 -9 3 -7 9zM494.002 278c6.66699 0 8.99902 3.33301 6.99902 10l-143 390c-2 6.66699 -4.33301 10 -7 10c-2 0 -4.66699 -3.66699 -8 -11l-145 -391c-1.33301 -3.33301 -1.66602 -5.5 -0.999023 -6.5
s2.66699 -1.5 6 -1.5h291zM475.001 928l0.999023 -4.00195c0 -3.33301 -2.66699 -6 -8 -8l-227 -77c-1.33301 -0.666992 -3 -1 -5 -1c-3.33301 0 -5.33301 2 -6 6l-5 15c-0.666992 2.66699 -0.666992 4.83398 0 6.50098s1.66699 2.83398 3 3.50098l229 94
c1.33301 0.666992 2.83301 0.666992 4.5 0s2.83398 -1.66699 3.50098 -3z" />
    <glyph glyph-name="Acircumflex" unicode="&#xc2;" horiz-adv-x="700" 
d="M53 9l265.002 722c1.33301 4 3.16602 6.83301 5.49902 8.5s5.83301 2.5 10.5 2.5h33c10 0 16 -3.33301 18 -10l262 -722l1 -3c0 -4.66699 -3 -7 -9 -7h-24c-6.66699 0 -11 2.66699 -13 8l-81 223c-2 4.66699 -5.33301 7 -10 7h-322c-4.66699 0 -8 -2.33301 -10 -7
l-83 -224c-0.666992 -4.66699 -4.33398 -7 -11.001 -7h-25c-6.66699 0 -9 3 -7 9zM494.002 278c6.66699 0 8.99902 3.33301 6.99902 10l-143 390c-2 6.66699 -4.33301 10 -7 10c-2 0 -4.66699 -3.66699 -8 -11l-145 -391c-1.33301 -3.33301 -1.66602 -5.5 -0.999023 -6.5
s2.66699 -1.5 6 -1.5h291zM359.001 910c-4.66699 4 -7.66602 6 -8.99902 6c-2 0 -5.33301 -2 -10 -6l-62 -48c-2.66699 -2 -5.16699 -3.5 -7.5 -4.5s-4.83301 -1.5 -7.5 -1.5h-37c-3.33301 0 -5.33301 1 -6 3s0.666016 4.33301 3.99902 7l99 79c7.33301 6 14 9 20 9h18
c4 0 7.5 -1.16699 10.5 -3.5s4.83301 -3.83301 5.5 -4.5l98 -80c3.33301 -3.33301 5 -5.83301 5 -7.5s-2 -2.5 -6 -2.5h-41c-5.33301 0 -10.333 2 -15 6z" />
    <glyph glyph-name="Atilde" unicode="&#xc3;" horiz-adv-x="700" 
d="M53 9l265.002 722c1.33301 4 3.16602 6.83301 5.49902 8.5s5.83301 2.5 10.5 2.5h33c10 0 16 -3.33301 18 -10l262 -722l1 -3c0 -4.66699 -3 -7 -9 -7h-24c-6.66699 0 -11 2.66699 -13 8l-81 223c-2 4.66699 -5.33301 7 -10 7h-322c-4.66699 0 -8 -2.33301 -10 -7
l-83 -224c-0.666992 -4.66699 -4.33398 -7 -11.001 -7h-25c-6.66699 0 -9 3 -7 9zM494.002 278c6.66699 0 8.99902 3.33301 6.99902 10l-143 390c-2 6.66699 -4.33301 10 -7 10c-2 0 -4.66699 -3.66699 -8 -11l-145 -391c-1.33301 -3.33301 -1.66602 -5.5 -0.999023 -6.5
s2.66699 -1.5 6 -1.5h291zM446.501 890c-9.66699 -3.33301 -22.499 -5.00098 -38.499 -5.00098c-12 0 -22.167 1 -30.5 3s-19.5 5.33301 -33.5 10c-19.333 7.33301 -36 11 -50 11c-10.667 0 -19.5 -1.33301 -26.5 -4s-13 -5.66699 -18 -9s-8.83301 -5.66602 -11.5 -6.99902
s-4.66699 -2 -6 -2s-3 2 -5 6l-7 16c-0.666992 2 -0.833984 3.66699 -0.500977 5s1.16602 2.33301 2.49902 3c12.667 8.66699 23.834 15.167 33.501 19.5s21.167 6.5 34.5 6.5c15.333 0 35 -4 59 -12c23.333 -8.66699 43.333 -13 60 -13c10 0 18.333 1.16699 25 3.5
s15 6.5 25 12.5c2 1.33301 4.33301 2 7 2c2 0 4 -1.66699 6 -5l8 -18c0.666992 -0.666992 1 -1.66699 1 -3c0 -2 -2 -4 -6 -6c-9.33301 -6 -18.833 -10.667 -28.5 -14z" />
    <glyph glyph-name="Adieresis" unicode="&#xc4;" horiz-adv-x="700" 
d="M53 9l265.002 722c1.33301 4 3.16602 6.83301 5.49902 8.5s5.83301 2.5 10.5 2.5h33c10 0 16 -3.33301 18 -10l262 -722l1 -3c0 -4.66699 -3 -7 -9 -7h-24c-6.66699 0 -11 2.66699 -13 8l-81 223c-2 4.66699 -5.33301 7 -10 7h-322c-4.66699 0 -8 -2.33301 -10 -7
l-83 -224c-0.666992 -4.66699 -4.33398 -7 -11.001 -7h-25c-6.66699 0 -9 3 -7 9zM494.002 278c6.66699 0 8.99902 3.33301 6.99902 10l-143 390c-2 6.66699 -4.33301 10 -7 10c-2 0 -4.66699 -3.66699 -8 -11l-145 -391c-1.33301 -3.33301 -1.66602 -5.5 -0.999023 -6.5
s2.66699 -1.5 6 -1.5h291zM319.001 868c0 -4.66699 -0.830078 -7.83301 -2.49707 -9.5s-4.83398 -2.5 -9.50098 -2.5h-27c-4.66699 0 -7.66699 0.666992 -9 2s-2 4 -2 8v78c0 4 0.666992 6.66699 2 8s3.66602 2 6.99902 2h32c3.33301 0 5.66602 -0.666992 6.99902 -2
s2 -4 2 -8v-76zM430.004 868.001c0 -4.66699 -0.830078 -7.83301 -2.49707 -9.5s-4.83398 -2.5 -9.50098 -2.5h-27c-4.66699 0 -7.66699 0.666992 -9 2s-2 4 -2 8v78c0 4 0.666992 6.66699 2 8s3.66602 2 6.99902 2h32c3.33301 0 5.66602 -0.666992 6.99902 -2s2 -4 2 -8
v-76z" />
    <glyph glyph-name="Aring" unicode="&#xc5;" horiz-adv-x="700" 
d="M53 9l265.002 722c1.33301 4 3.16602 6.83301 5.49902 8.5s5.83301 2.5 10.5 2.5h33c10 0 16 -3.33301 18 -10l262 -722l1 -3c0 -4.66699 -3 -7 -9 -7h-24c-6.66699 0 -11 2.66699 -13 8l-81 223c-2 4.66699 -5.33301 7 -10 7h-322c-4.66699 0 -8 -2.33301 -10 -7
l-83 -224c-0.666992 -4.66699 -4.33398 -7 -11.001 -7h-25c-6.66699 0 -9 3 -7 9zM494.002 278c6.66699 0 8.99902 3.33301 6.99902 10l-143 390c-2 6.66699 -4.33301 10 -7 10c-2 0 -4.66699 -3.66699 -8 -11l-145 -391c-1.33301 -3.33301 -1.66602 -5.5 -0.999023 -6.5
s2.66699 -1.5 6 -1.5h291zM421.001 794.5c-19.333 -19 -43 -28.502 -71 -28.502s-51.667 9.83301 -71 29.5s-29 43.834 -29 72.501c0 26.667 9.83301 49.334 29.5 68.001s43.167 28 70.5 28c28 0 51.667 -9.5 71 -28.5s29 -42.167 29 -69.5
c0 -28.667 -9.66699 -52.5 -29 -71.5zM390.501 907.498c-11 11 -24.833 16.5 -41.5 16.5c-16 0 -29.833 -5.5 -41.5 -16.5s-17.5 -25.167 -17.5 -42.5c0 -15.333 6 -29 18 -41s25.667 -18 41 -18c16 0 29.667 5.83301 41 17.5s17 25.5 17 41.5
c0 17.333 -5.5 31.5 -16.5 42.5z" />
    <glyph glyph-name="AE" unicode="&#xc6;" horiz-adv-x="964" 
d="M910.5 38.5c1 -1 1.49902 -2.83398 1.49902 -5.50098v-26c0 -4.66699 -2.33301 -7 -7 -7h-400c-3.33301 0 -5.66602 0.666992 -6.99902 2s-2 4 -2 8v223c0 3.33301 -1.66699 5 -5 5h-254c-5.33301 0 -9.33301 -2.33301 -12 -7l-129 -224
c-2.66699 -4.66699 -6.66699 -7 -12 -7h-25c-2.66699 0 -4.5 0.833008 -5.5 2.5s-0.833008 3.83398 0.5 6.50098l413 722c4 7.33301 10 11 18 11h405c4.66699 0 7 -2.33301 7 -7v-26c0 -2.66699 -0.5 -4.5 -1.5 -5.5s-3.16699 -1.5 -6.5 -1.5h-338
c-3.33301 0 -5.66602 -0.5 -6.99902 -1.5s-2 -3.5 -2 -7.5v-291c0 -2.66699 0.666992 -4.5 2 -5.5s3.66602 -1.5 6.99902 -1.5h269c4.66699 0 7 -2.33301 7 -7v-26c0 -2.66699 -0.5 -4.5 -1.5 -5.5s-3.16699 -1.5 -6.5 -1.5h-268c-3.33301 0 -5.66602 -0.5 -6.99902 -1.5
s-2 -3.5 -2 -7.5v-297c0 -4 0.666992 -6.5 2 -7.5s3.66602 -1.5 6.99902 -1.5h353c3.33301 0 5.5 -0.5 6.5 -1.5zM495.999 286.999l0.000976562 391c0 6.66699 -1.66699 10 -5 10c-2.66699 0 -6 -3.66699 -10 -11l-228 -391c-2 -3.33301 -2.83301 -5.5 -2.5 -6.5
s2.16602 -1.5 5.49902 -1.5h232c5.33301 0 8 3 8 9z" />
    <glyph glyph-name="Ccedilla" unicode="&#xc7;" horiz-adv-x="695" 
d="M637 171c-17.333 -53.333 -47.8301 -96.167 -91.4971 -128.5s-94.5 -49.833 -152.5 -52.5l-18 -45c-0.666992 -2 0.333008 -3 3 -3c27.333 -2.66699 46.833 -10.667 58.5 -24s17.5 -29 17.5 -47c0 -24 -9.5 -42.5 -28.5 -55.5s-42.833 -19.5 -71.5 -19.5
c-27.333 0 -51.666 7 -72.999 21c-2.66699 1.33301 -3.66699 3.33301 -3 6l9 20c1.33301 2.66699 3.66602 3 6.99902 1c7.33301 -6 15.166 -10.5 23.499 -13.5s19.166 -4.5 32.499 -4.5c40 0 60 14.333 60 43c0 16 -6.16699 27.667 -18.5 35s-31.833 11.666 -58.5 12.999
c-4 0 -5.33301 1.33301 -4 4l30 70c-90 5.33301 -159.333 40.5 -208 105.5s-73 155.5 -73 271.5c0 80 11.667 148.833 35 206.5s57.333 101.667 102 132s98 45.5 160 45.5c40 0 78.833 -9.16699 116.5 -27.5s69 -42.5 94 -72.5s39.5 -62 43.5 -96
c0.666992 -4.66699 -1 -7 -5 -7l-36 -4h-2c-2.66699 0 -4.33398 2.33301 -5.00098 7c-11.333 47.333 -35.5 85.5 -72.5 114.5s-80.833 43.5 -131.5 43.5c-81.333 0 -143.5 -29.167 -186.5 -87.5s-64.5 -143.166 -64.5 -254.499c0 -108.667 21.833 -191.834 65.5 -249.501
s108.167 -86.5 193.5 -86.5c52 0 95 12.5 129 37.5s61 63.833 81 116.5c1.33301 2 3.33301 2.66699 6 2l34 -10c2 -1.33301 2.66699 -3.66602 2 -6.99902z" />
    <glyph glyph-name="Egrave" unicode="&#xc8;" horiz-adv-x="612" 
d="M116 740c1.33301 1.33301 3.66602 2 6.99902 2h415c4.66699 0 7 -2.33301 7 -7v-26c0 -2.66699 -0.5 -4.5 -1.5 -5.5s-3.16699 -1.5 -6.5 -1.5h-368c-3.33301 0 -5.66602 -0.5 -6.99902 -1.5s-2 -3.5 -2 -7.5v-291c0 -2.66699 0.666992 -4.5 2 -5.5
s3.66602 -1.5 6.99902 -1.5h289c4.66699 0 7 -2.33301 7 -7v-26c0 -2.66699 -0.5 -4.5 -1.5 -5.5s-3.16699 -1.5 -6.5 -1.5h-288c-3.33301 0 -5.66602 -0.5 -6.99902 -1.5s-2 -3.5 -2 -7.5v-297c0 -4 0.666992 -6.5 2 -7.5s3.66602 -1.5 6.99902 -1.5h383
c3.33301 0 5.5 -0.5 6.5 -1.5s1.5 -2.83301 1.5 -5.5v-26c0 -4.66699 -2.33301 -7 -7 -7h-430c-3.33301 0 -5.66602 0.666992 -6.99902 2s-2 4 -2 8v722c0 4 0.666992 6.66699 2 8zM215.5 963c1.66699 0.666992 3.16602 0.668945 4.49902 0.00195312l229 -94
c1.33301 -0.666992 2.33301 -1.83398 3 -3.50098s0.666992 -3.83398 0 -6.50098l-5 -15c-2 -5.33301 -5.66699 -7 -11 -5l-227 77c-4 1.33301 -6.5 2.83301 -7.5 4.5s-0.833008 4.16699 0.5 7.5l10 32c0.666992 1.33301 1.83398 2.33301 3.50098 3z" />
    <glyph glyph-name="Eacute" unicode="&#xc9;" horiz-adv-x="612" 
d="M116 740c1.33301 1.33301 3.66602 2 6.99902 2h415c4.66699 0 7 -2.33301 7 -7v-26c0 -2.66699 -0.5 -4.5 -1.5 -5.5s-3.16699 -1.5 -6.5 -1.5h-368c-3.33301 0 -5.66602 -0.5 -6.99902 -1.5s-2 -3.5 -2 -7.5v-291c0 -2.66699 0.666992 -4.5 2 -5.5
s3.66602 -1.5 6.99902 -1.5h289c4.66699 0 7 -2.33301 7 -7v-26c0 -2.66699 -0.5 -4.5 -1.5 -5.5s-3.16699 -1.5 -6.5 -1.5h-288c-3.33301 0 -5.66602 -0.5 -6.99902 -1.5s-2 -3.5 -2 -7.5v-297c0 -4 0.666992 -6.5 2 -7.5s3.66602 -1.5 6.99902 -1.5h383
c3.33301 0 5.5 -0.5 6.5 -1.5s1.5 -2.83301 1.5 -5.5v-26c0 -4.66699 -2.33301 -7 -7 -7h-430c-3.33301 0 -5.66602 0.666992 -6.99902 2s-2 4 -2 8v722c0 4 0.666992 6.66699 2 8zM470 928l0.999023 -4.00195c0 -3.33301 -2.66699 -6 -8 -8l-227 -77
c-1.33301 -0.666992 -3 -1 -5 -1c-3.33301 0 -5.33301 2 -6 6l-5 15c-0.666992 2.66699 -0.666992 4.83398 0 6.50098s1.66699 2.83398 3 3.50098l229 94c1.33301 0.666992 2.83301 0.666992 4.5 0s2.83398 -1.66699 3.50098 -3z" />
    <glyph glyph-name="Ecircumflex" unicode="&#xca;" horiz-adv-x="612" 
d="M116 740c1.33301 1.33301 3.66602 2 6.99902 2h415c4.66699 0 7 -2.33301 7 -7v-26c0 -2.66699 -0.5 -4.5 -1.5 -5.5s-3.16699 -1.5 -6.5 -1.5h-368c-3.33301 0 -5.66602 -0.5 -6.99902 -1.5s-2 -3.5 -2 -7.5v-291c0 -2.66699 0.666992 -4.5 2 -5.5
s3.66602 -1.5 6.99902 -1.5h289c4.66699 0 7 -2.33301 7 -7v-26c0 -2.66699 -0.5 -4.5 -1.5 -5.5s-3.16699 -1.5 -6.5 -1.5h-288c-3.33301 0 -5.66602 -0.5 -6.99902 -1.5s-2 -3.5 -2 -7.5v-297c0 -4 0.666992 -6.5 2 -7.5s3.66602 -1.5 6.99902 -1.5h383
c3.33301 0 5.5 -0.5 6.5 -1.5s1.5 -2.83301 1.5 -5.5v-26c0 -4.66699 -2.33301 -7 -7 -7h-430c-3.33301 0 -5.66602 0.666992 -6.99902 2s-2 4 -2 8v722c0 4 0.666992 6.66699 2 8zM354 910c-4.66699 4 -7.66602 6 -8.99902 6c-2 0 -5.33301 -2 -10 -6l-62 -48
c-2.66699 -2 -5.16699 -3.5 -7.5 -4.5s-4.83301 -1.5 -7.5 -1.5h-37c-3.33301 0 -5.33301 1 -6 3s0.666016 4.33301 3.99902 7l99 79c7.33301 6 14 9 20 9h18c4 0 7.5 -1.16699 10.5 -3.5s4.83301 -3.83301 5.5 -4.5l98 -80c3.33301 -3.33301 5 -5.83301 5 -7.5
s-2 -2.5 -6 -2.5h-41c-5.33301 0 -10.333 2 -15 6z" />
    <glyph glyph-name="Edieresis" unicode="&#xcb;" horiz-adv-x="612" 
d="M116 740c1.33301 1.33301 3.66602 2 6.99902 2h415c4.66699 0 7 -2.33301 7 -7v-26c0 -2.66699 -0.5 -4.5 -1.5 -5.5s-3.16699 -1.5 -6.5 -1.5h-368c-3.33301 0 -5.66602 -0.5 -6.99902 -1.5s-2 -3.5 -2 -7.5v-291c0 -2.66699 0.666992 -4.5 2 -5.5
s3.66602 -1.5 6.99902 -1.5h289c4.66699 0 7 -2.33301 7 -7v-26c0 -2.66699 -0.5 -4.5 -1.5 -5.5s-3.16699 -1.5 -6.5 -1.5h-288c-3.33301 0 -5.66602 -0.5 -6.99902 -1.5s-2 -3.5 -2 -7.5v-297c0 -4 0.666992 -6.5 2 -7.5s3.66602 -1.5 6.99902 -1.5h383
c3.33301 0 5.5 -0.5 6.5 -1.5s1.5 -2.83301 1.5 -5.5v-26c0 -4.66699 -2.33301 -7 -7 -7h-430c-3.33301 0 -5.66602 0.666992 -6.99902 2s-2 4 -2 8v722c0 4 0.666992 6.66699 2 8zM314 868c0 -4.66699 -0.830078 -7.83301 -2.49707 -9.5s-4.83398 -2.5 -9.50098 -2.5h-27
c-4.66699 0 -7.66699 0.666992 -9 2s-2 4 -2 8v78c0 4 0.666992 6.66699 2 8s3.66602 2 6.99902 2h32c3.33301 0 5.66602 -0.666992 6.99902 -2s2 -4 2 -8v-76zM425.003 868.001c0 -4.66699 -0.830078 -7.83301 -2.49707 -9.5s-4.83398 -2.5 -9.50098 -2.5h-27
c-4.66699 0 -7.66699 0.666992 -9 2s-2 4 -2 8v78c0 4 0.666992 6.66699 2 8s3.66602 2 6.99902 2h32c3.33301 0 5.66602 -0.666992 6.99902 -2s2 -4 2 -8v-76z" />
    <glyph glyph-name="Igrave" unicode="&#xcc;" horiz-adv-x="274" 
d="M151 742c3.33301 0 5.66699 -0.666016 7 -1.99902s2 -4 2 -8v-720c0 -4.66699 -0.666992 -7.83398 -2 -9.50098s-4.66602 -2.5 -9.99902 -2.5h-23c-4.66699 0 -7.66699 0.666992 -9 2s-2 4 -2 8v722c0 4 0.666992 6.66699 2 8s3.66602 2 6.99902 2h28zM10.501 963.001
c1.66699 0.666992 3.16602 0.668945 4.49902 0.00195312l229 -94c1.33301 -0.666992 2.33301 -1.83398 3 -3.50098s0.666992 -3.83398 0 -6.50098l-5 -15c-2 -5.33301 -5.66699 -7 -11 -5l-227 77c-4 1.33301 -6.5 2.83301 -7.5 4.5s-0.833008 4.16699 0.5 7.5l10 32
c0.666992 1.33301 1.83398 2.33301 3.50098 3z" />
    <glyph glyph-name="Iacute" unicode="&#xcd;" horiz-adv-x="274" 
d="M151 742c3.33301 0 5.66699 -0.666016 7 -1.99902s2 -4 2 -8v-720c0 -4.66699 -0.666992 -7.83398 -2 -9.50098s-4.66602 -2.5 -9.99902 -2.5h-23c-4.66699 0 -7.66699 0.666992 -9 2s-2 4 -2 8v722c0 4 0.666992 6.66699 2 8s3.66602 2 6.99902 2h28zM265.001 928.001
l0.999023 -4.00195c0 -3.33301 -2.66699 -6 -8 -8l-227 -77c-1.33301 -0.666992 -3 -1 -5 -1c-3.33301 0 -5.33301 2 -6 6l-5 15c-0.666992 2.66699 -0.666992 4.83398 0 6.50098s1.66699 2.83398 3 3.50098l229 94c1.33301 0.666992 2.83301 0.666992 4.5 0
s2.83398 -1.66699 3.50098 -3z" />
    <glyph glyph-name="Icircumflex" unicode="&#xce;" horiz-adv-x="274" 
d="M151 742c3.33301 0 5.66699 -0.666016 7 -1.99902s2 -4 2 -8v-720c0 -4.66699 -0.666992 -7.83398 -2 -9.50098s-4.66602 -2.5 -9.99902 -2.5h-23c-4.66699 0 -7.66699 0.666992 -9 2s-2 4 -2 8v722c0 4 0.666992 6.66699 2 8s3.66602 2 6.99902 2h28zM149.001 910.001
c-4.66699 4 -7.66602 6 -8.99902 6c-2 0 -5.33301 -2 -10 -6l-62 -48c-2.66699 -2 -5.16699 -3.5 -7.5 -4.5s-4.83301 -1.5 -7.5 -1.5h-37c-3.33301 0 -5.33301 1 -6 3s0.666016 4.33301 3.99902 7l99 79c7.33301 6 14 9 20 9h18c4 0 7.5 -1.16699 10.5 -3.5
s4.83301 -3.83301 5.5 -4.5l98 -80c3.33301 -3.33301 5 -5.83301 5 -7.5s-2 -2.5 -6 -2.5h-41c-5.33301 0 -10.333 2 -15 6z" />
    <glyph glyph-name="Idieresis" unicode="&#xcf;" horiz-adv-x="274" 
d="M151 742c3.33301 0 5.66699 -0.666016 7 -1.99902s2 -4 2 -8v-720c0 -4.66699 -0.666992 -7.83398 -2 -9.50098s-4.66602 -2.5 -9.99902 -2.5h-23c-4.66699 0 -7.66699 0.666992 -9 2s-2 4 -2 8v722c0 4 0.666992 6.66699 2 8s3.66602 2 6.99902 2h28zM109.001 868.001
c0 -4.66699 -0.830078 -7.83301 -2.49707 -9.5s-4.83398 -2.5 -9.50098 -2.5h-27c-4.66699 0 -7.66699 0.666992 -9 2s-2 4 -2 8v78c0 4 0.666992 6.66699 2 8s3.66602 2 6.99902 2h32c3.33301 0 5.66602 -0.666992 6.99902 -2s2 -4 2 -8v-76zM220.004 868.002
c0 -4.66699 -0.830078 -7.83301 -2.49707 -9.5s-4.83398 -2.5 -9.50098 -2.5h-27c-4.66699 0 -7.66699 0.666992 -9 2s-2 4 -2 8v78c0 4 0.666992 6.66699 2 8s3.66602 2 6.99902 2h32c3.33301 0 5.66602 -0.666992 6.99902 -2s2 -4 2 -8v-76z" />
    <glyph glyph-name="Eth" unicode="&#xd0;" horiz-adv-x="703" 
d="M461.5 700.5c57 -26.333 98.667 -66 125 -119s39.5 -121.5 39.5 -205.5c0 -130 -32.667 -225.167 -98 -285.5s-166.333 -90.5 -303 -90.5h-102c-6 -0 -9 3.33301 -9 10v343h-69c-4 0 -6.66699 0.833008 -8 2.5s-2 4.16699 -2 7.5v23c0 6 2.33301 9 7 9h72v339
c0 5.33301 3 8 9 8l116 -1c91.333 -0.666992 165.5 -14.167 222.5 -40.5zM429.5 72.5c51.667 21.667 89.333 56.668 113 105.001s35.5 113.166 35.5 194.499c0 84.667 -12 150.5 -36 197.5s-61 80.167 -111 99.5s-117 30 -201 32h-63c-2 0 -3.66699 -1.33301 -5 -4
s-2 -6 -2 -10v-292h175c4.66699 0 7 -2.66699 7 -8v-23c0 -7.33301 -4.33301 -11 -13 -11h-169v-304c0 -6 3.66699 -9 11 -9h50c87.333 0 156.833 10.833 208.5 32.5z" />
    <glyph glyph-name="Ntilde" unicode="&#xd1;" horiz-adv-x="755" 
d="M632 742c3.33301 0 5.66699 -0.667969 7 -2.00098s2 -4 2 -8v-722c0 -6.66699 -3 -10 -9 -10h-15h-5c-6 0 -10.667 2 -14 6l-428 631c-3.33301 4.66699 -6.16602 6.83398 -8.49902 6.50098s-3.5 -2.5 -3.5 -6.5v-628c0 -6 -3.33301 -9 -10 -9h-25c-6 -0 -9 3.33301 -9 10
v722c0 4 0.666992 6.66699 2 8s3.66602 2 6.99902 2h18c4 0 7 -0.5 9 -1.5s4 -2.83301 6 -5.5l427 -630c2.66699 -3.33301 5.33398 -5 8.00098 -5c1.33301 0 2.66602 0.666992 3.99902 2s2 3 2 5v626c0 6 2.66699 9 8 9h27zM490.501 889.999
c-9.66699 -3.33301 -22.499 -5.00098 -38.499 -5.00098c-12 0 -22.167 1 -30.5 3s-19.5 5.33301 -33.5 10c-19.333 7.33301 -36 11 -50 11c-10.667 0 -19.5 -1.33301 -26.5 -4s-13 -5.66699 -18 -9s-8.83301 -5.66602 -11.5 -6.99902s-4.66699 -2 -6 -2s-3 2 -5 6l-7 16
c-0.666992 2 -0.833984 3.66699 -0.500977 5s1.16602 2.33301 2.49902 3c12.667 8.66699 23.834 15.167 33.501 19.5s21.167 6.5 34.5 6.5c15.333 0 35 -4 59 -12c23.333 -8.66699 43.333 -13 60 -13c10 0 18.333 1.16699 25 3.5s15 6.5 25 12.5c2 1.33301 4.33301 2 7 2
c2 0 4 -1.66699 6 -5l8 -18c0.666992 -0.666992 1 -1.66699 1 -3c0 -2 -2 -4 -6 -6c-9.33301 -6 -18.833 -10.667 -28.5 -14z" />
    <glyph glyph-name="Ograve" unicode="&#xd2;" horiz-adv-x="758" 
d="M157 87c-52.667 64.667 -79.001 158 -79.001 280c0 124 26.667 219.167 80 285.5s127.333 99.5 222 99.5s168.334 -33 221.001 -99s79 -160.667 79 -284c0 -122 -26.333 -215.667 -79 -281s-126.667 -98 -222 -98s-169.333 32.333 -222 97zM631.999 369
c0 113.333 -21.3311 198.5 -63.998 255.5s-105.334 85.5 -188.001 85.5c-83.333 0 -146.5 -28.5 -189.5 -85.5s-64.5 -142.167 -64.5 -255.5c0 -112 21.667 -196.167 65 -252.5s106.666 -84.5 189.999 -84.5c167.333 0 251 112.333 251 337zM251.501 963
c1.66699 0.666992 3.16602 0.668945 4.49902 0.00195312l229 -94c1.33301 -0.666992 2.33301 -1.83398 3 -3.50098s0.666992 -3.83398 0 -6.50098l-5 -15c-2 -5.33301 -5.66699 -7 -11 -5l-227 77c-4 1.33301 -6.5 2.83301 -7.5 4.5s-0.833008 4.16699 0.5 7.5l10 32
c0.666992 1.33301 1.83398 2.33301 3.50098 3z" />
    <glyph glyph-name="Oacute" unicode="&#xd3;" horiz-adv-x="758" 
d="M157 87c-52.667 64.667 -79.001 158 -79.001 280c0 124 26.667 219.167 80 285.5s127.333 99.5 222 99.5s168.334 -33 221.001 -99s79 -160.667 79 -284c0 -122 -26.333 -215.667 -79 -281s-126.667 -98 -222 -98s-169.333 32.333 -222 97zM631.999 369
c0 113.333 -21.3311 198.5 -63.998 255.5s-105.334 85.5 -188.001 85.5c-83.333 0 -146.5 -28.5 -189.5 -85.5s-64.5 -142.167 -64.5 -255.5c0 -112 21.667 -196.167 65 -252.5s106.666 -84.5 189.999 -84.5c167.333 0 251 112.333 251 337zM506.001 928l0.999023 -4.00195
c0 -3.33301 -2.66699 -6 -8 -8l-227 -77c-1.33301 -0.666992 -3 -1 -5 -1c-3.33301 0 -5.33301 2 -6 6l-5 15c-0.666992 2.66699 -0.666992 4.83398 0 6.50098s1.66699 2.83398 3 3.50098l229 94c1.33301 0.666992 2.83301 0.666992 4.5 0s2.83398 -1.66699 3.50098 -3z" />
    <glyph glyph-name="Ocircumflex" unicode="&#xd4;" horiz-adv-x="758" 
d="M157 87c-52.667 64.667 -79.001 158 -79.001 280c0 124 26.667 219.167 80 285.5s127.333 99.5 222 99.5s168.334 -33 221.001 -99s79 -160.667 79 -284c0 -122 -26.333 -215.667 -79 -281s-126.667 -98 -222 -98s-169.333 32.333 -222 97zM631.999 369
c0 113.333 -21.3311 198.5 -63.998 255.5s-105.334 85.5 -188.001 85.5c-83.333 0 -146.5 -28.5 -189.5 -85.5s-64.5 -142.167 -64.5 -255.5c0 -112 21.667 -196.167 65 -252.5s106.666 -84.5 189.999 -84.5c167.333 0 251 112.333 251 337zM390.001 910
c-4.66699 4 -7.66602 6 -8.99902 6c-2 0 -5.33301 -2 -10 -6l-62 -48c-2.66699 -2 -5.16699 -3.5 -7.5 -4.5s-4.83301 -1.5 -7.5 -1.5h-37c-3.33301 0 -5.33301 1 -6 3s0.666016 4.33301 3.99902 7l99 79c7.33301 6 14 9 20 9h18c4 0 7.5 -1.16699 10.5 -3.5
s4.83301 -3.83301 5.5 -4.5l98 -80c3.33301 -3.33301 5 -5.83301 5 -7.5s-2 -2.5 -6 -2.5h-41c-5.33301 0 -10.333 2 -15 6z" />
    <glyph glyph-name="Otilde" unicode="&#xd5;" horiz-adv-x="758" 
d="M157 87c-52.667 64.667 -79.001 158 -79.001 280c0 124 26.667 219.167 80 285.5s127.333 99.5 222 99.5s168.334 -33 221.001 -99s79 -160.667 79 -284c0 -122 -26.333 -215.667 -79 -281s-126.667 -98 -222 -98s-169.333 32.333 -222 97zM631.999 369
c0 113.333 -21.3311 198.5 -63.998 255.5s-105.334 85.5 -188.001 85.5c-83.333 0 -146.5 -28.5 -189.5 -85.5s-64.5 -142.167 -64.5 -255.5c0 -112 21.667 -196.167 65 -252.5s106.666 -84.5 189.999 -84.5c167.333 0 251 112.333 251 337zM477.501 890
c-9.66699 -3.33301 -22.499 -5.00098 -38.499 -5.00098c-12 0 -22.167 1 -30.5 3s-19.5 5.33301 -33.5 10c-19.333 7.33301 -36 11 -50 11c-10.667 0 -19.5 -1.33301 -26.5 -4s-13 -5.66699 -18 -9s-8.83301 -5.66602 -11.5 -6.99902s-4.66699 -2 -6 -2s-3 2 -5 6l-7 16
c-0.666992 2 -0.833984 3.66699 -0.500977 5s1.16602 2.33301 2.49902 3c12.667 8.66699 23.834 15.167 33.501 19.5s21.167 6.5 34.5 6.5c15.333 0 35 -4 59 -12c23.333 -8.66699 43.333 -13 60 -13c10 0 18.333 1.16699 25 3.5s15 6.5 25 12.5c2 1.33301 4.33301 2 7 2
c2 0 4 -1.66699 6 -5l8 -18c0.666992 -0.666992 1 -1.66699 1 -3c0 -2 -2 -4 -6 -6c-9.33301 -6 -18.833 -10.667 -28.5 -14z" />
    <glyph glyph-name="Odieresis" unicode="&#xd6;" horiz-adv-x="758" 
d="M157 87c-52.667 64.667 -79.001 158 -79.001 280c0 124 26.667 219.167 80 285.5s127.333 99.5 222 99.5s168.334 -33 221.001 -99s79 -160.667 79 -284c0 -122 -26.333 -215.667 -79 -281s-126.667 -98 -222 -98s-169.333 32.333 -222 97zM631.999 369
c0 113.333 -21.3311 198.5 -63.998 255.5s-105.334 85.5 -188.001 85.5c-83.333 0 -146.5 -28.5 -189.5 -85.5s-64.5 -142.167 -64.5 -255.5c0 -112 21.667 -196.167 65 -252.5s106.666 -84.5 189.999 -84.5c167.333 0 251 112.333 251 337zM350.001 868
c0 -4.66699 -0.830078 -7.83301 -2.49707 -9.5s-4.83398 -2.5 -9.50098 -2.5h-27c-4.66699 0 -7.66699 0.666992 -9 2s-2 4 -2 8v78c0 4 0.666992 6.66699 2 8s3.66602 2 6.99902 2h32c3.33301 0 5.66602 -0.666992 6.99902 -2s2 -4 2 -8v-76zM461.004 868.001
c0 -4.66699 -0.830078 -7.83301 -2.49707 -9.5s-4.83398 -2.5 -9.50098 -2.5h-27c-4.66699 0 -7.66699 0.666992 -9 2s-2 4 -2 8v78c0 4 0.666992 6.66699 2 8s3.66602 2 6.99902 2h32c3.33301 0 5.66602 -0.666992 6.99902 -2s2 -4 2 -8v-76z" />
    <glyph glyph-name="multiply" unicode="&#xd7;" horiz-adv-x="517" 
d="M445 205l-16.998 -16.999c-2 -2 -4 -3 -6 -3s-4.33301 1.33301 -7 4l-157 156l-158 -158c-3.33301 -3.33301 -6.33301 -3.66602 -9 -0.999023l-17 17c-2 2 -3 4 -3 6s1.33301 4.33301 4 7l156 156l-158 158c-3.33301 4 -3.33301 7.66699 0 11l17 17
c3.33301 3.33301 6 3.66602 8 0.999023l160 -160l158 159c4 4 7.66699 4 11 0l17 -17c3.33301 -2.66699 3.66602 -5.33398 0.999023 -8.00098l-160 -160l159 -159c3.33301 -3.33301 3.66602 -6.33301 0.999023 -9z" />
    <glyph glyph-name="Oslash" unicode="&#xd8;" horiz-adv-x="708" 
d="M685 716l-85.001 -99c36.667 -63.333 55 -146 55 -248c0 -122 -26.333 -215.667 -79 -281s-126.667 -98 -222 -98c-93.333 0 -165.666 30.333 -216.999 91l-73 -84c-2.66699 -4 -5.66699 -6 -9 -6s-6.66602 1.33301 -9.99902 4l-17 16c-3.33301 3.33301 -5.33301 6 -6 8
s0 4.33301 2 7l84 97c-36.667 62 -55 143.333 -55 244c0 124 26.667 219.167 80 285.5s127.333 99.5 222 99.5c91.333 0 163.333 -31 216 -93l75 87c4.66699 5.33301 9 6.33301 13 3l25 -22c3.33301 -3.33301 3.66602 -7 0.999023 -11zM140.999 161l400 464
c-42 56 -104 84 -186 84c-82.667 0 -145.167 -28.333 -187.5 -85s-63.5 -141.667 -63.5 -255c0 -86.667 12.333 -156 37 -208zM566.999 580l-400 -462.998c42.667 -56 105.667 -84 189 -84c82.667 0 144.667 27.667 186 83s62 139.666 62 252.999
c0 87.333 -12.333 157.666 -37 210.999z" />
    <glyph glyph-name="Ugrave" unicode="&#xd9;" horiz-adv-x="702" 
d="M536.5 49.5c-41 -39.667 -102.833 -59.5 -185.5 -59.5c-84 0 -146.167 20.833 -186.5 62.5s-60.5 105.834 -60.5 192.501v486c0 7.33301 2.66699 11 8 11h28c4 0 6.66699 -0.666992 8 -2s2 -4 2 -8v-506c0 -129.333 67.667 -194 203 -194c68.667 0 120 16.333 154 49
s51 82 51 148v504c0 6 2.66699 9 8 9h24c5.33301 0 8 -3 8 -9v-503c0 -80.667 -20.5 -140.834 -61.5 -180.501zM225.5 963c1.66699 0.666992 3.16602 0.668945 4.49902 0.00195312l229 -94c1.33301 -0.666992 2.33301 -1.83398 3 -3.50098s0.666992 -3.83398 0 -6.50098
l-5 -15c-2 -5.33301 -5.66699 -7 -11 -5l-227 77c-4 1.33301 -6.5 2.83301 -7.5 4.5s-0.833008 4.16699 0.5 7.5l10 32c0.666992 1.33301 1.83398 2.33301 3.50098 3z" />
    <glyph glyph-name="Uacute" unicode="&#xda;" horiz-adv-x="702" 
d="M536.5 49.5c-41 -39.667 -102.833 -59.5 -185.5 -59.5c-84 0 -146.167 20.833 -186.5 62.5s-60.5 105.834 -60.5 192.501v486c0 7.33301 2.66699 11 8 11h28c4 0 6.66699 -0.666992 8 -2s2 -4 2 -8v-506c0 -129.333 67.667 -194 203 -194c68.667 0 120 16.333 154 49
s51 82 51 148v504c0 6 2.66699 9 8 9h24c5.33301 0 8 -3 8 -9v-503c0 -80.667 -20.5 -140.834 -61.5 -180.501zM480 928l0.999023 -4.00195c0 -3.33301 -2.66699 -6 -8 -8l-227 -77c-1.33301 -0.666992 -3 -1 -5 -1c-3.33301 0 -5.33301 2 -6 6l-5 15
c-0.666992 2.66699 -0.666992 4.83398 0 6.50098s1.66699 2.83398 3 3.50098l229 94c1.33301 0.666992 2.83301 0.666992 4.5 0s2.83398 -1.66699 3.50098 -3z" />
    <glyph glyph-name="Ucircumflex" unicode="&#xdb;" horiz-adv-x="702" 
d="M536.5 49.5c-41 -39.667 -102.833 -59.5 -185.5 -59.5c-84 0 -146.167 20.833 -186.5 62.5s-60.5 105.834 -60.5 192.501v486c0 7.33301 2.66699 11 8 11h28c4 0 6.66699 -0.666992 8 -2s2 -4 2 -8v-506c0 -129.333 67.667 -194 203 -194c68.667 0 120 16.333 154 49
s51 82 51 148v504c0 6 2.66699 9 8 9h24c5.33301 0 8 -3 8 -9v-503c0 -80.667 -20.5 -140.834 -61.5 -180.501zM364 910c-4.66699 4 -7.66602 6 -8.99902 6c-2 0 -5.33301 -2 -10 -6l-62 -48c-2.66699 -2 -5.16699 -3.5 -7.5 -4.5s-4.83301 -1.5 -7.5 -1.5h-37
c-3.33301 0 -5.33301 1 -6 3s0.666016 4.33301 3.99902 7l99 79c7.33301 6 14 9 20 9h18c4 0 7.5 -1.16699 10.5 -3.5s4.83301 -3.83301 5.5 -4.5l98 -80c3.33301 -3.33301 5 -5.83301 5 -7.5s-2 -2.5 -6 -2.5h-41c-5.33301 0 -10.333 2 -15 6z" />
    <glyph glyph-name="Udieresis" unicode="&#xdc;" horiz-adv-x="702" 
d="M536.5 49.5c-41 -39.667 -102.833 -59.5 -185.5 -59.5c-84 0 -146.167 20.833 -186.5 62.5s-60.5 105.834 -60.5 192.501v486c0 7.33301 2.66699 11 8 11h28c4 0 6.66699 -0.666992 8 -2s2 -4 2 -8v-506c0 -129.333 67.667 -194 203 -194c68.667 0 120 16.333 154 49
s51 82 51 148v504c0 6 2.66699 9 8 9h24c5.33301 0 8 -3 8 -9v-503c0 -80.667 -20.5 -140.834 -61.5 -180.501zM324 868c0 -4.66699 -0.830078 -7.83301 -2.49707 -9.5s-4.83398 -2.5 -9.50098 -2.5h-27c-4.66699 0 -7.66699 0.666992 -9 2s-2 4 -2 8v78
c0 4 0.666992 6.66699 2 8s3.66602 2 6.99902 2h32c3.33301 0 5.66602 -0.666992 6.99902 -2s2 -4 2 -8v-76zM435.003 868.001c0 -4.66699 -0.830078 -7.83301 -2.49707 -9.5s-4.83398 -2.5 -9.50098 -2.5h-27c-4.66699 0 -7.66699 0.666992 -9 2s-2 4 -2 8v78
c0 4 0.666992 6.66699 2 8s3.66602 2 6.99902 2h32c3.33301 0 5.66602 -0.666992 6.99902 -2s2 -4 2 -8v-76z" />
    <glyph glyph-name="Yacute" unicode="&#xdd;" horiz-adv-x="638" 
d="M589 738.5c1.33301 -2.33301 0.999023 -4.83398 -1.00098 -7.50098l-239 -405c-2 -2.66699 -3.16699 -5.5 -3.5 -8.5s-0.5 -6.83301 -0.5 -11.5v-293c0 -8.66699 -5 -13 -15 -13h-19c-8 0 -12 3.66699 -12 11v284c0 7.33301 -1.66699 14 -5 20l-244 415
c-1.33301 2.66699 -2 4.66699 -2 6c0 4 3.33301 6 10 6h23c4.66699 0 8 -0.666992 10 -2s4 -3.66602 6 -6.99902l210 -357c5.33301 -8 9.66602 -12 12.999 -12c2.66699 0 6.33398 3.33301 11.001 10l209 359c2.66699 4 4.83398 6.5 6.50098 7.5s4.83398 1.5 9.50098 1.5h26
c3.33301 0 5.66602 -1.16699 6.99902 -3.5zM438.999 927.999l0.999023 -4.00195c0 -3.33301 -2.66699 -6 -8 -8l-227 -77c-1.33301 -0.666992 -3 -1 -5 -1c-3.33301 0 -5.33301 2 -6 6l-5 15c-0.666992 2.66699 -0.666992 4.83398 0 6.50098s1.66699 2.83398 3 3.50098
l229 94c1.33301 0.666992 2.83301 0.666992 4.5 0s2.83398 -1.66699 3.50098 -3z" />
    <glyph glyph-name="Thorn" unicode="&#xde;" horiz-adv-x="674" 
d="M541 232c-46.667 -33.333 -109.998 -50.001 -189.998 -50.001h-183c-5.33301 0 -8 -3 -8 -9v-164c0 -6 -2.66699 -9 -8 -9h-30c-5.33301 0 -8 2.66699 -8 8v724c0 4 0.666992 6.66699 2 8s3.66602 2 6.99902 2h28c3.33301 0 5.66602 -0.666992 6.99902 -2s2 -4 2 -8v-148
c0 -3.33301 2 -5 6 -5h179c82 0 146.833 -15.667 194.5 -47s71.5 -78.666 71.5 -141.999c0 -72 -23.333 -124.667 -70 -158zM507.002 504.499c-37.333 23 -91.667 34.5 -163 34.5h-175c-6 0 -9 -2.66699 -9 -8v-299c0 -6.66699 2.33301 -10 7 -10h184
c141.333 0 212 56 212 168c0 53.333 -18.667 91.5 -56 114.5z" />
    <glyph glyph-name="germandbls" unicode="&#xdf;" horiz-adv-x="582" 
d="M426.5 702.5c23.667 -26.333 35.501 -57.499 35.501 -93.499c0 -24.667 -5.16699 -45 -15.5 -61s-21.166 -27.5 -32.499 -34.5s-33 -19.167 -65 -36.5c-34 -18.667 -56.167 -32.5 -66.5 -41.5s-15.5 -21.5 -15.5 -37.5s5.16699 -27.667 15.5 -35s31.5 -16 63.5 -26
c35.333 -11.333 64.5 -22.333 87.5 -33s44.167 -28 63.5 -52s29 -55.333 29 -94c0 -35.333 -8.5 -65.666 -25.5 -90.999s-39.667 -44.5 -68 -57.5s-59.5 -19.5 -93.5 -19.5c-23.333 0 -47.666 2.83301 -72.999 8.5s-46 13.5 -62 23.5
c-2.66699 1.33301 -4.33398 2.66602 -5.00098 3.99902s-0.333984 3.33301 0.999023 6l16 24c2 2.66699 5.33301 2.66699 10 0c17.333 -9.33301 33.833 -16.333 49.5 -21s34.167 -7 55.5 -7c48 0 85.5 11.167 112.5 33.5s40.5 53.5 40.5 93.5c0 28.667 -6.83301 52 -20.5 70
s-30.834 32 -51.501 42s-47 20 -79 30c-25.333 8 -44.5 14.833 -57.5 20.5s-24.667 14.834 -35 27.501s-15.5 30 -15.5 52c0 24 7.66699 44.167 23 60.5s41.666 33.833 78.999 52.5l34.5 17c19 9.33301 33.5 21.166 43.5 35.499s15 30.833 15 49.5
c0 28.667 -10.5 51.167 -31.5 67.5s-49.833 24.5 -86.5 24.5c-47.333 0 -85.166 -14.333 -113.499 -43s-42.5 -70.667 -42.5 -126v-525v-3c0 -4.66699 -2.66699 -7 -8 -7h-24c-5.33301 0 -8 2.66699 -8 8v477c0 6.66699 -2.66699 10 -8 10h-62c-4 0 -6 2 -6 6v23
c0 4 2 6 6 6h63c4 0 6 2.66699 6 8c0 63.333 18.833 113.166 56.5 149.499s87.167 54.5 148.5 54.5c54 0 92.833 -13.167 116.5 -39.5z" />
    <glyph glyph-name="agrave" unicode="&#xe0;" horiz-adv-x="538" 
d="M218 -10c-52.667 0 -94.165 13.002 -124.498 39.002s-45.5 61.333 -45.5 106c0 101.333 82.333 159 247 173l105 9c11.333 1.33301 17 6.33301 17 15v31c0 42.667 -13.5 76.5 -40.5 101.5s-63.167 37.5 -108.5 37.5c-66 0 -122 -30.667 -168 -92
c-1.33301 -2 -2.83301 -3.5 -4.5 -4.5s-3.5 -0.833008 -5.5 0.5l-24 15c-3.33301 2 -3.33301 5.33301 0 10c22.667 33.333 51 59.833 85 79.5s73.667 29.5 119 29.5c56.667 0 102 -15.5 136 -46.5s51 -73.167 51 -126.5v-357c0 -6.66699 -3.33301 -10 -10 -10h-18
c-6 0 -9 3 -9 9l-2 61c-0.666992 3.33301 -1.83398 5.16602 -3.50098 5.49902s-3.83398 -0.833984 -6.50098 -3.50098c-54.667 -54.667 -118 -82 -190 -82zM403.002 280.002l-89.001 -7.00098c-77.333 -6 -134 -20.167 -170 -42.5s-54 -53.166 -54 -92.499
c0 -34 12.167 -60.833 36.5 -80.5s56.833 -29.5 97.5 -29.5c24 0 47.833 4.33301 71.5 13s45.167 20.667 64.5 36c18.667 14.667 32.834 30.167 42.501 46.5s14.5 32.166 14.5 47.499v95c0 10.667 -4.66699 15.334 -14 14.001zM136.501 751.001
c1.66699 0.666992 3.16602 0.668945 4.49902 0.00195312l229 -94c1.33301 -0.666992 2.33301 -1.83398 3 -3.50098s0.666992 -3.83398 0 -6.50098l-5 -15c-2 -5.33301 -5.66699 -7 -11 -5l-227 77c-4 1.33301 -6.5 2.83301 -7.5 4.5s-0.833008 4.16699 0.5 7.5l10 32
c0.666992 1.33301 1.83398 2.33301 3.50098 3z" />
    <glyph glyph-name="aacute" unicode="&#xe1;" horiz-adv-x="538" 
d="M218 -10c-52.667 0 -94.165 13.002 -124.498 39.002s-45.5 61.333 -45.5 106c0 101.333 82.333 159 247 173l105 9c11.333 1.33301 17 6.33301 17 15v31c0 42.667 -13.5 76.5 -40.5 101.5s-63.167 37.5 -108.5 37.5c-66 0 -122 -30.667 -168 -92
c-1.33301 -2 -2.83301 -3.5 -4.5 -4.5s-3.5 -0.833008 -5.5 0.5l-24 15c-3.33301 2 -3.33301 5.33301 0 10c22.667 33.333 51 59.833 85 79.5s73.667 29.5 119 29.5c56.667 0 102 -15.5 136 -46.5s51 -73.167 51 -126.5v-357c0 -6.66699 -3.33301 -10 -10 -10h-18
c-6 0 -9 3 -9 9l-2 61c-0.666992 3.33301 -1.83398 5.16602 -3.50098 5.49902s-3.83398 -0.833984 -6.50098 -3.50098c-54.667 -54.667 -118 -82 -190 -82zM403.002 280.002l-89.001 -7.00098c-77.333 -6 -134 -20.167 -170 -42.5s-54 -53.166 -54 -92.499
c0 -34 12.167 -60.833 36.5 -80.5s56.833 -29.5 97.5 -29.5c24 0 47.833 4.33301 71.5 13s45.167 20.667 64.5 36c18.667 14.667 32.834 30.167 42.501 46.5s14.5 32.166 14.5 47.499v95c0 10.667 -4.66699 15.334 -14 14.001zM391.001 716.001l0.999023 -4.00195
c0 -3.33301 -2.66699 -6 -8 -8l-227 -77c-1.33301 -0.666992 -3 -1 -5 -1c-3.33301 0 -5.33301 2 -6 6l-5 15c-0.666992 2.66699 -0.666992 4.83398 0 6.50098s1.66699 2.83398 3 3.50098l229 94c1.33301 0.666992 2.83301 0.666992 4.5 0s2.83398 -1.66699 3.50098 -3z" />
    <glyph glyph-name="acircumflex" unicode="&#xe2;" horiz-adv-x="538" 
d="M218 -10c-52.667 0 -94.165 13.002 -124.498 39.002s-45.5 61.333 -45.5 106c0 101.333 82.333 159 247 173l105 9c11.333 1.33301 17 6.33301 17 15v31c0 42.667 -13.5 76.5 -40.5 101.5s-63.167 37.5 -108.5 37.5c-66 0 -122 -30.667 -168 -92
c-1.33301 -2 -2.83301 -3.5 -4.5 -4.5s-3.5 -0.833008 -5.5 0.5l-24 15c-3.33301 2 -3.33301 5.33301 0 10c22.667 33.333 51 59.833 85 79.5s73.667 29.5 119 29.5c56.667 0 102 -15.5 136 -46.5s51 -73.167 51 -126.5v-357c0 -6.66699 -3.33301 -10 -10 -10h-18
c-6 0 -9 3 -9 9l-2 61c-0.666992 3.33301 -1.83398 5.16602 -3.50098 5.49902s-3.83398 -0.833984 -6.50098 -3.50098c-54.667 -54.667 -118 -82 -190 -82zM403.002 280.002l-89.001 -7.00098c-77.333 -6 -134 -20.167 -170 -42.5s-54 -53.166 -54 -92.499
c0 -34 12.167 -60.833 36.5 -80.5s56.833 -29.5 97.5 -29.5c24 0 47.833 4.33301 71.5 13s45.167 20.667 64.5 36c18.667 14.667 32.834 30.167 42.501 46.5s14.5 32.166 14.5 47.499v95c0 10.667 -4.66699 15.334 -14 14.001zM275.001 698.001
c-4.66699 4 -7.66602 6 -8.99902 6c-2 0 -5.33301 -2 -10 -6l-62 -48c-2.66699 -2 -5.16699 -3.5 -7.5 -4.5s-4.83301 -1.5 -7.5 -1.5h-37c-3.33301 0 -5.33301 1 -6 3s0.666016 4.33301 3.99902 7l99 79c7.33301 6 14 9 20 9h18c4 0 7.5 -1.16699 10.5 -3.5
s4.83301 -3.83301 5.5 -4.5l98 -80c3.33301 -3.33301 5 -5.83301 5 -7.5s-2 -2.5 -6 -2.5h-41c-5.33301 0 -10.333 2 -15 6z" />
    <glyph glyph-name="atilde" unicode="&#xe3;" horiz-adv-x="538" 
d="M218 -10c-52.667 0 -94.165 13.002 -124.498 39.002s-45.5 61.333 -45.5 106c0 101.333 82.333 159 247 173l105 9c11.333 1.33301 17 6.33301 17 15v31c0 42.667 -13.5 76.5 -40.5 101.5s-63.167 37.5 -108.5 37.5c-66 0 -122 -30.667 -168 -92
c-1.33301 -2 -2.83301 -3.5 -4.5 -4.5s-3.5 -0.833008 -5.5 0.5l-24 15c-3.33301 2 -3.33301 5.33301 0 10c22.667 33.333 51 59.833 85 79.5s73.667 29.5 119 29.5c56.667 0 102 -15.5 136 -46.5s51 -73.167 51 -126.5v-357c0 -6.66699 -3.33301 -10 -10 -10h-18
c-6 0 -9 3 -9 9l-2 61c-0.666992 3.33301 -1.83398 5.16602 -3.50098 5.49902s-3.83398 -0.833984 -6.50098 -3.50098c-54.667 -54.667 -118 -82 -190 -82zM403.002 280.002l-89.001 -7.00098c-77.333 -6 -134 -20.167 -170 -42.5s-54 -53.166 -54 -92.499
c0 -34 12.167 -60.833 36.5 -80.5s56.833 -29.5 97.5 -29.5c24 0 47.833 4.33301 71.5 13s45.167 20.667 64.5 36c18.667 14.667 32.834 30.167 42.501 46.5s14.5 32.166 14.5 47.499v95c0 10.667 -4.66699 15.334 -14 14.001zM362.501 678.001
c-9.66699 -3.33301 -22.499 -5.00098 -38.499 -5.00098c-12 0 -22.167 1 -30.5 3s-19.5 5.33301 -33.5 10c-19.333 7.33301 -36 11 -50 11c-10.667 0 -19.5 -1.33301 -26.5 -4s-13 -5.66699 -18 -9s-8.83301 -5.66602 -11.5 -6.99902s-4.66699 -2 -6 -2s-3 2 -5 6l-7 16
c-0.666992 2 -0.833984 3.66699 -0.500977 5s1.16602 2.33301 2.49902 3c12.667 8.66699 23.834 15.167 33.501 19.5s21.167 6.5 34.5 6.5c15.333 0 35 -4 59 -12c23.333 -8.66699 43.333 -13 60 -13c10 0 18.333 1.16699 25 3.5s15 6.5 25 12.5c2 1.33301 4.33301 2 7 2
c2 0 4 -1.66699 6 -5l8 -18c0.666992 -0.666992 1 -1.66699 1 -3c0 -2 -2 -4 -6 -6c-9.33301 -6 -18.833 -10.667 -28.5 -14z" />
    <glyph glyph-name="adieresis" unicode="&#xe4;" horiz-adv-x="538" 
d="M218 -10c-52.667 0 -94.165 13.002 -124.498 39.002s-45.5 61.333 -45.5 106c0 101.333 82.333 159 247 173l105 9c11.333 1.33301 17 6.33301 17 15v31c0 42.667 -13.5 76.5 -40.5 101.5s-63.167 37.5 -108.5 37.5c-66 0 -122 -30.667 -168 -92
c-1.33301 -2 -2.83301 -3.5 -4.5 -4.5s-3.5 -0.833008 -5.5 0.5l-24 15c-3.33301 2 -3.33301 5.33301 0 10c22.667 33.333 51 59.833 85 79.5s73.667 29.5 119 29.5c56.667 0 102 -15.5 136 -46.5s51 -73.167 51 -126.5v-357c0 -6.66699 -3.33301 -10 -10 -10h-18
c-6 0 -9 3 -9 9l-2 61c-0.666992 3.33301 -1.83398 5.16602 -3.50098 5.49902s-3.83398 -0.833984 -6.50098 -3.50098c-54.667 -54.667 -118 -82 -190 -82zM403.002 280.002l-89.001 -7.00098c-77.333 -6 -134 -20.167 -170 -42.5s-54 -53.166 -54 -92.499
c0 -34 12.167 -60.833 36.5 -80.5s56.833 -29.5 97.5 -29.5c24 0 47.833 4.33301 71.5 13s45.167 20.667 64.5 36c18.667 14.667 32.834 30.167 42.501 46.5s14.5 32.166 14.5 47.499v95c0 10.667 -4.66699 15.334 -14 14.001zM235.001 656.001
c0 -4.66699 -0.830078 -7.83301 -2.49707 -9.5s-4.83398 -2.5 -9.50098 -2.5h-27c-4.66699 0 -7.66699 0.666992 -9 2s-2 4 -2 8v78c0 4 0.666992 6.66699 2 8s3.66602 2 6.99902 2h32c3.33301 0 5.66602 -0.666992 6.99902 -2s2 -4 2 -8v-76zM346.004 656.002
c0 -4.66699 -0.830078 -7.83301 -2.49707 -9.5s-4.83398 -2.5 -9.50098 -2.5h-27c-4.66699 0 -7.66699 0.666992 -9 2s-2 4 -2 8v78c0 4 0.666992 6.66699 2 8s3.66602 2 6.99902 2h32c3.33301 0 5.66602 -0.666992 6.99902 -2s2 -4 2 -8v-76z" />
    <glyph glyph-name="aring" unicode="&#xe5;" horiz-adv-x="538" 
d="M218 -10c-52.667 0 -94.165 13.002 -124.498 39.002s-45.5 61.333 -45.5 106c0 101.333 82.333 159 247 173l105 9c11.333 1.33301 17 6.33301 17 15v31c0 42.667 -13.5 76.5 -40.5 101.5s-63.167 37.5 -108.5 37.5c-66 0 -122 -30.667 -168 -92
c-1.33301 -2 -2.83301 -3.5 -4.5 -4.5s-3.5 -0.833008 -5.5 0.5l-24 15c-3.33301 2 -3.33301 5.33301 0 10c22.667 33.333 51 59.833 85 79.5s73.667 29.5 119 29.5c56.667 0 102 -15.5 136 -46.5s51 -73.167 51 -126.5v-357c0 -6.66699 -3.33301 -10 -10 -10h-18
c-6 0 -9 3 -9 9l-2 61c-0.666992 3.33301 -1.83398 5.16602 -3.50098 5.49902s-3.83398 -0.833984 -6.50098 -3.50098c-54.667 -54.667 -118 -82 -190 -82zM403.002 280.002l-89.001 -7.00098c-77.333 -6 -134 -20.167 -170 -42.5s-54 -53.166 -54 -92.499
c0 -34 12.167 -60.833 36.5 -80.5s56.833 -29.5 97.5 -29.5c24 0 47.833 4.33301 71.5 13s45.167 20.667 64.5 36c18.667 14.667 32.834 30.167 42.501 46.5s14.5 32.166 14.5 47.499v95c0 10.667 -4.66699 15.334 -14 14.001zM337.001 629.501
c-19.333 -19 -43 -28.502 -71 -28.502s-51.667 9.83301 -71 29.5s-29 43.834 -29 72.501c0 26.667 9.83301 49.334 29.5 68.001s43.167 28 70.5 28c28 0 51.667 -9.5 71 -28.5s29 -42.167 29 -69.5c0 -28.667 -9.66699 -52.5 -29 -71.5zM306.501 742.499
c-11 11 -24.833 16.5 -41.5 16.5c-16 0 -29.833 -5.5 -41.5 -16.5s-17.5 -25.167 -17.5 -42.5c0 -15.333 6 -29 18 -41s25.667 -18 41 -18c16 0 29.667 5.83301 41 17.5s17 25.5 17 41.5c0 17.333 -5.5 31.5 -16.5 42.5z" />
    <glyph glyph-name="ae" unicode="&#xe6;" horiz-adv-x="930" 
d="M454.5 248.5c-2.33301 -3 -3.50195 -9.83301 -3.50195 -20.5c0 -31.333 9 -62.5 27 -93.5s42.333 -56.5 73 -76.5s64 -30 100 -30c46 0 81.833 8.5 107.5 25.5s48.5 39.5 68.5 67.5c2.66699 3.33301 4.5 5.16602 5.5 5.49902s2.83301 -0.166992 5.5 -1.5l22 -15
c2.66699 -2 3 -5.33301 1 -10c-17.333 -32.667 -45.166 -59.167 -83.499 -79.5s-81.166 -30.5 -128.499 -30.5c-53.333 0 -95.166 11.333 -125.499 34s-56.833 50.667 -79.5 84c-1.33301 2.66699 -3 2.66699 -5 0c-17.333 -22 -34.666 -41 -51.999 -57
s-40.5 -30.167 -69.5 -42.5s-63.5 -18.5 -103.5 -18.5c-52 0 -92.667 13 -122 39s-44 61.667 -44 107c0 100.667 79.667 158 239 172l112 9c12 1.33301 18 6.33301 18 15v31c0 43.333 -13.333 77.333 -40 102s-64.667 37 -114 37c-62 0 -116.667 -30.667 -164 -92
c-2.66699 -3.33301 -4.66699 -5.16602 -6 -5.49902s-3 0.166992 -5 1.5l-22 15c-2.66699 2 -2.66699 5.33301 0 10c21.333 34 50.166 60.667 86.499 80s75.833 29 118.5 29c49.333 0 88.333 -9.83301 117 -29.5s48 -49.5 58 -89.5c20 39.333 47.5 69 82.5 89
s76.167 30 123.5 30c46 0 86.167 -10.5 120.5 -31.5s61 -51.333 80 -91s28.5 -87.5 28.5 -143.5c0 -6.66699 -1.33301 -11.667 -4 -15s-7.33398 -5 -14.001 -5l-392 -1c-8.66699 0 -14.167 -1.5 -16.5 -4.5zM549.498 475.5c-29.667 -17.667 -53.166 -42.501 -70.499 -74.501
s-26 -68.667 -26 -110l368 -1c7.33301 0 12 1 14 3s3 6.33301 3 13c0 36 -8.16699 68.833 -24.5 98.5s-38.833 53.334 -67.5 71.001s-61 26.5 -97 26.5c-36.667 0 -69.834 -8.83301 -99.501 -26.5zM413.999 276.499c-2 2.33301 -6 3.16699 -12 2.5l-95 -7
c-74 -6 -128.5 -20 -163.5 -42s-52.5 -52.667 -52.5 -92c0 -32.667 11 -59 33 -79s52 -30 90 -30c36.667 0 70.5 6.66699 101.5 20s55.667 31.333 74 54s27.5 47.334 27.5 74.001v88c0 5.33301 -1 9.16602 -3 11.499z" />
    <glyph glyph-name="ccedilla" unicode="&#xe7;" horiz-adv-x="537" 
d="M501 107c-22.667 -36.667 -50.3271 -64.832 -82.9941 -84.499s-69 -30.5 -109 -32.5l-18 -45c-0.666992 -2 0.333008 -3 3 -3c27.333 -2.66699 46.833 -10.667 58.5 -24s17.5 -29 17.5 -47c0 -24 -9.5 -42.5 -28.5 -55.5s-42.833 -19.5 -71.5 -19.5
c-28 0 -52.333 7 -73 21c-2.66699 1.33301 -3.66699 3.33301 -3 6l9 20c1.33301 2.66699 3.66602 3 6.99902 1c7.33301 -6 15.166 -10.5 23.499 -13.5s19.166 -4.5 32.499 -4.5c40 0 60 14.333 60 43c0 16 -6.16699 27.667 -18.5 35s-31.833 11.666 -58.5 12.999
c-4 0 -5.33301 1.33301 -4 4l30 70c-43.333 3.33301 -81.5 16.833 -114.5 40.5s-58.667 55.334 -77 95.001s-27.5 85.167 -27.5 136.5c0 53.333 10.167 101 30.5 143s48.666 74.833 84.999 98.5s77.833 35.5 124.5 35.5c42.667 0 80 -9.16699 112 -27.5s60 -44.833 84 -79.5
c3.33301 -4.66699 3.33301 -8 0 -10l-24 -16c-0.666992 -0.666992 -1.66699 -1 -3 -1c-2 0 -4.66699 1.66699 -8 5c-27.333 32.667 -53 56 -77 70s-50.333 21 -79 21c-40.667 0 -76.334 -9.83301 -107.001 -29.5s-54.334 -47.5 -71.001 -83.5s-25 -77.333 -25 -124
s8.33301 -88 25 -124s40.334 -63.833 71.001 -83.5s66 -29.5 106 -29.5c67.333 0 122.666 33.333 165.999 100c2 3.33301 3.66699 5.16602 5 5.49902s3 -0.166992 5 -1.5l23 -15c3.33301 -2.66699 4 -6 2 -10z" />
    <glyph glyph-name="egrave" unicode="&#xe8;" horiz-adv-x="577" 
d="M125 135c18 -32.667 42.332 -58.665 72.999 -77.998s64.334 -29 101.001 -29c79.333 0 137.666 31 174.999 93c3.33301 5.33301 7 6.66602 11 3.99902l23 -15c4 -2.66699 4.33301 -6 1 -10c-46 -73.333 -116 -110 -210 -110c-47.333 0 -89.5 11.333 -126.5 34
s-65.667 54.5 -86 95.5s-30.5 88.167 -30.5 141.5c0 57.333 10.333 107 31 149s49.334 74.167 86.001 96.5s78.667 33.5 126 33.5c70.667 0 126.5 -23.5 167.5 -70.5s61.5 -112.167 61.5 -195.5v-5c0 -4.66699 -0.833008 -8.33398 -2.5 -11.001s-5.16699 -4 -10.5 -4h-411
c-4 0 -6 -4.66699 -6 -14c0 -37.333 9 -72.333 27 -105zM468.999 290.002c6.66699 0 11.166 1.00293 13.499 3.00293s3.5 5.66699 3.5 11c0 36.667 -7.66699 70.167 -23 100.5s-37.166 54.166 -65.499 71.499s-61.5 26 -99.5 26c-42 0 -78 -10.333 -108 -31
s-52.833 -47.334 -68.5 -80.001s-23.167 -66.334 -22.5 -101.001h370zM167.498 751.005c1.66699 0.666992 3.16602 0.668945 4.49902 0.00195312l229 -94c1.33301 -0.666992 2.33301 -1.83398 3 -3.50098s0.666992 -3.83398 0 -6.50098l-5 -15
c-2 -5.33301 -5.66699 -7 -11 -5l-227 77c-4 1.33301 -6.5 2.83301 -7.5 4.5s-0.833008 4.16699 0.5 7.5l10 32c0.666992 1.33301 1.83398 2.33301 3.50098 3z" />
    <glyph glyph-name="eacute" unicode="&#xe9;" horiz-adv-x="577" 
d="M125 135c18 -32.667 42.332 -58.665 72.999 -77.998s64.334 -29 101.001 -29c79.333 0 137.666 31 174.999 93c3.33301 5.33301 7 6.66602 11 3.99902l23 -15c4 -2.66699 4.33301 -6 1 -10c-46 -73.333 -116 -110 -210 -110c-47.333 0 -89.5 11.333 -126.5 34
s-65.667 54.5 -86 95.5s-30.5 88.167 -30.5 141.5c0 57.333 10.333 107 31 149s49.334 74.167 86.001 96.5s78.667 33.5 126 33.5c70.667 0 126.5 -23.5 167.5 -70.5s61.5 -112.167 61.5 -195.5v-5c0 -4.66699 -0.833008 -8.33398 -2.5 -11.001s-5.16699 -4 -10.5 -4h-411
c-4 0 -6 -4.66699 -6 -14c0 -37.333 9 -72.333 27 -105zM468.999 290.002c6.66699 0 11.166 1.00293 13.499 3.00293s3.5 5.66699 3.5 11c0 36.667 -7.66699 70.167 -23 100.5s-37.166 54.166 -65.499 71.499s-61.5 26 -99.5 26c-42 0 -78 -10.333 -108 -31
s-52.833 -47.334 -68.5 -80.001s-23.167 -66.334 -22.5 -101.001h370zM421.998 716.005l0.999023 -4.00195c0 -3.33301 -2.66699 -6 -8 -8l-227 -77c-1.33301 -0.666992 -3 -1 -5 -1c-3.33301 0 -5.33301 2 -6 6l-5 15c-0.666992 2.66699 -0.666992 4.83398 0 6.50098
s1.66699 2.83398 3 3.50098l229 94c1.33301 0.666992 2.83301 0.666992 4.5 0s2.83398 -1.66699 3.50098 -3z" />
    <glyph glyph-name="ecircumflex" unicode="&#xea;" horiz-adv-x="577" 
d="M125 135c18 -32.667 42.332 -58.665 72.999 -77.998s64.334 -29 101.001 -29c79.333 0 137.666 31 174.999 93c3.33301 5.33301 7 6.66602 11 3.99902l23 -15c4 -2.66699 4.33301 -6 1 -10c-46 -73.333 -116 -110 -210 -110c-47.333 0 -89.5 11.333 -126.5 34
s-65.667 54.5 -86 95.5s-30.5 88.167 -30.5 141.5c0 57.333 10.333 107 31 149s49.334 74.167 86.001 96.5s78.667 33.5 126 33.5c70.667 0 126.5 -23.5 167.5 -70.5s61.5 -112.167 61.5 -195.5v-5c0 -4.66699 -0.833008 -8.33398 -2.5 -11.001s-5.16699 -4 -10.5 -4h-411
c-4 0 -6 -4.66699 -6 -14c0 -37.333 9 -72.333 27 -105zM468.999 290.002c6.66699 0 11.166 1.00293 13.499 3.00293s3.5 5.66699 3.5 11c0 36.667 -7.66699 70.167 -23 100.5s-37.166 54.166 -65.499 71.499s-61.5 26 -99.5 26c-42 0 -78 -10.333 -108 -31
s-52.833 -47.334 -68.5 -80.001s-23.167 -66.334 -22.5 -101.001h370zM305.998 698.005c-4.66699 4 -7.66602 6 -8.99902 6c-2 0 -5.33301 -2 -10 -6l-62 -48c-2.66699 -2 -5.16699 -3.5 -7.5 -4.5s-4.83301 -1.5 -7.5 -1.5h-37c-3.33301 0 -5.33301 1 -6 3
s0.666016 4.33301 3.99902 7l99 79c7.33301 6 14 9 20 9h18c4 0 7.5 -1.16699 10.5 -3.5s4.83301 -3.83301 5.5 -4.5l98 -80c3.33301 -3.33301 5 -5.83301 5 -7.5s-2 -2.5 -6 -2.5h-41c-5.33301 0 -10.333 2 -15 6z" />
    <glyph glyph-name="edieresis" unicode="&#xeb;" horiz-adv-x="577" 
d="M125 135c18 -32.667 42.332 -58.665 72.999 -77.998s64.334 -29 101.001 -29c79.333 0 137.666 31 174.999 93c3.33301 5.33301 7 6.66602 11 3.99902l23 -15c4 -2.66699 4.33301 -6 1 -10c-46 -73.333 -116 -110 -210 -110c-47.333 0 -89.5 11.333 -126.5 34
s-65.667 54.5 -86 95.5s-30.5 88.167 -30.5 141.5c0 57.333 10.333 107 31 149s49.334 74.167 86.001 96.5s78.667 33.5 126 33.5c70.667 0 126.5 -23.5 167.5 -70.5s61.5 -112.167 61.5 -195.5v-5c0 -4.66699 -0.833008 -8.33398 -2.5 -11.001s-5.16699 -4 -10.5 -4h-411
c-4 0 -6 -4.66699 -6 -14c0 -37.333 9 -72.333 27 -105zM468.999 290.002c6.66699 0 11.166 1.00293 13.499 3.00293s3.5 5.66699 3.5 11c0 36.667 -7.66699 70.167 -23 100.5s-37.166 54.166 -65.499 71.499s-61.5 26 -99.5 26c-42 0 -78 -10.333 -108 -31
s-52.833 -47.334 -68.5 -80.001s-23.167 -66.334 -22.5 -101.001h370zM265.998 656.005c0 -4.66699 -0.830078 -7.83301 -2.49707 -9.5s-4.83398 -2.5 -9.50098 -2.5h-27c-4.66699 0 -7.66699 0.666992 -9 2s-2 4 -2 8v78c0 4 0.666992 6.66699 2 8s3.66602 2 6.99902 2h32
c3.33301 0 5.66602 -0.666992 6.99902 -2s2 -4 2 -8v-76zM377.001 656.006c0 -4.66699 -0.830078 -7.83301 -2.49707 -9.5s-4.83398 -2.5 -9.50098 -2.5h-27c-4.66699 0 -7.66699 0.666992 -9 2s-2 4 -2 8v78c0 4 0.666992 6.66699 2 8s3.66602 2 6.99902 2h32
c3.33301 0 5.66602 -0.666992 6.99902 -2s2 -4 2 -8v-76z" />
    <glyph glyph-name="igrave" unicode="&#xec;" 
d="M131 12c0 -4.66699 -0.666016 -7.83301 -1.99902 -9.5s-4.66602 -2.5 -9.99902 -2.5h-17c-4.66699 0 -7.66699 0.666992 -9 2s-2 4 -2 8v510c0 4 0.666992 6.66699 2 8s3.66602 2 6.99902 2h22c3.33301 0 5.66602 -0.666992 6.99902 -2s2 -4 2 -8v-508zM-18.499 751.001
c1.66699 0.666992 3.16602 0.668945 4.49902 0.00195312l229 -94c1.33301 -0.666992 2.33301 -1.83398 3 -3.50098s0.666992 -3.83398 0 -6.50098l-5 -15c-2 -5.33301 -5.66699 -7 -11 -5l-227 77c-4 1.33301 -6.5 2.83301 -7.5 4.5s-0.833008 4.16699 0.5 7.5l10 32
c0.666992 1.33301 1.83398 2.33301 3.50098 3z" />
    <glyph glyph-name="iacute" unicode="&#xed;" 
d="M131 12c0 -4.66699 -0.666016 -7.83301 -1.99902 -9.5s-4.66602 -2.5 -9.99902 -2.5h-17c-4.66699 0 -7.66699 0.666992 -9 2s-2 4 -2 8v510c0 4 0.666992 6.66699 2 8s3.66602 2 6.99902 2h22c3.33301 0 5.66602 -0.666992 6.99902 -2s2 -4 2 -8v-508zM236.001 716.001
l0.999023 -4.00195c0 -3.33301 -2.66699 -6 -8 -8l-227 -77c-1.33301 -0.666992 -3 -1 -5 -1c-3.33301 0 -5.33301 2 -6 6l-5 15c-0.666992 2.66699 -0.666992 4.83398 0 6.50098s1.66699 2.83398 3 3.50098l229 94c1.33301 0.666992 2.83301 0.666992 4.5 0
s2.83398 -1.66699 3.50098 -3z" />
    <glyph glyph-name="icircumflex" unicode="&#xee;" 
d="M131 12c0 -4.66699 -0.666016 -7.83301 -1.99902 -9.5s-4.66602 -2.5 -9.99902 -2.5h-17c-4.66699 0 -7.66699 0.666992 -9 2s-2 4 -2 8v510c0 4 0.666992 6.66699 2 8s3.66602 2 6.99902 2h22c3.33301 0 5.66602 -0.666992 6.99902 -2s2 -4 2 -8v-508zM120.001 698.001
c-4.66699 4 -7.66602 6 -8.99902 6c-2 0 -5.33301 -2 -10 -6l-62 -48c-2.66699 -2 -5.16699 -3.5 -7.5 -4.5s-4.83301 -1.5 -7.5 -1.5h-37c-3.33301 0 -5.33301 1 -6 3s0.666016 4.33301 3.99902 7l99 79c7.33301 6 14 9 20 9h18c4 0 7.5 -1.16699 10.5 -3.5
s4.83301 -3.83301 5.5 -4.5l98 -80c3.33301 -3.33301 5 -5.83301 5 -7.5s-2 -2.5 -6 -2.5h-41c-5.33301 0 -10.333 2 -15 6z" />
    <glyph glyph-name="idieresis" unicode="&#xef;" 
d="M131 12c0 -4.66699 -0.666016 -7.83301 -1.99902 -9.5s-4.66602 -2.5 -9.99902 -2.5h-17c-4.66699 0 -7.66699 0.666992 -9 2s-2 4 -2 8v510c0 4 0.666992 6.66699 2 8s3.66602 2 6.99902 2h22c3.33301 0 5.66602 -0.666992 6.99902 -2s2 -4 2 -8v-508zM80.001 656.001
c0 -4.66699 -0.830078 -7.83301 -2.49707 -9.5s-4.83398 -2.5 -9.50098 -2.5h-27c-4.66699 0 -7.66699 0.666992 -9 2s-2 4 -2 8v78c0 4 0.666992 6.66699 2 8s3.66602 2 6.99902 2h32c3.33301 0 5.66602 -0.666992 6.99902 -2s2 -4 2 -8v-76zM191.004 656.002
c0 -4.66699 -0.830078 -7.83301 -2.49707 -9.5s-4.83398 -2.5 -9.50098 -2.5h-27c-4.66699 0 -7.66699 0.666992 -9 2s-2 4 -2 8v78c0 4 0.666992 6.66699 2 8s3.66602 2 6.99902 2h32c3.33301 0 5.66602 -0.666992 6.99902 -2s2 -4 2 -8v-76z" />
    <glyph glyph-name="eth" unicode="&#xf0;" horiz-adv-x="598" 
d="M512.5 118c-19.667 -40 -48.001 -71.334 -85.001 -94.001s-80.5 -34 -130.5 -34c-47.333 0 -89.333 11.167 -126 33.5s-65 53.333 -85 93s-30 84.834 -30 135.501c0 51.333 10 97.333 30 138s47.833 72.5 83.5 95.5s75.834 34.5 120.501 34.5c34.667 0 66.667 -6 96 -18
s55 -29 77 -51c-33.333 77.333 -90 143 -170 197l-168 -95c-1.33301 -0.666992 -3 -1 -5 -1c-2.66699 0 -5.33398 2 -8.00098 6l-9 14c-3.33301 4.66699 -3 8.33398 1 11.001l155 87c-36 20 -73.667 38 -113 54c-2.66699 1.33301 -4.16699 3 -4.5 5s0.833984 4 3.50098 6
l18 12c1.33301 0.666992 2.83301 1.5 4.5 2.5s3.5 1.5 5.5 1.5c3.33301 0 6 -0.666992 8 -2c44 -18 82.667 -37 116 -57l104 58c1.33301 0.666992 3 1 5 1s3.33301 -0.666992 4 -2l12 -22c2 -3.33301 1.66699 -6 -1 -8l-90 -50
c74.667 -50.667 128.5 -110.334 161.5 -179.001s49.5 -147 49.5 -235c0 -51.333 -9.83301 -97 -29.5 -137zM402.499 57.999c30.333 20 54.168 47.167 71.501 81.5s26 72.5 26 114.5s-8.66699 80.333 -26 115s-41.333 62.167 -72 82.5s-64.667 30.5 -102 30.5
s-71.5 -10.167 -102.5 -30.5s-55.333 -48 -73 -83s-26.5 -73.167 -26.5 -114.5s8.83301 -79.333 26.5 -114s42 -62 73 -82s65.5 -30 103.5 -30c37.333 0 71.166 10 101.499 30z" />
    <glyph glyph-name="ntilde" unicode="&#xf1;" horiz-adv-x="576" 
d="M91 9v512.001c0 6 2.66699 9 8 9h21c5.33301 0 8 -2.66699 8 -8v-62c0 -3.33301 0.666992 -5.33301 2 -6s3.33301 0.333008 6 3c43.333 30.667 78 52.167 104 64.5s56 18.5 90 18.5c52 0 92 -13.333 120 -40s42 -62.334 42 -107.001v-383c0 -6.66699 -3 -10 -9 -10h-22
c-6 0 -9 3 -9 9v368c0 83.333 -41 125 -123 125c-33.333 0 -63.5 -6.83301 -90.5 -20.5s-62.833 -37.5 -107.5 -71.5v-401c0 -6 -3 -9 -9 -9h-22c-6 0 -9 3 -9 9zM399.5 678.001c-9.66699 -3.33301 -22.499 -5.00098 -38.499 -5.00098c-12 0 -22.167 1 -30.5 3
s-19.5 5.33301 -33.5 10c-19.333 7.33301 -36 11 -50 11c-10.667 0 -19.5 -1.33301 -26.5 -4s-13 -5.66699 -18 -9s-8.83301 -5.66602 -11.5 -6.99902s-4.66699 -2 -6 -2s-3 2 -5 6l-7 16c-0.666992 2 -0.833984 3.66699 -0.500977 5s1.16602 2.33301 2.49902 3
c12.667 8.66699 23.834 15.167 33.501 19.5s21.167 6.5 34.5 6.5c15.333 0 35 -4 59 -12c23.333 -8.66699 43.333 -13 60 -13c10 0 18.333 1.16699 25 3.5s15 6.5 25 12.5c2 1.33301 4.33301 2 7 2c2 0 4 -1.66699 6 -5l8 -18c0.666992 -0.666992 1 -1.66699 1 -3
c0 -2 -2 -4 -6 -6c-9.33301 -6 -18.833 -10.667 -28.5 -14z" />
    <glyph glyph-name="ograve" unicode="&#xf2;" horiz-adv-x="598" 
d="M171 24.5c-36.667 23 -64.999 55 -84.999 96s-30 88.167 -30 141.5c0 54 10.167 102 30.5 144s49 74.833 86 98.5s79.5 35.5 127.5 35.5c47.333 0 89.333 -11.667 126 -35s65.167 -56 85.5 -98s30.5 -89.667 30.5 -143s-10.167 -100.833 -30.5 -142.5
s-48.833 -74 -85.5 -97s-79 -34.5 -127 -34.5c-48.667 0 -91.334 11.5 -128.001 34.5zM446.501 92.5c35.667 43 53.4971 100.169 53.4971 171.502c0 47.333 -8.16699 88.833 -24.5 124.5s-39.666 63.5 -69.999 83.5s-65.5 30 -105.5 30c-40.667 0 -76.167 -10 -106.5 -30
s-53.833 -48 -70.5 -84s-25 -77.333 -25 -124s8.33301 -87.834 25 -123.501s40.334 -63.334 71.001 -83.001s66.334 -29.5 107.001 -29.5c61.333 0 109.833 21.5 145.5 64.5zM171.498 751.002c1.66699 0.666992 3.16602 0.668945 4.49902 0.00195312l229 -94
c1.33301 -0.666992 2.33301 -1.83398 3 -3.50098s0.666992 -3.83398 0 -6.50098l-5 -15c-2 -5.33301 -5.66699 -7 -11 -5l-227 77c-4 1.33301 -6.5 2.83301 -7.5 4.5s-0.833008 4.16699 0.5 7.5l10 32c0.666992 1.33301 1.83398 2.33301 3.50098 3z" />
    <glyph glyph-name="oacute" unicode="&#xf3;" horiz-adv-x="598" 
d="M171 24.5c-36.667 23 -64.999 55 -84.999 96s-30 88.167 -30 141.5c0 54 10.167 102 30.5 144s49 74.833 86 98.5s79.5 35.5 127.5 35.5c47.333 0 89.333 -11.667 126 -35s65.167 -56 85.5 -98s30.5 -89.667 30.5 -143s-10.167 -100.833 -30.5 -142.5
s-48.833 -74 -85.5 -97s-79 -34.5 -127 -34.5c-48.667 0 -91.334 11.5 -128.001 34.5zM446.501 92.5c35.667 43 53.4971 100.169 53.4971 171.502c0 47.333 -8.16699 88.833 -24.5 124.5s-39.666 63.5 -69.999 83.5s-65.5 30 -105.5 30c-40.667 0 -76.167 -10 -106.5 -30
s-53.833 -48 -70.5 -84s-25 -77.333 -25 -124s8.33301 -87.834 25 -123.501s40.334 -63.334 71.001 -83.001s66.334 -29.5 107.001 -29.5c61.333 0 109.833 21.5 145.5 64.5zM425.998 716.002l0.999023 -4.00195c0 -3.33301 -2.66699 -6 -8 -8l-227 -77
c-1.33301 -0.666992 -3 -1 -5 -1c-3.33301 0 -5.33301 2 -6 6l-5 15c-0.666992 2.66699 -0.666992 4.83398 0 6.50098s1.66699 2.83398 3 3.50098l229 94c1.33301 0.666992 2.83301 0.666992 4.5 0s2.83398 -1.66699 3.50098 -3z" />
    <glyph glyph-name="ocircumflex" unicode="&#xf4;" horiz-adv-x="598" 
d="M171 24.5c-36.667 23 -64.999 55 -84.999 96s-30 88.167 -30 141.5c0 54 10.167 102 30.5 144s49 74.833 86 98.5s79.5 35.5 127.5 35.5c47.333 0 89.333 -11.667 126 -35s65.167 -56 85.5 -98s30.5 -89.667 30.5 -143s-10.167 -100.833 -30.5 -142.5
s-48.833 -74 -85.5 -97s-79 -34.5 -127 -34.5c-48.667 0 -91.334 11.5 -128.001 34.5zM446.501 92.5c35.667 43 53.4971 100.169 53.4971 171.502c0 47.333 -8.16699 88.833 -24.5 124.5s-39.666 63.5 -69.999 83.5s-65.5 30 -105.5 30c-40.667 0 -76.167 -10 -106.5 -30
s-53.833 -48 -70.5 -84s-25 -77.333 -25 -124s8.33301 -87.834 25 -123.501s40.334 -63.334 71.001 -83.001s66.334 -29.5 107.001 -29.5c61.333 0 109.833 21.5 145.5 64.5zM309.998 698.002c-4.66699 4 -7.66602 6 -8.99902 6c-2 0 -5.33301 -2 -10 -6l-62 -48
c-2.66699 -2 -5.16699 -3.5 -7.5 -4.5s-4.83301 -1.5 -7.5 -1.5h-37c-3.33301 0 -5.33301 1 -6 3s0.666016 4.33301 3.99902 7l99 79c7.33301 6 14 9 20 9h18c4 0 7.5 -1.16699 10.5 -3.5s4.83301 -3.83301 5.5 -4.5l98 -80c3.33301 -3.33301 5 -5.83301 5 -7.5
s-2 -2.5 -6 -2.5h-41c-5.33301 0 -10.333 2 -15 6z" />
    <glyph glyph-name="otilde" unicode="&#xf5;" horiz-adv-x="598" 
d="M171 24.5c-36.667 23 -64.999 55 -84.999 96s-30 88.167 -30 141.5c0 54 10.167 102 30.5 144s49 74.833 86 98.5s79.5 35.5 127.5 35.5c47.333 0 89.333 -11.667 126 -35s65.167 -56 85.5 -98s30.5 -89.667 30.5 -143s-10.167 -100.833 -30.5 -142.5
s-48.833 -74 -85.5 -97s-79 -34.5 -127 -34.5c-48.667 0 -91.334 11.5 -128.001 34.5zM446.501 92.5c35.667 43 53.4971 100.169 53.4971 171.502c0 47.333 -8.16699 88.833 -24.5 124.5s-39.666 63.5 -69.999 83.5s-65.5 30 -105.5 30c-40.667 0 -76.167 -10 -106.5 -30
s-53.833 -48 -70.5 -84s-25 -77.333 -25 -124s8.33301 -87.834 25 -123.501s40.334 -63.334 71.001 -83.001s66.334 -29.5 107.001 -29.5c61.333 0 109.833 21.5 145.5 64.5zM397.498 678.002c-9.66699 -3.33301 -22.499 -5.00098 -38.499 -5.00098c-12 0 -22.167 1 -30.5 3
s-19.5 5.33301 -33.5 10c-19.333 7.33301 -36 11 -50 11c-10.667 0 -19.5 -1.33301 -26.5 -4s-13 -5.66699 -18 -9s-8.83301 -5.66602 -11.5 -6.99902s-4.66699 -2 -6 -2s-3 2 -5 6l-7 16c-0.666992 2 -0.833984 3.66699 -0.500977 5s1.16602 2.33301 2.49902 3
c12.667 8.66699 23.834 15.167 33.501 19.5s21.167 6.5 34.5 6.5c15.333 0 35 -4 59 -12c23.333 -8.66699 43.333 -13 60 -13c10 0 18.333 1.16699 25 3.5s15 6.5 25 12.5c2 1.33301 4.33301 2 7 2c2 0 4 -1.66699 6 -5l8 -18c0.666992 -0.666992 1 -1.66699 1 -3
c0 -2 -2 -4 -6 -6c-9.33301 -6 -18.833 -10.667 -28.5 -14z" />
    <glyph glyph-name="odieresis" unicode="&#xf6;" horiz-adv-x="598" 
d="M171 24.5c-36.667 23 -64.999 55 -84.999 96s-30 88.167 -30 141.5c0 54 10.167 102 30.5 144s49 74.833 86 98.5s79.5 35.5 127.5 35.5c47.333 0 89.333 -11.667 126 -35s65.167 -56 85.5 -98s30.5 -89.667 30.5 -143s-10.167 -100.833 -30.5 -142.5
s-48.833 -74 -85.5 -97s-79 -34.5 -127 -34.5c-48.667 0 -91.334 11.5 -128.001 34.5zM446.501 92.5c35.667 43 53.4971 100.169 53.4971 171.502c0 47.333 -8.16699 88.833 -24.5 124.5s-39.666 63.5 -69.999 83.5s-65.5 30 -105.5 30c-40.667 0 -76.167 -10 -106.5 -30
s-53.833 -48 -70.5 -84s-25 -77.333 -25 -124s8.33301 -87.834 25 -123.501s40.334 -63.334 71.001 -83.001s66.334 -29.5 107.001 -29.5c61.333 0 109.833 21.5 145.5 64.5zM269.998 656.002c0 -4.66699 -0.830078 -7.83301 -2.49707 -9.5s-4.83398 -2.5 -9.50098 -2.5h-27
c-4.66699 0 -7.66699 0.666992 -9 2s-2 4 -2 8v78c0 4 0.666992 6.66699 2 8s3.66602 2 6.99902 2h32c3.33301 0 5.66602 -0.666992 6.99902 -2s2 -4 2 -8v-76zM381.001 656.003c0 -4.66699 -0.830078 -7.83301 -2.49707 -9.5s-4.83398 -2.5 -9.50098 -2.5h-27
c-4.66699 0 -7.66699 0.666992 -9 2s-2 4 -2 8v78c0 4 0.666992 6.66699 2 8s3.66602 2 6.99902 2h32c3.33301 0 5.66602 -0.666992 6.99902 -2s2 -4 2 -8v-76z" />
    <glyph glyph-name="divide" unicode="&#xf7;" horiz-adv-x="541" 
d="M312 503c0 -4 -1 -6.83301 -3 -8.5s-5.33301 -2.5 -10 -2.5h-59c-4 0 -6.66699 0.833008 -8 2.5s-2 4.16699 -2 7.5v60c0 6 2.33301 9 7 9h68c4.66699 0 7 -2.66699 7 -8v-60zM471 362c0 -5.33301 -3.33301 -8 -10 -8l-383 -1c-5.33301 0 -8 2.33301 -8 7v24
c0 4.66699 1.66699 7 5 7l389 1c4.66699 0 7 -2 7 -6v-24zM312 185c0 -4 -1 -6.83301 -3 -8.5s-5.33301 -2.5 -10 -2.5h-59c-4 0 -6.66699 0.833008 -8 2.5s-2 4.16699 -2 7.5v60c0 6 2.33301 9 7 9h68c4.66699 0 7 -2.66699 7 -8v-60z" />
    <glyph glyph-name="oslash" unicode="&#xf8;" horiz-adv-x="575" 
d="M552 497l-59.999 -58.999c32 -47.333 48 -105.333 48 -174c0 -53.333 -10.167 -100.833 -30.5 -142.5s-48.833 -74 -85.5 -97s-79 -34.5 -127 -34.5c-37.333 0 -71.166 6.83301 -101.499 20.5s-56.5 33.167 -78.5 58.5l-66 -65
c-2.66699 -2.66699 -5.33398 -4 -8.00098 -4s-5.33398 1.33301 -8.00098 4l-11 12c-2.66699 2.66699 -4 5.66699 -4 9s1.66699 6.66602 5 9.99902l69 68c-26.667 44 -40 97 -40 159c0 54 10.167 102 30.5 144s49 74.833 86 98.5s79.5 35.5 127.5 35.5c34 0 65.333 -6 94 -18
s53.667 -29.333 75 -52l55 54c3.33301 3.33301 6.33301 5 9 5c2 0 4.66699 -1.66699 8 -5l13 -13c4 -5.33301 4 -10 0 -14zM125.001 133.001l314 309.001c-36.667 40 -83.667 60 -141 60c-40.667 0 -76.167 -10 -106.5 -30s-53.833 -48 -70.5 -84s-25 -77.333 -25 -124
c0 -50.667 9.66699 -94.334 29 -131.001zM463.001 409.002l-316 -310.999c18 -22.667 39.833 -40 65.5 -52s54.5 -18 86.5 -18c61.333 0 109.833 21.5 145.5 64.5s53.5 100.167 53.5 171.5c0 57.333 -11.667 105.666 -35 144.999z" />
    <glyph glyph-name="ugrave" unicode="&#xf9;" horiz-adv-x="571" 
d="M341.5 54.5c31 17.667 63.833 43.834 98.5 78.501v388c0 6 3 9 9 9h22c6 0 9 -3 9 -9v-512c0 -6 -2.66699 -9 -8 -9h-21c-5.33301 0 -8 2.66699 -8 8v64c0 3.33301 -0.666992 5.33301 -2 6s-3.33301 -0.333008 -6 -3c-40 -32 -74.333 -54.167 -103 -66.5
s-57 -18.5 -85 -18.5c-47.333 0 -86.5 13.667 -117.5 41s-46.5 62.666 -46.5 105.999v383c0 6.66699 3 10 9 10h22c6 0 9 -3 9 -9v-362c0 -39.333 11 -71 33 -95s52 -36 90 -36c32.667 0 64.5 8.83301 95.5 26.5zM138.5 751
c1.66699 0.666992 3.16602 0.668945 4.49902 0.00195312l229 -94c1.33301 -0.666992 2.33301 -1.83398 3 -3.50098s0.666992 -3.83398 0 -6.50098l-5 -15c-2 -5.33301 -5.66699 -7 -11 -5l-227 77c-4 1.33301 -6.5 2.83301 -7.5 4.5s-0.833008 4.16699 0.5 7.5l10 32
c0.666992 1.33301 1.83398 2.33301 3.50098 3z" />
    <glyph glyph-name="uacute" unicode="&#xfa;" horiz-adv-x="571" 
d="M341.5 54.5c31 17.667 63.833 43.834 98.5 78.501v388c0 6 3 9 9 9h22c6 0 9 -3 9 -9v-512c0 -6 -2.66699 -9 -8 -9h-21c-5.33301 0 -8 2.66699 -8 8v64c0 3.33301 -0.666992 5.33301 -2 6s-3.33301 -0.333008 -6 -3c-40 -32 -74.333 -54.167 -103 -66.5
s-57 -18.5 -85 -18.5c-47.333 0 -86.5 13.667 -117.5 41s-46.5 62.666 -46.5 105.999v383c0 6.66699 3 10 9 10h22c6 0 9 -3 9 -9v-362c0 -39.333 11 -71 33 -95s52 -36 90 -36c32.667 0 64.5 8.83301 95.5 26.5zM393 716l0.999023 -4.00195c0 -3.33301 -2.66699 -6 -8 -8
l-227 -77c-1.33301 -0.666992 -3 -1 -5 -1c-3.33301 0 -5.33301 2 -6 6l-5 15c-0.666992 2.66699 -0.666992 4.83398 0 6.50098s1.66699 2.83398 3 3.50098l229 94c1.33301 0.666992 2.83301 0.666992 4.5 0s2.83398 -1.66699 3.50098 -3z" />
    <glyph glyph-name="ucircumflex" unicode="&#xfb;" horiz-adv-x="571" 
d="M341.5 54.5c31 17.667 63.833 43.834 98.5 78.501v388c0 6 3 9 9 9h22c6 0 9 -3 9 -9v-512c0 -6 -2.66699 -9 -8 -9h-21c-5.33301 0 -8 2.66699 -8 8v64c0 3.33301 -0.666992 5.33301 -2 6s-3.33301 -0.333008 -6 -3c-40 -32 -74.333 -54.167 -103 -66.5
s-57 -18.5 -85 -18.5c-47.333 0 -86.5 13.667 -117.5 41s-46.5 62.666 -46.5 105.999v383c0 6.66699 3 10 9 10h22c6 0 9 -3 9 -9v-362c0 -39.333 11 -71 33 -95s52 -36 90 -36c32.667 0 64.5 8.83301 95.5 26.5zM277 698c-4.66699 4 -7.66602 6 -8.99902 6
c-2 0 -5.33301 -2 -10 -6l-62 -48c-2.66699 -2 -5.16699 -3.5 -7.5 -4.5s-4.83301 -1.5 -7.5 -1.5h-37c-3.33301 0 -5.33301 1 -6 3s0.666016 4.33301 3.99902 7l99 79c7.33301 6 14 9 20 9h18c4 0 7.5 -1.16699 10.5 -3.5s4.83301 -3.83301 5.5 -4.5l98 -80
c3.33301 -3.33301 5 -5.83301 5 -7.5s-2 -2.5 -6 -2.5h-41c-5.33301 0 -10.333 2 -15 6z" />
    <glyph glyph-name="udieresis" unicode="&#xfc;" horiz-adv-x="571" 
d="M341.5 54.5c31 17.667 63.833 43.834 98.5 78.501v388c0 6 3 9 9 9h22c6 0 9 -3 9 -9v-512c0 -6 -2.66699 -9 -8 -9h-21c-5.33301 0 -8 2.66699 -8 8v64c0 3.33301 -0.666992 5.33301 -2 6s-3.33301 -0.333008 -6 -3c-40 -32 -74.333 -54.167 -103 -66.5
s-57 -18.5 -85 -18.5c-47.333 0 -86.5 13.667 -117.5 41s-46.5 62.666 -46.5 105.999v383c0 6.66699 3 10 9 10h22c6 0 9 -3 9 -9v-362c0 -39.333 11 -71 33 -95s52 -36 90 -36c32.667 0 64.5 8.83301 95.5 26.5zM237 656c0 -4.66699 -0.830078 -7.83301 -2.49707 -9.5
s-4.83398 -2.5 -9.50098 -2.5h-27c-4.66699 0 -7.66699 0.666992 -9 2s-2 4 -2 8v78c0 4 0.666992 6.66699 2 8s3.66602 2 6.99902 2h32c3.33301 0 5.66602 -0.666992 6.99902 -2s2 -4 2 -8v-76zM348.003 656.001c0 -4.66699 -0.830078 -7.83301 -2.49707 -9.5
s-4.83398 -2.5 -9.50098 -2.5h-27c-4.66699 0 -7.66699 0.666992 -9 2s-2 4 -2 8v78c0 4 0.666992 6.66699 2 8s3.66602 2 6.99902 2h32c3.33301 0 5.66602 -0.666992 6.99902 -2s2 -4 2 -8v-76z" />
    <glyph glyph-name="yacute" unicode="&#xfd;" horiz-adv-x="508" 
d="M57 -163.5c-8.66699 1 -13.002 3.83301 -13.002 8.5v15c0 4.66699 1.83301 7.66699 5.5 9s11.5 2 23.5 2h60c16.667 0 32.167 7.16699 46.5 21.5s25.833 32 34.5 53s13 41.167 13 60.5c0 10.667 -1.66699 21 -5 31l-189 481c-0.666992 1.33301 -1 3 -1 5
c0 4.66699 3 7 9 7h21c6 0 10 -2.66699 12 -8l174 -444c2 -6 4.66699 -9 8 -9c4 0 7.33301 4.33301 10 13l170 441c2 4.66699 5.33301 7 10 7h22c2.66699 0 4.83398 -1 6.50098 -3s1.83398 -4 0.500977 -6l-229 -598c-12.667 -32 -30.5 -54.667 -53.5 -68
s-51.167 -20 -84.5 -20c-25.333 0 -42.333 0.5 -51 1.5zM379.998 716l0.999023 -4.00195c0 -3.33301 -2.66699 -6 -8 -8l-227 -77c-1.33301 -0.666992 -3 -1 -5 -1c-3.33301 0 -5.33301 2 -6 6l-5 15c-0.666992 2.66699 -0.666992 4.83398 0 6.50098
s1.66699 2.83398 3 3.50098l229 94c1.33301 0.666992 2.83301 0.666992 4.5 0s2.83398 -1.66699 3.50098 -3z" />
    <glyph glyph-name="thorn" unicode="&#xfe;" horiz-adv-x="588" 
d="M129 731l-0.000976562 -263.001c0 -6 1.33301 -9 4 -9c2 0 4.66699 1.66699 8 5c1.33301 1.33301 8.16602 9 20.499 23s31.333 26.333 57 37s54.167 16 85.5 16c43.333 0 82.333 -10 117 -30s61.834 -49.833 81.501 -89.5s29.5 -88.167 29.5 -145.5
c0 -56.667 -9.83301 -106.5 -29.5 -149.5s-47.5 -76.333 -83.5 -100s-78.333 -35.5 -127 -35.5c-31.333 0 -59.333 4.83301 -84 14.5s-45.667 21.5 -63 35.5c-4.66699 3.33301 -7.66699 5 -9 5c-3.33301 0 -5 -4 -5 -12v-188c0 -6.66699 -3 -10 -9 -10h-23
c-5.33301 0 -8 3 -8 9v886c0 4.66699 0.833008 7.83398 2.5 9.50098s4.83398 2.5 9.50098 2.5h16c6.66699 0 10 -3.66699 10 -11zM208.499 47.499c25.667 -13 53.168 -19.5029 82.501 -19.5029c38.667 0 73 9.83301 103 29.5s53.5 47.834 70.5 84.501s25.5 79.667 25.5 129
c0 50.667 -8.66699 93.334 -26 128.001s-40.5 60.5 -69.5 77.5s-60.833 25.5 -95.5 25.5c-31.333 0 -59.833 -7.16699 -85.5 -21.5s-45.834 -32.166 -60.501 -53.499s-22 -42.333 -22 -63v-260c26 -24.667 51.833 -43.5 77.5 -56.5z" />
    <glyph glyph-name="ydieresis" unicode="&#xff;" horiz-adv-x="508" 
d="M57 -163.5c-8.66699 1 -13.002 3.83301 -13.002 8.5v15c0 4.66699 1.83301 7.66699 5.5 9s11.5 2 23.5 2h60c16.667 0 32.167 7.16699 46.5 21.5s25.833 32 34.5 53s13 41.167 13 60.5c0 10.667 -1.66699 21 -5 31l-189 481c-0.666992 1.33301 -1 3 -1 5
c0 4.66699 3 7 9 7h21c6 0 10 -2.66699 12 -8l174 -444c2 -6 4.66699 -9 8 -9c4 0 7.33301 4.33301 10 13l170 441c2 4.66699 5.33301 7 10 7h22c2.66699 0 4.83398 -1 6.50098 -3s1.83398 -4 0.500977 -6l-229 -598c-12.667 -32 -30.5 -54.667 -53.5 -68
s-51.167 -20 -84.5 -20c-25.333 0 -42.333 0.5 -51 1.5zM223.998 656c0 -4.66699 -0.830078 -7.83301 -2.49707 -9.5s-4.83398 -2.5 -9.50098 -2.5h-27c-4.66699 0 -7.66699 0.666992 -9 2s-2 4 -2 8v78c0 4 0.666992 6.66699 2 8s3.66602 2 6.99902 2h32
c3.33301 0 5.66602 -0.666992 6.99902 -2s2 -4 2 -8v-76zM335.001 656.001c0 -4.66699 -0.830078 -7.83301 -2.49707 -9.5s-4.83398 -2.5 -9.50098 -2.5h-27c-4.66699 0 -7.66699 0.666992 -9 2s-2 4 -2 8v78c0 4 0.666992 6.66699 2 8s3.66602 2 6.99902 2h32
c3.33301 0 5.66602 -0.666992 6.99902 -2s2 -4 2 -8v-76z" />
    <glyph glyph-name="Amacron" unicode="&#x100;" horiz-adv-x="700" 
d="M53 9l265.002 722c1.33301 4 3.16602 6.83301 5.49902 8.5s5.83301 2.5 10.5 2.5h33c10 0 16 -3.33301 18 -10l262 -722l1 -3c0 -4.66699 -3 -7 -9 -7h-24c-6.66699 0 -11 2.66699 -13 8l-81 223c-2 4.66699 -5.33301 7 -10 7h-322c-4.66699 0 -8 -2.33301 -10 -7
l-83 -224c-0.666992 -4.66699 -4.33398 -7 -11.001 -7h-25c-6.66699 0 -9 3 -7 9zM494.002 278c6.66699 0 8.99902 3.33301 6.99902 10l-143 390c-2 6.66699 -4.33301 10 -7 10c-2 0 -4.66699 -3.66699 -8 -11l-145 -391c-1.33301 -3.33301 -1.66602 -5.5 -0.999023 -6.5
s2.66699 -1.5 6 -1.5h291zM476.001 904c0 -5.33301 -3.33301 -8 -10 -8h-235c-4.66699 0 -7 2.66699 -7 8v23c0 4.66699 1.66699 7 5 7h242c3.33301 0 5 -2 5 -6v-24z" />
    <glyph glyph-name="amacron" unicode="&#x101;" horiz-adv-x="538" 
d="M218 -10c-52.667 0 -94.165 13.002 -124.498 39.002s-45.5 61.333 -45.5 106c0 101.333 82.333 159 247 173l105 9c11.333 1.33301 17 6.33301 17 15v31c0 42.667 -13.5 76.5 -40.5 101.5s-63.167 37.5 -108.5 37.5c-66 0 -122 -30.667 -168 -92
c-1.33301 -2 -2.83301 -3.5 -4.5 -4.5s-3.5 -0.833008 -5.5 0.5l-24 15c-3.33301 2 -3.33301 5.33301 0 10c22.667 33.333 51 59.833 85 79.5s73.667 29.5 119 29.5c56.667 0 102 -15.5 136 -46.5s51 -73.167 51 -126.5v-357c0 -6.66699 -3.33301 -10 -10 -10h-18
c-6 0 -9 3 -9 9l-2 61c-0.666992 3.33301 -1.83398 5.16602 -3.50098 5.49902s-3.83398 -0.833984 -6.50098 -3.50098c-54.667 -54.667 -118 -82 -190 -82zM403.002 280.002l-89.001 -7.00098c-77.333 -6 -134 -20.167 -170 -42.5s-54 -53.166 -54 -92.499
c0 -34 12.167 -60.833 36.5 -80.5s56.833 -29.5 97.5 -29.5c24 0 47.833 4.33301 71.5 13s45.167 20.667 64.5 36c18.667 14.667 32.834 30.167 42.501 46.5s14.5 32.166 14.5 47.499v95c0 10.667 -4.66699 15.334 -14 14.001zM392.001 692.001
c0 -5.33301 -3.33301 -8 -10 -8h-235c-4.66699 0 -7 2.66699 -7 8v23c0 4.66699 1.66699 7 5 7h242c3.33301 0 5 -2 5 -6v-24z" />
    <glyph glyph-name="Abreve" unicode="&#x102;" horiz-adv-x="700" 
d="M53 9l265.002 722c1.33301 4 3.16602 6.83301 5.49902 8.5s5.83301 2.5 10.5 2.5h33c10 0 16 -3.33301 18 -10l262 -722l1 -3c0 -4.66699 -3 -7 -9 -7h-24c-6.66699 0 -11 2.66699 -13 8l-81 223c-2 4.66699 -5.33301 7 -10 7h-322c-4.66699 0 -8 -2.33301 -10 -7
l-83 -224c-0.666992 -4.66699 -4.33398 -7 -11.001 -7h-25c-6.66699 0 -9 3 -7 9zM494.002 278c6.66699 0 8.99902 3.33301 6.99902 10l-143 390c-2 6.66699 -4.33301 10 -7 10c-2 0 -4.66699 -3.66699 -8 -11l-145 -391c-1.33301 -3.33301 -1.66602 -5.5 -0.999023 -6.5
s2.66699 -1.5 6 -1.5h291zM479.501 952c1 -1.33301 0.831055 -3.66797 -0.501953 -7.00098c-5.33301 -20 -19.5 -38.833 -42.5 -56.5s-52.5 -26.5 -88.5 -26.5c-35.333 0 -63.666 8.5 -84.999 25.5s-35 36.5 -41 58.5c-2 5.33301 -0.666992 8 4 8h35
c2.66699 0 4.83398 -0.666992 6.50098 -2s3.5 -3 5.5 -5c1.33301 -1.33301 4.83301 -6.16602 10.5 -14.499s14.167 -15.333 25.5 -21s24.333 -8.5 39 -8.5c33.333 0 60 15 80 45c2.66699 4 5.66699 6 9 6h35c4 0 6.5 -0.666992 7.5 -2z" />
    <glyph glyph-name="abreve" unicode="&#x103;" horiz-adv-x="538" 
d="M218 -10c-52.667 0 -94.165 13.002 -124.498 39.002s-45.5 61.333 -45.5 106c0 101.333 82.333 159 247 173l105 9c11.333 1.33301 17 6.33301 17 15v31c0 42.667 -13.5 76.5 -40.5 101.5s-63.167 37.5 -108.5 37.5c-66 0 -122 -30.667 -168 -92
c-1.33301 -2 -2.83301 -3.5 -4.5 -4.5s-3.5 -0.833008 -5.5 0.5l-24 15c-3.33301 2 -3.33301 5.33301 0 10c22.667 33.333 51 59.833 85 79.5s73.667 29.5 119 29.5c56.667 0 102 -15.5 136 -46.5s51 -73.167 51 -126.5v-357c0 -6.66699 -3.33301 -10 -10 -10h-18
c-6 0 -9 3 -9 9l-2 61c-0.666992 3.33301 -1.83398 5.16602 -3.50098 5.49902s-3.83398 -0.833984 -6.50098 -3.50098c-54.667 -54.667 -118 -82 -190 -82zM403.002 280.002l-89.001 -7.00098c-77.333 -6 -134 -20.167 -170 -42.5s-54 -53.166 -54 -92.499
c0 -34 12.167 -60.833 36.5 -80.5s56.833 -29.5 97.5 -29.5c24 0 47.833 4.33301 71.5 13s45.167 20.667 64.5 36c18.667 14.667 32.834 30.167 42.501 46.5s14.5 32.166 14.5 47.499v95c0 10.667 -4.66699 15.334 -14 14.001zM395.501 740.001
c1 -1.33301 0.831055 -3.66797 -0.501953 -7.00098c-5.33301 -20 -19.5 -38.833 -42.5 -56.5s-52.5 -26.5 -88.5 -26.5c-35.333 0 -63.666 8.5 -84.999 25.5s-35 36.5 -41 58.5c-2 5.33301 -0.666992 8 4 8h35c2.66699 0 4.83398 -0.666992 6.50098 -2s3.5 -3 5.5 -5
c1.33301 -1.33301 4.83301 -6.16602 10.5 -14.499s14.167 -15.333 25.5 -21s24.333 -8.5 39 -8.5c33.333 0 60 15 80 45c2.66699 4 5.66699 6 9 6h35c4 0 6.5 -0.666992 7.5 -2z" />
    <glyph glyph-name="Aogonek" unicode="&#x104;" horiz-adv-x="700" 
d="M674 -126l0.00195312 -19.999c0 -2 -0.333008 -3.66699 -1 -5s-2 -2.33301 -4 -3c-8.66699 -4 -20.167 -7.5 -34.5 -10.5s-28.833 -4.5 -43.5 -4.5c-30.667 0 -53.667 7 -69 21s-23 33 -23 57c0 22.667 7.83301 42 23.5 58s42.167 29.667 79.5 41l-81 223
c-2 4.66699 -5.33301 7 -10 7h-322c-4.66699 0 -8 -2.33301 -10 -7l-83 -224c-0.666992 -4.66699 -4.33398 -7 -11.001 -7h-25c-6.66699 0 -9 3 -7 9l265 722c1.33301 4 3.16602 6.83301 5.49902 8.5s5.83301 2.5 10.5 2.5h33c10 0 16 -3.33301 18 -10l262 -722
c2 -4.66699 0.666992 -7.66699 -4 -9c-35.333 -16.667 -60.833 -31.834 -76.5 -45.501s-23.5 -29.834 -23.5 -48.501c0 -14 4.66699 -24.5 14 -31.5s24 -10.5 44 -10.5c14 0 27 1.33301 39 4s20.667 5.33398 26 8.00098s8 1.66699 8 -3zM501.002 288.001l-143.001 390
c-2 6.66699 -4.33301 10 -7 10c-2 0 -4.66699 -3.66699 -8 -11l-145 -391c-1.33301 -3.33301 -1.66602 -5.5 -0.999023 -6.5s2.66699 -1.5 6 -1.5h291c6.66699 0 9 3.33301 7 10z" />
    <glyph glyph-name="aogonek" unicode="&#x105;" horiz-adv-x="538" 
d="M486 -123l0.00195312 -19.999c0 -2 -0.333008 -3.66699 -1 -5s-2 -2.33301 -4 -3c-8.66699 -4 -20.167 -7.5 -34.5 -10.5s-28.833 -4.5 -43.5 -4.5c-30.667 0 -53.667 7 -69 21s-23 33 -23 57c0 22.667 8.33301 42.167 25 58.5s44.667 30.166 84 41.499l-2 58
c-0.666992 3.33301 -1.83398 5.16602 -3.50098 5.49902s-3.83398 -0.833984 -6.50098 -3.50098c-54.667 -54.667 -118 -82 -190 -82c-52.667 0 -94.167 13 -124.5 39s-45.5 61.333 -45.5 106c0 101.333 82.333 159 247 173l105 9c11.333 1.33301 17 6.33301 17 15v31
c0 42.667 -13.5 76.5 -40.5 101.5s-63.167 37.5 -108.5 37.5c-66 0 -122 -30.667 -168 -92c-1.33301 -2 -2.83301 -3.5 -4.5 -4.5s-3.5 -0.833008 -5.5 0.5l-24 15c-3.33301 2 -3.33301 5.33301 0 10c22.667 33.333 51 59.833 85 79.5s73.667 29.5 119 29.5
c56.667 0 102 -15.5 136 -46.5s51 -73.167 51 -126.5v-357c0 -2.66699 -0.333008 -4.66699 -1 -6c-2 -2.66699 -5 -4 -9 -4c-32 -15.333 -55.333 -29.666 -70 -42.999s-22 -29 -22 -47c0 -14 4.66699 -24.5 14 -31.5s24 -10.5 44 -10.5c14 0 27 1.33301 39 4
s20.667 5.33398 26 8.00098s8 1.66699 8 -3zM417.002 266.001c0 10.667 -4.66797 15.333 -14.001 14l-89 -7c-77.333 -6 -134 -20.167 -170 -42.5s-54 -53.166 -54 -92.499c0 -34 12.167 -60.833 36.5 -80.5s56.833 -29.5 97.5 -29.5c24 0 47.833 4.33301 71.5 13
s45.167 20.667 64.5 36c18.667 14.667 32.834 30.167 42.501 46.5s14.5 32.166 14.5 47.499v95z" />
    <glyph glyph-name="Cacute" unicode="&#x106;" horiz-adv-x="695" 
d="M491.5 724.5c37.667 -18.333 69.001 -42.502 94.001 -72.502s39.5 -62 43.5 -96c0.666992 -4.66699 -1 -7 -5 -7l-36 -4h-2c-2.66699 0 -4.33398 2.33301 -5.00098 7c-11.333 47.333 -35.5 85.5 -72.5 114.5s-80.833 43.5 -131.5 43.5
c-81.333 0 -143.5 -29.167 -186.5 -87.5s-64.5 -143.166 -64.5 -254.499c0 -108.667 21.833 -191.834 65.5 -249.501s108.167 -86.5 193.5 -86.5c52 0 95 12.5 129 37.5s61 63.833 81 116.5c1.33301 2 3.33301 2.66699 6 2l34 -10c2 -1.33301 2.66699 -3.66602 2 -6.99902
c-17.333 -55.333 -49.166 -99.333 -95.499 -132s-99.833 -49 -160.5 -49c-96.667 0 -171.334 32.833 -224.001 98.5s-79 158.834 -79 279.501c0 80 11.667 148.833 35 206.5s57.333 101.667 102 132s98 45.5 160 45.5c40 0 78.833 -9.16699 116.5 -27.5zM500.001 927.998
l0.999023 -4.00195c0 -3.33301 -2.66699 -6 -8 -8l-227 -77c-1.33301 -0.666992 -3 -1 -5 -1c-3.33301 0 -5.33301 2 -6 6l-5 15c-0.666992 2.66699 -0.666992 4.83398 0 6.50098s1.66699 2.83398 3 3.50098l229 94c1.33301 0.666992 2.83301 0.666992 4.5 0
s2.83398 -1.66699 3.50098 -3z" />
    <glyph glyph-name="cacute" unicode="&#x107;" horiz-adv-x="537" 
d="M408 512.5c32 -18.333 60.002 -44.8311 84.002 -79.498c3.33301 -4.66699 3.33301 -8 0 -10l-24 -16c-0.666992 -0.666992 -1.66699 -1 -3 -1c-2 0 -4.66699 1.66699 -8 5c-27.333 32.667 -53 56 -77 70s-50.333 21 -79 21c-40.667 0 -76.334 -9.83301 -107.001 -29.5
s-54.334 -47.5 -71.001 -83.5s-25 -77.333 -25 -124s8.33301 -88 25 -124s40.334 -63.833 71.001 -83.5s66 -29.5 106 -29.5c67.333 0 122.666 33.333 165.999 100c2 3.33301 3.66699 5.16602 5 5.49902s3 -0.166992 5 -1.5l23 -15c3.33301 -2.66699 4 -6 2 -10
c-24 -38.667 -53.5 -67.834 -88.5 -87.501s-73.833 -29.5 -116.5 -29.5c-47.333 0 -89.166 11.333 -125.499 34s-64.5 54.667 -84.5 96s-30 89 -30 143c0 53.333 10.167 101 30.5 143s48.666 74.833 84.999 98.5s77.833 35.5 124.5 35.5c42.667 0 80 -9.16699 112 -27.5z
M420.002 716.002l0.999023 -4.00195c0 -3.33301 -2.66699 -6 -8 -8l-227 -77c-1.33301 -0.666992 -3 -1 -5 -1c-3.33301 0 -5.33301 2 -6 6l-5 15c-0.666992 2.66699 -0.666992 4.83398 0 6.50098s1.66699 2.83398 3 3.50098l229 94
c1.33301 0.666992 2.83301 0.666992 4.5 0s2.83398 -1.66699 3.50098 -3z" />
    <glyph glyph-name="Ccircumflex" unicode="&#x108;" horiz-adv-x="695" 
d="M491.5 724.5c37.667 -18.333 69.001 -42.502 94.001 -72.502s39.5 -62 43.5 -96c0.666992 -4.66699 -1 -7 -5 -7l-36 -4h-2c-2.66699 0 -4.33398 2.33301 -5.00098 7c-11.333 47.333 -35.5 85.5 -72.5 114.5s-80.833 43.5 -131.5 43.5
c-81.333 0 -143.5 -29.167 -186.5 -87.5s-64.5 -143.166 -64.5 -254.499c0 -108.667 21.833 -191.834 65.5 -249.501s108.167 -86.5 193.5 -86.5c52 0 95 12.5 129 37.5s61 63.833 81 116.5c1.33301 2 3.33301 2.66699 6 2l34 -10c2 -1.33301 2.66699 -3.66602 2 -6.99902
c-17.333 -55.333 -49.166 -99.333 -95.499 -132s-99.833 -49 -160.5 -49c-96.667 0 -171.334 32.833 -224.001 98.5s-79 158.834 -79 279.501c0 80 11.667 148.833 35 206.5s57.333 101.667 102 132s98 45.5 160 45.5c40 0 78.833 -9.16699 116.5 -27.5zM384.001 909.998
c-4.66699 4 -7.66602 6 -8.99902 6c-2 0 -5.33301 -2 -10 -6l-62 -48c-2.66699 -2 -5.16699 -3.5 -7.5 -4.5s-4.83301 -1.5 -7.5 -1.5h-37c-3.33301 0 -5.33301 1 -6 3s0.666016 4.33301 3.99902 7l99 79c7.33301 6 14 9 20 9h18c4 0 7.5 -1.16699 10.5 -3.5
s4.83301 -3.83301 5.5 -4.5l98 -80c3.33301 -3.33301 5 -5.83301 5 -7.5s-2 -2.5 -6 -2.5h-41c-5.33301 0 -10.333 2 -15 6z" />
    <glyph glyph-name="ccircumflex" unicode="&#x109;" horiz-adv-x="537" 
d="M408 512.5c32 -18.333 60.002 -44.8311 84.002 -79.498c3.33301 -4.66699 3.33301 -8 0 -10l-24 -16c-0.666992 -0.666992 -1.66699 -1 -3 -1c-2 0 -4.66699 1.66699 -8 5c-27.333 32.667 -53 56 -77 70s-50.333 21 -79 21c-40.667 0 -76.334 -9.83301 -107.001 -29.5
s-54.334 -47.5 -71.001 -83.5s-25 -77.333 -25 -124s8.33301 -88 25 -124s40.334 -63.833 71.001 -83.5s66 -29.5 106 -29.5c67.333 0 122.666 33.333 165.999 100c2 3.33301 3.66699 5.16602 5 5.49902s3 -0.166992 5 -1.5l23 -15c3.33301 -2.66699 4 -6 2 -10
c-24 -38.667 -53.5 -67.834 -88.5 -87.501s-73.833 -29.5 -116.5 -29.5c-47.333 0 -89.166 11.333 -125.499 34s-64.5 54.667 -84.5 96s-30 89 -30 143c0 53.333 10.167 101 30.5 143s48.666 74.833 84.999 98.5s77.833 35.5 124.5 35.5c42.667 0 80 -9.16699 112 -27.5z
M304.002 698.002c-4.66699 4 -7.66602 6 -8.99902 6c-2 0 -5.33301 -2 -10 -6l-62 -48c-2.66699 -2 -5.16699 -3.5 -7.5 -4.5s-4.83301 -1.5 -7.5 -1.5h-37c-3.33301 0 -5.33301 1 -6 3s0.666016 4.33301 3.99902 7l99 79c7.33301 6 14 9 20 9h18
c4 0 7.5 -1.16699 10.5 -3.5s4.83301 -3.83301 5.5 -4.5l98 -80c3.33301 -3.33301 5 -5.83301 5 -7.5s-2 -2.5 -6 -2.5h-41c-5.33301 0 -10.333 2 -15 6z" />
    <glyph glyph-name="Cdotaccent" unicode="&#x10a;" horiz-adv-x="695" 
d="M491.5 724.5c37.667 -18.333 69.001 -42.502 94.001 -72.502s39.5 -62 43.5 -96c0.666992 -4.66699 -1 -7 -5 -7l-36 -4h-2c-2.66699 0 -4.33398 2.33301 -5.00098 7c-11.333 47.333 -35.5 85.5 -72.5 114.5s-80.833 43.5 -131.5 43.5
c-81.333 0 -143.5 -29.167 -186.5 -87.5s-64.5 -143.166 -64.5 -254.499c0 -108.667 21.833 -191.834 65.5 -249.501s108.167 -86.5 193.5 -86.5c52 0 95 12.5 129 37.5s61 63.833 81 116.5c1.33301 2 3.33301 2.66699 6 2l34 -10c2 -1.33301 2.66699 -3.66602 2 -6.99902
c-17.333 -55.333 -49.166 -99.333 -95.499 -132s-99.833 -49 -160.5 -49c-96.667 0 -171.334 32.833 -224.001 98.5s-79 158.834 -79 279.501c0 80 11.667 148.833 35 206.5s57.333 101.667 102 132s98 45.5 160 45.5c40 0 78.833 -9.16699 116.5 -27.5zM400.001 867.998
c0 -4.66699 -0.830078 -7.83301 -2.49707 -9.5s-4.83398 -2.5 -9.50098 -2.5h-27c-4.66699 0 -7.66699 0.666992 -9 2s-2 4 -2 8v78c0 4 0.666992 6.66699 2 8s3.66602 2 6.99902 2h32c3.33301 0 5.66602 -0.666992 6.99902 -2s2 -4 2 -8v-76z" />
    <glyph glyph-name="cdotaccent" unicode="&#x10b;" horiz-adv-x="537" 
d="M408 512.5c32 -18.333 60.002 -44.8311 84.002 -79.498c3.33301 -4.66699 3.33301 -8 0 -10l-24 -16c-0.666992 -0.666992 -1.66699 -1 -3 -1c-2 0 -4.66699 1.66699 -8 5c-27.333 32.667 -53 56 -77 70s-50.333 21 -79 21c-40.667 0 -76.334 -9.83301 -107.001 -29.5
s-54.334 -47.5 -71.001 -83.5s-25 -77.333 -25 -124s8.33301 -88 25 -124s40.334 -63.833 71.001 -83.5s66 -29.5 106 -29.5c67.333 0 122.666 33.333 165.999 100c2 3.33301 3.66699 5.16602 5 5.49902s3 -0.166992 5 -1.5l23 -15c3.33301 -2.66699 4 -6 2 -10
c-24 -38.667 -53.5 -67.834 -88.5 -87.501s-73.833 -29.5 -116.5 -29.5c-47.333 0 -89.166 11.333 -125.499 34s-64.5 54.667 -84.5 96s-30 89 -30 143c0 53.333 10.167 101 30.5 143s48.666 74.833 84.999 98.5s77.833 35.5 124.5 35.5c42.667 0 80 -9.16699 112 -27.5z
M320.002 656.002c0 -4.66699 -0.830078 -7.83301 -2.49707 -9.5s-4.83398 -2.5 -9.50098 -2.5h-27c-4.66699 0 -7.66699 0.666992 -9 2s-2 4 -2 8v78c0 4 0.666992 6.66699 2 8s3.66602 2 6.99902 2h32c3.33301 0 5.66602 -0.666992 6.99902 -2s2 -4 2 -8v-76z" />
    <glyph glyph-name="Ccaron" unicode="&#x10c;" horiz-adv-x="695" 
d="M491.5 724.5c37.667 -18.333 69.001 -42.502 94.001 -72.502s39.5 -62 43.5 -96c0.666992 -4.66699 -1 -7 -5 -7l-36 -4h-2c-2.66699 0 -4.33398 2.33301 -5.00098 7c-11.333 47.333 -35.5 85.5 -72.5 114.5s-80.833 43.5 -131.5 43.5
c-81.333 0 -143.5 -29.167 -186.5 -87.5s-64.5 -143.166 -64.5 -254.499c0 -108.667 21.833 -191.834 65.5 -249.501s108.167 -86.5 193.5 -86.5c52 0 95 12.5 129 37.5s61 63.833 81 116.5c1.33301 2 3.33301 2.66699 6 2l34 -10c2 -1.33301 2.66699 -3.66602 2 -6.99902
c-17.333 -55.333 -49.166 -99.333 -95.499 -132s-99.833 -49 -160.5 -49c-96.667 0 -171.334 32.833 -224.001 98.5s-79 158.834 -79 279.501c0 80 11.667 148.833 35 206.5s57.333 101.667 102 132s98 45.5 160 45.5c40 0 78.833 -9.16699 116.5 -27.5zM458.001 953.998
l40.999 -0.000976562c4 0 6 -1 6 -3c0 -1.33301 -1.66699 -3.66602 -5 -6.99902l-98 -80c-0.666992 -0.666992 -2.5 -2.16699 -5.5 -4.5s-6.5 -3.5 -10.5 -3.5h-18c-6 0 -12.667 3 -20 9l-99 79c-3.33301 2.66699 -4.66602 5 -3.99902 7s2.66699 3 6 3h37
c2.66699 0 5.16699 -0.5 7.5 -1.5s4.83301 -2.5 7.5 -4.5l62 -48c4.66699 -4 8 -6 10 -6c1.33301 0 4.33301 2 9 6l59 48c4.66699 4 9.66699 6 15 6z" />
    <glyph glyph-name="ccaron" unicode="&#x10d;" horiz-adv-x="537" 
d="M408 512.5c32 -18.333 60.002 -44.8311 84.002 -79.498c3.33301 -4.66699 3.33301 -8 0 -10l-24 -16c-0.666992 -0.666992 -1.66699 -1 -3 -1c-2 0 -4.66699 1.66699 -8 5c-27.333 32.667 -53 56 -77 70s-50.333 21 -79 21c-40.667 0 -76.334 -9.83301 -107.001 -29.5
s-54.334 -47.5 -71.001 -83.5s-25 -77.333 -25 -124s8.33301 -88 25 -124s40.334 -63.833 71.001 -83.5s66 -29.5 106 -29.5c67.333 0 122.666 33.333 165.999 100c2 3.33301 3.66699 5.16602 5 5.49902s3 -0.166992 5 -1.5l23 -15c3.33301 -2.66699 4 -6 2 -10
c-24 -38.667 -53.5 -67.834 -88.5 -87.501s-73.833 -29.5 -116.5 -29.5c-47.333 0 -89.166 11.333 -125.499 34s-64.5 54.667 -84.5 96s-30 89 -30 143c0 53.333 10.167 101 30.5 143s48.666 74.833 84.999 98.5s77.833 35.5 124.5 35.5c42.667 0 80 -9.16699 112 -27.5z
M378.002 742.002l40.999 -0.000976562c4 0 6 -1 6 -3c0 -1.33301 -1.66699 -3.66602 -5 -6.99902l-98 -80c-0.666992 -0.666992 -2.5 -2.16699 -5.5 -4.5s-6.5 -3.5 -10.5 -3.5h-18c-6 0 -12.667 3 -20 9l-99 79c-3.33301 2.66699 -4.66602 5 -3.99902 7s2.66699 3 6 3h37
c2.66699 0 5.16699 -0.5 7.5 -1.5s4.83301 -2.5 7.5 -4.5l62 -48c4.66699 -4 8 -6 10 -6c1.33301 0 4.33301 2 9 6l59 48c4.66699 4 9.66699 6 15 6z" />
    <glyph glyph-name="Dcaron" unicode="&#x10e;" horiz-adv-x="703" 
d="M239 741c91.333 -0.666992 165.5 -14.167 222.5 -40.5s98.667 -66 125 -119s39.5 -121.5 39.5 -205.5c0 -130 -32.667 -225.167 -98 -285.5s-166.333 -90.5 -303 -90.5h-102c-6 -0 -9 3.33301 -9 10v724c0 5.33301 3 8 9 8zM162 697
c-1.33301 -2.66699 -2.00098 -5.99902 -2.00098 -9.99902v-638c0 -6 3.66699 -9 11 -9h50c87.333 0 156.833 10.833 208.5 32.5s89.334 56.667 113.001 105s35.5 113.166 35.5 194.499c0 84.667 -12 150.5 -36 197.5s-61 80.167 -111 99.5s-117 30 -201 32h-63
c-2 0 -3.66699 -1.33301 -5 -4zM418.999 954.001l40.999 -0.000976562c4 0 6 -1 6 -3c0 -1.33301 -1.66699 -3.66602 -5 -6.99902l-98 -80c-0.666992 -0.666992 -2.5 -2.16699 -5.5 -4.5s-6.5 -3.5 -10.5 -3.5h-18c-6 0 -12.667 3 -20 9l-99 79
c-3.33301 2.66699 -4.66602 5 -3.99902 7s2.66699 3 6 3h37c2.66699 0 5.16699 -0.5 7.5 -1.5s4.83301 -2.5 7.5 -4.5l62 -48c4.66699 -4 8 -6 10 -6c1.33301 0 4.33301 2 9 6l59 48c4.66699 4 9.66699 6 15 6z" />
    <glyph glyph-name="dcaron" unicode="&#x10f;" horiz-adv-x="642" 
d="M463 11l0.00292969 51.001c0 6 -1.33301 9 -4 9c-2 0 -4.66699 -1.66699 -8 -5c-18.667 -19.333 -40.334 -36.833 -65.001 -52.5s-57.334 -23.5 -98.001 -23.5c-43.333 0 -82.5 10 -117.5 30s-62.667 49.833 -83 89.5s-30.5 88.167 -30.5 145.5c0 56 10 105.667 30 149
s48.333 76.833 85 100.5s79.334 35.5 128.001 35.5c32.667 0 60 -5 82 -15s43.667 -23 65 -39c5.33301 -4 8.66602 -6 9.99902 -6c2.66699 0 4 4.33301 4 13v239c0 6.66699 3 10 9 10h23c5.33301 0 8 -3 8 -9v-721c0 -4.66699 -0.833008 -7.83398 -2.5 -9.50098
s-4.83398 -2.5 -9.50098 -2.5h-16c-6.66699 0 -10 3.66699 -10 11zM384.003 483.001c-26 12.667 -53.6689 19.002 -83.002 19.002c-39.333 0 -74.166 -9.83301 -104.499 -29.5s-54.166 -47.834 -71.499 -84.501s-26 -79.667 -26 -129
c0 -50.667 8.83301 -93.334 26.5 -128.001s41.167 -60.5 70.5 -77.5s61.666 -25.5 96.999 -25.5c30.667 0 58.834 7.5 84.501 22.5s46 33.5 61 55.5s22.5 43.333 22.5 64v256c-25.333 25.333 -51 44.333 -77 57zM564.501 569.503c-1 1.66699 -1.16699 3.16699 -0.5 4.5
l30 70c1.33301 3.33301 1.83301 5.5 1.5 6.5s-1.83301 1.83301 -4.5 2.5l-5 1c-3.33301 0.666992 -5.5 1.5 -6.5 2.5s-1.5 2.83301 -1.5 5.5v73c0 4.66699 2 7 6 7h43c3.33301 0 5 -2 5 -6v-82l-1 -4l-33 -76c-2 -4.66699 -6.33301 -7 -13 -7h-16
c-2 0 -3.5 0.833008 -4.5 2.5z" />
    <glyph glyph-name="Dcroat" unicode="&#x110;" horiz-adv-x="703" 
d="M461.5 700.5c57 -26.333 98.667 -66 125 -119s39.5 -121.5 39.5 -205.5c0 -130 -32.667 -225.167 -98 -285.5s-166.333 -90.5 -303 -90.5h-102c-6 -0 -9 3.33301 -9 10v343h-69c-4 0 -6.66699 0.833008 -8 2.5s-2 4.16699 -2 7.5v23c0 6 2.33301 9 7 9h72v339
c0 5.33301 3 8 9 8l116 -1c91.333 -0.666992 165.5 -14.167 222.5 -40.5zM429.5 72.5c51.667 21.667 89.333 56.668 113 105.001s35.5 113.166 35.5 194.499c0 84.667 -12 150.5 -36 197.5s-61 80.167 -111 99.5s-117 30 -201 32h-63c-2 0 -3.66699 -1.33301 -5 -4
s-2 -6 -2 -10v-292h175c4.66699 0 7 -2.66699 7 -8v-23c0 -7.33301 -4.33301 -11 -13 -11h-169v-304c0 -6 3.66699 -9 11 -9h50c87.333 0 156.833 10.833 208.5 32.5z" />
    <glyph glyph-name="dcroat" unicode="&#x111;" horiz-adv-x="602" 
d="M577 656l0.00292969 -20.999c0 -5.33301 -3.33301 -8 -10 -8h-66v-615c0 -4.66699 -0.833008 -7.83398 -2.5 -9.50098s-4.83398 -2.5 -9.50098 -2.5h-16c-6.66699 0 -10 3.66699 -10 11v51c0 6 -1.33301 9 -4 9c-2 0 -4.66699 -1.66699 -8 -5
c-18.667 -19.333 -40.334 -36.833 -65.001 -52.5s-57.334 -23.5 -98.001 -23.5c-43.333 0 -82.5 10 -117.5 30s-62.667 49.833 -83 89.5s-30.5 88.167 -30.5 145.5c0 56 10 105.667 30 149s48.333 76.833 85 100.5s79.334 35.5 128.001 35.5c32.667 0 60 -5 82 -15
s43.667 -23 65 -39c5.33301 -4 8.66602 -6 9.99902 -6c2.66699 0 4 4.33301 4 13v134h-166c-2.66699 0 -4.5 0.5 -5.5 1.5s-1.5 3.16699 -1.5 6.5v20c0 4.66699 1.66699 7 5 7h168v70c0 6.66699 3 10 9 10h23c5.33301 0 8 -3 8 -9v-71h71c3.33301 0 5 -2 5 -6z
M461.003 426.001c-25.333 25.333 -51.002 44.335 -77.002 57.002s-53.667 19 -83 19c-39.333 0 -74.166 -9.83301 -104.499 -29.5s-54.166 -47.834 -71.499 -84.501s-26 -79.667 -26 -129c0 -50.667 8.83301 -93.334 26.5 -128.001s41.167 -60.5 70.5 -77.5
s61.666 -25.5 96.999 -25.5c30.667 0 58.834 7.5 84.501 22.5s46 33.5 61 55.5s22.5 43.333 22.5 64v256z" />
    <glyph glyph-name="Emacron" unicode="&#x112;" horiz-adv-x="612" 
d="M116 740c1.33301 1.33301 3.66602 2 6.99902 2h415c4.66699 0 7 -2.33301 7 -7v-26c0 -2.66699 -0.5 -4.5 -1.5 -5.5s-3.16699 -1.5 -6.5 -1.5h-368c-3.33301 0 -5.66602 -0.5 -6.99902 -1.5s-2 -3.5 -2 -7.5v-291c0 -2.66699 0.666992 -4.5 2 -5.5
s3.66602 -1.5 6.99902 -1.5h289c4.66699 0 7 -2.33301 7 -7v-26c0 -2.66699 -0.5 -4.5 -1.5 -5.5s-3.16699 -1.5 -6.5 -1.5h-288c-3.33301 0 -5.66602 -0.5 -6.99902 -1.5s-2 -3.5 -2 -7.5v-297c0 -4 0.666992 -6.5 2 -7.5s3.66602 -1.5 6.99902 -1.5h383
c3.33301 0 5.5 -0.5 6.5 -1.5s1.5 -2.83301 1.5 -5.5v-26c0 -4.66699 -2.33301 -7 -7 -7h-430c-3.33301 0 -5.66602 0.666992 -6.99902 2s-2 4 -2 8v722c0 4 0.666992 6.66699 2 8zM471 904c0 -5.33301 -3.33301 -8 -10 -8h-235c-4.66699 0 -7 2.66699 -7 8v23
c0 4.66699 1.66699 7 5 7h242c3.33301 0 5 -2 5 -6v-24z" />
    <glyph glyph-name="emacron" unicode="&#x113;" horiz-adv-x="577" 
d="M125 135c18 -32.667 42.332 -58.665 72.999 -77.998s64.334 -29 101.001 -29c79.333 0 137.666 31 174.999 93c3.33301 5.33301 7 6.66602 11 3.99902l23 -15c4 -2.66699 4.33301 -6 1 -10c-46 -73.333 -116 -110 -210 -110c-47.333 0 -89.5 11.333 -126.5 34
s-65.667 54.5 -86 95.5s-30.5 88.167 -30.5 141.5c0 57.333 10.333 107 31 149s49.334 74.167 86.001 96.5s78.667 33.5 126 33.5c70.667 0 126.5 -23.5 167.5 -70.5s61.5 -112.167 61.5 -195.5v-5c0 -4.66699 -0.833008 -8.33398 -2.5 -11.001s-5.16699 -4 -10.5 -4h-411
c-4 0 -6 -4.66699 -6 -14c0 -37.333 9 -72.333 27 -105zM468.999 290.002c6.66699 0 11.166 1.00293 13.499 3.00293s3.5 5.66699 3.5 11c0 36.667 -7.66699 70.167 -23 100.5s-37.166 54.166 -65.499 71.499s-61.5 26 -99.5 26c-42 0 -78 -10.333 -108 -31
s-52.833 -47.334 -68.5 -80.001s-23.167 -66.334 -22.5 -101.001h370zM422.998 692.005c0 -5.33301 -3.33301 -8 -10 -8h-235c-4.66699 0 -7 2.66699 -7 8v23c0 4.66699 1.66699 7 5 7h242c3.33301 0 5 -2 5 -6v-24z" />
    <glyph glyph-name="Ebreve" unicode="&#x114;" horiz-adv-x="612" 
d="M116 740c1.33301 1.33301 3.66602 2 6.99902 2h415c4.66699 0 7 -2.33301 7 -7v-26c0 -2.66699 -0.5 -4.5 -1.5 -5.5s-3.16699 -1.5 -6.5 -1.5h-368c-3.33301 0 -5.66602 -0.5 -6.99902 -1.5s-2 -3.5 -2 -7.5v-291c0 -2.66699 0.666992 -4.5 2 -5.5
s3.66602 -1.5 6.99902 -1.5h289c4.66699 0 7 -2.33301 7 -7v-26c0 -2.66699 -0.5 -4.5 -1.5 -5.5s-3.16699 -1.5 -6.5 -1.5h-288c-3.33301 0 -5.66602 -0.5 -6.99902 -1.5s-2 -3.5 -2 -7.5v-297c0 -4 0.666992 -6.5 2 -7.5s3.66602 -1.5 6.99902 -1.5h383
c3.33301 0 5.5 -0.5 6.5 -1.5s1.5 -2.83301 1.5 -5.5v-26c0 -4.66699 -2.33301 -7 -7 -7h-430c-3.33301 0 -5.66602 0.666992 -6.99902 2s-2 4 -2 8v722c0 4 0.666992 6.66699 2 8zM474.5 952c1 -1.33301 0.831055 -3.66797 -0.501953 -7.00098
c-5.33301 -20 -19.5 -38.833 -42.5 -56.5s-52.5 -26.5 -88.5 -26.5c-35.333 0 -63.666 8.5 -84.999 25.5s-35 36.5 -41 58.5c-2 5.33301 -0.666992 8 4 8h35c2.66699 0 4.83398 -0.666992 6.50098 -2s3.5 -3 5.5 -5c1.33301 -1.33301 4.83301 -6.16602 10.5 -14.499
s14.167 -15.333 25.5 -21s24.333 -8.5 39 -8.5c33.333 0 60 15 80 45c2.66699 4 5.66699 6 9 6h35c4 0 6.5 -0.666992 7.5 -2z" />
    <glyph glyph-name="ebreve" unicode="&#x115;" horiz-adv-x="577" 
d="M125 135c18 -32.667 42.332 -58.665 72.999 -77.998s64.334 -29 101.001 -29c79.333 0 137.666 31 174.999 93c3.33301 5.33301 7 6.66602 11 3.99902l23 -15c4 -2.66699 4.33301 -6 1 -10c-46 -73.333 -116 -110 -210 -110c-47.333 0 -89.5 11.333 -126.5 34
s-65.667 54.5 -86 95.5s-30.5 88.167 -30.5 141.5c0 57.333 10.333 107 31 149s49.334 74.167 86.001 96.5s78.667 33.5 126 33.5c70.667 0 126.5 -23.5 167.5 -70.5s61.5 -112.167 61.5 -195.5v-5c0 -4.66699 -0.833008 -8.33398 -2.5 -11.001s-5.16699 -4 -10.5 -4h-411
c-4 0 -6 -4.66699 -6 -14c0 -37.333 9 -72.333 27 -105zM468.999 290.002c6.66699 0 11.166 1.00293 13.499 3.00293s3.5 5.66699 3.5 11c0 36.667 -7.66699 70.167 -23 100.5s-37.166 54.166 -65.499 71.499s-61.5 26 -99.5 26c-42 0 -78 -10.333 -108 -31
s-52.833 -47.334 -68.5 -80.001s-23.167 -66.334 -22.5 -101.001h370zM426.498 740.005c1 -1.33301 0.831055 -3.66797 -0.501953 -7.00098c-5.33301 -20 -19.5 -38.833 -42.5 -56.5s-52.5 -26.5 -88.5 -26.5c-35.333 0 -63.666 8.5 -84.999 25.5s-35 36.5 -41 58.5
c-2 5.33301 -0.666992 8 4 8h35c2.66699 0 4.83398 -0.666992 6.50098 -2s3.5 -3 5.5 -5c1.33301 -1.33301 4.83301 -6.16602 10.5 -14.499s14.167 -15.333 25.5 -21s24.333 -8.5 39 -8.5c33.333 0 60 15 80 45c2.66699 4 5.66699 6 9 6h35c4 0 6.5 -0.666992 7.5 -2z" />
    <glyph glyph-name="Edotaccent" unicode="&#x116;" horiz-adv-x="612" 
d="M116 740c1.33301 1.33301 3.66602 2 6.99902 2h415c4.66699 0 7 -2.33301 7 -7v-26c0 -2.66699 -0.5 -4.5 -1.5 -5.5s-3.16699 -1.5 -6.5 -1.5h-368c-3.33301 0 -5.66602 -0.5 -6.99902 -1.5s-2 -3.5 -2 -7.5v-291c0 -2.66699 0.666992 -4.5 2 -5.5
s3.66602 -1.5 6.99902 -1.5h289c4.66699 0 7 -2.33301 7 -7v-26c0 -2.66699 -0.5 -4.5 -1.5 -5.5s-3.16699 -1.5 -6.5 -1.5h-288c-3.33301 0 -5.66602 -0.5 -6.99902 -1.5s-2 -3.5 -2 -7.5v-297c0 -4 0.666992 -6.5 2 -7.5s3.66602 -1.5 6.99902 -1.5h383
c3.33301 0 5.5 -0.5 6.5 -1.5s1.5 -2.83301 1.5 -5.5v-26c0 -4.66699 -2.33301 -7 -7 -7h-430c-3.33301 0 -5.66602 0.666992 -6.99902 2s-2 4 -2 8v722c0 4 0.666992 6.66699 2 8zM370 868c0 -4.66699 -0.830078 -7.83301 -2.49707 -9.5s-4.83398 -2.5 -9.50098 -2.5h-27
c-4.66699 0 -7.66699 0.666992 -9 2s-2 4 -2 8v78c0 4 0.666992 6.66699 2 8s3.66602 2 6.99902 2h32c3.33301 0 5.66602 -0.666992 6.99902 -2s2 -4 2 -8v-76z" />
    <glyph glyph-name="edotaccent" unicode="&#x117;" horiz-adv-x="577" 
d="M125 135c18 -32.667 42.332 -58.665 72.999 -77.998s64.334 -29 101.001 -29c79.333 0 137.666 31 174.999 93c3.33301 5.33301 7 6.66602 11 3.99902l23 -15c4 -2.66699 4.33301 -6 1 -10c-46 -73.333 -116 -110 -210 -110c-47.333 0 -89.5 11.333 -126.5 34
s-65.667 54.5 -86 95.5s-30.5 88.167 -30.5 141.5c0 57.333 10.333 107 31 149s49.334 74.167 86.001 96.5s78.667 33.5 126 33.5c70.667 0 126.5 -23.5 167.5 -70.5s61.5 -112.167 61.5 -195.5v-5c0 -4.66699 -0.833008 -8.33398 -2.5 -11.001s-5.16699 -4 -10.5 -4h-411
c-4 0 -6 -4.66699 -6 -14c0 -37.333 9 -72.333 27 -105zM468.999 290.002c6.66699 0 11.166 1.00293 13.499 3.00293s3.5 5.66699 3.5 11c0 36.667 -7.66699 70.167 -23 100.5s-37.166 54.166 -65.499 71.499s-61.5 26 -99.5 26c-42 0 -78 -10.333 -108 -31
s-52.833 -47.334 -68.5 -80.001s-23.167 -66.334 -22.5 -101.001h370zM264.998 656.005c0 -4.66699 -0.830078 -7.83301 -2.49707 -9.5s-4.83398 -2.5 -9.50098 -2.5h-27c-4.66699 0 -7.66699 0.666992 -9 2s-2 4 -2 8v78c0 4 0.666992 6.66699 2 8s3.66602 2 6.99902 2h32
c3.33301 0 5.66602 -0.666992 6.99902 -2s2 -4 2 -8v-76z" />
    <glyph glyph-name="Eogonek" unicode="&#x118;" horiz-adv-x="612" 
d="M584 -127v-20c0 -2 -0.333008 -3.66699 -1 -5s-2 -2.33301 -4 -3c-8.66699 -4 -20.167 -7.5 -34.5 -10.5s-28.833 -4.5 -43.5 -4.5c-30.667 0 -53.667 7 -69 21s-23 33 -23 57c0 20.667 6.33301 38.334 19 53.001s34 27.667 64 39h-369
c-3.33301 0 -5.66602 0.666992 -6.99902 2s-2 4 -2 8v722c0 4 0.666992 6.66699 2 8s3.66602 2 6.99902 2h415c4.66699 0 7 -2.33301 7 -7v-26c0 -2.66699 -0.5 -4.5 -1.5 -5.5s-3.16699 -1.5 -6.5 -1.5h-368c-3.33301 0 -5.66602 -0.5 -6.99902 -1.5s-2 -3.5 -2 -7.5v-291
c0 -2.66699 0.666992 -4.5 2 -5.5s3.66602 -1.5 6.99902 -1.5h289c4.66699 0 7 -2.33301 7 -7v-26c0 -2.66699 -0.5 -4.5 -1.5 -5.5s-3.16699 -1.5 -6.5 -1.5h-288c-3.33301 0 -5.66602 -0.5 -6.99902 -1.5s-2 -3.5 -2 -7.5v-297c0 -4 0.666992 -6.5 2 -7.5
s3.66602 -1.5 6.99902 -1.5h383c3.33301 0 5.5 -0.5 6.5 -1.5s1.5 -2.83301 1.5 -5.5v-26c0 -4.66699 -2 -7 -6 -7c-36 -16.667 -61.833 -31.834 -77.5 -45.501s-23.5 -29.834 -23.5 -48.501c0 -14 4.66699 -24.5 14 -31.5s24 -10.5 44 -10.5c14 0 27 1.33301 39 4
s20.667 5.33398 26 8.00098s8 1.66699 8 -3z" />
    <glyph glyph-name="eogonek" unicode="&#x119;" horiz-adv-x="577" 
d="M528 269c0 -4.66699 -0.834961 -8.33594 -2.50195 -11.0029s-5.16699 -4 -10.5 -4h-411c-4 0 -6 -4.66699 -6 -14c0 -37.333 9 -72.333 27 -105s42.333 -58.667 73 -78s64.334 -29 101.001 -29c79.333 0 137.666 31 174.999 93c3.33301 5.33301 7 6.66602 11 3.99902
l23 -15c4 -2.66699 4.33301 -6 1 -10c-29.333 -47.333 -69.666 -79.666 -120.999 -96.999c-32 -15.333 -55.167 -29.666 -69.5 -42.999s-21.5 -28.666 -21.5 -45.999c0 -14 4.66699 -24.5 14 -31.5s24 -10.5 44 -10.5c14 0 27 1.33301 39 4s20.667 5.33398 26 8.00098
s8 1.66699 8 -3v-20c0 -2 -0.333008 -3.66699 -1 -5s-2 -2.33301 -4 -3c-8.66699 -4 -20.167 -7.5 -34.5 -10.5s-28.833 -4.5 -43.5 -4.5c-30.667 0 -53.667 7 -69 21s-23 33 -23 57c0 31.333 15 56 45 74c-47.333 0 -89.333 11.5 -126 34.5s-65.167 55 -85.5 96
s-30.5 87.833 -30.5 140.5c0 57.333 10.333 107 31 149s49.334 74.167 86.001 96.5s78.667 33.5 126 33.5c70.667 0 126.5 -23.5 167.5 -70.5s61.5 -112.167 61.5 -195.5v-5zM482.498 292.998c2.33301 2 3.49902 5.66992 3.49902 11.0029
c0 36.667 -7.66699 70.167 -23 100.5s-37.166 54.166 -65.499 71.499s-61.5 26 -99.5 26c-42 0 -78 -10.333 -108 -31s-52.833 -47.334 -68.5 -80.001s-23.167 -66.334 -22.5 -101.001h370c6.66699 0 11.167 1 13.5 3z" />
    <glyph glyph-name="Ecaron" unicode="&#x11a;" horiz-adv-x="612" 
d="M116 740c1.33301 1.33301 3.66602 2 6.99902 2h415c4.66699 0 7 -2.33301 7 -7v-26c0 -2.66699 -0.5 -4.5 -1.5 -5.5s-3.16699 -1.5 -6.5 -1.5h-368c-3.33301 0 -5.66602 -0.5 -6.99902 -1.5s-2 -3.5 -2 -7.5v-291c0 -2.66699 0.666992 -4.5 2 -5.5
s3.66602 -1.5 6.99902 -1.5h289c4.66699 0 7 -2.33301 7 -7v-26c0 -2.66699 -0.5 -4.5 -1.5 -5.5s-3.16699 -1.5 -6.5 -1.5h-288c-3.33301 0 -5.66602 -0.5 -6.99902 -1.5s-2 -3.5 -2 -7.5v-297c0 -4 0.666992 -6.5 2 -7.5s3.66602 -1.5 6.99902 -1.5h383
c3.33301 0 5.5 -0.5 6.5 -1.5s1.5 -2.83301 1.5 -5.5v-26c0 -4.66699 -2.33301 -7 -7 -7h-430c-3.33301 0 -5.66602 0.666992 -6.99902 2s-2 4 -2 8v722c0 4 0.666992 6.66699 2 8zM428 954l40.999 -0.000976562c4 0 6 -1 6 -3c0 -1.33301 -1.66699 -3.66602 -5 -6.99902
l-98 -80c-0.666992 -0.666992 -2.5 -2.16699 -5.5 -4.5s-6.5 -3.5 -10.5 -3.5h-18c-6 0 -12.667 3 -20 9l-99 79c-3.33301 2.66699 -4.66602 5 -3.99902 7s2.66699 3 6 3h37c2.66699 0 5.16699 -0.5 7.5 -1.5s4.83301 -2.5 7.5 -4.5l62 -48c4.66699 -4 8 -6 10 -6
c1.33301 0 4.33301 2 9 6l59 48c4.66699 4 9.66699 6 15 6z" />
    <glyph glyph-name="ecaron" unicode="&#x11b;" horiz-adv-x="577" 
d="M125 135c18 -32.667 42.332 -58.665 72.999 -77.998s64.334 -29 101.001 -29c79.333 0 137.666 31 174.999 93c3.33301 5.33301 7 6.66602 11 3.99902l23 -15c4 -2.66699 4.33301 -6 1 -10c-46 -73.333 -116 -110 -210 -110c-47.333 0 -89.5 11.333 -126.5 34
s-65.667 54.5 -86 95.5s-30.5 88.167 -30.5 141.5c0 57.333 10.333 107 31 149s49.334 74.167 86.001 96.5s78.667 33.5 126 33.5c70.667 0 126.5 -23.5 167.5 -70.5s61.5 -112.167 61.5 -195.5v-5c0 -4.66699 -0.833008 -8.33398 -2.5 -11.001s-5.16699 -4 -10.5 -4h-411
c-4 0 -6 -4.66699 -6 -14c0 -37.333 9 -72.333 27 -105zM468.999 290.002c6.66699 0 11.166 1.00293 13.499 3.00293s3.5 5.66699 3.5 11c0 36.667 -7.66699 70.167 -23 100.5s-37.166 54.166 -65.499 71.499s-61.5 26 -99.5 26c-42 0 -78 -10.333 -108 -31
s-52.833 -47.334 -68.5 -80.001s-23.167 -66.334 -22.5 -101.001h370zM379.998 742.005l40.999 -0.000976562c4 0 6 -1 6 -3c0 -1.33301 -1.66699 -3.66602 -5 -6.99902l-98 -80c-0.666992 -0.666992 -2.5 -2.16699 -5.5 -4.5s-6.5 -3.5 -10.5 -3.5h-18
c-6 0 -12.667 3 -20 9l-99 79c-3.33301 2.66699 -4.66602 5 -3.99902 7s2.66699 3 6 3h37c2.66699 0 5.16699 -0.5 7.5 -1.5s4.83301 -2.5 7.5 -4.5l62 -48c4.66699 -4 8 -6 10 -6c1.33301 0 4.33301 2 9 6l59 48c4.66699 4 9.66699 6 15 6z" />
    <glyph glyph-name="Gcircumflex" unicode="&#x11c;" horiz-adv-x="730" 
d="M214.5 34.5c-44.333 29.667 -78.166 72.8359 -101.499 129.503s-35 124.667 -35 204c0 80.667 12 149.834 36 207.501s58.167 101.5 102.5 131.5s96.833 45 157.5 45c40 0 79 -8.83301 117 -26.5s69.333 -41.334 94 -71.001s39 -61.5 43 -95.5
c0 -4.66699 -1.66699 -7.33398 -5 -8.00098l-35 -6h-1c-2.66699 0 -4.66699 2 -6 6c-5.33301 29.333 -17.666 56.166 -36.999 80.499s-43.833 43.5 -73.5 57.5s-61.834 21 -96.501 21c-80 0 -141.333 -29.5 -184 -88.5s-64 -141.5 -64 -247.5
c0 -110.667 21 -195.334 63 -254.001s103.667 -88 185 -88c49.333 0 91.333 11.5 126 34.5s60.667 51.667 78 86s26 68.5 26 102.5v79c0 5.33301 -3.66699 8 -11 8h-189c-4.66699 0 -7 2 -7 6v23c0 4 1.66699 6 5 6h236c4 0 6 -2 6 -6v-360c0 -4 -0.666992 -6.83301 -2 -8.5
s-4 -2.5 -8 -2.5h-17c-4.66699 0 -8 0.5 -10 1.5s-3 3.5 -3 7.5v106c0 3.33301 -0.833008 5 -2.5 5s-3.5 -1.66699 -5.5 -5c-20.667 -38 -49.834 -68.333 -87.501 -91s-82.834 -34 -135.501 -34c-61.333 0 -114.166 14.833 -158.499 44.5zM383 910.002
c-4.66699 4 -7.66602 6 -8.99902 6c-2 0 -5.33301 -2 -10 -6l-62 -48c-2.66699 -2 -5.16699 -3.5 -7.5 -4.5s-4.83301 -1.5 -7.5 -1.5h-37c-3.33301 0 -5.33301 1 -6 3s0.666016 4.33301 3.99902 7l99 79c7.33301 6 14 9 20 9h18c4 0 7.5 -1.16699 10.5 -3.5
s4.83301 -3.83301 5.5 -4.5l98 -80c3.33301 -3.33301 5 -5.83301 5 -7.5s-2 -2.5 -6 -2.5h-41c-5.33301 0 -10.333 2 -15 6z" />
    <glyph glyph-name="gcircumflex" unicode="&#x11d;" horiz-adv-x="582" 
d="M548 527c2.66699 -2 4.00098 -5.3291 4.00098 -9.99609v-13c0 -4.66699 -1.16699 -8.33398 -3.5 -11.001s-6.83301 -4.33398 -13.5 -5.00098c-12.667 -0.666992 -23 -2 -31 -4s-16 -5.33301 -24 -10c-8.66699 -4.66699 -14.5 -8.83398 -17.5 -12.501
s-3.83301 -7.16699 -2.5 -10.5c1.33301 -2.66699 4 -8.33398 8 -17.001s7.16699 -18.5 9.5 -29.5s3.5 -22.833 3.5 -35.5c0 -47.333 -16.833 -85.833 -50.5 -115.5s-84.167 -44.5 -151.5 -44.5c-52.667 0 -90.5 -4.66699 -113.5 -14s-34.5 -21 -34.5 -35
c0 -12 8.33301 -20.667 25 -26s44.667 -9 84 -11l120 -7c52 -2.66699 90.667 -15.667 116 -39s38 -55.333 38 -96c0 -50 -20.833 -88.5 -62.5 -115.5s-100.5 -40.5 -176.5 -40.5c-76.667 0 -135.834 13 -177.501 39s-62.5 62.333 -62.5 109c0 49.333 30.667 91 92 125
c7.33301 4 7.33301 7.66699 0 11c-25.333 11.333 -38 28 -38 50c0 12 5.33301 23.833 16 35.5s27.667 21.167 51 28.5c3.33301 0.666992 5 2.33398 5 5.00098s-2 5 -6 7c-27.333 15.333 -47.333 33.666 -60 54.999s-19 47.666 -19 78.999c0 53.333 18.5 94.833 55.5 124.5
s88.5 44.5 154.5 44.5c32 0 59.5 -3.66699 82.5 -11s43.167 -18.666 60.5 -33.999c4.66699 -3.33301 7.66699 -5 9 -5c2 0 5 1.33301 9 4c15.333 11.333 29.5 20.5 42.5 27.5s27.5 10.5 43.5 10.5c7.33301 0 12.333 -1 15 -3zM441.001 371.004
c0 42 -13.667 74.001 -41 96.001s-67.333 33 -120 33c-52 0 -92.333 -11.333 -121 -34s-43 -54.334 -43 -95.001c0 -40 14.167 -70.667 42.5 -92s68.833 -32 121.5 -32c107.333 0 161 41.333 161 124zM183.001 86.0049c-11.333 0.666992 -25.5 -3.83203 -42.5 -13.499
s-31.833 -22.834 -44.5 -39.501s-19 -35.334 -19 -56.001c0 -36.667 18 -64.834 54 -84.501s87 -29.5 153 -29.5c62 0 108.833 9.66699 140.5 29s47.5 49 47.5 89c0 28.667 -8.66699 50.834 -26 66.501s-46.333 24.834 -87 27.501zM292.001 698.006
c-4.66699 4 -7.66602 6 -8.99902 6c-2 0 -5.33301 -2 -10 -6l-62 -48c-2.66699 -2 -5.16699 -3.5 -7.5 -4.5s-4.83301 -1.5 -7.5 -1.5h-37c-3.33301 0 -5.33301 1 -6 3s0.666016 4.33301 3.99902 7l99 79c7.33301 6 14 9 20 9h18c4 0 7.5 -1.16699 10.5 -3.5
s4.83301 -3.83301 5.5 -4.5l98 -80c3.33301 -3.33301 5 -5.83301 5 -7.5s-2 -2.5 -6 -2.5h-41c-5.33301 0 -10.333 2 -15 6z" />
    <glyph glyph-name="Gbreve" unicode="&#x11e;" horiz-adv-x="730" 
d="M214.5 34.5c-44.333 29.667 -78.166 72.8359 -101.499 129.503s-35 124.667 -35 204c0 80.667 12 149.834 36 207.501s58.167 101.5 102.5 131.5s96.833 45 157.5 45c40 0 79 -8.83301 117 -26.5s69.333 -41.334 94 -71.001s39 -61.5 43 -95.5
c0 -4.66699 -1.66699 -7.33398 -5 -8.00098l-35 -6h-1c-2.66699 0 -4.66699 2 -6 6c-5.33301 29.333 -17.666 56.166 -36.999 80.499s-43.833 43.5 -73.5 57.5s-61.834 21 -96.501 21c-80 0 -141.333 -29.5 -184 -88.5s-64 -141.5 -64 -247.5
c0 -110.667 21 -195.334 63 -254.001s103.667 -88 185 -88c49.333 0 91.333 11.5 126 34.5s60.667 51.667 78 86s26 68.5 26 102.5v79c0 5.33301 -3.66699 8 -11 8h-189c-4.66699 0 -7 2 -7 6v23c0 4 1.66699 6 5 6h236c4 0 6 -2 6 -6v-360c0 -4 -0.666992 -6.83301 -2 -8.5
s-4 -2.5 -8 -2.5h-17c-4.66699 0 -8 0.5 -10 1.5s-3 3.5 -3 7.5v106c0 3.33301 -0.833008 5 -2.5 5s-3.5 -1.66699 -5.5 -5c-20.667 -38 -49.834 -68.333 -87.501 -91s-82.834 -34 -135.501 -34c-61.333 0 -114.166 14.833 -158.499 44.5zM503.5 952.002
c1 -1.33301 0.831055 -3.66797 -0.501953 -7.00098c-5.33301 -20 -19.5 -38.833 -42.5 -56.5s-52.5 -26.5 -88.5 -26.5c-35.333 0 -63.666 8.5 -84.999 25.5s-35 36.5 -41 58.5c-2 5.33301 -0.666992 8 4 8h35c2.66699 0 4.83398 -0.666992 6.50098 -2s3.5 -3 5.5 -5
c1.33301 -1.33301 4.83301 -6.16602 10.5 -14.499s14.167 -15.333 25.5 -21s24.333 -8.5 39 -8.5c33.333 0 60 15 80 45c2.66699 4 5.66699 6 9 6h35c4 0 6.5 -0.666992 7.5 -2z" />
    <glyph glyph-name="gbreve" unicode="&#x11f;" horiz-adv-x="582" 
d="M548 527c2.66699 -2 4.00098 -5.3291 4.00098 -9.99609v-13c0 -4.66699 -1.16699 -8.33398 -3.5 -11.001s-6.83301 -4.33398 -13.5 -5.00098c-12.667 -0.666992 -23 -2 -31 -4s-16 -5.33301 -24 -10c-8.66699 -4.66699 -14.5 -8.83398 -17.5 -12.501
s-3.83301 -7.16699 -2.5 -10.5c1.33301 -2.66699 4 -8.33398 8 -17.001s7.16699 -18.5 9.5 -29.5s3.5 -22.833 3.5 -35.5c0 -47.333 -16.833 -85.833 -50.5 -115.5s-84.167 -44.5 -151.5 -44.5c-52.667 0 -90.5 -4.66699 -113.5 -14s-34.5 -21 -34.5 -35
c0 -12 8.33301 -20.667 25 -26s44.667 -9 84 -11l120 -7c52 -2.66699 90.667 -15.667 116 -39s38 -55.333 38 -96c0 -50 -20.833 -88.5 -62.5 -115.5s-100.5 -40.5 -176.5 -40.5c-76.667 0 -135.834 13 -177.501 39s-62.5 62.333 -62.5 109c0 49.333 30.667 91 92 125
c7.33301 4 7.33301 7.66699 0 11c-25.333 11.333 -38 28 -38 50c0 12 5.33301 23.833 16 35.5s27.667 21.167 51 28.5c3.33301 0.666992 5 2.33398 5 5.00098s-2 5 -6 7c-27.333 15.333 -47.333 33.666 -60 54.999s-19 47.666 -19 78.999c0 53.333 18.5 94.833 55.5 124.5
s88.5 44.5 154.5 44.5c32 0 59.5 -3.66699 82.5 -11s43.167 -18.666 60.5 -33.999c4.66699 -3.33301 7.66699 -5 9 -5c2 0 5 1.33301 9 4c15.333 11.333 29.5 20.5 42.5 27.5s27.5 10.5 43.5 10.5c7.33301 0 12.333 -1 15 -3zM441.001 371.004
c0 42 -13.667 74.001 -41 96.001s-67.333 33 -120 33c-52 0 -92.333 -11.333 -121 -34s-43 -54.334 -43 -95.001c0 -40 14.167 -70.667 42.5 -92s68.833 -32 121.5 -32c107.333 0 161 41.333 161 124zM183.001 86.0049c-11.333 0.666992 -25.5 -3.83203 -42.5 -13.499
s-31.833 -22.834 -44.5 -39.501s-19 -35.334 -19 -56.001c0 -36.667 18 -64.834 54 -84.501s87 -29.5 153 -29.5c62 0 108.833 9.66699 140.5 29s47.5 49 47.5 89c0 28.667 -8.66699 50.834 -26 66.501s-46.333 24.834 -87 27.501zM412.501 740.006
c1 -1.33301 0.831055 -3.66797 -0.501953 -7.00098c-5.33301 -20 -19.5 -38.833 -42.5 -56.5s-52.5 -26.5 -88.5 -26.5c-35.333 0 -63.666 8.5 -84.999 25.5s-35 36.5 -41 58.5c-2 5.33301 -0.666992 8 4 8h35c2.66699 0 4.83398 -0.666992 6.50098 -2s3.5 -3 5.5 -5
c1.33301 -1.33301 4.83301 -6.16602 10.5 -14.499s14.167 -15.333 25.5 -21s24.333 -8.5 39 -8.5c33.333 0 60 15 80 45c2.66699 4 5.66699 6 9 6h35c4 0 6.5 -0.666992 7.5 -2z" />
    <glyph glyph-name="Gdotaccent" unicode="&#x120;" horiz-adv-x="730" 
d="M214.5 34.5c-44.333 29.667 -78.166 72.8359 -101.499 129.503s-35 124.667 -35 204c0 80.667 12 149.834 36 207.501s58.167 101.5 102.5 131.5s96.833 45 157.5 45c40 0 79 -8.83301 117 -26.5s69.333 -41.334 94 -71.001s39 -61.5 43 -95.5
c0 -4.66699 -1.66699 -7.33398 -5 -8.00098l-35 -6h-1c-2.66699 0 -4.66699 2 -6 6c-5.33301 29.333 -17.666 56.166 -36.999 80.499s-43.833 43.5 -73.5 57.5s-61.834 21 -96.501 21c-80 0 -141.333 -29.5 -184 -88.5s-64 -141.5 -64 -247.5
c0 -110.667 21 -195.334 63 -254.001s103.667 -88 185 -88c49.333 0 91.333 11.5 126 34.5s60.667 51.667 78 86s26 68.5 26 102.5v79c0 5.33301 -3.66699 8 -11 8h-189c-4.66699 0 -7 2 -7 6v23c0 4 1.66699 6 5 6h236c4 0 6 -2 6 -6v-360c0 -4 -0.666992 -6.83301 -2 -8.5
s-4 -2.5 -8 -2.5h-17c-4.66699 0 -8 0.5 -10 1.5s-3 3.5 -3 7.5v106c0 3.33301 -0.833008 5 -2.5 5s-3.5 -1.66699 -5.5 -5c-20.667 -38 -49.834 -68.333 -87.501 -91s-82.834 -34 -135.501 -34c-61.333 0 -114.166 14.833 -158.499 44.5zM399 868.002
c0 -4.66699 -0.830078 -7.83301 -2.49707 -9.5s-4.83398 -2.5 -9.50098 -2.5h-27c-4.66699 0 -7.66699 0.666992 -9 2s-2 4 -2 8v78c0 4 0.666992 6.66699 2 8s3.66602 2 6.99902 2h32c3.33301 0 5.66602 -0.666992 6.99902 -2s2 -4 2 -8v-76z" />
    <glyph glyph-name="gdotaccent" unicode="&#x121;" horiz-adv-x="582" 
d="M548 527c2.66699 -2 4.00098 -5.3291 4.00098 -9.99609v-13c0 -4.66699 -1.16699 -8.33398 -3.5 -11.001s-6.83301 -4.33398 -13.5 -5.00098c-12.667 -0.666992 -23 -2 -31 -4s-16 -5.33301 -24 -10c-8.66699 -4.66699 -14.5 -8.83398 -17.5 -12.501
s-3.83301 -7.16699 -2.5 -10.5c1.33301 -2.66699 4 -8.33398 8 -17.001s7.16699 -18.5 9.5 -29.5s3.5 -22.833 3.5 -35.5c0 -47.333 -16.833 -85.833 -50.5 -115.5s-84.167 -44.5 -151.5 -44.5c-52.667 0 -90.5 -4.66699 -113.5 -14s-34.5 -21 -34.5 -35
c0 -12 8.33301 -20.667 25 -26s44.667 -9 84 -11l120 -7c52 -2.66699 90.667 -15.667 116 -39s38 -55.333 38 -96c0 -50 -20.833 -88.5 -62.5 -115.5s-100.5 -40.5 -176.5 -40.5c-76.667 0 -135.834 13 -177.501 39s-62.5 62.333 -62.5 109c0 49.333 30.667 91 92 125
c7.33301 4 7.33301 7.66699 0 11c-25.333 11.333 -38 28 -38 50c0 12 5.33301 23.833 16 35.5s27.667 21.167 51 28.5c3.33301 0.666992 5 2.33398 5 5.00098s-2 5 -6 7c-27.333 15.333 -47.333 33.666 -60 54.999s-19 47.666 -19 78.999c0 53.333 18.5 94.833 55.5 124.5
s88.5 44.5 154.5 44.5c32 0 59.5 -3.66699 82.5 -11s43.167 -18.666 60.5 -33.999c4.66699 -3.33301 7.66699 -5 9 -5c2 0 5 1.33301 9 4c15.333 11.333 29.5 20.5 42.5 27.5s27.5 10.5 43.5 10.5c7.33301 0 12.333 -1 15 -3zM441.001 371.004
c0 42 -13.667 74.001 -41 96.001s-67.333 33 -120 33c-52 0 -92.333 -11.333 -121 -34s-43 -54.334 -43 -95.001c0 -40 14.167 -70.667 42.5 -92s68.833 -32 121.5 -32c107.333 0 161 41.333 161 124zM183.001 86.0049c-11.333 0.666992 -25.5 -3.83203 -42.5 -13.499
s-31.833 -22.834 -44.5 -39.501s-19 -35.334 -19 -56.001c0 -36.667 18 -64.834 54 -84.501s87 -29.5 153 -29.5c62 0 108.833 9.66699 140.5 29s47.5 49 47.5 89c0 28.667 -8.66699 50.834 -26 66.501s-46.333 24.834 -87 27.501zM308.001 656.006
c0 -4.66699 -0.830078 -7.83301 -2.49707 -9.5s-4.83398 -2.5 -9.50098 -2.5h-27c-4.66699 0 -7.66699 0.666992 -9 2s-2 4 -2 8v78c0 4 0.666992 6.66699 2 8s3.66602 2 6.99902 2h32c3.33301 0 5.66602 -0.666992 6.99902 -2s2 -4 2 -8v-76z" />
    <glyph glyph-name="Gcommaaccent" unicode="&#x122;" horiz-adv-x="730" 
d="M214.5 34.5c-44.333 29.667 -78.166 72.8359 -101.499 129.503s-35 124.667 -35 204c0 80.667 12 149.834 36 207.501s58.167 101.5 102.5 131.5s96.833 45 157.5 45c40 0 79 -8.83301 117 -26.5s69.333 -41.334 94 -71.001s39 -61.5 43 -95.5
c0 -4.66699 -1.66699 -7.33398 -5 -8.00098l-35 -6h-1c-2.66699 0 -4.66699 2 -6 6c-5.33301 29.333 -17.666 56.166 -36.999 80.499s-43.833 43.5 -73.5 57.5s-61.834 21 -96.501 21c-80 0 -141.333 -29.5 -184 -88.5s-64 -141.5 -64 -247.5
c0 -110.667 21 -195.334 63 -254.001s103.667 -88 185 -88c49.333 0 91.333 11.5 126 34.5s60.667 51.667 78 86s26 68.5 26 102.5v79c0 5.33301 -3.66699 8 -11 8h-189c-4.66699 0 -7 2 -7 6v23c0 4 1.66699 6 5 6h236c4 0 6 -2 6 -6v-360c0 -4 -0.666992 -6.83301 -2 -8.5
s-4 -2.5 -8 -2.5h-17c-4.66699 0 -8 0.5 -10 1.5s-3 3.5 -3 7.5v106c0 3.33301 -0.833008 5 -2.5 5s-3.5 -1.66699 -5.5 -5c-20.667 -38 -49.834 -68.333 -87.501 -91s-82.834 -34 -135.501 -34c-61.333 0 -114.166 14.833 -158.499 44.5zM347.5 -233.498
c-1 1.66699 -0.833984 3.50195 0.499023 5.50195l25 54c2.66699 6 1.33398 9 -3.99902 9h-8c-3.33301 0 -5.5 0.666992 -6.5 2s-1.5 3.66602 -1.5 6.99902v66c0 5.33301 2.33301 8 7 8h45c4 0 6 -2.33301 6 -7v-76l-1 -6l-31 -59c-1.33301 -2.66699 -3 -4.33398 -5 -5.00098
s-5 -1 -9 -1h-13c-2 0 -3.5 0.833008 -4.5 2.5z" />
    <glyph glyph-name="gcommaaccent" unicode="&#x123;" horiz-adv-x="582" 
d="M251 639l0.000976562 75.998l1 6l31 59c1.33301 2.66699 3 4.33398 5 5.00098s5 1 9 1h13c2 0 3.5 -0.833008 4.5 -2.5s0.833008 -3.5 -0.5 -5.5l-25 -54c-2.66699 -6 -1.33398 -9 3.99902 -9h8c3.33301 0 5.5 -0.666992 6.5 -2s1.5 -3.66602 1.5 -6.99902v-66
c0 -5.33301 -2.33301 -8 -7 -8h-45c-4 0 -6 2.33301 -6 7zM548.001 526.998c2.66699 -2 4.00098 -5.3291 4.00098 -9.99609v-13c0 -4.66699 -1.16699 -8.33398 -3.5 -11.001s-6.83301 -4.33398 -13.5 -5.00098c-12.667 -0.666992 -23 -2 -31 -4s-16 -5.33301 -24 -10
c-8.66699 -4.66699 -14.5 -8.83398 -17.5 -12.501s-3.83301 -7.16699 -2.5 -10.5c1.33301 -2.66699 4 -8.33398 8 -17.001s7.16699 -18.5 9.5 -29.5s3.5 -22.833 3.5 -35.5c0 -47.333 -16.833 -85.833 -50.5 -115.5s-84.167 -44.5 -151.5 -44.5
c-52.667 0 -90.5 -4.66699 -113.5 -14s-34.5 -21 -34.5 -35c0 -12 8.33301 -20.667 25 -26s44.667 -9 84 -11l120 -7c52 -2.66699 90.667 -15.667 116 -39s38 -55.333 38 -96c0 -50 -20.833 -88.5 -62.5 -115.5s-100.5 -40.5 -176.5 -40.5
c-76.667 0 -135.834 13 -177.501 39s-62.5 62.333 -62.5 109c0 49.333 30.667 91 92 125c7.33301 4 7.33301 7.66699 0 11c-25.333 11.333 -38 28 -38 50c0 12 5.33301 23.833 16 35.5s27.667 21.167 51 28.5c3.33301 0.666992 5 2.33398 5 5.00098s-2 5 -6 7
c-27.333 15.333 -47.333 33.666 -60 54.999s-19 47.666 -19 78.999c0 53.333 18.5 94.833 55.5 124.5s88.5 44.5 154.5 44.5c32 0 59.5 -3.66699 82.5 -11s43.167 -18.666 60.5 -33.999c4.66699 -3.33301 7.66699 -5 9 -5c2 0 5 1.33301 9 4
c15.333 11.333 29.5 20.5 42.5 27.5s27.5 10.5 43.5 10.5c7.33301 0 12.333 -1 15 -3zM441.002 371.002c0 42 -13.667 74.001 -41 96.001s-67.333 33 -120 33c-52 0 -92.333 -11.333 -121 -34s-43 -54.334 -43 -95.001c0 -40 14.167 -70.667 42.5 -92s68.833 -32 121.5 -32
c107.333 0 161 41.333 161 124zM183.002 86.0029c-11.333 0.666992 -25.5 -3.83203 -42.5 -13.499s-31.833 -22.834 -44.5 -39.501s-19 -35.334 -19 -56.001c0 -36.667 18 -64.834 54 -84.501s87 -29.5 153 -29.5c62 0 108.833 9.66699 140.5 29s47.5 49 47.5 89
c0 28.667 -8.66699 50.834 -26 66.501s-46.333 24.834 -87 27.501z" />
    <glyph glyph-name="Hcircumflex" unicode="&#x124;" horiz-adv-x="725" 
d="M166 366c-4 0 -5.99609 -2 -5.99609 -6v-351c0 -6 -3.33301 -9 -10 -9h-27c-6 -0 -9 3.33301 -9 10v722c0 4 0.666992 6.66699 2 8s3.66602 2 6.99902 2h28c3.33301 0 5.66602 -0.666992 6.99902 -2s2 -4 2 -8v-317c0 -4 0.666992 -6.5 2 -7.5s3.66602 -1.5 6.99902 -1.5
h388c5.33301 0 8 2.66699 8 8v319c0 6 2.66699 9 8 9h29c3.33301 0 5.66602 -0.666992 6.99902 -2s2 -4 2 -8v-722c0 -6.66699 -3 -10 -9 -10h-27c-6.66699 0 -10 3 -10 9v350c0 4.66699 -2.33301 7 -7 7h-392zM372.004 910c-4.66699 4 -7.66602 6 -8.99902 6
c-2 0 -5.33301 -2 -10 -6l-62 -48c-2.66699 -2 -5.16699 -3.5 -7.5 -4.5s-4.83301 -1.5 -7.5 -1.5h-37c-3.33301 0 -5.33301 1 -6 3s0.666016 4.33301 3.99902 7l99 79c7.33301 6 14 9 20 9h18c4 0 7.5 -1.16699 10.5 -3.5s4.83301 -3.83301 5.5 -4.5l98 -80
c3.33301 -3.33301 5 -5.83301 5 -7.5s-2 -2.5 -6 -2.5h-41c-5.33301 0 -10.333 2 -15 6z" />
    <glyph glyph-name="hcircumflex" unicode="&#x125;" horiz-adv-x="576" 
d="M91 9v724.001c0 6 2.66699 9 8 9h21c5.33301 0 8 -2.66699 8 -8v-274c0 -3.33301 0.666992 -5.33301 2 -6s3.33301 0.333008 6 3c43.333 30.667 78 52.167 104 64.5s56 18.5 90 18.5c52 0 92 -13.333 120 -40s42 -62.334 42 -107.001v-383c0 -6.66699 -3 -10 -9 -10h-22
c-6 0 -9 3 -9 9v368c0 83.333 -41 125 -123 125c-33.333 0 -63.5 -6.83301 -90.5 -20.5s-62.833 -37.5 -107.5 -71.5v-401c0 -6 -3 -9 -9 -9h-22c-6 0 -9 3 -9 9zM298 920.001c-4.66699 4 -7.66602 6 -8.99902 6c-2 0 -5.33301 -2 -10 -6l-62 -48
c-2.66699 -2 -5.16699 -3.5 -7.5 -4.5s-4.83301 -1.5 -7.5 -1.5h-37c-3.33301 0 -5.33301 1 -6 3s0.666016 4.33301 3.99902 7l99 79c7.33301 6 14 9 20 9h18c4 0 7.5 -1.16699 10.5 -3.5s4.83301 -3.83301 5.5 -4.5l98 -80c3.33301 -3.33301 5 -5.83301 5 -7.5
s-2 -2.5 -6 -2.5h-41c-5.33301 0 -10.333 2 -15 6z" />
    </font>
</defs>
</svg>
