<?xml version="1.0" standalone="no"?>
<!DOCTYPE svg PUBLIC "-//W3C//DTD SVG 1.1//EN" "http://www.w3.org/Graphics/SVG/1.1/DTD/svg11.dtd" >
<svg xmlns="http://www.w3.org/2000/svg" xmlns:xlink="http://www.w3.org/1999/xlink" version="1.1">
<metadata></metadata>
<defs>
<font id="oswalddemi-bold" horiz-adv-x="1077" >
<font-face units-per-em="2048" ascent="1638" descent="-410" />
<missing-glyph horiz-adv-x="477" />
<glyph horiz-adv-x="0" />
<glyph unicode="&#xd;" horiz-adv-x="682" />
<glyph unicode=" "  horiz-adv-x="477" />
<glyph unicode="&#x09;" horiz-adv-x="477" />
<glyph unicode="&#xa0;" horiz-adv-x="477" />
<glyph unicode="!" horiz-adv-x="495" d="M44 0l31 289h291l-31 -289h-291zM180 401l42 1254h303l-239 -1254h-106z" />
<glyph unicode="&#x22;" horiz-adv-x="749" d="M158 1075l61 583h262l-178 -583h-145zM517 1075l61 583h262l-177 -583h-146z" />
<glyph unicode="#" horiz-adv-x="1066" d="M66 -1l129 566h-102l25 199h127l48 215h-151l24 202h182l109 477h226l-110 -477h164l110 477h224l-110 -477h97l-25 -202h-126l-49 -215h151l-25 -199h-176l-130 -566h-224l130 566h-165l-130 -566h-223zM468 764h166l50 215h-166z" />
<glyph unicode="$" horiz-adv-x="1004" d="M54 419q0 36 3 75l292 52q-4 -45 -4 -84q0 -231 139 -231q61 0 92.5 39t38.5 101q2 22 2 42q1 71 -27 122q-36 66 -121 148l-168 161q-61 58 -97 110q-35 52 -55 130q-13 51 -13 108q0 32 4 67q19 188 138 297t308 121l18 171h94l-17 -170q83 -6 143.5 -36t94 -72.5 t52.5 -104t23 -117.5q2 -32 2 -69q0 -28 -1 -58l-290 -47q3 51 3 94q0 20 -1 40q-2 58 -30 94q-26 32 -75 32h-9q-59 -3 -94.5 -43t-41.5 -100q-2 -19 -2 -37q-1 -24 3 -44q6 -36 26 -67.5t38 -52.5t51 -53l165 -159q51 -50 87 -97t67 -107q30 -60 42 -132q7 -42 7 -87 q0 -32 -3 -65q-18 -166 -129.5 -278t-279.5 -131l-20 -181h-93l18 179q-210 9 -302 137q-78 108 -78 303z" />
<glyph unicode="%" horiz-adv-x="2022" d="M153 1067q0 44 5 94l8 80q23 220 119 321t299 101q204 0 280 -99q59 -76 58 -222q0 -44 -5 -94l-10 -90q-22 -217 -121.5 -322t-298.5 -105q-198 0 -275 107q-59 82 -59 229zM409 1051q1 -5 1 -7q0 -52 23.5 -80.5t74.5 -28.5q31 0 54 11.5t37.5 29.5t24.5 50t15 63 t10 78l8 72q7 66 7 113v7q0 49 -24 74t-77 25q-76 0 -101.5 -49t-37.5 -170l-8 -73q-7 -65 -7 -115zM622 0l658 1658h193l-658 -1658h-193zM1176 334q0 43 5 91l9 80q23 220 119 321t299 101q204 0 280 -99q58 -75 58 -219q0 -45 -6 -97l-9 -90q-23 -217 -122.5 -322 t-298.5 -105q-198 0 -274 107q-59 83 -60 232zM1433 317q1 -5 1 -9q0 -52 23.5 -80.5t74.5 -28.5q31 0 54 11.5t37.5 29.5t24.5 50t15 62.5t10 78.5l8 72q7 66 7 113v7q0 49 -24 74t-77 25q-32 0 -55 -10t-37 -25.5t-24 -46.5t-14.5 -59.5t-9.5 -77.5l-8 -73q-6 -65 -6 -113 z" />
<glyph unicode="&#x26;" horiz-adv-x="1192" d="M78 306q0 26 3 55q15 144 96 276t192 228q-13 33 -44 105t-47 114q-15 40 -27 104q-8 42 -8 82q0 20 2 39q17 160 124.5 265.5t268.5 105.5q158 0 252 -92q80 -79 80 -204q0 -21 -2 -44q-4 -37 -13 -73t-25.5 -71t-31 -63t-41 -61.5t-42.5 -54t-48 -53.5t-46 -47 t-49 -46.5t-44 -41.5l166 -360q28 46 55 142.5t42 190.5h232q-29 -269 -187 -507q18 -27 55.5 -47.5t77.5 -22.5l-26 -246q-32 -6 -48 -6q-23 0 -44 4t-42.5 16t-35.5 19.5t-36 27.5t-29 26.5t-30.5 31.5t-25.5 27q-62 -70 -150.5 -109t-189.5 -39q-167 1 -258 107 q-76 89 -76 222zM338 342q0 -58 22 -97q28 -51 79 -51q103 0 178 88q-153 346 -161 375q-100 -133 -116 -280q-2 -18 -2 -35zM508 1251q0 -27 7.5 -72.5t13 -71.5t14 -65t11.5 -52q51 72 101.5 176.5t59.5 184.5q1 8 1 15q0 38 -22 62q-26 29 -70 29q-47 0 -78.5 -39 t-36.5 -98q-1 -42 -1 -69z" />
<glyph unicode="'" horiz-adv-x="575" d="M179 1075l61 583h254l-163 -583h-152z" />
<glyph unicode="(" horiz-adv-x="670" d="M122 146q-1 26 0 55q0 47 2 103q4 92 10.5 165.5t16.5 171.5q11 103 20.5 179t25 169.5t32.5 161.5t42 144t55 129t70.5 104t88.5 81.5t109.5 48.5t133.5 18l-22 -210q-35 0 -64.5 -21.5t-53 -58t-43.5 -96.5t-34.5 -123.5t-29 -154.5t-24.5 -174.5t-22 -196.5 q-14 -131 -21 -229q-8 -98 -12 -196q-1 -36 -1 -68q0 -54 4 -96q6 -66 20.5 -120t42 -79.5t66.5 -25.5l-22 -210q-72 0 -129.5 18.5t-99 50t-72 82.5t-49 105t-28.5 129q-10 76 -12 144z" />
<glyph unicode=")" horiz-adv-x="627" d="M-22 -383l22 211q47 0 85 40t65 106.5t50 175.5t38.5 222t32.5 271q14 134 21.5 229t11.5 196q2 43 2 80q0 50 -3 88q-6 66 -20 121.5t-42 82t-69 26.5l22 210q92 0 161 -30t112.5 -78t70 -129t37.5 -161q10 -70 10 -168q-1 -13 -1 -27q-2 -116 -8.5 -211t-20.5 -229 q-10 -98 -19.5 -172t-25 -165.5t-32.5 -159.5t-42 -143.5t-55 -129t-71 -105t-89 -83t-109.5 -50t-133.5 -18.5z" />
<glyph unicode="*" horiz-adv-x="855" d="M178 1337l88 184l196 -114v250h227l-52 -251l220 115l50 -185l-236 -87l131 -211l-193 -107l-86 230l-134 -230l-168 106l172 213z" />
<glyph unicode="+" horiz-adv-x="904" d="M83 755l20 191h292l34 326h208l-34 -326h298l-20 -191h-298l-35 -331h-208l35 331h-292z" />
<glyph unicode="," horiz-adv-x="455" d="M34 0l31 290h293l-28 -261q-28 -279 -280 -313l-15 107q63 15 106.5 58.5t51.5 118.5h-159z" />
<glyph unicode="-" horiz-adv-x="754" d="M132 578l22 204h510l-21 -204h-511z" />
<glyph unicode="." horiz-adv-x="465" d="M44 0l31 294h292l-31 -294h-292z" />
<glyph unicode="/" horiz-adv-x="836" d="M30 0l659 1658h190l-660 -1658h-189z" />
<glyph unicode="0" d="M92 375q0 38 4 79l77 739q24 227 148 357t344 130q219 0 316 -130q78 -105 78 -271q0 -41 -5 -86l-77 -739q-23 -218 -151.5 -349t-339.5 -131q-213 0 -313 130q-81 106 -81 271zM410 400q0 -155 105 -155q125 0 147 215l76 726q3 29 4 50t0.5 49t-7 48t-17.5 38.5 t-32 28t-49 9.5q-34 0 -60 -15t-40.5 -35.5t-25 -54t-14.5 -58.5t-8 -60l-76 -726q-3 -32 -3 -60z" />
<glyph unicode="1" d="M271 1246l24 232q85 31 188.5 81t151.5 99h241l-174 -1658h-311l139 1328z" />
<glyph unicode="2" d="M57 0l23 219l465 624q13 18 46.5 61.5t50 65.5t42.5 62t39.5 69.5t26 68.5t16.5 77q2 22 2 41q0 58 -22 92q-26 40 -81 40q-7 0 -15 -1q-136 -11 -162 -249l-8 -74h-303l8 78q12 114 46.5 204t93.5 159t150 106.5t209 37.5q216 -1 314 -115q81 -94 80 -249q0 -35 -4 -73 q-3 -31 -10 -62.5t-13.5 -56.5t-20.5 -56t-22.5 -50t-28.5 -50.5t-29 -46t-34 -48t-33 -44.5t-36.5 -47.5t-35.5 -45.5l-376 -490h490l-26 -247h-842z" />
<glyph unicode="3" d="M92 367q0 47 6 99l6 59h311q-1 -3 -3 -25.5t-3 -25.5q-4 -45 -4 -80q1 -67 15 -104q22 -56 101 -56q80 0 112 58t45 185q4 42 4 77q0 37 -4 65q-10 55 -48 88t-109 36q-4 1 -50 1l25 239h45q108 2 155 57t60 182q3 33 3 60q-1 62 -17 98q-24 52 -100 51q-40 0 -68.5 -16 t-45.5 -48t-26 -68.5t-16 -89.5q0 -27 -7 -69h-311l10 87q22 217 150.5 335.5t338.5 118.5q213 -1 317 -115q85 -94 85 -257q0 -35 -4 -72q-15 -141 -84.5 -237t-167.5 -123q178 -66 178 -310q0 -39 -5 -83q-12 -116 -46 -207.5t-93 -160.5t-149 -105.5t-207 -36.5 q-399 0 -399 393z" />
<glyph unicode="4" d="M62 395l28 259l530 1005h355l-107 -1023h166l-25 -241h-166l-42 -395h-285l41 395h-495zM339 636h243l74 699z" />
<glyph unicode="5" d="M110 357q0 59 9 126h303q-7 -70 -7 -124v-23q3 -62 31 -95q28 -32 84 -32h3q27 1 49 10.5t37.5 23.5t28 42.5t20 52t14.5 67.5t10.5 74.5t9.5 87.5q8 83 8 147v8q0 67 -29 107t-90 40q-112 0 -160 -146h-268l118 935h764l-28 -272h-506l-57 -367q31 32 91 53.5t130 26.5 q17 1 33 1q166 0 239 -124q60 -102 60 -270q0 -57 -7 -121q-12 -113 -31 -198.5t-56 -166t-91 -132.5t-137.5 -83t-192.5 -31q-127 0 -209 36.5t-119.5 103t-48.5 160.5q-5 40 -5 83z" />
<glyph unicode="6" d="M108 426q0 48 5 100l60 574q11 103 31.5 185.5t59 158t93.5 126t136 80t185 29.5q218 0 307 -106q73 -87 73 -245q0 -34 -3 -70q0 -2 -1 -13.5t-1 -12.5h-297q5 48 5 84q0 16 -1 30q-3 46 -28.5 70t-77.5 24q-75 0 -111 -74.5t-56 -263.5l-18 -175q31 47 90 73.5 t134 28.5h7q75 0 131 -22q59 -23 94.5 -66t57 -103t23.5 -132v-32q0 -58 -5 -121q-61 -575 -501 -575q-115 0 -197.5 41.5t-126.5 116.5t-60 173q-9 55 -8 117zM415 381q0 -167 113 -167q39 0 67 19.5t45.5 60t27.5 88t17 116.5q7 82 11 148v16q0 54 -23 90q-26 40 -86 41 q-45 0 -82.5 -25t-58.5 -59l-27 -258q-4 -38 -4 -70z" />
<glyph unicode="7" d="M235 0l488 1422h-472l24 236h777l-21 -212l-494 -1446h-302z" />
<glyph unicode="8" d="M97 376q0 53 7 112q15 135 73.5 234.5t158.5 151.5q-131 106 -131 303q0 29 3 59q19 210 138 326.5t325 116.5q205 -1 298 -117q73 -92 73 -241q0 -40 -5 -85q-28 -244 -203 -362q89 -52 127 -152q29 -76 29 -171q0 -30 -3 -63q-47 -512 -495 -512q-395 0 -395 400z M398 380q2 -46 10 -84t35.5 -62.5t72.5 -24.5t77 23.5t49.5 66t25.5 81t13 89.5q7 41 7 81v16q-2 48 -10.5 85t-35.5 60t-70 23t-74.5 -22t-50 -62.5t-28 -82.5t-15.5 -98q-6 -35 -6 -73v-16zM499 1164q0 -171 99 -171q119 0 146 255q3 26 3 49q0 56 -17 94q-24 54 -84 54 q-62 0 -97 -53t-45 -143q-5 -47 -5 -85z" />
<glyph unicode="9" d="M101 328q0 36 4 75q0 1 1 11t1 12h297q-4 -42 -4 -74q0 -56 12 -86q20 -48 96 -48q74 0 108 73t55 265l18 174q-67 -98 -223 -101h-6q-75 -1 -132 23q-59 24 -94 69t-56 107t-23 135v33q0 58 5 121q14 128 48.5 228.5t93.5 176.5t149.5 116.5t208.5 40.5 q115 0 197.5 -39.5t127.5 -111.5t61 -168q8 -52 8 -111q0 -49 -6 -104l-61 -587q-11 -103 -31.5 -186t-59.5 -158t-94 -126t-136.5 -80.5t-185.5 -29.5q-219 0 -307 107q-72 87 -72 243zM470 1008q0 -34 3 -53q21 -87 104 -90q81 0 135 84l27 258q4 44 4 84q0 17 -1 31 q-2 52 -28.5 87t-77.5 35q-74 0 -107.5 -70.5t-49.5 -213.5q-9 -96 -9 -152z" />
<glyph unicode=":" horiz-adv-x="516" d="M95 145l31 287h289l-30 -287h-290zM169 843l30 288h290l-31 -288h-289z" />
<glyph unicode=";" horiz-adv-x="538" d="M87 67l31 290h293l-28 -261q-30 -292 -278 -293l-15 107q141 14 156 157h-159zM172 881l30 293h290l-30 -293h-290z" />
<glyph unicode="&#x3c;" horiz-adv-x="801" d="M75 589l27 254l666 435l-29 -276l-430 -284l370 -288l-29 -274z" />
<glyph unicode="=" horiz-adv-x="892" d="M129 527l20 196h646l-20 -196h-646zM169 909l20 196h646l-20 -196h-646z" />
<glyph unicode="&#x3e;" horiz-adv-x="801" d="M80 156l29 274l430 288l-370 284l29 276l576 -435l-26 -254z" />
<glyph unicode="?" horiz-adv-x="996" d="M167 1245q0 13 1 23q0 186 113 301t325 115q214 0 317 -111q86 -92 86 -246q0 -31 -4 -65q-18 -179 -137 -341.5t-293 -292.5l-20 -198h-276l28 261q381 302 399 582v15q0 61 -30 95q-34 38 -93 38q-58 0 -93 -38t-36 -101q-1 -10 -1 -23q0 -30 8 -73l-283 -60 q-11 75 -11 119zM224 0l31 293h299l-31 -293h-299z" />
<glyph unicode="@" horiz-adv-x="1931" d="M116 426q0 111 23 238q76 468 365.5 731.5t721.5 263.5q135 0 246.5 -30.5t189.5 -86.5t134.5 -133.5t81.5 -171.5t31 -201q1 -22 1 -45q0 -86 -18 -177q-13 -87 -44 -172.5t-82 -166t-116 -141.5t-153.5 -98t-187.5 -37q-91 0 -156 42.5t-75 120.5q-28 -60 -82 -102 t-125 -48q-17 -1 -34 -1q-139 0 -209 106q-61 91 -61 219q0 39 6 81q10 79 38 163.5t75.5 169t108.5 151t144 108t174 41.5q27 0 49.5 -11t37 -28.5t24.5 -34t18 -32.5q1 -2 1.5 -4t1.5 -3l31 98h237l-173 -701q-18 -78 -18 -116q0 -14 2 -23q6 -23 26 -27q10 -1 20 -1 q56 1 116 49q70 58 122 162t72 226q15 100 15 190v20q-2 98 -36 181t-93 142.5t-156.5 92.5t-225.5 33q-168 0 -309 -60t-241 -168t-165.5 -251t-94.5 -314q-22 -115 -22 -213q0 -204 94 -335q140 -193 494 -193q83 0 195 17.5t206 46.5l18 -196q-264 -66 -468 -66 q-433 1 -633 247q-142 175 -142 448zM837 569q0 -29 5 -53q8 -44 38 -72q25 -23 63 -23q7 0 15 1q20 4 40.5 13t48 34.5t40.5 60.5l115 476q-3 11 -19.5 16t-31.5 5q-78 0 -147 -61.5t-111 -155t-53 -195.5q-3 -24 -3 -46z" />
<glyph unicode="A" horiz-adv-x="1093" d="M-10 0l501 1658h360l151 -1658h-307l-24 370h-267l-101 -370h-313zM458 577h202l-31 664z" />
<glyph unicode="B" horiz-adv-x="1168" d="M73 0l174 1658h418q92 0 163.5 -11t134.5 -40t101.5 -76.5t55.5 -123.5q10 -45 10 -98q0 -38 -5 -79q-35 -300 -279 -338q255 -43 255 -333q0 -35 -4 -73q-24 -243 -160.5 -364.5t-371.5 -121.5h-492zM429 233h95q129 0 185 60.5t70 196.5q4 35 4 66q0 95 -36 143 q-47 63 -178 63h-85zM508 988h83q127 0 179.5 55.5t65.5 181.5q2 21 2 40q0 86 -46 122q-56 44 -188 44h-49z" />
<glyph unicode="C" horiz-adv-x="1124" d="M99 404q0 62 6 131l61 584q14 135 48 234.5t96.5 174.5t162 113t235.5 38q129 0 216.5 -33.5t133.5 -98.5t60 -149q7 -41 8 -90q0 -6 -1 -12q0 -45 -5 -96l-16 -144h-321l16 153q3 31 4 40.5t2.5 36.5t0.5 37t-3.5 31.5t-8.5 30t-15 22t-22 19t-31.5 10t-41.5 4.5 q-34 0 -60 -8.5t-44 -26.5t-30 -37.5t-20 -51.5t-12.5 -58t-8.5 -65l-76 -733q-5 -44 -5 -80q0 -66 17 -104q26 -58 111 -58q33 0 58 8t42 27t27.5 37t18 51t11 55.5t7.5 63.5l17 159h321l-14 -139q-12 -115 -43.5 -202t-90 -157t-154.5 -106.5t-227 -36.5q-109 0 -190 26 t-130 74.5t-77 117.5t-32 154q-1 26 -1 54z" />
<glyph unicode="D" horiz-adv-x="1161" d="M73 0l174 1658h400q156 0 257 -29.5t156.5 -95t71.5 -159.5q8 -49 8 -110q0 -57 -7 -126l-63 -598q-20 -192 -80 -307t-183.5 -174t-324.5 -59h-409zM429 231h72q41 0 72.5 6.5t53.5 16t38.5 30.5t26.5 39.5t17.5 54t11.5 62.5t9 77l69 654q6 55 6 97q-1 28 -3 50 q-6 56 -46.5 81t-131.5 25h-70z" />
<glyph unicode="E" horiz-adv-x="892" d="M73 0l174 1658h717l-24 -230h-386l-47 -446h301l-24 -232h-301l-55 -523h391l-24 -227h-722z" />
<glyph unicode="F" horiz-adv-x="861" d="M73 0l174 1658h698l-23 -227h-367l-48 -453h303l-24 -232h-303l-79 -746h-331z" />
<glyph unicode="G" horiz-adv-x="1161" d="M96 418q0 63 9 134l57 545q12 112 35.5 200t65.5 161t102 121t146 74t196 26q130 0 218 -32.5t136 -97t63 -151.5q8 -48 8 -106q0 -46 -5 -99l-10 -92h-320l11 107q5 60 5 106v16q-1 52 -31.5 81t-95.5 29q-42 0 -72.5 -15t-48.5 -36t-30 -58.5t-17 -68t-10 -79.5 l-75 -709q-4 -43 -4 -80q1 -29 3 -54q6 -57 38.5 -89t95.5 -32q94 0 137.5 68.5t57.5 199.5l16 159h-166l22 205h465l-90 -851h-217l-5 155q-92 -178 -294 -178q-122 0 -206 40.5t-126 114.5q-43 76 -57 182q-7 50 -7 104z" />
<glyph unicode="H" horiz-adv-x="1210" d="M73 0l174 1658h331l-71 -682h302l71 682h331l-174 -1658h-331l78 739h-302l-78 -739h-331z" />
<glyph unicode="I" horiz-adv-x="586" d="M80 0l174 1658h328l-174 -1658h-328z" />
<glyph unicode="J" horiz-adv-x="689" d="M-32 -38l24 233h12h6q110 0 154 35q47 38 60 155l133 1273h331l-134 -1284q-13 -108 -39 -181.5t-74.5 -127t-125.5 -78.5t-187 -25h-160z" />
<glyph unicode="K" horiz-adv-x="1117" d="M73 0l174 1658h331l-73 -699l379 699h319l-391 -745l242 -913h-334l-187 763l-57 -85l-72 -678h-331z" />
<glyph unicode="L" horiz-adv-x="875" d="M73 0l174 1658h331l-150 -1431h389l-24 -227h-720z" />
<glyph unicode="M" horiz-adv-x="1413" d="M68 0l201 1658h347l102 -1077l337 1077h338l-147 -1658h-243l95 1124l-337 -1124h-201l-106 1129l-140 -1129h-246z" />
<glyph unicode="N" horiz-adv-x="1128" d="M73 0l174 1658h231l284 -875l92 875h275l-174 -1658h-220l-282 929l-98 -929h-282z" />
<glyph unicode="O" horiz-adv-x="1172" d="M96 405q0 56 7 120l65 613q28 269 155 405t389 136q134 0 225 -36t141 -107q48 -72 64 -170q8 -51 9 -111q0 -55 -7 -117l-65 -613q-28 -268 -156.5 -407.5t-389.5 -139.5q-134 0 -225 36.5t-140 109t-64 170.5q-8 51 -8 111zM429 362q0 -16 1 -30q2 -50 33.5 -82 t94.5 -32q48 0 81.5 17.5t52 52t27 70.5t14.5 88l81 771q3 41 3 77q-1 18 -1 35q-2 50 -34 80.5t-95 30.5q-48 0 -81 -16.5t-51 -50.5t-26.5 -69t-14.5 -87l-81 -771q-4 -45 -4 -84z" />
<glyph unicode="P" horiz-adv-x="1103" d="M73 0l174 1658h511q386 0 386 -381q0 -44 -5 -94q-14 -127 -56.5 -217.5t-111 -142t-152 -74.5t-188.5 -23h-150l-77 -726h-331zM505 957h106q115 0 159.5 50.5t57.5 179.5q5 49 5 87q0 24 -2 45q-5 53 -45 79.5t-126 26.5h-106z" />
<glyph unicode="Q" horiz-adv-x="1172" d="M96 405q0 56 7 120l65 613q28 269 155 405t389 136q134 0 225 -36t141 -107q48 -72 64 -170q8 -51 9 -111q0 -55 -7 -117l-65 -613q-40 -379 -276 -493q35 -57 97 -124t104 -99l-146 -152q-65 37 -152.5 133.5t-138.5 188.5q-11 -1 -34 -1q-134 0 -225 36.5t-140 109 t-64 170.5q-8 51 -8 111zM429 362q0 -16 1 -30q2 -50 33.5 -82t94.5 -32q48 0 81.5 17.5t52 52t27 70.5t14.5 88l81 771q3 41 3 77q-1 18 -1 35q-2 50 -34 80.5t-95 30.5q-48 0 -81 -16.5t-51 -50.5t-26.5 -69t-14.5 -87l-81 -771q-4 -45 -4 -84z" />
<glyph unicode="R" horiz-adv-x="1165" d="M73 0l174 1658h413q105 0 184 -12.5t144 -43.5t104 -80q40 -50 56 -126q9 -42 9 -91v-10q0 -37 -4 -77q-16 -156 -77 -257t-178 -151l160 -810h-329l-126 750h-120l-79 -750h-331zM504 952h82q124 0 182 57t72 186q3 31 3 58v5q0 77 -29 118q-40 56 -158 57h-101z" />
<glyph unicode="S" horiz-adv-x="1024" d="M80 418q0 36 3 76l292 52q-4 -45 -4 -84q0 -231 139 -231q61 0 92.5 39t38.5 101q2 19 2 36v6q0 44 -13 83q-18 56 -48.5 94.5t-87.5 92.5l-168 161q-92 88 -134 181q-30 68 -31 163q0 34 4 71q21 200 151 309.5t336 110.5h7q92 0 159 -26q70 -27 109.5 -69.5t62 -105 t28.5 -122.5q3 -31 3 -66v-18q0 -24 -1 -51l-290 -47q3 51 3 94q0 20 -1 40q-2 58 -30 94q-25 32 -74 32h-9q-59 -3 -95 -43.5t-42 -99.5q-2 -15 -2 -30q0 -41 13 -77q17 -49 39 -76.5t66 -70.5l166 -159q51 -50 87 -97t66.5 -107t42.5 -132q7 -41 7 -84q0 -33 -4 -68 q-19 -181 -148 -296.5t-319 -115.5q-230 0 -330 128q-85 109 -86 312z" />
<glyph unicode="T" horiz-adv-x="887" d="M112 1414l26 244h860l-25 -244h-262l-149 -1414h-331l149 1414h-268z" />
<glyph unicode="U" horiz-adv-x="1176" d="M109 403q0 65 9 138l117 1117h324l-121 -1158q-4 -40 -6 -70q-1 -15 0 -31v-33q2 -34 10 -58t22 -44.5t39 -30.5t59 -10q40 0 70.5 16t49 40t31.5 63t19 74t11 84l121 1158h325l-118 -1117q-12 -111 -34 -195.5t-62 -156t-98.5 -116.5t-143.5 -70t-197 -25 q-139 0 -230 38t-134.5 110t-56.5 177q-6 47 -6 100z" />
<glyph unicode="V" horiz-adv-x="1062" d="M168 1658h288l81 -1138l307 1138h300l-497 -1658h-333z" />
<glyph unicode="W" horiz-adv-x="1453" d="M186 1658h280l12 -1021l261 1021h221l52 -1019l227 1019h275l-394 -1658h-276l-56 1059l-274 -1059h-281z" />
<glyph unicode="X" horiz-adv-x="1035" d="M-33 0l423 886l-237 772h312l149 -484l218 484h285l-396 -843l249 -815h-310l-162 528l-248 -528h-283z" />
<glyph unicode="Y" horiz-adv-x="1004" d="M142 1658h310l122 -599l234 599h304l-431 -1006l-68 -652h-317l68 652z" />
<glyph unicode="Z" horiz-adv-x="878" d="M21 0l22 209l551 1222h-404l24 227h737l-18 -173l-572 -1258h442l-24 -227h-758z" />
<glyph unicode="[" horiz-adv-x="695" d="M22 -384l215 2042h504l-13 -126h-249l-189 -1789h249l-14 -127h-503z" />
<glyph unicode="\" horiz-adv-x="836" d="M204 1658h190l311 -1658h-189z" />
<glyph unicode="]" horiz-adv-x="660" d="M-46 -384l13 126h250l187 1789h-249l13 127h503l-213 -2042h-504z" />
<glyph unicode="^" horiz-adv-x="965" d="M118 976l359 682h258l217 -682h-266l-107 430l-196 -430h-265z" />
<glyph unicode="_" horiz-adv-x="740" d="M-84 -326l21 210h741l-22 -210h-740z" />
<glyph unicode="`" horiz-adv-x="621" d="M219 1658h310l80 -410h-180z" />
<glyph unicode="a" horiz-adv-x="949" d="M53 234q0 16 2 32q5 46 18 87.5t29.5 74.5t43.5 64t50 53t60.5 45.5t62.5 37.5t68 33t66.5 28t68.5 25.5t63 23.5l11 107q3 25 3 45q-1 34 -9 54q-14 32 -62 33q-82 0 -97 -114l-14 -80l-287 11q1 5 3.5 22.5t2.5 18.5q33 190 143.5 279t298.5 89q176 0 254 -96 q62 -77 62 -199q0 -33 -3 -65l-58 -546q-10 -101 -10 -214q0 -41 1 -83h-273q-11 129 -11 171q-32 -81 -96.5 -136t-154.5 -55q-79 1 -137 44q-56 43 -80 107q-18 49 -19 103zM345 311q1 -43 17 -72q22 -36 64 -36q28 0 58.5 20.5t51.5 45.5l34 324q-88 -44 -151.5 -113 t-72.5 -144q-1 -13 -1 -25z" />
<glyph unicode="b" horiz-adv-x="1005" d="M58 0l174 1658h304l-58 -563q126 108 251 108h7q49 -1 87.5 -17.5t62.5 -45t41.5 -65.5t23 -79t7.5 -86q1 -13 1 -25q0 -30 -4 -59l-47 -441q-12 -117 -48.5 -205.5t-104.5 -144t-160 -55.5q-116 0 -224 108l-9 -88h-304zM385 223q51 -34 107 -34h2q50 1 74 49 q24 50 34 134l50 471q3 26 3 48q0 114 -76 114h-6q-49 -1 -110 -43z" />
<glyph unicode="c" horiz-adv-x="926" d="M71 323q0 38 5 79l40 381q21 202 129 311t306 109h4q188 0 271 -89q68 -72 68 -204q0 -34 -3 -68l-12 -109h-288l12 116q3 26 3 46q0 44 -12 65q-17 31 -63 31q-50 0 -73.5 -37.5t-33.5 -134.5l-48 -458q-4 -36 -4 -63q0 -46 11 -68q17 -34 65 -34q1 0 1 -1q47 0 69 33 t31 104l14 140h289l-13 -126q-20 -181 -124.5 -273.5t-291.5 -92.5q-199 0 -284 110q-68 87 -68 233z" />
<glyph unicode="d" horiz-adv-x="997" d="M72 284q0 46 6 99l42 405q13 121 49 211t106.5 147t168.5 57q118 0 210 -92l57 547h304l-174 -1658h-304l9 85q-113 -104 -228 -105q-246 0 -246 304zM377 309q0 -122 81 -122q43 0 102 31l79 751q-46 31 -95 31q-50 0 -77.5 -44t-35.5 -113l-51 -482q-3 -28 -3 -52z" />
<glyph unicode="e" horiz-adv-x="936" d="M76 404l39 375q22 207 131.5 315.5t306.5 108.5q202 0 279 -110q59 -85 59 -233q0 -44 -5 -95l-20 -190h-471l-20 -191q-4 -48 -4 -86q1 -5 1 -9q0 -41 18.5 -65t57.5 -24q49 0 74.5 34t32.5 103l12 107h285l-10 -92q-19 -180 -126 -276t-290 -96q-200 0 -286 109 q-68 87 -68 234q0 41 4 81zM411 722h185l12 116q2 24 2 43q0 45 -12 69q-18 34 -68 34q-1 0 -2 1q-50 0 -74 -39t-34 -137z" />
<glyph unicode="f" horiz-adv-x="639" d="M89 973l21 211h122l8 72q7 72 18 121.5t34.5 97t60 75.5t94.5 45t137 17q59 0 155 -11l-24 -226q-70 10 -73 10q-85 0 -97 -109l-10 -92h159l-21 -211h-159l-103 -973h-303l102 973h-121z" />
<glyph unicode="g" horiz-adv-x="983" d="M-19 -164q0 9 1 18q15 136 194 244q-122 46 -122 137q0 64 38 111q40 49 125 113q-59 49 -85 121q-16 45 -16 109v7q0 35 4 75q23 219 134.5 325.5t298.5 106.5t249 -110q79 84 174 128l43 20l54 -159q-34 -9 -105 -37t-103 -47q31 -64 31 -160q0 -32 -3 -68 q-20 -192 -121 -299t-291 -107q-38 0 -89.5 9.5t-73.5 19.5q-42 -52 -42 -80q0 -35 103 -48q16 -3 108 -13t122 -15q157 -17 219 -87q51 -57 51 -157q0 -21 -2 -43q-17 -153 -117 -230t-316 -77q-51 0 -90 1t-91.5 6t-91 13.5t-78 24.5t-63.5 38q-24 21 -38 54 q-10 25 -11 56zM267 -77q1 -39 37 -57q40 -20 160 -21q84 0 125 19.5t48 64.5q3 15 3 27q0 33 -20 50q-26 24 -102 32l-182 20q-63 -75 -68 -125q-1 -5 -1 -10zM404 685q0 -41 8 -71q16 -60 77 -60q64 0 88.5 50t38.5 178q9 65 9 112q-1 38 -7 64q-14 56 -80 56 q-28 0 -48 -10t-32.5 -26.5t-21.5 -48t-14 -63t-10 -84.5q-8 -55 -8 -97z" />
<glyph unicode="h" horiz-adv-x="1008" d="M59 0l174 1658h304l-61 -584q148 129 306 129q102 0 145 -75q34 -59 34 -141q0 -23 -3 -48l-98 -939h-304l92 882q2 16 2 30q0 30 -9 46q-13 24 -55 23q-48 0 -125 -51l-98 -930h-304z" />
<glyph unicode="i" horiz-adv-x="525" d="M62 0l124 1184h304l-124 -1184h-304zM206 1377l25 235h305l-25 -235h-305z" />
<glyph unicode="j" horiz-adv-x="539" d="M-109 -322l23 218q40 -7 58 -7q99 0 111 111l124 1184h304l-128 -1220q-14 -142 -102 -225.5t-232 -83.5q-84 0 -158 23zM227 1377l25 235h306l-25 -235h-306z" />
<glyph unicode="k" horiz-adv-x="1040" d="M58 2l175 1658h302l-99 -936l340 460h335l-350 -479l222 -705h-325l-148 573l-102 -120l-48 -451h-302z" />
<glyph unicode="l" horiz-adv-x="538" d="M72 0l174 1658h304l-174 -1658h-304z" />
<glyph unicode="m" horiz-adv-x="1487" d="M56 0l124 1184h303l-10 -101q143 120 298 120q138 0 171 -139q151 139 318 139q103 0 146 -75q34 -59 34 -141q0 -23 -3 -48l-99 -939h-303l93 882q1 14 1 26q0 32 -9 50q-13 24 -55 23q-49 0 -118 -44q0 -1 -1 -6v-5l-98 -926h-301l92 882q2 15 2 28q1 29 -9 47 q-13 24 -54 24h-3q-47 0 -117 -45l-99 -936h-303z" />
<glyph unicode="n" horiz-adv-x="1001" d="M56 0l124 1184h304l-12 -117q158 136 303 136q102 0 145 -75q34 -59 34 -141q0 -23 -3 -48l-98 -939h-304l92 882q2 16 2 30q0 30 -9 46q-13 24 -55 23q-48 0 -121 -48l-98 -933h-304z" />
<glyph unicode="o" horiz-adv-x="956" d="M70 313q0 34 4 71l43 416q20 194 132 298.5t304 104.5q193 0 284 -104q74 -84 74 -229q0 -33 -4 -70l-43 -416q-21 -195 -134 -299.5t-305 -104.5t-282 104q-73 85 -73 229zM369 276q1 -38 20.5 -62t57.5 -24q57 0 80.5 44t32.5 129l48 458q3 33 3 59q-1 42 -9 70 q-14 44 -70 44q-1 0 -1 1q-55 0 -79 -45t-32 -129l-48 -458q-3 -39 -3 -72v-15z" />
<glyph unicode="p" horiz-adv-x="1002" d="M15 -390l165 1574h304l-8 -89q126 108 251 108h7q49 -1 87.5 -17.5t62.5 -45t41 -65.5t23 -79t8 -86v-21q0 -32 -4 -63l-46 -441q-19 -180 -98.5 -292.5t-215.5 -112.5q-116 0 -223 109l-50 -479h-304zM383 223q51 -34 105 -34q36 0 60.5 26.5t35 64.5t16.5 92l49 471 q3 26 3 48q0 114 -77 114h-6q-47 -1 -108 -43z" />
<glyph unicode="q" horiz-adv-x="999" d="M72 284q0 46 6 99l42 405q13 121 49 211t106.5 147t168.5 57q119 0 213 -96l8 77h304l-165 -1574h-304l50 479q-117 -108 -232 -109q-246 0 -246 304zM377 309q0 -122 83 -122q41 0 104 33l78 747q-50 33 -96 33q-51 0 -79.5 -44t-35.5 -113l-51 -482q-3 -28 -3 -52z" />
<glyph unicode="r" horiz-adv-x="733" d="M60 0l124 1184h304l-19 -188q131 203 265 203q18 0 44 -6l-31 -285q-35 12 -71 12h-5q-65 -2 -118 -33t-106 -98l-83 -789h-304z" />
<glyph unicode="s" horiz-adv-x="836" d="M22 289l230 88q18 -91 56 -140q35 -46 87 -46h6q39 2 67 29q29 28 29 66q0 58 -117 168l-117 110q-151 141 -151 285q0 18 2 36q17 142 125.5 230t255.5 88q142 0 225 -81.5t100 -224.5l-208 -88q-10 75 -40.5 126t-82.5 53h-3q-40 0 -66 -24q-28 -24 -31 -59 q-3 -22 14 -51.5t38 -52t58 -57.5l117 -117q33 -32 52.5 -52.5t45.5 -55t39 -65t21 -71.5q5 -25 5 -51q0 -16 -2 -33q-16 -150 -129.5 -234.5t-268.5 -84.5q-295 0 -357 309z" />
<glyph unicode="t" horiz-adv-x="700" d="M87 984l20 200h115l37 353h307l-38 -353h176l-21 -200h-175l-69 -650q-1 -9 -1 -17q0 -85 97 -88h6q27 0 82 8l-25 -237q-106 -15 -185 -15h-26q-70 2 -120.5 22t-78 55t-42.5 83t-15 104.5t5 120.5l65 614h-114z" />
<glyph unicode="u" horiz-adv-x="995" d="M70 198q0 23 3 48l98 938h304l-93 -889q-2 -15 -2 -28q0 -30 10 -47q13 -24 53 -24h3q46 1 113 44l99 944h304l-124 -1184h-304l12 110q-154 -129 -297 -129h-3q-100 0 -142 75q-34 59 -34 142z" />
<glyph unicode="v" horiz-adv-x="843" d="M98 1184h295l23 -813l189 813h292l-358 -1184h-332z" />
<glyph unicode="w" horiz-adv-x="1221" d="M122 1184h252l19 -724l187 724h222l25 -733l181 733h239l-308 -1184h-258l-44 706l-200 -706h-261z" />
<glyph unicode="x" horiz-adv-x="873" d="M-31 0l322 641l-188 543h302l107 -307l153 307h250l-307 -587l207 -597h-303l-118 343l-163 -343h-262z" />
<glyph unicode="y" horiz-adv-x="882" d="M39 -329l23 215q119 0 163 24q41 22 41 90v9q-1 41 -22 179l-160 996h292l71 -735l197 735h293l-411 -1247q-25 -76 -68.5 -129t-103.5 -82.5t-126.5 -42t-148.5 -12.5h-40z" />
<glyph unicode="z" horiz-adv-x="776" d="M19 0l21 198l415 763h-306l23 223h624l-19 -179l-415 -780h334l-23 -225h-654z" />
<glyph unicode="{" horiz-adv-x="727" d="M99 536l23 215q32 0 51 3t36.5 15.5t26.5 29.5t18 55t14.5 80.5t13.5 116.5l22 207q7 70 14 116t19.5 93t28.5 75.5t42.5 56.5t60 42.5t82 26.5t107.5 16t138 4l-22 -209q-32 0 -53.5 -2.5t-40 -7.5t-30 -17.5t-21 -27t-15.5 -43t-10.5 -58t-9.5 -78.5l-24 -231 q-18 -173 -65.5 -261t-139.5 -109q89 -21 117 -110q17 -55 17 -140q0 -54 -7 -120l-24 -232q-5 -48 -7 -78.5t-1.5 -58t6.5 -42.5t14.5 -27.5t26 -17.5t38.5 -7.5t53 -2.5l-22 -209q-63 0 -112.5 2.5t-91 10t-72 16.5t-54 25.5t-39 34t-25.5 45t-14.5 55t-4.5 68.5t2.5 80 t8.5 94l22 207q8 75 11 117q2 32 2 61v19q-1 38 -6.5 54.5t-20 29.5t-33 15.5t-50.5 2.5z" />
<glyph unicode="|" horiz-adv-x="527" d="M48 -348l211 2007h258l-211 -2007h-258z" />
<glyph unicode="}" horiz-adv-x="751" d="M-10 -401l23 209q32 0 53.5 2.5t40 7.5t30 17.5t21 27t15.5 43t10.5 58t9.5 78.5l24 232q18 172 66 260.5t140 109.5q-88 22 -117 110q-18 55 -18 141q0 54 7 119l24 231q5 48 7 78.5t1.5 58t-6.5 42.5t-14.5 27.5t-26 17.5t-38.5 7.5t-53 2.5l22 209q126 0 203 -12.5 t126 -42t65 -78.5t19 -123q1 -13 1 -27q0 -65 -12 -147l-22 -207q-7 -75 -11 -117q-3 -33 -3 -63v-17q1 -38 6.5 -55t20 -29.5t33.5 -15.5t51 -3l-23 -215q-32 0 -51.5 -2.5t-36.5 -15.5t-26 -29.5t-18 -54.5t-14.5 -80.5t-13.5 -116.5l-22 -207q-10 -94 -20 -150.5 t-32 -110.5t-53 -82t-85 -50.5t-126 -30t-177 -7.5z" />
<glyph unicode="~" horiz-adv-x="973" d="M119 859q52 67 129 123.5t135 56.5q48 0 110.5 -29.5t119 -59t89.5 -29.5q50 0 151 93l95 -117q-48 -74 -127 -136t-142 -62q-48 0 -111 30t-120 60t-91 30q-26 0 -70.5 -26t-82.5 -66z" />
<glyph unicode="&#xa1;" horiz-adv-x="468" d="M-3 -330l239 1255h106l-42 -1255h-303zM156 1037l31 289h291l-31 -289h-291z" />
<glyph unicode="&#xa2;" horiz-adv-x="891" d="M69 324q0 37 4 78l40 381q19 186 113 293.5t264 124.5l21 210h82l-22 -208q179 -5 257 -94q63 -72 63 -203q0 -30 -3 -64l-12 -109h-288l11 111q3 28 3 50q0 41 -11 61q-17 31 -64 31q-50 0 -73 -37.5t-33 -134.5l-47 -448q-4 -36 -4 -63q0 -46 11 -68q17 -35 64 -35 q48 0 70.5 33t30.5 104l14 135h289l-13 -126q-38 -355 -393 -365l-22 -211h-82l23 213q-167 17 -238 125q-55 84 -55 216z" />
<glyph unicode="&#xa3;" horiz-adv-x="948" d="M-22 0l18 167l128 58l47 448h-121l24 235h121l19 182q8 76 17 134t25.5 122.5t38 110.5t55.5 90.5t77 71.5t103 43.5t133 16.5q82 0 141.5 -20.5t94 -58t54 -89.5t21.5 -116v-33q0 -50 -4 -104l-6 -57h-256q5 60 7 110v9q0 44 -17 74q-19 32 -60 32q-25 0 -44 -14 t-30.5 -34.5t-21 -58.5t-14 -69t-10.5 -84l-27 -259h240l-24 -234h-240l-45 -423h436l-27 -250h-853z" />
<glyph unicode="&#xa4;" horiz-adv-x="1138" d="M77 411l180 162q-83 105 -83 242q0 25 3 51q18 169 142 293l-146 162l33 30l145 -162q135 115 302 115h2.5h3.5q169 0 278 -115l179 162l27 -30l-179 -162q82 -105 82 -241q0 -25 -3 -52q-18 -169 -142 -293l146 -162l-33 -30l-145 162q-133 -115 -302 -115h-2.5h-3.5 q-167 0 -278 115l-179 -162zM274 824q0 -116 73 -202q86 -101 227 -101t248.5 101t122.5 244q2 21 2 42q0 116 -73 202q-86 101 -228 101q-141 0 -248 -101t-122 -244q-2 -21 -2 -42z" />
<glyph unicode="&#xa5;" horiz-adv-x="967" d="M133 1658h310l113 -674l243 674h303l-389 -957h136l-17 -166h-172l-14 -130h172l-17 -163h-172l-26 -242h-317l26 242h-172l17 163h172l14 130h-172l17 166h136z" />
<glyph unicode="&#xa6;" horiz-adv-x="444" d="M26 -348l88 835h219l-88 -835h-219zM149 824l87 834h220l-87 -834h-220z" />
<glyph unicode="&#xa7;" horiz-adv-x="944" d="M78 315l215 59q17 -65 54.5 -115t96.5 -50q54 0 88.5 26t41.5 73q2 12 2 24q0 38 -20 68q-26 40 -93 84l-187 121q-76 50 -114 114q-27 47 -27 108q0 23 4 48q14 92 69 157t131 92q-68 41 -114 111q-41 62 -41 132q0 9 1 19q6 97 64.5 170t149 109.5t199.5 36.5 q153 0 239.5 -91.5t105.5 -240.5l-211 -56q-7 34 -17 60.5t-27 53t-44.5 41t-62.5 14.5q-51 -1 -83 -27t-37 -75q-3 -25 4.5 -46t26.5 -39t29.5 -26t32.5 -22l182 -120q144 -96 144 -248q0 -17 -2 -35q-9 -84 -56 -143.5t-128 -106.5q76 -66 110 -130q27 -51 27 -114 q0 -17 -2 -34q-16 -152 -127 -242t-286 -90q-152 0 -235 91t-103 239zM390 869q0 -21 8 -41q10 -24 29 -35l114 -70q88 44 95 108v10q0 57 -53 92l-91 60q-41 -16 -69.5 -46.5t-32.5 -69.5v-8z" />
<glyph unicode="&#xa8;" horiz-adv-x="857" d="M186 1376l30 282h259l-30 -282h-259zM601 1376l30 282h259l-29 -282h-260z" />
<glyph unicode="&#xa9;" horiz-adv-x="1795" d="M111 723q0 56 6 113q13 128 54.5 249t117 233t178 195t247 133t313.5 50t302.5 -50t217.5 -133t136 -195t68 -233q9 -67 9 -136q0 -56 -6 -113q-14 -128 -55 -249t-116.5 -233t-177 -195.5t-246 -133.5t-313.5 -50t-303 50t-218.5 133.5t-136.5 195.5t-68 233 q-9 67 -9 136zM213 726q0 -62 8 -120q15 -110 61.5 -210.5t121.5 -174t191.5 -117t262.5 -43.5q145 0 270.5 43.5t216.5 117t158.5 173.5t105.5 210.5t51 229.5q5 54 5 107q1 63 -7 123q-14 110 -61.5 209t-122.5 172t-191 116t-262 43t-271.5 -43t-216 -116t-158.5 -172 t-105.5 -209t-50.5 -230q-6 -55 -6 -109zM490 601q0 35 4 74l35 338q21 201 137.5 310t333.5 109q208 0 300 -89q77 -74 77 -211q0 -28 -3 -59l-11 -96h-311l11 98q2 23 2 42q0 47 -14 70q-20 32 -71 32q-55 0 -82.5 -38.5t-37.5 -135.5l-43 -407q-3 -32 -3 -57 q0 -52 14 -76q20 -36 73 -36q54 0 79.5 34t33.5 105l11 112h311l-10 -103q-19 -179 -132 -271t-318 -92q-216 0 -310 110q-76 89 -76 237z" />
<glyph unicode="&#xaa;" horiz-adv-x="970" d="M172 854q0 14 1 28q5 47 22 88t38.5 71t58 58t65 45.5t75 36.5t74 28.5t76.5 25.5t68 22l12 111q1 15 1 28q0 84 -56 84q-42 0 -62 -37.5t-35 -122.5l-258 6q20 174 123.5 265.5t272.5 91.5q284 0 284 -281q0 -34 -4 -71l-70 -673h-242l2 136q-34 -66 -94 -108.5 t-135 -42.5q-110 1 -168 71q-49 60 -49 140zM440 918q0 -33 15 -55q19 -27 55 -27q28 0 55.5 18t46.5 45l26 249q-80 -37 -135.5 -94.5t-61.5 -117.5q-1 -10 -1 -18z" />
<glyph unicode="&#xab;" horiz-adv-x="984" d="M78 546l12 117l430 479l-33 -316l-213 -222l166 -222l-33 -315zM513 546l12 117l431 479l-33 -316l-213 -222l166 -222l-33 -315z" />
<glyph unicode="&#xac;" horiz-adv-x="952" d="M119 742l22 211h778l-53 -503h-150l31 292h-628z" />
<glyph unicode="&#xad;" horiz-adv-x="745" d="M151 695l21 203h500l-21 -203h-500z" />
<glyph unicode="&#xae;" horiz-adv-x="1824" d="M129 714q0 56 6 114q13 128 54 248t116.5 231.5t177 194.5t245.5 132.5t312 49.5q106 0 198.5 -20t164 -56t131.5 -86t100.5 -111t71 -130.5t44 -144.5t18.5 -153q2 -26 2 -52q0 -52 -7 -103q-11 -106 -42 -207t-82 -198t-126.5 -178t-169.5 -142.5t-218 -96t-265 -34.5 q-168 0 -301.5 50t-217.5 133t-136 195q-51 111 -67 231q-8 65 -9 133zM252 723q0 -61 8 -117q14 -106 58.5 -202.5t116.5 -167.5t184 -113t252 -42q139 0 259 42t206.5 113t151 167t101 203t48.5 221q6 53 6 104q0 59 -8 117q-14 106 -58.5 202t-116.5 167t-183 112.5 t-250 41.5q-140 0 -260.5 -41.5t-207.5 -112.5t-152 -166.5t-101 -202t-48 -221.5q-6 -53 -6 -104zM558 312l110 1042h333q187 0 271 -68q71 -57 71 -177q0 -23 -3 -48q-10 -98 -53 -158.5t-129 -98.5l133 -492h-263l-101 442h-71l-47 -442h-251zM869 883h41 q96 0 137.5 39.5t50.5 127.5q2 16 2 30q0 122 -125 122h-73z" />
<glyph unicode="&#xaf;" horiz-adv-x="435" d="M96 1506l16 152h482l-16 -152h-482z" />
<glyph unicode="&#xb0;" horiz-adv-x="1057" d="M216 1232q0 28 3 57q19 178 137 284t298 106q181 0 278 -106q81 -89 81 -228q0 -27 -3 -56q-19 -178 -138 -284.5t-300 -106.5q-180 0 -276 106q-80 89 -80 228zM418 1255q0 -74 37 -123q45 -60 136 -60q92 0 149.5 60t67.5 157q2 17 2 34q0 73 -37 121q-45 59 -137 59 t-149 -58.5t-67 -155.5q-2 -18 -2 -34z" />
<glyph unicode="&#xb1;" horiz-adv-x="919" d="M78 0l21 196h662l-20 -196h-663zM142 608l20 191h232l24 237h200l-24 -237h231l-20 -191h-231l-25 -237h-200l25 237h-232z" />
<glyph unicode="&#xb2;" horiz-adv-x="856" d="M160 658l18 178l319 417q10 14 37 47.5t41 53t32.5 49.5t28.5 58.5t13 57.5q2 13 2 24q0 39 -20 61t-54 22q-9 0 -18 -1q-50 -7 -73 -51.5t-35 -160.5h-217l6 56q17 161 104 255t245 94q145 0 220 -79q63 -66 63 -175q0 -22 -3 -46q-4 -34 -15.5 -70.5t-21 -60t-37 -65.5 t-36.5 -55t-46.5 -63t-42.5 -57l-235 -311h328l-18 -178h-585z" />
<glyph unicode="&#xb3;" horiz-adv-x="857" d="M178 915q0 36 5 76l3 36h223l-4 -41q-3 -31 -3 -55q0 -45 10 -68q16 -36 66 -36q46 0 70 36t33 121q3 28 3 51q0 57 -16 88q-22 44 -90 44h-58l15 144h55q71 0 101.5 42.5t41.5 143.5q3 23 3 42q0 41 -12 65q-17 35 -63 35q-47 0 -70 -34.5t-30 -103.5l-7 -60h-223l7 65 q16 150 105 231t236 81t219 -80q60 -66 60 -178q0 -23 -3 -48q-12 -104 -58.5 -174.5t-103.5 -84.5q111 -43 111 -203q0 -28 -3 -59q-17 -163 -102.5 -258t-245.5 -95q-169 0 -229 92q-46 70 -46 185z" />
<glyph unicode="&#xb4;" horiz-adv-x="621" d="M195 1248l166 410h309l-294 -410h-181z" />
<glyph unicode="&#xb5;" horiz-adv-x="979" d="M3 -376l162 1560h304l-93 -882q-1 -14 -1 -26q0 -31 9 -49q13 -25 55 -24q46 1 113 44l98 937h304l-124 -1184h-304l11 101q-84 -71 -164 -97q-3 -1 -8.5 -3t-10 -3.5t-8.5 -2.5l-39 -371h-304z" />
<glyph unicode="&#xb6;" horiz-adv-x="1050" d="M159 1290q0 22 2 46q9 88 46 151.5t96 100t129 53.5t155 17h452l-195 -1854h-178l178 1690h-158l-178 -1690h-187l128 1214q-145 2 -224 86q-66 70 -66 186z" />
<glyph unicode="&#xb7;" horiz-adv-x="426" d="M84 627l30 287h291l-30 -287h-291z" />
<glyph unicode="&#xb8;" horiz-adv-x="556" d="M-12 -522l15 136q31 -9 71 -13q23 -2 45 -2q17 0 34 1q39 3 66.5 18.5t30.5 42.5q3 24 -6.5 43t-26 31.5t-41.5 22t-47.5 14.5t-50.5 9l23 219h122l-13 -130q110 -7 182 -60q65 -48 65 -123q0 -7 -1 -15q-6 -74 -52 -125.5t-114 -72.5q-66 -21 -144 -21q-2 1 -4 1 q-80 0 -154 24z" />
<glyph unicode="&#xb9;" horiz-adv-x="852" d="M277 1496l18 169q2 1 37 14.5t57.5 23.5t56.5 27t59.5 35t41.5 37h181l-119 -1144h-227l95 907q-9 -11 -93.5 -38t-106.5 -31z" />
<glyph unicode="&#xba;" horiz-adv-x="970" d="M191 931q0 27 3 57l37 349q17 168 115 257.5t265 89.5q163 0 245 -92q68 -76 68 -201q0 -26 -3 -54l-37 -349q-17 -164 -118 -255.5t-264 -91.5q-167 -1 -246 89q-65 74 -65 201zM441 941q0 -13 1 -25q2 -36 21.5 -58t56.5 -22q56 0 79 41t32 122l35 327q3 28 3 52 q0 44 -10 70q-15 41 -70 41q-54 0 -78.5 -42t-32.5 -121l-34 -327q-3 -31 -3 -58z" />
<glyph unicode="&#xbb;" horiz-adv-x="1013" d="M58 67l33 315l223 223l-176 221l33 316l340 -479l-12 -117zM494 67l33 315l223 223l-176 221l33 316l339 -479l-12 -117z" />
<glyph unicode="&#xbc;" horiz-adv-x="1486" d="M201 1345l15 143q148 72 236 170h94l-87 -829h-192l59 555zM226 0l868 1658h177l-869 -1658h-176zM792 232l15 137l349 499h155l-52 -494h111l-15 -142h-111l-24 -231h-172l24 231h-280zM936 374h151l29 270z" />
<glyph unicode="&#xbd;" horiz-adv-x="1486" d="M164 1345l16 143q149 74 236 170h94l-87 -829h-192l59 555zM197 0l868 1658h177l-869 -1658h-176zM852 2l15 139l215 262q4 5 27 33t30.5 37.5t25 34.5t24.5 40t15 37t10 42q1 12 1 22q0 72 -55 72q-40 0 -60 -41q-19 -39 -19 -95v-6h-178q1 46 2 52q13 106 82.5 168 t183.5 62q117 -1 175 -61q49 -51 50 -137q0 -16 -2 -34q-9 -80 -54 -151t-133 -172q-24 -25 -144 -165h269l-15 -139h-465z" />
<glyph unicode="&#xbe;" horiz-adv-x="1486" d="M163 1073q0 17 2 35h159q-1 -14 -1 -25q0 -74 54 -74q34 0 48 25.5t19 73.5q1 12 1 22q1 43 -19 60q-24 21 -95 21l13 120q70 0 99.5 21.5t35.5 80.5q2 20 2 36q0 25 -5 41q-9 26 -44 26q-38 0 -53.5 -25.5t-20.5 -73.5h-158q12 114 78 172.5t176 58.5q106 0 153 -58 q38 -47 38 -127q0 -19 -2 -39q-7 -72 -52.5 -116.5t-107.5 -49.5q130 -17 130 -140q0 -14 -2 -29q-11 -111 -73.5 -171.5t-169.5 -60.5q-108 0 -161 62q-44 51 -44 134zM262 0l868 1658h177l-869 -1658h-176zM827 232l14 137l350 499h154l-51 -494h110l-15 -142h-110 l-25 -231h-172l25 231h-280zM971 374h151l28 270z" />
<glyph unicode="&#xbf;" horiz-adv-x="1067" d="M70 -17q0 31 4 65q19 179 137.5 341.5t292.5 292.5l21 198h276l-28 -261q-382 -303 -399 -582q-1 -9 -1 -18q0 -59 30 -92q34 -38 93 -38q58 0 93.5 38t36.5 101q1 11 1 22q0 34 -9 74l283 60q12 -79 12 -122q0 -11 -1 -20q0 -186 -113.5 -301t-325.5 -115 q-214 0 -317 111q-86 92 -86 246zM526 1017l31 293h298l-30 -293h-299z" />
<glyph unicode="&#xc0;" horiz-adv-x="1093" d="M-10 0l501 1658h360l151 -1658h-307l-24 370h-267l-101 -370h-313zM384 2211h310l80 -410h-180zM458 577h202l-31 664z" />
<glyph unicode="&#xc1;" horiz-adv-x="1093" d="M-10 0l501 1658h360l151 -1658h-307l-24 370h-267l-101 -370h-313zM458 577h202l-31 664zM594 1801l166 410h310l-295 -410h-181z" />
<glyph unicode="&#xc2;" horiz-adv-x="1093" d="M-10 0l501 1658h360l151 -1658h-307l-24 370h-267l-101 -370h-313zM363 1801l227 380h263l153 -380h-224l-73 241l-123 -241h-223zM458 577h202l-31 664z" />
<glyph unicode="&#xc3;" horiz-adv-x="1093" d="M-10 0l501 1658h360l151 -1658h-307l-24 370h-267l-101 -370h-313zM363 1816q13 128 58.5 197.5t143.5 74.5h12q45 0 93 -19q54 -22 97.5 -47t62.5 -26q4 -1 8 -1q46 0 53 79h144q-6 -56 -16.5 -99.5t-30 -84.5t-52.5 -64t-78 -25h-7q-41 1 -91 23q-56 24 -105.5 49.5 t-77.5 25.5q-53 0 -62 -83h-152zM458 577h202l-31 664z" />
<glyph unicode="&#xc4;" horiz-adv-x="1093" d="M-10 0l501 1658h360l151 -1658h-307l-24 370h-267l-101 -370h-313zM347 1801l30 282h259l-30 -282h-259zM458 577h202l-31 664zM762 1801l30 282h259l-29 -282h-260z" />
<glyph unicode="&#xc5;" horiz-adv-x="1093" d="M-10 0l501 1658h360l151 -1658h-307l-24 370h-267l-101 -370h-313zM454 1861q0 16 2 34q11 107 84.5 168t177.5 61q105 0 166 -61q52 -52 52 -139q0 -14 -1 -29q-12 -107 -86 -169t-179 -62q-104 0 -165 62q-51 52 -51 135zM458 577h202l-31 664zM586 1879q0 -38 21 -64 q25 -32 76 -32q50 0 81.5 31.5t36.5 80.5q1 8 1 16q0 38 -21 64q-25 32 -75 31q-51 0 -82.5 -31.5t-36.5 -79.5q-1 -8 -1 -16z" />
<glyph unicode="&#xc6;" horiz-adv-x="1414" d="M-101 0l891 1642h696l-23 -227h-369l-47 -442h262l-24 -232h-262l-54 -514h369l-24 -227h-661l39 368h-275l-191 -368h-327zM513 582h201l57 540z" />
<glyph unicode="&#xc7;" horiz-adv-x="1124" d="M99 404q0 62 6 131l61 584q14 135 48 234.5t96.5 174.5t162 113t235.5 38q129 0 216.5 -33.5t133.5 -98.5t60 -149q8 -46 7 -102q0 -45 -5 -96l-16 -144h-321l16 153q3 31 4 40.5t2.5 36.5t0.5 37t-3.5 31.5t-8.5 30t-15 22t-22 19t-31.5 10t-41.5 4.5q-34 0 -60 -8.5 t-44 -26.5t-30 -37.5t-20 -51.5t-12.5 -58t-8.5 -65l-76 -733q-5 -44 -5 -80q0 -66 17 -104q26 -58 111 -58q33 0 58 8t42 27t27.5 37t18 51t11 55.5t7.5 63.5l17 159h321l-14 -139q-12 -115 -43.5 -202t-90 -157t-154.5 -106.5t-227 -36.5q-109 0 -190 26t-130 74.5 t-77 117.5t-32 154q-1 26 -1 54zM348 -522l15 136q31 -9 71 -13q23 -2 45 -2q17 0 34 1q39 3 66.5 18.5t30.5 42.5q3 24 -6.5 43t-26 31.5t-41.5 22t-47.5 14.5t-50.5 9l23 219h122l-13 -130q110 -7 182 -60q65 -48 65 -123q0 -7 -1 -15q-6 -74 -52 -125.5t-114 -72.5 q-66 -21 -144 -21q-2 1 -4 1q-80 0 -154 24z" />
<glyph unicode="&#xc8;" horiz-adv-x="892" d="M73 0l174 1658h717l-24 -230h-386l-47 -446h301l-24 -232h-301l-55 -523h391l-24 -227h-722zM322 2211h310l80 -410h-180z" />
<glyph unicode="&#xc9;" horiz-adv-x="892" d="M73 0l174 1658h717l-24 -230h-386l-47 -446h301l-24 -232h-301l-55 -523h391l-24 -227h-722zM532 1801l166 410h310l-295 -410h-181z" />
<glyph unicode="&#xca;" horiz-adv-x="892" d="M73 0l174 1658h717l-24 -230h-386l-47 -446h301l-24 -232h-301l-55 -523h391l-24 -227h-722zM301 1801l227 380h263l153 -380h-224l-73 241l-123 -241h-223z" />
<glyph unicode="&#xcb;" horiz-adv-x="892" d="M73 0l174 1658h717l-24 -230h-386l-47 -446h301l-24 -232h-301l-55 -523h391l-24 -227h-722zM285 1801l30 282h259l-30 -282h-259zM700 1801l30 282h259l-29 -282h-260z" />
<glyph unicode="&#xcc;" horiz-adv-x="586" d="M80 0l174 1658h328l-174 -1658h-328zM132 2211h310l80 -410h-180z" />
<glyph unicode="&#xcd;" horiz-adv-x="586" d="M80 0l174 1658h328l-174 -1658h-328zM342 1801l166 410h310l-295 -410h-181z" />
<glyph unicode="&#xce;" horiz-adv-x="586" d="M80 0l174 1658h328l-174 -1658h-328zM111 1801l227 380h263l153 -380h-224l-73 241l-123 -241h-223z" />
<glyph unicode="&#xcf;" horiz-adv-x="586" d="M80 0l174 1658h328l-174 -1658h-328zM95 1801l30 282h259l-30 -282h-259zM510 1801l30 282h259l-29 -282h-260z" />
<glyph unicode="&#xd0;" horiz-adv-x="1158" d="M60 767l18 171h92l75 720h400q156 0 257 -29.5t156.5 -95t71.5 -159.5q8 -49 8 -110q0 -57 -7 -126l-63 -598q-20 -192 -80 -307t-183.5 -174t-324.5 -59h-409l81 767h-92zM427 231h72q41 0 72.5 6.5t53.5 16t38.5 30.5t26.5 39.5t17.5 54t11.5 62.5t9 77l69 654 q6 55 6 97q-1 28 -3 50q-6 56 -46.5 81t-131.5 25h-70l-51 -486h92l-18 -171h-92z" />
<glyph unicode="&#xd1;" horiz-adv-x="1128" d="M73 0l174 1658h231l284 -875l92 875h275l-174 -1658h-220l-282 929l-98 -929h-282zM381 1816q13 128 58.5 197.5t143.5 74.5h12q45 0 93 -19q54 -22 97.5 -47t62.5 -26q4 -1 8 -1q46 0 53 79h144q-6 -56 -16.5 -99.5t-30 -84.5t-52.5 -64t-78 -25h-7q-41 1 -91 23 q-56 24 -105.5 49.5t-77.5 25.5q-53 0 -62 -83h-152z" />
<glyph unicode="&#xd2;" horiz-adv-x="1172" d="M96 405q0 56 7 120l65 613q28 269 155 405t389 136q134 0 225 -36t141 -107q48 -72 64 -170q8 -51 9 -111q0 -55 -7 -117l-65 -613q-28 -268 -156.5 -407.5t-389.5 -139.5q-134 0 -225 36.5t-140 109t-64 170.5q-8 51 -8 111zM425 2211h310l80 -410h-180zM429 362 q0 -16 1 -30q2 -50 33.5 -82t94.5 -32q48 0 81.5 17.5t52 52t27 70.5t14.5 88l81 771q3 41 3 77q-1 18 -1 35q-2 50 -34 80.5t-95 30.5q-48 0 -81 -16.5t-51 -50.5t-26.5 -69t-14.5 -87l-81 -771q-4 -45 -4 -84z" />
<glyph unicode="&#xd3;" horiz-adv-x="1172" d="M96 405q0 56 7 120l65 613q28 269 155 405t389 136q134 0 225 -36t141 -107q48 -72 64 -170q8 -51 9 -111q0 -55 -7 -117l-65 -613q-28 -268 -156.5 -407.5t-389.5 -139.5q-134 0 -225 36.5t-140 109t-64 170.5q-8 51 -8 111zM429 362q0 -16 1 -30q2 -50 33.5 -82 t94.5 -32q48 0 81.5 17.5t52 52t27 70.5t14.5 88l81 771q3 41 3 77q-1 18 -1 35q-2 50 -34 80.5t-95 30.5q-48 0 -81 -16.5t-51 -50.5t-26.5 -69t-14.5 -87l-81 -771q-4 -45 -4 -84zM635 1801l166 410h310l-295 -410h-181z" />
<glyph unicode="&#xd4;" horiz-adv-x="1172" d="M96 405q0 56 7 120l65 613q28 269 155 405t389 136q134 0 225 -36t141 -107q48 -72 64 -170q8 -51 9 -111q0 -55 -7 -117l-65 -613q-28 -268 -156.5 -407.5t-389.5 -139.5q-134 0 -225 36.5t-140 109t-64 170.5q-8 51 -8 111zM404 1801l227 380h263l153 -380h-224 l-73 241l-123 -241h-223zM429 362q0 -16 1 -30q2 -50 33.5 -82t94.5 -32q48 0 81.5 17.5t52 52t27 70.5t14.5 88l81 771q3 41 3 77q-1 18 -1 35q-2 50 -34 80.5t-95 30.5q-48 0 -81 -16.5t-51 -50.5t-26.5 -69t-14.5 -87l-81 -771q-4 -45 -4 -84z" />
<glyph unicode="&#xd5;" horiz-adv-x="1172" d="M96 405q0 56 7 120l65 613q28 269 155 405t389 136q134 0 225 -36t141 -107q48 -72 64 -170q8 -51 9 -111q0 -55 -7 -117l-65 -613q-28 -268 -156.5 -407.5t-389.5 -139.5q-134 0 -225 36.5t-140 109t-64 170.5q-8 51 -8 111zM405 1816q13 128 58.5 197.5t143.5 74.5h12 q45 0 93 -19q54 -22 97.5 -47t62.5 -26q4 -1 8 -1q46 0 53 79h144q-6 -56 -16.5 -99.5t-30 -84.5t-52.5 -64t-78 -25h-7q-41 1 -91 23q-56 24 -105.5 49.5t-77.5 25.5q-53 0 -62 -83h-152zM429 362q0 -16 1 -30q2 -50 33.5 -82t94.5 -32q48 0 81.5 17.5t52 52t27 70.5 t14.5 88l81 771q3 41 3 77q-1 18 -1 35q-2 50 -34 80.5t-95 30.5q-48 0 -81 -16.5t-51 -50.5t-26.5 -69t-14.5 -87l-81 -771q-4 -45 -4 -84z" />
<glyph unicode="&#xd6;" horiz-adv-x="1172" d="M96 405q0 56 7 120l65 613q28 269 155 405t389 136q134 0 225 -36t141 -107q48 -72 64 -170q8 -51 9 -111q0 -55 -7 -117l-65 -613q-28 -268 -156.5 -407.5t-389.5 -139.5q-134 0 -225 36.5t-140 109t-64 170.5q-8 51 -8 111zM388 1801l30 282h259l-30 -282h-259z M429 362q0 -16 1 -30q2 -50 33.5 -82t94.5 -32q48 0 81.5 17.5t52 52t27 70.5t14.5 88l81 771q3 41 3 77q-1 18 -1 35q-2 50 -34 80.5t-95 30.5q-48 0 -81 -16.5t-51 -50.5t-26.5 -69t-14.5 -87l-81 -771q-4 -45 -4 -84zM803 1801l30 282h259l-29 -282h-260z" />
<glyph unicode="&#xd7;" horiz-adv-x="934" d="M125 624l239 217l-194 216l157 142l193 -216l240 216l126 -141l-239 -217l194 -217l-155 -141l-195 216l-239 -216z" />
<glyph unicode="&#xd8;" horiz-adv-x="1152" d="M96 405q0 56 7 120l65 613q28 269 155 405t389 136q129 0 218 -33l71 160l80 -28l-76 -171q43 -29 73 -71q50 -72 64 -170q8 -51 9 -111q0 -55 -7 -117l-65 -613q-28 -268 -156.5 -407.5t-389.5 -139.5q-134 0 -225 36l-8 4l-84 -189l-78 31l89 200q-35 28 -59 64 q-49 72 -64 170q-8 51 -8 111zM432 315q6 -39 32 -65q32 -32 94 -32q48 0 81.5 17.5t52 52t27 70.5t14.5 88l75 718zM444 550l364 821q-9 23 -26 39q-32 30 -95 30q-48 0 -81 -16.5t-51 -50.5t-26.5 -69t-14.5 -87z" />
<glyph unicode="&#xd9;" horiz-adv-x="1176" d="M109 403q0 65 9 138l117 1117h324l-121 -1158q-4 -40 -6 -70q-1 -15 0 -31v-33q2 -34 10 -58t22 -44.5t39 -30.5t59 -10q40 0 70.5 16t49 40t31.5 63t19 74t11 84l121 1158h325l-118 -1117q-12 -111 -34 -195.5t-62 -156t-98.5 -116.5t-143.5 -70t-197 -25 q-139 0 -230 38t-134.5 110t-56.5 177q-6 47 -6 100zM426 2211h310l80 -410h-180z" />
<glyph unicode="&#xda;" horiz-adv-x="1176" d="M109 403q0 65 9 138l117 1117h324l-121 -1158q-4 -40 -6 -70q-1 -15 0 -31v-33q2 -34 10 -58t22 -44.5t39 -30.5t59 -10q40 0 70.5 16t49 40t31.5 63t19 74t11 84l121 1158h325l-118 -1117q-12 -111 -34 -195.5t-62 -156t-98.5 -116.5t-143.5 -70t-197 -25 q-139 0 -230 38t-134.5 110t-56.5 177q-6 47 -6 100zM636 1801l166 410h310l-295 -410h-181z" />
<glyph unicode="&#xdb;" horiz-adv-x="1176" d="M109 403q0 65 9 138l117 1117h324l-121 -1158q-4 -40 -6 -70q-1 -15 0 -31v-33q2 -34 10 -58t22 -44.5t39 -30.5t59 -10q40 0 70.5 16t49 40t31.5 63t19 74t11 84l121 1158h325l-118 -1117q-12 -111 -34 -195.5t-62 -156t-98.5 -116.5t-143.5 -70t-197 -25 q-139 0 -230 38t-134.5 110t-56.5 177q-6 47 -6 100zM405 1801l227 380h263l153 -380h-224l-73 241l-123 -241h-223z" />
<glyph unicode="&#xdc;" horiz-adv-x="1176" d="M109 403q0 65 9 138l117 1117h324l-121 -1158q-4 -40 -6 -70q-1 -15 0 -31v-33q2 -34 10 -58t22 -44.5t39 -30.5t59 -10q40 0 70.5 16t49 40t31.5 63t19 74t11 84l121 1158h325l-118 -1117q-12 -111 -34 -195.5t-62 -156t-98.5 -116.5t-143.5 -70t-197 -25 q-139 0 -230 38t-134.5 110t-56.5 177q-6 47 -6 100zM389 1801l30 282h259l-30 -282h-259zM804 1801l30 282h259l-29 -282h-260z" />
<glyph unicode="&#xdd;" horiz-adv-x="1004" d="M142 1658h310l122 -599l234 599h304l-431 -1006l-68 -652h-317l68 652zM551 1801l166 410h310l-295 -410h-181z" />
<glyph unicode="&#xde;" horiz-adv-x="1122" d="M73 0l174 1658h331l-23 -220h180q233 0 333 -114q80 -91 81 -264q0 -43 -5 -91q-15 -139 -54 -234t-107 -152t-158.5 -81.5t-217.5 -25.5h-153l-50 -476h-331zM480 719h115q118 0 173 52.5t69 186.5q3 31 3 58q0 80 -29 121q-39 54 -149 54h-132z" />
<glyph unicode="&#xdf;" horiz-adv-x="1092" d="M56 0l130 1235q4 44 14 86t25 82t36.5 75.5t48.5 66.5t61.5 55.5t74 42.5t87.5 27.5t102 9.5q223 0 319 -114q78 -92 78 -249q0 -37 -4 -79q-14 -130 -78.5 -219.5t-188.5 -142.5q93 -27 156.5 -85.5t91.5 -142.5q21 -62 21 -131q0 -25 -3 -51q-27 -253 -171 -372.5 t-398 -119.5l26 237q118 0 176 65.5t67 217.5q1 13 1 26q0 88 -42 144q-48 64 -137 64l24 239q80 0 126.5 71t60.5 196q3 32 3 59q0 166 -121 166q-38 0 -66 -16t-45.5 -47t-27 -69.5t-13.5 -89.5l-130 -1237h-304z" />
<glyph unicode="&#xe0;" horiz-adv-x="949" d="M53 234q0 16 2 32q5 46 18 87.5t29.5 74.5t43.5 64t50 53t60.5 45.5t62.5 37.5t68 33t66.5 28t68.5 25.5t63 23.5l11 107q3 25 3 45q-1 34 -9 54q-14 32 -62 33q-82 0 -97 -114l-14 -80l-287 11q1 5 3.5 22.5t2.5 18.5q33 190 143.5 279t298.5 89q176 0 254 -96 q63 -78 62 -203q0 -29 -3 -61l-58 -546q-10 -101 -10 -214q0 -41 1 -83h-273q-11 129 -11 171q-32 -81 -96.5 -136t-154.5 -55q-79 1 -137 44q-56 43 -80 107q-18 49 -19 103zM265 1735h310l80 -410h-180zM345 311q1 -43 17 -72q22 -36 64 -36q28 0 58.5 20.5t51.5 45.5 l34 324q-88 -44 -151.5 -113t-72.5 -144q-1 -13 -1 -25z" />
<glyph unicode="&#xe1;" horiz-adv-x="949" d="M53 234q0 16 2 32q5 46 18 87.5t29.5 74.5t43.5 64t50 53t60.5 45.5t62.5 37.5t68 33t66.5 28t68.5 25.5t63 23.5l11 107q3 25 3 45q-1 34 -9 54q-14 32 -62 33q-82 0 -97 -114l-14 -80l-287 11q1 5 3.5 22.5t2.5 18.5q33 190 143.5 279t298.5 89q176 0 254 -96 q63 -78 62 -203q0 -29 -3 -61l-58 -546q-10 -101 -10 -214q0 -41 1 -83h-273q-11 129 -11 171q-32 -81 -96.5 -136t-154.5 -55q-79 1 -137 44q-56 43 -80 107q-18 49 -19 103zM345 311q1 -43 17 -72q22 -36 64 -36q28 0 58.5 20.5t51.5 45.5l34 324q-88 -44 -151.5 -113 t-72.5 -144q-1 -13 -1 -25zM474 1325l166 410h310l-295 -410h-181z" />
<glyph unicode="&#xe2;" horiz-adv-x="949" d="M53 234q0 16 2 32q5 46 18 87.5t29.5 74.5t43.5 64t50 53t60.5 45.5t62.5 37.5t68 33t66.5 28t68.5 25.5t63 23.5l11 107q3 25 3 45q-1 34 -9 54q-14 32 -62 33q-82 0 -97 -114l-14 -80l-287 11q1 5 3.5 22.5t2.5 18.5q33 190 143.5 279t298.5 89q176 0 254 -96 q63 -78 62 -203q0 -29 -3 -61l-58 -546q-10 -101 -10 -214q0 -41 1 -83h-273q-11 129 -11 171q-32 -81 -96.5 -136t-154.5 -55q-79 1 -137 44q-56 43 -80 107q-18 49 -19 103zM243 1325l227 380h263l153 -380h-224l-73 241l-123 -241h-223zM345 311q1 -43 17 -72 q22 -36 64 -36q28 0 58.5 20.5t51.5 45.5l34 324q-88 -44 -151.5 -113t-72.5 -144q-1 -13 -1 -25z" />
<glyph unicode="&#xe3;" horiz-adv-x="949" d="M53 234q0 16 2 32q5 46 18 87.5t29.5 74.5t43.5 64t50 53t60.5 45.5t62.5 37.5t68 33t66.5 28t68.5 25.5t63 23.5l11 107q3 25 3 45q-1 34 -9 54q-14 32 -62 33q-82 0 -97 -114l-14 -80l-287 11q1 5 3.5 22.5t2.5 18.5q33 190 143.5 279t298.5 89q176 0 254 -96 q63 -78 62 -203q0 -29 -3 -61l-58 -546q-10 -101 -10 -214q0 -41 1 -83h-273q-11 129 -11 171q-32 -81 -96.5 -136t-154.5 -55q-79 1 -137 44q-56 43 -80 107q-18 49 -19 103zM244 1340q13 128 58.5 197.5t143.5 74.5h12q45 0 93 -19q54 -22 97.5 -47t62.5 -26q4 -1 8 -1 q46 0 53 79h144q-6 -56 -16.5 -99.5t-30 -84.5t-52.5 -64t-78 -25h-7q-41 1 -91 23q-56 24 -105.5 49.5t-77.5 25.5q-53 0 -62 -83h-152zM345 311q1 -43 17 -72q22 -36 64 -36q28 0 58.5 20.5t51.5 45.5l34 324q-88 -44 -151.5 -113t-72.5 -144q-1 -13 -1 -25z" />
<glyph unicode="&#xe4;" horiz-adv-x="949" d="M53 234q0 16 2 32q5 46 18 87.5t29.5 74.5t43.5 64t50 53t60.5 45.5t62.5 37.5t68 33t66.5 28t68.5 25.5t63 23.5l11 107q3 25 3 45q-1 34 -9 54q-14 32 -62 33q-82 0 -97 -114l-14 -80l-287 11q1 5 3.5 22.5t2.5 18.5q33 190 143.5 279t298.5 89q176 0 254 -96 q63 -78 62 -203q0 -29 -3 -61l-58 -546q-10 -101 -10 -214q0 -41 1 -83h-273q-11 129 -11 171q-32 -81 -96.5 -136t-154.5 -55q-79 1 -137 44q-56 43 -80 107q-18 49 -19 103zM227 1325l30 282h259l-30 -282h-259zM345 311q1 -43 17 -72q22 -36 64 -36q28 0 58.5 20.5 t51.5 45.5l34 324q-88 -44 -151.5 -113t-72.5 -144q-1 -13 -1 -25zM642 1325l30 282h259l-29 -282h-260z" />
<glyph unicode="&#xe5;" horiz-adv-x="949" d="M53 234q0 16 2 32q5 46 18 87.5t29.5 74.5t43.5 64t50 53t60.5 45.5t62.5 37.5t68 33t66.5 28t68.5 25.5t63 23.5l11 107q3 25 3 45q-1 34 -9 54q-14 32 -62 33q-82 0 -97 -114l-14 -80l-287 11q1 5 3.5 22.5t2.5 18.5q33 190 143.5 279t298.5 89q176 0 254 -96 q63 -78 62 -203q0 -29 -3 -61l-58 -546q-10 -101 -10 -214q0 -41 1 -83h-273q-11 129 -11 171q-32 -81 -96.5 -136t-154.5 -55q-79 1 -137 44q-56 43 -80 107q-18 49 -19 103zM345 311q1 -43 17 -72q22 -36 64 -36q28 0 58.5 20.5t51.5 45.5l34 324q-88 -44 -151.5 -113 t-72.5 -144q-1 -13 -1 -25zM347 1522q0 16 2 34q11 107 84.5 168t177.5 61q105 0 166 -61q52 -52 52 -139q0 -14 -1 -29q-12 -107 -86 -169t-179 -62q-104 0 -165 62q-51 52 -51 135zM479 1540q0 -38 21 -64q25 -32 76 -32q50 0 81.5 31.5t36.5 80.5q1 8 1 16q0 38 -21 64 q-25 32 -75 31q-51 0 -82.5 -31.5t-36.5 -79.5q-1 -8 -1 -16z" />
<glyph unicode="&#xe6;" horiz-adv-x="1292" d="M53 232q0 19 2 40q7 71 30.5 129t56.5 98t79 70.5t92 48.5t102 32q97 24 159 35l16 152q2 20 2 37q0 40 -12 64q-16 34 -63 34t-72.5 -39t-34.5 -125h-297q20 196 126 305.5t288 109.5q92 0 153 -41.5t73 -109.5q36 66 109.5 108.5t161.5 42.5q85 0 149 -27t101 -74 q36 -46 52 -106q11 -41 11 -86q0 -20 -2 -41q-6 -54 -30 -98t-56.5 -72t-81 -50.5t-91.5 -34.5t-100 -24q-29 -7 -120 -22l-15 -148q-1 -7 -2 -20l-3 -31.5t-2.5 -30.5t-2 -31t0 -28t2.5 -27t5 -23t8.5 -20t12 -14t16.5 -10t22 -3q20 0 35.5 9t24 21t15 35t9.5 41.5t6 48.5 l6 57h287l-9 -79q-18 -171 -115 -264t-266 -93q-62 0 -116 23.5t-91 70.5t-42 108q-52 -95 -142 -151q-83 -51 -176 -51h-17q-120 4 -193 85q-61 68 -61 169zM335 298q0 -38 16 -68q20 -38 62 -37q23 0 43.5 10.5t38.5 31.5t30.5 56.5t17.5 82.5l16 168q-42 -12 -73 -28 q-65 -33 -104.5 -87.5t-45.5 -109.5q-1 -10 -1 -19zM871 732q12 2 32.5 6.5t42 11t27.5 12.5q47 16 71 42.5t30 81.5q1 14 1 27q1 39 -13 65q-18 34 -63 34q-32 0 -56.5 -20t-38.5 -53.5t-19 -78.5z" />
<glyph unicode="&#xe7;" horiz-adv-x="926" d="M71 323q0 38 5 79l40 381q21 202 129 311t306 109q191 1 275 -89q69 -73 68 -208q0 -30 -3 -64l-12 -109h-288l12 116q3 26 3 46q0 44 -12 65q-17 31 -63 31q-50 0 -73.5 -37.5t-33.5 -134.5l-48 -458q-4 -36 -4 -63q0 -46 11 -68q17 -34 65 -34.5t70.5 32.5t30.5 104 l14 140h289l-13 -126q-20 -181 -124.5 -273.5t-291.5 -92.5q-199 0 -284 110q-68 87 -68 233zM248 -522l15 136q31 -9 71 -13q23 -2 45 -2q17 0 34 1q39 3 66.5 18.5t30.5 42.5q3 24 -6.5 43t-26 31.5t-41.5 22t-47.5 14.5t-50.5 9l23 219h122l-13 -130q110 -7 182 -60 q65 -48 65 -123q0 -7 -1 -15q-6 -74 -52 -125.5t-114 -72.5q-66 -21 -144 -21q-2 1 -4 1q-80 0 -154 24z" />
<glyph unicode="&#xe8;" horiz-adv-x="936" d="M72 327q0 37 4 77l39 375q22 207 131.5 315.5t306.5 108.5q202 0 279 -110q59 -85 59 -233q0 -44 -5 -95l-20 -190h-471l-20 -191q-4 -48 -4 -86q1 -5 1 -9q0 -41 18.5 -65t57.5 -24q49 0 74.5 34t32.5 103l12 107h285l-10 -92q-19 -180 -126 -276t-290 -96 q-200 0 -286 109q-69 88 -68 238zM259 1735h310l80 -410h-180zM411 722h185l12 116q2 24 2 43q0 45 -12 69q-18 34 -68.5 34.5t-75 -38.5t-34.5 -137z" />
<glyph unicode="&#xe9;" horiz-adv-x="936" d="M72 327q0 37 4 77l39 375q22 207 131.5 315.5t306.5 108.5q202 0 279 -110q59 -85 59 -233q0 -44 -5 -95l-20 -190h-471l-20 -191q-4 -48 -4 -86q1 -5 1 -9q0 -41 18.5 -65t57.5 -24q49 0 74.5 34t32.5 103l12 107h285l-10 -92q-19 -180 -126 -276t-290 -96 q-200 0 -286 109q-69 88 -68 238zM411 722h185l12 116q2 24 2 43q0 45 -12 69q-18 34 -68.5 34.5t-75 -38.5t-34.5 -137zM468 1325l166 410h310l-295 -410h-181z" />
<glyph unicode="&#xea;" horiz-adv-x="936" d="M72 327q0 37 4 77l39 375q22 207 131.5 315.5t306.5 108.5q202 0 279 -110q59 -85 59 -233q0 -44 -5 -95l-20 -190h-471l-20 -191q-4 -48 -4 -86q1 -5 1 -9q0 -41 18.5 -65t57.5 -24q49 0 74.5 34t32.5 103l12 107h285l-10 -92q-19 -180 -126 -276t-290 -96 q-200 0 -286 109q-69 88 -68 238zM237 1325l227 380h263l153 -380h-224l-73 241l-123 -241h-223zM411 722h185l12 116q2 24 2 43q0 45 -12 69q-18 34 -68.5 34.5t-75 -38.5t-34.5 -137z" />
<glyph unicode="&#xeb;" horiz-adv-x="936" d="M72 327q0 37 4 77l39 375q22 207 131.5 315.5t306.5 108.5q202 0 279 -110q59 -85 59 -233q0 -44 -5 -95l-20 -190h-471l-20 -191q-4 -48 -4 -86q1 -5 1 -9q0 -41 18.5 -65t57.5 -24q49 0 74.5 34t32.5 103l12 107h285l-10 -92q-19 -180 -126 -276t-290 -96 q-200 0 -286 109q-69 88 -68 238zM221 1325l30 282h259l-30 -282h-259zM411 722h185l12 116q2 24 2 43q0 45 -12 69q-18 34 -68.5 34.5t-75 -38.5t-34.5 -137zM636 1325l30 282h259l-29 -282h-260z" />
<glyph unicode="&#xec;" horiz-adv-x="543" d="M62 1735h310l80 -410h-180zM72 0l124 1184h304l-124 -1184h-304z" />
<glyph unicode="&#xed;" horiz-adv-x="543" d="M72 0l124 1184h304l-124 -1184h-304zM272 1325l166 410h310l-295 -410h-181z" />
<glyph unicode="&#xee;" horiz-adv-x="543" d="M41 1325l227 380h263l153 -380h-224l-73 241l-123 -241h-223zM72 0l124 1184h304l-124 -1184h-304z" />
<glyph unicode="&#xef;" horiz-adv-x="543" d="M25 1325l30 282h259l-30 -282h-259zM72 0l124 1184h304l-124 -1184h-304zM440 1325l30 282h259l-29 -282h-260z" />
<glyph unicode="&#xf0;" horiz-adv-x="1038" d="M98 343q0 46 6 99l29 276q22 205 127 331t270 126q96 0 165 -51q2 35 2 66q0 120 -34 174l-210 -89l-16 96l179 76q-58 71 -268 71l34 192q352 0 468 -152l212 90l15 -98l-175 -73q44 -93 68 -253q13 -88 13 -186q0 -80 -9 -167l-44 -416q-50 -481 -472 -481 q-202 0 -290 115q-69 90 -70 254zM392 328q0 -34 4 -60q12 -80 87 -81q68 0 96.5 47.5t38.5 141.5l57 549q-1 1 -7.5 6.5t-11 8.5t-13 8.5t-16.5 8t-19.5 5t-24.5 2.5q-74 0 -107.5 -79t-55.5 -292q-4 -36 -12 -102q-16 -95 -16 -163z" />
<glyph unicode="&#xf1;" horiz-adv-x="1001" d="M56 0l124 1184h304l-12 -117q158 136 303 136q102 0 145 -75q34 -59 34 -141q0 -23 -3 -48l-98 -939h-304l92 882q2 16 2 30q0 30 -9 46q-13 24 -55 23q-48 0 -121 -48l-98 -933h-304zM273 1340q13 128 58.5 197.5t143.5 74.5h12q45 0 93 -19q54 -22 97.5 -47t62.5 -26 q4 -1 8 -1q46 0 53 79h144q-6 -56 -16.5 -99.5t-30 -84.5t-52.5 -64t-78 -25h-7q-41 1 -91 23q-56 24 -105.5 49.5t-77.5 25.5q-53 0 -62 -83h-152z" />
<glyph unicode="&#xf2;" horiz-adv-x="956" d="M70 313q0 34 4 71l43 416q20 194 132 298.5t304 104.5q193 0 284 -104q74 -84 74 -229q0 -33 -4 -70l-43 -416q-21 -195 -134 -299.5t-305 -104.5t-282 104q-73 85 -73 229zM268 1735h310l80 -410h-180zM369 276q1 -38 20.5 -62t57.5 -24q57 0 80.5 44t32.5 129l48 458 q3 33 3 59q-1 42 -9 70q-14 44 -70 44.5t-79.5 -44.5t-32.5 -129l-48 -458q-3 -39 -3 -72v-15z" />
<glyph unicode="&#xf3;" horiz-adv-x="956" d="M70 313q0 34 4 71l43 416q20 194 132 298.5t304 104.5q193 0 284 -104q74 -84 74 -229q0 -33 -4 -70l-43 -416q-21 -195 -134 -299.5t-305 -104.5t-282 104q-73 85 -73 229zM369 276q1 -38 20.5 -62t57.5 -24q57 0 80.5 44t32.5 129l48 458q3 33 3 59q-1 42 -9 70 q-14 44 -70 44.5t-79.5 -44.5t-32.5 -129l-48 -458q-3 -39 -3 -72v-15zM477 1325l166 410h310l-295 -410h-181z" />
<glyph unicode="&#xf4;" horiz-adv-x="956" d="M70 313q0 34 4 71l43 416q20 194 132 298.5t304 104.5q193 0 284 -104q74 -84 74 -229q0 -33 -4 -70l-43 -416q-21 -195 -134 -299.5t-305 -104.5t-282 104q-73 85 -73 229zM246 1325l227 380h263l153 -380h-224l-73 241l-123 -241h-223zM369 276q1 -38 20.5 -62 t57.5 -24q57 0 80.5 44t32.5 129l48 458q3 33 3 59q-1 42 -9 70q-14 44 -70 44.5t-79.5 -44.5t-32.5 -129l-48 -458q-3 -39 -3 -72v-15z" />
<glyph unicode="&#xf5;" horiz-adv-x="956" d="M70 313q0 34 4 71l43 416q20 194 132 298.5t304 104.5q193 0 284 -104q74 -84 74 -229q0 -33 -4 -70l-43 -416q-21 -195 -134 -299.5t-305 -104.5t-282 104q-73 85 -73 229zM247 1340q13 128 58.5 197.5t143.5 74.5h12q45 0 93 -19q54 -22 97.5 -47t62.5 -26q4 -1 8 -1 q46 0 53 79h144q-6 -56 -16.5 -99.5t-30 -84.5t-52.5 -64t-78 -25h-7q-41 1 -91 23q-56 24 -105.5 49.5t-77.5 25.5q-53 0 -62 -83h-152zM369 276q1 -38 20.5 -62t57.5 -24q57 0 80.5 44t32.5 129l48 458q3 33 3 59q-1 42 -9 70q-14 44 -70 44.5t-79.5 -44.5t-32.5 -129 l-48 -458q-3 -39 -3 -72v-15z" />
<glyph unicode="&#xf6;" horiz-adv-x="956" d="M70 313q0 34 4 71l43 416q20 194 132 298.5t304 104.5q193 0 284 -104q74 -84 74 -229q0 -33 -4 -70l-43 -416q-21 -195 -134 -299.5t-305 -104.5t-282 104q-73 85 -73 229zM230 1325l30 282h259l-30 -282h-259zM369 276q1 -38 20.5 -62t57.5 -24q57 0 80.5 44t32.5 129 l48 458q3 33 3 59q-1 42 -9 70q-14 44 -70 44.5t-79.5 -44.5t-32.5 -129l-48 -458q-3 -39 -3 -72v-15zM645 1325l30 282h259l-29 -282h-260z" />
<glyph unicode="&#xf7;" horiz-adv-x="863" d="M89 763l19 177h745l-19 -177h-745zM325 353l26 250h201l-27 -250h-200zM402 1083l26 250h200l-26 -250h-200z" />
<glyph unicode="&#xf8;" horiz-adv-x="948" d="M70 313q0 34 4 71l43 416q20 194 132 298.5t304 104.5q101 0 173 -28l101 205l76 -30l-106 -214q22 -16 40 -37q74 -84 74 -229q0 -33 -4 -70l-43 -416q-21 -195 -134 -299.5t-305 -104.5q-107 0 -182 33l-101 -204l-70 29l105 214q-18 14 -34 32q-73 85 -73 229z M369 269q3 -33 21 -55q20 -24 57 -24q57 0 80.5 44t32.5 129l39 371zM384 475l223 456q-3 9 -5 19q-14 44 -70 44.5t-79.5 -44.5t-32.5 -129z" />
<glyph unicode="&#xf9;" horiz-adv-x="995" d="M70 198q0 23 3 48l98 938h304l-93 -889q-2 -15 -2 -28q0 -30 10 -47q13 -24 53 -24h3q46 1 113 44l99 944h304l-124 -1184h-304l12 110q-154 -129 -297 -129q-102 -1 -145 75q-34 59 -34 142zM281 1735h310l80 -410h-180z" />
<glyph unicode="&#xfa;" horiz-adv-x="995" d="M70 198q0 23 3 48l98 938h304l-93 -889q-2 -15 -2 -28q0 -30 10 -47q13 -24 53 -24h3q46 1 113 44l99 944h304l-124 -1184h-304l12 110q-154 -129 -297 -129q-102 -1 -145 75q-34 59 -34 142zM490 1325l166 410h310l-295 -410h-181z" />
<glyph unicode="&#xfb;" horiz-adv-x="995" d="M70 198q0 23 3 48l98 938h304l-93 -889q-2 -15 -2 -28q0 -30 10 -47q13 -24 53 -24h3q46 1 113 44l99 944h304l-124 -1184h-304l12 110q-154 -129 -297 -129q-102 -1 -145 75q-34 59 -34 142zM259 1325l227 380h263l153 -380h-224l-73 241l-123 -241h-223z" />
<glyph unicode="&#xfc;" horiz-adv-x="995" d="M70 198q0 23 3 48l98 938h304l-93 -889q-2 -15 -2 -28q0 -30 10 -47q13 -24 53 -24h3q46 1 113 44l99 944h304l-124 -1184h-304l12 110q-154 -129 -297 -129q-102 -1 -145 75q-34 59 -34 142zM243 1325l30 282h259l-30 -282h-259zM658 1325l30 282h259l-29 -282h-260z " />
<glyph unicode="&#xfd;" horiz-adv-x="882" d="M39 -329l23 215q119 0 163 24q41 22 41 90v9q-1 41 -22 179l-160 996h292l71 -735l197 735h293l-411 -1247q-25 -76 -68.5 -129t-103.5 -82.5t-126.5 -42t-148.5 -12.5h-40zM434 1325l166 410h310l-295 -410h-181z" />
<glyph unicode="&#xfe;" horiz-adv-x="988" d="M9 -390l215 2048h304l-58 -563q124 108 249 108h7q49 -1 87.5 -17.5t62.5 -45t41.5 -65.5t23 -79t7.5 -86q1 -13 1 -25q0 -30 -4 -59l-47 -441q-12 -117 -48.5 -205.5t-104.5 -144t-160 -55.5q-115 0 -222 109l-50 -479h-304zM377 223q51 -34 105 -34h2q50 1 74 49 q24 50 34 134l50 471q3 26 3 48q0 114 -76 114h-6q-47 -1 -108 -43z" />
<glyph unicode="&#xff;" horiz-adv-x="882" d="M39 -329l23 215q119 0 163 24q41 22 41 90v9q-1 41 -22 179l-160 996h292l71 -735l197 735h293l-411 -1247q-25 -76 -68.5 -129t-103.5 -82.5t-126.5 -42t-148.5 -12.5h-40zM187 1325l30 282h259l-30 -282h-259zM602 1325l30 282h259l-29 -282h-260z" />
<glyph unicode="&#x152;" horiz-adv-x="1456" d="M99 431q0 56 7 120l56 527q14 134 50.5 236.5t101 180.5t166 118.5t237.5 40.5h807l-24 -229h-363l-48 -453h278l-24 -232h-278l-54 -513h366l-24 -227h-800q-140 0 -234.5 36.5t-144.5 109.5q-50 72 -66 171q-8 52 -9 114zM427 400q1 -52 12 -89t46 -58t94 -21h101 l126 1188h-104q-36 0 -64 -9t-48 -22.5t-35 -39t-24 -47t-16 -60t-10.5 -65t-8.5 -72.5l-62 -591q-7 -55 -7 -102v-12z" />
<glyph unicode="&#x153;" horiz-adv-x="1440" d="M81 300q0 35 4 74l49 465q19 186 123.5 284.5t282.5 98.5q88 0 159.5 -38.5t93.5 -105.5q36 67 116.5 105.5t165.5 38.5q101 0 168.5 -31.5t99.5 -90.5q33 -58 43 -140q5 -37 4 -78q0 -50 -7 -106l-21 -200h-459l-16 -158q-3 -28 -4.5 -46t-2.5 -45t0 -44.5t5.5 -38 t12 -32.5t20 -20.5t29.5 -9.5h5q42 0 63 30q22 32 30 106l14 131h290l-14 -130q-17 -169 -117 -257q-96 -86 -263 -86h-11q-101 2 -167.5 39.5t-89.5 103.5q-92 -142 -292 -142q-167 1 -249 103q-66 82 -65 220zM381 276q1 -42 18.5 -68t53.5 -26q53 0 78.5 45t35.5 141 l51 482q3 29 3 53q0 45 -10 73q-15 44 -67 44t-76 -43t-32 -127l-51 -481q-4 -43 -4 -79v-14zM920 736h171l12 115q3 25 3 46q0 43 -10 75q-16 48 -61 48t-70 -47.5t-33 -121.5z" />
<glyph unicode="&#x178;" horiz-adv-x="1004" d="M142 1658h310l122 -599l234 599h304l-431 -1006l-68 -652h-317l68 652zM304 1801l30 282h259l-30 -282h-259zM719 1801l30 282h259l-29 -282h-260z" />
<glyph unicode="&#x2c6;" horiz-adv-x="793" d="M164 1263l229 395h263l152 -395h-225l-71 256l-124 -256h-224z" />
<glyph unicode="&#x2dc;" horiz-adv-x="877" d="M219 1400q13 128 58.5 197.5t143.5 74.5h12q45 0 93 -19q54 -22 97.5 -47t62.5 -26q4 -1 8 -1q46 0 53 79h144q-6 -56 -16.5 -99.5t-30 -84.5t-52.5 -64t-78 -25h-7q-41 1 -91 23q-56 24 -105.5 49.5t-77.5 25.5q-53 0 -62 -83h-152z" />
<glyph unicode="&#x2000;" horiz-adv-x="1105" />
<glyph unicode="&#x2001;" horiz-adv-x="2211" />
<glyph unicode="&#x2002;" horiz-adv-x="1105" />
<glyph unicode="&#x2003;" horiz-adv-x="2211" />
<glyph unicode="&#x2004;" horiz-adv-x="737" />
<glyph unicode="&#x2005;" horiz-adv-x="552" />
<glyph unicode="&#x2006;" horiz-adv-x="368" />
<glyph unicode="&#x2007;" horiz-adv-x="368" />
<glyph unicode="&#x2008;" horiz-adv-x="276" />
<glyph unicode="&#x2009;" horiz-adv-x="442" />
<glyph unicode="&#x200a;" horiz-adv-x="122" />
<glyph unicode="&#x2010;" horiz-adv-x="754" d="M132 578l22 204h510l-21 -204h-511z" />
<glyph unicode="&#x2011;" horiz-adv-x="754" d="M132 578l22 204h510l-21 -204h-511z" />
<glyph unicode="&#x2012;" horiz-adv-x="754" d="M132 578l22 204h510l-21 -204h-511z" />
<glyph unicode="&#x2013;" horiz-adv-x="1024" d="M11 564l22 213h1022l-22 -213h-1022z" />
<glyph unicode="&#x2014;" horiz-adv-x="2047" d="M18 638l22 209h2045l-22 -209h-2045z" />
<glyph unicode="&#x2018;" horiz-adv-x="698" d="M180 1117q1 11 7 65t11 97t7 58q16 122 45.5 197.5t86.5 117.5t146 42l18 -101q-71 0 -101 -49t-41 -151h134l-29 -276h-284z" />
<glyph unicode="&#x2019;" horiz-adv-x="463" d="M213 1182q71 0 101 49t41 152h-135l29 275h284q-14 -149 -24 -220q-12 -91 -31 -154.5t-51.5 -110.5t-80.5 -69t-115 -22z" />
<glyph unicode="&#x201a;" horiz-adv-x="572" d="M114 -140q71 0 101.5 49t41.5 152h-135l29 275h284q-12 -131 -25 -220q-24 -184 -85.5 -270.5t-192.5 -86.5z" />
<glyph unicode="&#x201c;" horiz-adv-x="970" d="M180 1117q1 11 7 65t11 97t7 58q16 122 45.5 197.5t86.5 117.5t146 42l18 -101q-71 0 -101 -49t-41 -151h134l-29 -276h-284zM621 1117q1 11 7 65t11 97t7 58q16 122 45.5 197.5t86.5 117.5t146 42l18 -101q-71 0 -101 -49t-41 -151h134l-29 -276h-284z" />
<glyph unicode="&#x201d;" horiz-adv-x="970" d="M245 1182q71 0 101 49t41 151h-134l29 276h284l-25 -220q-16 -122 -45.5 -197.5t-86.5 -117.5t-146 -42zM658 1182q71 0 101 49t41 151h-134l29 276h284l-25 -220q-16 -122 -45.5 -197.5t-86.5 -117.5t-146 -42z" />
<glyph unicode="&#x201e;" horiz-adv-x="974" d="M108 -138q71 0 101.5 49t41.5 152h-135l29 275h284q-12 -131 -25 -220q-24 -184 -85.5 -270.5t-191.5 -86.5zM549 -138q71 0 101.5 49t41.5 152h-135l29 275h284q-12 -131 -25 -220q-24 -184 -85.5 -270.5t-191.5 -86.5z" />
<glyph unicode="&#x2022;" horiz-adv-x="917" d="M157 722q0 24 3 51q17 161 121 252t243 91q91 0 160.5 -39t107.5 -118q29 -61 28 -139q0 -23 -2 -47q-17 -158 -122 -248.5t-244 -90.5t-224 90q-71 75 -71 198z" />
<glyph unicode="&#x2026;" horiz-adv-x="1291" d="M13 0l31 294h292l-31 -294h-292zM447 0l31 294h292l-31 -294h-292zM886 1l31 294h292l-31 -294h-292z" />
<glyph unicode="&#x202f;" horiz-adv-x="442" />
<glyph unicode="&#x2039;" horiz-adv-x="569" d="M70 506l17 157l469 459l-34 -316l-247 -220l201 -224l-33 -315z" />
<glyph unicode="&#x203a;" horiz-adv-x="571" d="M54 107l33 315l253 223l-206 221l33 315l370 -479l-12 -117z" />
<glyph unicode="&#x205f;" horiz-adv-x="552" />
<glyph unicode="&#x20ac;" horiz-adv-x="1107" d="M21 636l12 121h108l15 142h-108l13 122h108l10 98q14 135 48 234.5t96.5 174.5t162 113t235.5 38q129 0 216.5 -33.5t133 -98.5t59.5 -149q8 -46 8 -102q0 -45 -5 -96l-11 -97h-321l11 106q3 31 4 40.5t2.5 36.5t0.5 37t-3.5 31.5t-8.5 30t-15 22t-22 19t-31.5 10 t-41.5 4.5q-34 0 -60 -8.5t-44 -26.5t-30 -37.5t-20 -51.5t-12.5 -58t-8.5 -65l-17 -172h203l-13 -122h-203l-15 -142h203l-12 -121h-204l-18 -176q-5 -44 -5 -80q0 -66 17 -104q26 -58 111 -58q33 0 58 8t42 27t27.5 37t18 51t11 55.5t7.5 63.5l9 82h321l-6 -62 q-12 -115 -43.5 -202t-90 -157t-154.5 -106.5t-227 -36.5q-109 0 -190 26t-130 74.5t-77 117.5t-32 154q-1 26 -1 54q0 62 6 131l10 101h-107z" />
<glyph unicode="&#x2122;" horiz-adv-x="1697" d="M227 1481l19 177h566l-19 -177h-175l-83 -795h-208l83 795h-183zM796 686l102 972h215l111 -610l246 610h212l-102 -972h-173l58 555l-228 -555h-93l-117 558l-59 -558h-172z" />
<glyph unicode="&#x25fc;" horiz-adv-x="1185" d="M0 0v1185h1185v-1185h-1185z" />
<glyph unicode="&#xfb01;" horiz-adv-x="1099" d="M85 973l22 211h121l8 72q19 178 97.5 267t249.5 89q68 0 135 -11l-23 -213q-32 5 -55 5q-46 0 -68.5 -25.5t-29.5 -88.5l-10 -95h532l-124 -1184h-302l102 973h-230l-102 -973h-304l103 973h-122zM804 1377l25 235h281l-25 -235h-281z" />
<glyph unicode="&#xfb02;" horiz-adv-x="1116" d="M79 967l23 217h121l8 72q5 46 10.5 79t20 77.5t35 75t57.5 63.5t85 53t119.5 33t159.5 13q174 0 418 -49l-169 -1601h-304l150 1434q-48 6 -85 6q-49 0 -83.5 -10t-53.5 -24t-31.5 -40.5t-16.5 -48.5t-8 -60l-8 -73h142l-23 -217h-142l-101 -967h-304l102 967h-122z" />
<glyph unicode="&#xfb03;" horiz-adv-x="1609" d="M80 974l22 210h121l8 72q8 72 19 121.5t34.5 97t60 75.5t94.5 45t137 17q45 0 139 -11l-24 -226q-60 9 -67 9q-41 0 -61.5 -26.5t-25.5 -81.5l-10 -92h224l8 72q7 72 18 121.5t34.5 97t60 75.5t94.5 45t137 17q47 0 143 -11l-24 -226q-63 9 -68 9q-42 0 -63 -26.5 t-27 -81.5l-10 -92h526l-124 -1184h-304l103 974h-222l-103 -974h-303l102 974h-224l-102 -974h-304l103 974h-122zM1316 1377l25 235h285l-25 -235h-285z" />
<glyph unicode="&#xfb04;" horiz-adv-x="1589" d="M167 973l21 211h122l8 72q7 72 18 121.5t34.5 97t60 75.5t94.5 45t137 17q59 0 155 -11l-24 -226q-70 10 -73 10q-85 0 -97 -109l-10 -92h159l-21 -211h-159l-103 -973h-303l102 973h-121zM652 973l21 211h122l8 72q7 72 18 121.5t34.5 97t60 75.5t94.5 45t137 17 q59 0 155 -11l-24 -226q-70 10 -73 10q-85 0 -97 -109l-10 -92h159l-21 -211h-159l-103 -973h-303l102 973h-121zM1184 0l124 1184h304l-124 -1184h-304zM1328 1377l25 235h305l-25 -235h-305z" />
</font>
</defs>
</svg>
