<?xml version="1.0" standalone="no"?>
<!DOCTYPE svg PUBLIC "-//W3C//DTD SVG 1.1//EN" "http://www.w3.org/Graphics/SVG/1.1/DTD/svg11.dtd" >
<svg xmlns="http://www.w3.org/2000/svg" xmlns:xlink="http://www.w3.org/1999/xlink" version="1.1">
<metadata></metadata>
<defs>
<font id="oswalddemibold" horiz-adv-x="1099" >
<font-face units-per-em="2048" ascent="1638" descent="-410" />
<missing-glyph horiz-adv-x="515" />
<glyph horiz-adv-x="0" />
<glyph unicode="&#xd;" horiz-adv-x="682" />
<glyph unicode=" "  horiz-adv-x="515" />
<glyph unicode="&#x09;" horiz-adv-x="515" />
<glyph unicode="&#xa0;" horiz-adv-x="515" />
<glyph unicode="!" horiz-adv-x="500" d="M94 0v293h295v-293h-295zM98 1655h308l-109 -1251h-108z" />
<glyph unicode="&#x22;" horiz-adv-x="745" d="M88 1069v589h266l-119 -589h-147zM451 1069v589h266l-119 -589h-147z" />
<glyph unicode="#" horiz-adv-x="1071" d="M85 562l4 201h129l26 219h-153l4 203h183l58 473h225l-59 -473h163l59 473h223l-59 -473h98l-3 -203h-128l-27 -219h152l-3 -201h-178l-70 -563h-223l70 563h-164l-70 -563h-222l69 563h-104zM440 763h165l27 219h-164z" />
<glyph unicode="$" horiz-adv-x="1002" d="M53 495l292 52q5 -312 163 -312q59 0 86 38t27 98q0 68 -24.5 125t-58.5 95t-97 93l-178 154q-68 59 -109.5 110.5t-70 131t-28.5 176.5q0 189 108 298.5t296 122.5v174h97v-173q85 -6 149.5 -36.5t102 -73.5t62 -105.5t34 -118.5t13.5 -125l-290 -46q-2 51 -5 85 t-11.5 70.5t-22.5 57t-38 33.5t-57 11q-56 -3 -86.5 -43t-30.5 -97q0 -45 10.5 -81.5t34.5 -69.5t44 -53t57 -54l175 -152q119 -106 185 -220t66 -269q0 -166 -100.5 -279t-267.5 -131v-184h-95v182q-211 9 -317 137t-115 379z" />
<glyph unicode="%" horiz-adv-x="2031" d="M87 1160v79q0 222 86 323t290 101q205 0 292 -99.5t87 -318.5v-88q0 -218 -89 -323.5t-290 -105.5q-200 0 -288 107t-88 325zM347 1167q0 -40 1.5 -67t5.5 -56t12 -47t20.5 -33.5t31.5 -22.5t45 -7q31 0 53 11.5t34.5 29.5t19 50t8.5 63t2 79v68q0 51 -1.5 79.5 t-7.5 59.5t-18.5 46t-34.5 25t-55 10t-54.5 -10t-34 -25t-18.5 -46t-7.5 -59.5t-1.5 -78.5v-69zM675 0l487 1658h193l-488 -1658h-192zM1189 428v78q0 222 86 323t291 101q204 0 291.5 -99.5t87.5 -318.5v-87q0 -219 -89 -324.5t-290 -105.5q-200 0 -288.5 107.5 t-88.5 325.5zM1450 434q0 -48 2 -79.5t8.5 -63.5t19 -49.5t34 -29t52.5 -11.5t53 11.5t34 29.5t19 50.5t8.5 63t1.5 79.5v68q0 50 -1.5 79t-7.5 59.5t-18.5 45.5t-34 25t-54.5 10t-54.5 -10t-34 -25t-18.5 -46t-7.5 -59.5t-1.5 -78.5v-69z" />
<glyph unicode="&#x26;" horiz-adv-x="1187" d="M91 361q0 144 66.5 277t167.5 229q-16 33 -54.5 105.5t-58.5 113.5t-38 104t-18 120q0 160 96 265t257 105q159 0 263 -92.5t104 -249.5q0 -42 -8.5 -84t-18.5 -74t-33.5 -72.5t-37.5 -62.5t-47.5 -61.5t-45.5 -53.5t-49.5 -53.5t-44.5 -46.5l202 -360q24 45 40 142 t21 192h232q0 -270 -132 -510q20 -26 59 -46.5t80 -23.5v-245q-32 -6 -50 -6q-20 0 -40 4.5t-35.5 9.5t-36.5 17.5t-32 19.5t-32 25t-27.5 24t-29 26.5t-25.5 23.5q-55 -69 -138 -107.5t-184 -38.5q-167 0 -269.5 106.5t-102.5 277.5zM350 379q0 -82 33.5 -133t84.5 -51 q100 0 165 85q-184 345 -197 377q-86 -136 -86 -278zM420 1321q0 -37 10 -88t20.5 -86t28 -89.5t20.5 -64.5q43 71 82 175t39 182q0 48 -28.5 76t-72.5 28q-45 0 -72 -37.5t-27 -95.5z" />
<glyph unicode="'" horiz-adv-x="558" d="M111 1069v589h258l-104 -589h-154z" />
<glyph unicode="(" horiz-adv-x="674" d="M132 641q0 103 1.5 180t7.5 170t16 162t27.5 144t42 128.5t60 103.5t81 80.5t105.5 48.5t132 18v-215q-40 0 -70.5 -26t-50.5 -80.5t-32.5 -121.5t-19 -166.5t-9 -196t-2.5 -229.5q0 -132 2.5 -230.5t10 -195t20.5 -162.5t33 -117.5t49.5 -76.5t68.5 -25v-215 q-72 0 -132 18.5t-105.5 49.5t-81 82t-60 105t-42.5 128.5t-27.5 143t-15.5 159t-7.5 164.5t-1.5 172z" />
<glyph unicode=")" horiz-adv-x="634" d="M69 -165q33 0 59.5 20t45.5 55t33 90.5t23 119.5t14 150.5t7 174t2 198.5q0 134 -2.5 230t-9 196t-19 166.5t-32.5 120.5t-50.5 80t-70.5 26v214q72 0 132 -18t105.5 -48.5t81 -80.5t60 -103t42 -128.5t27.5 -144t16 -161.5t7.5 -169.5t1.5 -179.5q0 -128 -3 -221 t-14 -207t-30.5 -194t-54.5 -161t-84 -130.5t-122 -80t-165 -30.5v216z" />
<glyph unicode="*" horiz-adv-x="857" d="M86 1335l70 187l207 -113l-27 248h232l-26 -249l206 115l70 -189l-225 -86l152 -210l-185 -109l-108 228l-109 -228l-182 108l149 212z" />
<glyph unicode="+" horiz-adv-x="907" d="M53 754v192h292v326h211v-326h298v-192h-298v-331h-211v331h-292z" />
<glyph unicode="," horiz-adv-x="461" d="M85 0v294h297v-263q0 -283 -251 -316l-25 108q62 15 101 58.5t39 118.5h-161z" />
<glyph unicode="-" horiz-adv-x="760" d="M123 583v206h514v-206h-514z" />
<glyph unicode="." horiz-adv-x="470" d="M93 0v298h297v-298h-297z" />
<glyph unicode="/" horiz-adv-x="841" d="M82 0l488 1658h188l-489 -1658h-187z" />
<glyph unicode="0" horiz-adv-x="1071" d="M94 452v742q0 226 110.5 356t331.5 130q220 0 331 -130.5t111 -355.5v-742q0 -217 -114.5 -348t-327.5 -131q-214 0 -328 130.5t-114 348.5zM416 459q0 -209 120 -209q121 0 121 209v727q0 43 -3 73t-14 67t-37 57t-67 20q-28 0 -49 -9.5t-33.5 -27.5t-20.5 -37.5 t-11.5 -47.5t-4.5 -47.5t-1 -47.5v-727z" />
<glyph unicode="1" horiz-adv-x="1059" d="M187 1241v236q84 34 180.5 84t138.5 97h245v-1658h-317v1326z" />
<glyph unicode="2" horiz-adv-x="1058" d="M103 0v223l399 621q7 11 47 71.5t52.5 83t37 71.5t33.5 90.5t9 86.5q0 86 -35 130q-30 38 -82 38q-8 0 -17 -1q-131 -12 -131 -246v-75h-308v80q0 114 25 204.5t77 160t140 107t206 37.5q216 0 327 -115t111 -323q0 -71 -14.5 -135.5t-45.5 -126.5t-57.5 -105.5 t-72.5 -110.5q-15 -21 -22 -32l-320 -483h488v-251h-847z" />
<glyph unicode="3" horiz-adv-x="1046" d="M90 470v59h317v-52q1 -127 29 -183t105 -56q41 0 66.5 15.5t38.5 49t17.5 73t4.5 101.5q0 132 -39 196t-143 68h-53v240h47q107 2 147.5 57t40.5 182q0 105 -29.5 156t-103.5 51t-100.5 -56t-27.5 -163v-72h-317v90q0 217 117 336.5t327 119.5q214 0 330.5 -115 t116.5 -331q0 -141 -59 -237.5t-153 -122.5q212 -77 212 -392q0 -117 -24.5 -208t-76 -160t-138 -106t-204.5 -37q-448 0 -448 497z" />
<glyph unicode="4" horiz-adv-x="1071" d="M70 392v259l426 1007h360v-1023h165v-243h-165v-392h-289v392h-497zM323 635h244v697z" />
<glyph unicode="5" horiz-adv-x="1056" d="M108 484h308q0 -72 5 -118t19 -84t42 -55q26 -16 67 -16h5q23 1 41.5 7t31.5 21t22.5 30t15 43t9 49.5t5 61.5t2 67.5t0.5 76.5q0 47 -2 82t-6.5 71.5t-14.5 61t-25 44.5t-38 30t-54 10q-112 0 -142 -147h-273l21 939h767v-275h-505l-18 -362q27 31 84 53t126 27 q18 1 34 1q163 0 251 -124q96 -137 96 -394q0 -94 -7 -167.5t-24.5 -145.5t-50 -124t-80.5 -92.5t-119.5 -61t-163.5 -20.5q-103 0 -179 24t-123.5 66.5t-76 108.5t-39.5 140t-11 172z" />
<glyph unicode="6" horiz-adv-x="1070" d="M103 525v577q0 103 12 185.5t42.5 157.5t80 125t128.5 79.5t183 29.5q220 0 320 -106t103 -316v-26h-301q0 111 -23 158.5t-97 47.5t-101 -73t-27 -264v-170q27 46 83 72.5t129 27.5h6q73 0 133 -22q62 -24 103 -66t67 -103t37.5 -131t11.5 -153q0 -104 -13.5 -189 t-45.5 -158.5t-82 -123.5t-126.5 -78t-175.5 -28q-116 0 -203 41t-139.5 116t-78.5 172.5t-26 217.5zM423 449q0 -233 131 -233q38 0 63 19t37.5 59t17.5 87.5t5 117.5q0 45 -0.5 68t-3 59.5t-7 56t-13.5 43.5t-22.5 35.5t-33.5 20t-46 8.5q-43 0 -77 -24.5t-51 -57.5v-259z " />
<glyph unicode="7" horiz-adv-x="960" d="M109 1417v241h753v-203l-344 -1455h-307l342 1417h-444z" />
<glyph unicode="8" horiz-adv-x="1058" d="M85 478v11q1 134 49 234t142 151q-162 122 -165 361v15q-1 200 103 312q108 116 315 116t313 -116q103 -113 102 -315v-12q-4 -245 -164 -361q94 -52 142.5 -152t50.5 -233v-18q0 -495 -444 -495t-444 502zM393 469q0 -39 2 -70t10.5 -68t22.5 -61.5t40 -41t61 -16.5 q36 0 61.5 17t39.5 41.5t21.5 62t9.5 67.5t2 69q0 55 -4.5 96.5t-17.5 82t-41.5 62.5t-70.5 22t-70.5 -22t-42 -62.5t-18.5 -82t-5 -96.5zM411 1248q0 -255 118 -255q115 0 115 254q0 89 -28.5 141.5t-86.5 52.5q-60 0 -89 -52t-29 -141z" />
<glyph unicode="9" horiz-adv-x="1070" d="M87 1116q0 563 443 563q116 0 203 -39t140 -111.5t78.5 -168t25.5 -214.5v-591q0 -103 -12 -185.5t-43 -157.5t-81 -125t-129 -79.5t-183 -29.5q-221 0 -320 106.5t-101 318.5v23h301q0 -110 24 -157.5t98 -47.5t99 72t25 265v169q-27 -46 -82 -72t-128 -28h-6 q-74 -1 -134 23q-62 24 -102 69t-66.5 108t-38 134.5t-11.5 154.5zM408 1158q0 -46 0.5 -68t2.5 -59.5t6.5 -56t13.5 -43t22.5 -36t33.5 -20t46 -8.5q79 0 122 82v259q0 49 -5 87t-17.5 73t-38.5 54t-64 19q-31 0 -53 -13.5t-35 -36.5t-21 -60t-10.5 -77.5t-2.5 -95.5z" />
<glyph unicode=":" horiz-adv-x="524" d="M131 140v291h294v-291h-294zM131 842v292h294v-292h-294z" />
<glyph unicode=";" horiz-adv-x="545" d="M130 878v297h294v-297h-294zM131 62v293h298v-263q-2 -296 -252 -297l-25 108q141 14 141 159h-162z" />
<glyph unicode="&#x3c;" horiz-adv-x="804" d="M63 598v256l623 436v-279l-399 -284l399 -286v-277z" />
<glyph unicode="=" horiz-adv-x="895" d="M124 523v198h647v-198h-647zM124 906v198h647v-198h-647z" />
<glyph unicode="&#x3e;" horiz-adv-x="804" d="M113 164v277l399 286l-399 284v279l624 -436v-256z" />
<glyph unicode="?" horiz-adv-x="995" d="M79 1328q1 146 85 242q100 114 313 114q215 0 330.5 -111t115.5 -311q0 -179 -102 -343.5t-260 -289.5v-198h-281v262q337 288 337 559q0 11 -1 22q-3 70 -40 106t-94 36q-56 0 -86 -37q-26 -32 -26 -81q0 -8 1 -16q0 -42 18 -98l-281 -61q-26 100 -26 148q-3 29 -3 57z M271 0v297h303v-297h-303z" />
<glyph unicode="@" horiz-adv-x="1934" d="M113 551q0 59 5 121q30 462 292.5 724.5t693.5 262.5q163 0 295 -44t222 -121.5t148.5 -184.5t80.5 -233q15 -84 15 -175q0 -45 -4 -92q-5 -86 -26.5 -170.5t-64 -164.5t-101 -140.5t-143.5 -97.5t-184 -37q-91 0 -161.5 42t-89.5 120q-22 -60 -72 -101t-120 -47 q-16 -1 -31 -1q-64 0 -118 24q-68 30 -110.5 87t-64.5 133q-19 67 -19 144v21q2 79 20.5 162.5t57.5 167.5t92 150t132 107.5t170 41.5q28 0 52 -10.5t42 -31.5t27 -33.5t21 -34.5q1 -2 2 -3.5t2 -3.5l20 103h242l-97 -696q-8 -58 -8 -95q0 -31 6 -47q9 -23 28 -26 q11 -2 22 -2q87 0 163 116q86 130 97 315q3 44 3 85q0 67 -8 127q-14 98 -55.5 181.5t-108 142.5t-167 92t-229.5 33q-169 0 -303.5 -60t-223 -167t-139 -247.5t-62.5 -309.5q-5 -60 -5 -115q0 -275 132 -437q159 -194 517 -194q83 0 194.5 17.5t201.5 46.5l39 -197 q-261 -67 -464 -67q-437 0 -663 248q-194 213 -193 571zM827 619q-1 -88 33 -144q30 -50 90 -50q7 0 15 1q13 2 27 7.5t32.5 16.5t34 30.5t22.5 44.5l64 476q-3 11 -20.5 17t-33.5 6q-78 0 -139.5 -61t-92.5 -152.5t-32 -191.5z" />
<glyph unicode="A" d="M41 0l324 1658h370l323 -1658h-313l-61 367h-263l-61 -367h-319zM453 576h197l-99 660z" />
<glyph unicode="B" horiz-adv-x="1174" d="M123 0v1658h420q92 0 164.5 -11t140 -39.5t111.5 -76t69 -123.5q24 -74 24 -171v-8q-4 -299 -243 -338q290 -45 293 -404v-11q0 -234 -122 -354q-125 -122 -362 -122h-495zM460 237h92q127 0 176.5 60t49.5 194q0 145 -53.5 207t-182.5 62h-82v-523zM460 989h81 q125 0 171 55t46 179q0 115 -59.5 160t-187.5 45h-51v-439z" />
<glyph unicode="C" horiz-adv-x="1129" d="M98 535v585q0 135 24 234t79 174t150.5 113t232.5 38q130 0 221.5 -33.5t144 -98.5t76 -149.5t23.5 -197.5v-144h-329v156v39t-1 36t-3.5 35.5t-7 30.5t-11 29t-16.5 22t-23.5 18.5t-32 10t-40.5 4.5q-39 0 -66.5 -13.5t-42.5 -33.5t-23 -54.5t-10 -64t-2 -74.5v-741 q0 -121 30.5 -178t113.5 -57q32 0 56 8t38.5 26.5t23 36t12 49.5t4.5 54t1 61v162h329v-140q0 -115 -22.5 -201.5t-73.5 -156t-144 -106t-225 -36.5q-136 0 -232 39.5t-151 115.5t-79 174t-24 228z" />
<glyph unicode="D" horiz-adv-x="1167" d="M123 0v1658h403q157 0 261.5 -29t167 -95t88.5 -160.5t26 -236.5v-598q0 -144 -26 -242t-88 -166.5t-165 -99.5t-256 -31h-411zM460 235h70q35 0 62.5 4t47.5 14t34 20.5t23.5 30.5t15 37.5t8 48.5t3 55t0.5 65v665q0 59 -3 94t-14 67.5t-32.5 48.5t-57.5 25.5t-90 9.5 h-67v-1185z" />
<glyph unicode="E" horiz-adv-x="896" d="M123 0v1658h722v-234h-385v-439h299v-236h-299v-519h389v-230h-726z" />
<glyph unicode="F" horiz-adv-x="866" d="M123 0v1658h702v-231h-365v-447h303v-236h-303v-744h-337z" />
<glyph unicode="G" horiz-adv-x="1169" d="M98 552v546q0 112 14.5 199t49.5 160.5t90 121t138.5 74t193.5 26.5q130 0 223 -32.5t147.5 -97.5t79 -152t24.5 -204v-94h-327v112q0 46 -2 75t-10 60.5t-23 49.5t-41.5 29.5t-65.5 11.5q-41 0 -69 -14.5t-43 -35t-23.5 -57.5t-10 -66t-1.5 -76v-719q0 -121 33 -184 t123 -63q91 0 126.5 67.5t35.5 192.5v163h-163v208h467v-853h-221l-22 152q-75 -175 -273 -175q-123 0 -211 40t-140 117t-75.5 179.5t-23.5 238.5z" />
<glyph unicode="H" horiz-adv-x="1224" d="M128 0v1658h338v-680h292v680h338v-1658h-338v737h-292v-737h-338z" />
<glyph unicode="I" horiz-adv-x="591" d="M129 0v1658h335v-1658h-335z" />
<glyph unicode="J" horiz-adv-x="693" d="M23 -38v236h7q118 0 159 36q43 36 43 151v1273h338l-1 -1285q-2 -108 -20 -181t-61.5 -126.5t-117.5 -78.5t-184 -25h-163z" />
<glyph unicode="K" horiz-adv-x="1127" d="M123 0v1658h337v-695l301 695h326l-311 -746l334 -912h-341l-262 759l-47 -80v-679h-337z" />
<glyph unicode="L" horiz-adv-x="885" d="M123 0v1658h337v-1428h387v-230h-724z" />
<glyph unicode="M" horiz-adv-x="1421" d="M119 0l27 1658h355l209 -1058l220 1058h345l27 -1658h-247l-23 1119l-215 -1119h-206l-221 1125l-21 -1125h-250z" />
<glyph unicode="N" horiz-adv-x="1131" d="M123 0v1658h235l370 -861v861h280v-1658h-225l-372 916v-916h-288z" />
<glyph unicode="O" horiz-adv-x="1177" d="M98 525v612q0 133 25.5 230.5t82 168.5t151.5 107t230 36q263 0 377.5 -137t114.5 -405v-612q0 -268 -114.5 -407.5t-377.5 -139.5q-135 0 -230 36.5t-151.5 109t-82 170.5t-25.5 231zM443 443q0 -40 2.5 -68.5t11 -59.5t23.5 -50t42 -31.5t65 -12.5t65.5 12.5t43 31.5 t24.5 50t11.5 59.5t2.5 68.5v776q0 40 -2.5 68.5t-11.5 58.5t-24.5 48.5t-43 30.5t-65.5 12t-65 -12t-42 -30.5t-23.5 -49t-11 -58.5t-2.5 -68v-776z" />
<glyph unicode="P" horiz-adv-x="1117" d="M123 0v1658h518q432 0 432 -476q0 -129 -34 -220.5t-98 -143t-145 -74t-186 -22.5h-150v-722h-337zM460 958h108q112 0 150 50.5t38 177.5q0 65 -5.5 102.5t-24 71t-57 47.5t-101.5 14h-108v-463z" />
<glyph unicode="Q" horiz-adv-x="1177" d="M98 525v612q0 133 25.5 230.5t82 168.5t151.5 107t230 36q263 0 377.5 -137t114.5 -405v-612q0 -379 -224 -492q97 -111 164 -149l-67 -213q-75 33 -172 123.5t-158 184.5q-12 -1 -35 -1q-135 0 -230 36.5t-151.5 109t-82 170.5t-25.5 231zM443 443q0 -40 2.5 -68.5 t11 -59.5t23.5 -50t42 -31.5t65 -12.5t65.5 12.5t43 31.5t24.5 50t11.5 59.5t2.5 68.5v776q0 40 -2.5 68.5t-11.5 58.5t-24.5 48.5t-43 30.5t-65.5 12t-65 -12t-42 -30.5t-23.5 -49t-11 -58.5t-2.5 -68v-776z" />
<glyph unicode="R" horiz-adv-x="1185" d="M123 0v1658h419q132 0 227 -20.5t168.5 -69.5t110 -136t36.5 -214q0 -160 -45.5 -259t-156.5 -150l229 -809h-344l-190 748h-117v-748h-337zM460 952h84q122 0 173 57.5t51 183.5q0 123 -44.5 179.5t-160.5 56.5h-103v-477z" />
<glyph unicode="S" horiz-adv-x="1033" d="M84 495l292 52q2 -155 41.5 -233.5t121.5 -78.5q59 0 85.5 38t26.5 98q0 98 -42.5 164.5t-136.5 148.5l-178 154q-68 59 -109.5 110.5t-70 131t-28.5 176.5q0 201 119 311.5t327 111.5q70 0 128 -14t99.5 -38t73.5 -60t52 -74.5t34 -87t20 -92t9 -94.5l-290 -46 q-2 51 -5 85t-11.5 70.5t-22.5 57t-38 33.5t-57 11q-56 -3 -86.5 -43t-30.5 -97q0 -45 10.5 -81.5t34.5 -69.5t43.5 -53t56.5 -54l175 -152q56 -50 97.5 -97t78.5 -107t56.5 -132t19.5 -153q0 -181 -117.5 -297t-308.5 -116q-231 0 -345 127t-124 390z" />
<glyph unicode="T" horiz-adv-x="892" d="M15 1409v249h863v-249h-261v-1409h-337v1409h-265z" />
<glyph unicode="U" horiz-adv-x="1180" d="M111 537v1121h331v-1164q0 -47 2.5 -80.5t11 -71.5t24 -61.5t43.5 -39t67 -15.5t67.5 15.5t43.5 39t24 61.5t11 71t2 81v1164h331v-1121q0 -140 -22 -238.5t-75 -173t-147.5 -111t-234.5 -36.5q-139 0 -233.5 36.5t-148 111t-75.5 173t-22 238.5z" />
<glyph unicode="V" horiz-adv-x="1069" d="M46 1658h293l196 -1134l184 1134h306l-319 -1658h-343z" />
<glyph unicode="W" horiz-adv-x="1449" d="M62 1658h285l115 -1011l149 1011h225l155 -1008l115 1008h282l-217 -1658h-284l-162 1048l-158 -1048h-289z" />
<glyph unicode="X" horiz-adv-x="1040" d="M17 0l328 887l-316 771h318l196 -478l164 478h289l-304 -846l331 -812h-315l-215 522l-190 -522h-286z" />
<glyph unicode="Y" horiz-adv-x="1007" d="M18 1658h316l179 -586l167 586h309l-323 -1001v-657h-323v657z" />
<glyph unicode="Z" horiz-adv-x="879" d="M67 0v211l419 1216h-401v231h739v-178l-435 -1250h438v-230h-760z" />
<glyph unicode="[" horiz-adv-x="693" d="M111 -384l1 2042h506v-127h-250l-1 -1787h250v-128h-506z" />
<glyph unicode="\" horiz-adv-x="841" d="M82 1658h188l488 -1658h-187z" />
<glyph unicode="]" horiz-adv-x="661" d="M43 1530v128h506l1 -2042h-506v128h250l-1 1786h-250z" />
<glyph unicode="^" horiz-adv-x="967" d="M64 975l289 683h260l290 -683h-270l-151 425l-149 -425h-269z" />
<glyph unicode="_" horiz-adv-x="742" d="M0 -116h742v-213h-742v213z" />
<glyph unicode="`" horiz-adv-x="623" d="M93 1658h316l123 -411h-186z" />
<glyph unicode="a" horiz-adv-x="954" d="M76 266q0 46 9 88t22 75t37 63.5t45 53t55.5 45.5t59.5 37.5t65 32.5t63.5 27.5t65 25.5t60.5 23v109q0 64 -16.5 95.5t-63.5 31.5q-79 0 -83 -111l-6 -81l-293 12q0 20 3 41q13 190 115 279.5t291 89.5q175 0 263.5 -96t88.5 -263v-547q0 -136 22 -297h-277 q-25 131 -29 170q-24 -81 -82.5 -135.5t-148.5 -54.5q-80 1 -142.5 44t-93 107t-30.5 135zM364 335q0 -60 25 -95.5t68 -35.5q27 0 55.5 20t45.5 44v324q-83 -43 -138.5 -112.5t-55.5 -144.5z" />
<glyph unicode="b" horiz-adv-x="1010" d="M108 0v1658h309v-562q115 107 242 107h7q71 -1 123.5 -35.5t80 -90.5t40.5 -117t13 -129v-453q0 -178 -67.5 -288t-201.5 -110q-119 0 -237 108v-88h-309zM417 223q52 -32 107 -33h2q48 0 68 46q19 46 19 121v8v485q0 154 -88 154h-6q-45 -1 -102 -42v-739z" />
<glyph unicode="c" horiz-adv-x="932" d="M83 398v389q0 200 98 308t296 108q382 0 382 -360v-112h-295v119q0 77 -20 107.5t-65 30.5q-48 0 -67 -36t-19 -130v-464q0 -93 20.5 -127t66.5 -34t65 32t19 102v142h295v-129q0 -179 -97 -271.5t-285 -92.5q-197 0 -295.5 109t-98.5 309z" />
<glyph unicode="d" horiz-adv-x="1003" d="M87 376v419q0 119 27 208t91.5 144.5t161.5 55.5q117 0 221 -92v547h309v-1658h-309v86q-105 -105 -219 -106q-282 0 -282 396zM397 355q0 -167 95 -167q41 0 96 30v751q-50 30 -96 30q-50 0 -72.5 -42.5t-22.5 -109.5v-492z" />
<glyph unicode="e" horiz-adv-x="940" d="M83 400v383q0 203 100 311.5t296 108.5q201 0 291.5 -108.5t90.5 -322.5v-198h-471v-194q0 -88 18 -132.5t71 -44.5q92 0 92 133v110h289v-96q0 -180 -98 -275t-282 -95q-199 0 -298 108.5t-99 311.5zM390 723h181v116q0 76 -22.5 109t-70.5 33t-68 -37.5t-20 -131.5v-89 z" />
<glyph unicode="f" horiz-adv-x="642" d="M36 970v214h120v74q0 71 6 120.5t24.5 97t52 75.5t90.5 45t137 17q60 0 156 -11v-230q-70 10 -73 10q-84 0 -84 -106v-92h157v-214h-157v-970h-309v970h-120z" />
<glyph unicode="g" horiz-adv-x="990" d="M49 -143q0 132 167 242q-69 25 -101 58t-37 76q-2 14 -2 26q0 49 28 89q35 50 114 113q-64 48 -97 120t-33 189q0 219 102 326t290 107t263 -108q73 84 160 128l42 21l72 -161q-33 -9 -100.5 -37t-99.5 -47q22 -35 38 -97t16 -132q0 -192 -91 -299t-282 -107 q-40 0 -92.5 9.5t-77.5 20.5q-34 -44 -34 -74v-6q4 -34 108 -47q19 -4 112 -14.5t125 -15.5q161 -19 230.5 -88t69.5 -198q0 -152 -93 -230t-311 -78q-59 0 -105.5 2t-107.5 8.5t-105 21.5t-84.5 37.5t-62 59.5t-21.5 85zM332 -66q0 -46 42 -66.5t160 -20.5q83 0 121.5 19 t41.5 63q1 8 1 15q0 42 -25 62q-29 24 -105 32l-183 19q-53 -70 -53 -123zM386 782q0 -59 3.5 -96.5t13.5 -69t30 -46t52 -14.5q63 0 82 49t19 177q0 54 -1.5 86t-7 63t-16.5 46.5t-29.5 25t-45.5 9.5q-28 0 -46.5 -10t-29 -26t-16 -47.5t-7 -63t-1.5 -83.5z" />
<glyph unicode="h" horiz-adv-x="1014" d="M108 0v1658h310v-584q132 129 291 129q103 0 155 -75.5t52 -190.5v-937h-309v882q0 49 -15 73q-14 23 -54 23h-3q-47 0 -117 -50v-928h-310z" />
<glyph unicode="i" horiz-adv-x="529" d="M110 1378v235h311v-235h-311zM111 0v1184h309v-1184h-309z" />
<glyph unicode="j" horiz-adv-x="544" d="M-24 -103q40 -7 59 -7q98 0 98 108v1186h309v-1222q0 -142 -79.5 -226t-223.5 -84q-84 0 -163 23v222zM132 1378v235h311v-235h-311z" />
<glyph unicode="k" horiz-adv-x="1051" d="M108 1v1658h307v-932l290 457h343l-302 -480l298 -704h-332l-208 571l-89 -119v-451h-307z" />
<glyph unicode="l" horiz-adv-x="542" d="M121 0v1658h310v-1658h-310z" />
<glyph unicode="m" horiz-adv-x="1509" d="M106 0v1184h299v-99q120 121 281 121q70 0 122 -36t78 -107q126 143 301 143q102 0 163 -74.5t61 -209.5v-922h-300v893q0 55 -19 79.5t-57 22.5q-62 0 -127 -54q1 -6 1 -19v-922h-298v893v5q0 51 -19 74q-18 23 -53 23h-6q-58 0 -128 -56v-939h-299z" />
<glyph unicode="n" horiz-adv-x="1008" d="M106 0v1184h309v-117q143 136 288 136q103 0 155 -75.5t52 -190.5v-937h-310v882q0 49 -15 73t-56 23q-48 0 -114 -47v-931h-309z" />
<glyph unicode="o" horiz-adv-x="962" d="M83 381v422q0 193 102 296.5t294 103.5q193 0 296.5 -103.5t103.5 -296.5v-422q0 -193 -103.5 -297t-296.5 -104q-192 0 -294 103.5t-102 297.5zM389 359q0 -81 18.5 -124t72.5 -43q55 0 74 42.5t19 124.5v465q0 83 -19 125.5t-74 42.5q-54 0 -72.5 -43.5t-18.5 -124.5 v-465z" />
<glyph unicode="p" horiz-adv-x="1008" d="M106 -390v1574h309v-89q116 108 242 108h7q71 -1 123.5 -35.5t80 -90.5t40.5 -117t13 -129v-453q0 -178 -67.5 -288t-201.5 -110q-118 0 -237 109v-479h-309zM415 223q52 -32 105 -33q35 0 56 25t28 61.5t7 88.5v485q-1 69 -23 113q-21 41 -67 41h-6q-43 -1 -100 -42 v-739z" />
<glyph unicode="q" horiz-adv-x="1005" d="M87 376v419q0 184 68.5 296t210.5 112q119 0 226 -97v78h309v-1574h-309v480q-109 -109 -224 -110q-281 0 -281 396zM397 355q0 -167 96 -167q41 0 99 33v746q-54 32 -99 32q-49 0 -72.5 -42.5t-23.5 -109.5v-492z" />
<glyph unicode="r" horiz-adv-x="738" d="M110 0v1184h309v-190q110 205 242 205q21 0 45 -7v-287q-34 12 -73 12q-67 -3 -117.5 -34.5t-96.5 -99.5v-783h-309z" />
<glyph unicode="s" horiz-adv-x="841" d="M41 287l223 90q57 -183 161 -183h8q38 2 62 28q22 24 22 58v6q-2 53 -139 170l-122 104q-186 158 -186 320q0 144 102 234q100 89 249 89q142 0 234.5 -81.5t126.5 -224.5l-202 -90q-18 73 -54.5 124.5t-88.5 52.5h-6q-36 0 -58 -22q-24 -24 -25 -57q-1 -23 21.5 -54.5 t44 -52t67.5 -60.5l122 -110q37 -32 58.5 -52.5t52 -55.5t47 -65t29 -71t12.5 -85q0 -100 -51 -174t-133 -109.5t-183 -35.5q-296 0 -394 307z" />
<glyph unicode="t" horiz-adv-x="704" d="M32 981v203h114v354h312v-354h175v-203h-175v-644q0 -100 107 -103h7q32 0 80 8v-242q-122 -15 -196 -15h-17q-72 2 -125 23.5t-84.5 55.5t-50.5 86t-26 105.5t-7 122.5v603h-114z" />
<glyph unicode="u" horiz-adv-x="1001" d="M96 247v937h309v-889q1 -49 17 -73t54 -24h3q46 1 106 42v944h310v-1184h-310v110q-137 -129 -282 -129q-103 0 -155 75.5t-52 190.5z" />
<glyph unicode="v" horiz-adv-x="846" d="M24 1184h299l106 -803l102 803h296l-235 -1184h-335z" />
<glyph unicode="w" horiz-adv-x="1221" d="M47 1184h257l93 -715l108 715h225l98 -725l104 725h243l-184 -1184h-263l-115 698l-123 -698h-266z" />
<glyph unicode="x" horiz-adv-x="878" d="M19 0l254 642l-244 542h308l138 -303l119 303h252l-244 -587l269 -597h-309l-153 340l-125 -340h-265z" />
<glyph unicode="y" horiz-adv-x="888" d="M9 1184h296l147 -725l120 725h296l-280 -1247q-58 -268 -411 -268h-10h-41v218q116 0 158 23q34 19 35 72q0 12 -2 25q-7 51 -42 181q-18 76 -133 498t-133 498z" />
<glyph unicode="z" horiz-adv-x="780" d="M69 0v201l333 756h-305v227h628v-184l-331 -772h333v-228h-658z" />
<glyph unicode="{" horiz-adv-x="734" d="M93 535v219q32 0 51.5 3t35.5 16t23.5 29.5t12.5 55t6 81.5t1 118v200q0 69 2.5 115.5t10 93.5t20.5 76t37 56.5t56 42.5t79.5 27t107 16.5t138.5 4.5v-212q-38 0 -61 -2.5t-42 -12.5t-28 -23.5t-15.5 -42.5t-8 -62.5t-1.5 -89.5v-224q0 -174 -38 -264t-131 -112 q93 -21 131 -111t38 -264v-224q0 -67 3 -104.5t11 -66.5t27 -41t44.5 -17t70.5 -5v-212q-106 0 -178 8t-123.5 30.5t-80 51t-44.5 83t-20.5 110.5t-4.5 149v200q0 76 -1 118.5t-6 81.5t-12.5 55.5t-23.5 29.5t-35.5 16t-51.5 3z" />
<glyph unicode="|" horiz-adv-x="529" d="M134 -351v2009h262l-1 -2009h-261z" />
<glyph unicode="}" horiz-adv-x="756" d="M82 -189q38 0 61 2.5t42 12.5t28.5 23.5t15.5 43t7.5 63t1.5 89.5v224q0 174 38.5 264t130.5 111q-92 22 -130.5 112t-38.5 264v224q0 56 -1.5 89t-7.5 62.5t-15.5 43t-28.5 23.5t-42 12.5t-61 2.5v212q79 0 138.5 -4.5t107 -16.5t80 -27t56 -42.5t37 -56.5t21 -76 t10 -93.5t2.5 -115.5v-200q0 -76 1 -118t6 -81t12 -55.5t23 -30t35.5 -16t51.5 -2.5v-219q-32 0 -51 -2.5t-35.5 -16t-23.5 -30t-12 -55.5t-6 -81.5t-1 -118.5v-200q0 -69 -2.5 -115t-10 -93t-21 -76t-37 -57t-56 -43t-80 -27t-107 -16.5t-138.5 -4.5v212z" />
<glyph unicode="~" horiz-adv-x="975" d="M79 856q45 68 115.5 125t129.5 57q48 0 114.5 -29.5t126 -59t91.5 -29.5q50 0 142 94l108 -117q-39 -76 -111 -139t-137 -63q-48 0 -115 30.5t-127.5 60.5t-93.5 30q-26 0 -67.5 -26t-75.5 -67z" />
<glyph unicode="&#xa1;" horiz-adv-x="471" d="M80 -327l109 1250h108l91 -1250h-308zM97 1035v292h295v-292h-295z" />
<glyph unicode="&#xa2;" horiz-adv-x="898" d="M79 398v389q0 184 85 291t253 123v216h82v-214q180 -6 268 -95t88 -265v-112h-294v114q0 77 -20 107t-65 30q-48 0 -67 -36t-19 -129v-453q0 -93 20 -127t66 -34q47 0 66 31.5t19 101.5v137h294v-129q0 -352 -356 -363v-217h-82v219q-169 16 -253.5 123.5t-84.5 291.5z " />
<glyph unicode="&#xa3;" horiz-adv-x="958" d="M31 0v170l121 58v442h-121v240h121v182q0 76 3 133.5t12.5 122t26.5 110.5t46 90t69.5 71t99 43.5t132.5 16.5q103 0 174.5 -31t110 -91t55 -133t16.5 -171v-55h-263q0 42 -1 69t-6 59.5t-14.5 50.5t-27 31t-42.5 13q-21 0 -36 -8.5t-24.5 -27t-15.5 -38.5t-9 -54 t-4 -61.5t-1 -71.5v-252h240v-238h-240v-414h437v-256h-859z" />
<glyph unicode="&#xa4;" horiz-adv-x="1138" d="M84 411l163 162q-111 124 -111 293t111 293l-163 162l30 30l162 -162q122 115 290 115h2.5h3.5q168 0 290 -115l162 162l30 -30l-162 -162q110 -125 110 -293q0 -169 -111 -293l163 -162l-30 -30l-162 162q-122 -115 -290 -115h-2.5h-3.5q-168 0 -290 115l-162 -162z M235 866q0 -143 96.5 -244t237.5 -101t238 101t97 244t-96.5 244t-238.5 101q-141 0 -237.5 -101t-96.5 -244z" />
<glyph unicode="&#xa5;" horiz-adv-x="968" d="M7 1658h317l179 -667l167 667h309l-286 -954h135v-167h-172v-131h172v-164h-172v-242h-323v242h-171v164h171v131h-171v167h134z" />
<glyph unicode="&#xa6;" horiz-adv-x="444" d="M111 -351v834h222v-834h-222zM111 824v834h222v-834h-222z" />
<glyph unicode="&#xa7;" horiz-adv-x="949" d="M89 1386v14q0 90 47 158q51 74 138 110t196 36q154 0 251 -92t132 -242l-208 -56q-11 34 -23.5 60.5t-32 53t-48.5 41t-64 14.5q-50 -1 -79 -26.5t-29 -73.5q0 -25 10.5 -47t31 -40t33.5 -27t36 -22l188 -117q174 -108 174 -281q0 -85 -41 -144t-117 -107 q82 -66 123.5 -130.5t41.5 -149.5q0 -152 -101.5 -242t-278.5 -90q-152 0 -244.5 90.5t-129.5 239.5l212 59q10 -28 24.5 -54.5t35 -52.5t48.5 -41.5t59 -15.5q54 0 85.5 26t33.5 73v6q0 48 -29 86q-31 40 -106 85l-196 120q-81 49 -125 113q-40 58 -40 141v15q4 91 53 156 t122 91q-72 41 -126 111.5t-57 151.5zM350 879q0 -24 12 -47.5t32 -35.5l122 -70q83 44 83 106q0 61 -63 100l-97 59q-39 -15 -64 -45t-25 -67z" />
<glyph unicode="&#xa8;" horiz-adv-x="859" d="M89 1372v286h261v-286h-261zM509 1372v286h261v-286h-261z" />
<glyph unicode="&#xa9;" horiz-adv-x="1797" d="M81 835q0 128 28.5 249t92.5 233t157 195t232 133t308 50t307.5 -50t231.5 -133t157 -195t92.5 -233t28.5 -249t-28.5 -249t-92 -233t-156.5 -195t-232 -133t-308 -50t-308 50t-232 133.5t-157 195.5t-92.5 232.5t-28.5 248.5zM182 834q0 -119 26.5 -229.5t83.5 -210.5 t140 -173.5t204 -117t267 -43.5q145 0 266 43.5t204 117t140 173.5t83.5 210.5t26.5 229.5q0 120 -26.5 230.5t-83.5 209.5t-140 172t-203.5 115.5t-266.5 42.5t-267 -42.5t-204 -115.5t-140 -172t-83.5 -209.5t-26.5 -230.5zM470 669v348q0 198 107 305.5t323 107.5 q415 0 415 -356v-100h-317v101q0 78 -23 108.5t-73 30.5q-53 0 -75.5 -37t-22.5 -130v-413q0 -93 23.5 -128t74.5 -35q52 0 74 33t22 102v116h317v-107q0 -178 -105 -269.5t-310 -91.5q-216 0 -323 108t-107 307z" />
<glyph unicode="&#xaa;" horiz-adv-x="974" d="M128 882q0 47 13 88.5t31.5 71.5t52 58t60.5 45.5t72.5 37t71.5 28.5t74 25t65 22v111q0 108 -65 108q-42 0 -57.5 -36.5t-21.5 -121.5l-264 6q1 175 96.5 266.5t266.5 91.5q166 0 243.5 -92t77.5 -256v-677h-246l-13 136q-27 -67 -82 -109.5t-131 -42.5 q-112 1 -178 71.5t-66 168.5zM394 936q0 -46 22 -73t58 -27q27 0 52.5 17t41.5 44v251q-75 -36 -124.5 -94.5t-49.5 -117.5z" />
<glyph unicode="&#xab;" horiz-adv-x="986" d="M71 547v116l383 480v-317l-192 -221l192 -221v-316zM508 547v116l384 480v-317l-192 -221l192 -221v-316z" />
<glyph unicode="&#xac;" horiz-adv-x="964" d="M92 742v213h786v-511h-153v298h-633z" />
<glyph unicode="&#xad;" horiz-adv-x="748" d="M129 670v205h502v-205h-502z" />
<glyph unicode="&#xae;" horiz-adv-x="1824" d="M98 828q0 128 28.5 248t92 231.5t156.5 194.5t231.5 132.5t306.5 49.5t306 -49.5t230.5 -132.5t156 -194.5t92 -231.5t28.5 -248t-28 -248t-91.5 -231.5t-156 -194.5t-231 -132.5t-306.5 -49.5t-306.5 50t-231.5 133t-156.5 194.5t-92 231.5t-28.5 247zM221 827 q0 -114 25 -220.5t80 -203t134 -167.5t195.5 -113t256.5 -42q139 0 254.5 42t194.5 113t134 167t80 203t25 221q0 115 -25 221.5t-80 202t-134 166.5t-194.5 112.5t-254.5 41.5q-140 0 -256.5 -41.5t-195.5 -112t-134 -166.5t-80 -202.5t-25 -221.5zM573 313v1040h335 q186 0 278.5 -67.5t92.5 -223.5q0 -99 -35.5 -159t-117.5 -99l183 -491h-266l-147 441h-68v-441h-255zM828 884h41q93 0 130 39.5t37 125.5q0 151 -137 151h-71v-316z" />
<glyph unicode="&#xaf;" horiz-adv-x="422" d="M-22 1505v153h488v-153h-488z" />
<glyph unicode="&#xb0;" horiz-adv-x="1066" d="M134 1287q0 179 108 285.5t290 106.5t291 -106.5t109 -285.5q0 -180 -108.5 -287.5t-291.5 -107.5q-182 0 -290 107.5t-108 287.5zM337 1287q0 -98 51.5 -158.5t143.5 -60.5t144 60.5t52 157.5t-51.5 156.5t-144.5 59.5q-92 0 -143.5 -59t-51.5 -156z" />
<glyph unicode="&#xb1;" horiz-adv-x="930" d="M129 0v197h673v-197h-673zM129 614v192h236v242h201v-242h236v-192h-236v-242h-201v242h-236z" />
<glyph unicode="&#xb2;" horiz-adv-x="890" d="M151 620v174l287 445q10 16 34.5 52t37 56.5t28.5 52t23 61.5t7 62q0 63 -25 95q-22 28 -60 28q-6 0 -12 -1q-34 -3 -56 -45.5t-29 -90t-7 -96.5h-225v57q0 111 31 191t104.5 128.5t184.5 48.5q153 0 236 -83.5t83 -233.5q0 -32 -4 -61.5t-14.5 -60t-17.5 -50.5 t-26.5 -53t-27 -46t-32.5 -50.5t-31 -47.5l-224 -348h345v-184h-610z" />
<glyph unicode="&#xb3;" horiz-adv-x="889" d="M142 982v59h239v-64q0 -91 22.5 -131.5t71.5 -40.5q50 0 72 37t22 114q0 92 -30 141t-100 49h-67v162h62q73 0 104 50.5t31 144.5q0 144 -97 144q-91 0 -91 -144v-91h-239v92q0 157 86.5 245.5t240.5 88.5q160 0 246 -83t86 -246q0 -99 -44.5 -174t-102.5 -90 q147 -58 147 -273q0 -173 -80 -271.5t-245 -98.5q-183 0 -258.5 96.5t-75.5 283.5z" />
<glyph unicode="&#xb4;" horiz-adv-x="623" d="M113 1247l123 411h316l-253 -411h-186z" />
<glyph unicode="&#xb5;" horiz-adv-x="984" d="M90 1184h309v-882q0 -49 15 -73q14 -23 54 -23h3q42 0 106 42v936h309v-1184h-309v99q-75 -69 -151 -95q-15 -5 -26 -8l1 -373h-310z" />
<glyph unicode="&#xb6;" horiz-adv-x="1053" d="M71 1335q0 88 30.5 152.5t85.5 100.5t123.5 53t153.5 17h453v-1854h-179v1686h-159v-1686h-188v1211q-145 2 -232.5 86t-87.5 234z" />
<glyph unicode="&#xb7;" horiz-adv-x="431" d="M69 625v291h295v-291h-295z" />
<glyph unicode="&#xb8;" horiz-adv-x="558" d="M96 -388q32 -9 72 -13q25 -2 49 -2q15 1 30 1q39 2 65.5 17.5t26.5 42.5q0 30 -16.5 52t-46.5 35.5t-58.5 20.5t-64.5 12v222h123v-131q111 -6 189.5 -60t80.5 -139v-7q0 -70 -39 -120q-41 -52 -107 -73q-63 -20 -139 -20h-7q-80 1 -158 24v138z" />
<glyph unicode="&#xb9;" horiz-adv-x="878" d="M171 1511v172q2 1 18.5 6.5t24.5 8t26.5 9t30 11t30 12.5t31 14.5t28.5 15t27.5 17t22.5 18t19 19.5h179v-1196h-230l-1 939z" />
<glyph unicode="&#xba;" horiz-adv-x="974" d="M140 984v357q0 166 89.5 254t256.5 88q163 0 255.5 -90t92.5 -252v-357q0 -163 -92.5 -253t-255.5 -90q-167 0 -256.5 88t-89.5 255zM393 994q0 -76 19.5 -116.5t71.5 -40.5q54 0 73 39.5t19 117.5v336q0 78 -19 117.5t-73 39.5q-52 0 -71.5 -40.5t-19.5 -116.5v-336z " />
<glyph unicode="&#xbb;" horiz-adv-x="1014" d="M99 68v316l202 222l-202 220v317l394 -480v-116zM537 68v316l201 222l-201 220v317l393 -480v-116z" />
<glyph unicode="&#xbc;" horiz-adv-x="1472" d="M109 1343v146q139 72 217 169h96v-830h-193v557zM265 0l707 1658h175l-708 -1658h-174zM806 232v137l296 497h154v-491h110v-143h-110v-231h-171v231h-279zM934 375h151v269z" />
<glyph unicode="&#xbd;" horiz-adv-x="1472" d="M69 1343v146q141 72 217 169h97v-830h-193v557zM233 0l707 1658h176l-708 -1658h-175zM876 632q2 106 65 168.5t177 62.5q117 0 182.5 -60.5t65.5 -170.5q0 -42 -11 -82.5t-35 -84t-45 -74.5t-59 -82q-26 -29 -128 -167h266v-141h-463v141l187 264q4 6 21 29t22.5 31.5 t19 29t19 33.5t13 31.5t10.5 35.5t3 34q0 92 -64 92q-40 0 -56 -42q-11 -29 -11 -67q0 -17 2 -36h-177q-4 49 -4 55z" />
<glyph unicode="&#xbe;" horiz-adv-x="1472" d="M98 1110h157q0 -98 65 -98q32 0 44 25.5t12 71.5q0 60 -26.5 81t-97.5 21v120q70 0 97.5 21.5t27.5 79.5q0 50 -12 76t-46 26q-38 0 -51 -25.5t-13 -72.5h-157q0 115 60 173t170 58q106 0 158.5 -57.5t52.5 -165.5q0 -72 -40 -116t-100 -49q143 -20 143 -168 q0 -111 -55.5 -171.5t-161.5 -60.5q-108 0 -167.5 62t-59.5 169zM298 0l707 1658h175l-708 -1658h-174zM838 232v137l296 497h154v-491h110v-143h-110v-231h-171v231h-279zM966 375h151v269z" />
<glyph unicode="&#xbf;" horiz-adv-x="1067" d="M116 49q0 179 102 343t260 289v199h280v-262q-336 -287 -336 -559q0 -11 1 -22q2 -70 39 -106.5t94 -36.5q56 0 86 37q26 32 27 81q0 8 -1 17q0 37 -19 98l282 61q26 -102 26 -148q3 -28 3 -54q0 -146 -86 -244q-100 -114 -313 -115q-214 0 -329.5 111t-115.5 311z M464 1014v297h304v-297h-304z" />
<glyph unicode="&#xc0;" d="M41 0l324 1658h370l323 -1658h-313l-61 367h-263l-61 -367h-319zM202 2212h317l123 -411h-186zM453 576h197l-99 660z" />
<glyph unicode="&#xc1;" d="M41 0l324 1658h370l323 -1658h-313l-61 367h-263l-61 -367h-319zM453 576h197l-99 660zM457 1801l124 411h315l-253 -411h-186z" />
<glyph unicode="&#xc2;" d="M41 0l324 1658h370l323 -1658h-313l-61 367h-263l-61 -367h-319zM226 1801l189 382h265l193 -382h-228l-96 241l-96 -241h-227zM453 576h197l-99 660z" />
<glyph unicode="&#xc3;" d="M41 0l324 1658h370l323 -1658h-313l-61 367h-263l-61 -367h-319zM226 1815q0 130 37.5 200t135.5 76h13q45 0 95 -18q56 -22 102 -47t65 -27q29 -4 41.5 17t12.5 61h144v-7q0 -262 -146 -269h-7q-41 0 -94 22q-58 24 -110.5 50t-80.5 26q-54 0 -54 -84h-154zM453 576h197 l-99 660z" />
<glyph unicode="&#xc4;" d="M41 0l324 1658h370l323 -1658h-313l-61 367h-263l-61 -367h-319zM209 1801v286h261v-286h-261zM453 576h197l-99 660zM629 1801v286h261v-286h-261z" />
<glyph unicode="&#xc5;" d="M41 0l324 1658h370l323 -1658h-313l-61 367h-263l-61 -367h-319zM310 1894q0 107 67 168t171 61q105 0 173 -61t68 -168t-68 -168.5t-173 -61.5q-104 0 -171 61.5t-67 168.5zM442 1894q0 -48 28 -79.5t78 -31.5t78 31.5t28 79.5t-28 79.5t-78 31.5t-78 -31.5t-28 -79.5z M453 576h197l-99 660z" />
<glyph unicode="&#xc6;" horiz-adv-x="1409" d="M-53 0l719 1641h700v-232h-366v-434h259v-236h-259v-509h366v-230h-662v364h-273l-151 -364h-333zM505 581h199v535z" />
<glyph unicode="&#xc7;" horiz-adv-x="1129" d="M98 535v585q0 135 24 234t79 174t150.5 113t232.5 38q130 0 221.5 -33.5t144 -98.5t76 -149.5t23.5 -197.5v-144h-329v156v39t-1 36t-3.5 35.5t-7 30.5t-11 29t-16.5 22t-23.5 18.5t-32 10t-40.5 4.5q-39 0 -66.5 -13.5t-42.5 -33.5t-23 -54.5t-10 -64t-2 -74.5v-741 q0 -121 30.5 -178t113.5 -57q32 0 56 8t38.5 26.5t23 36t12 49.5t4.5 54t1 61v162h329v-140q0 -115 -22.5 -201.5t-73.5 -156t-144 -106t-225 -36.5q-136 0 -232 39.5t-151 115.5t-79 174t-24 228zM436 -388q32 -9 72 -13q25 -2 49 -2q15 1 30 1q39 2 65.5 17.5t26.5 42.5 q0 30 -16.5 52t-46.5 35.5t-58.5 20.5t-64.5 12v222h123v-131q111 -6 189.5 -60t80.5 -139v-7q0 -70 -39 -120q-41 -52 -107 -73q-63 -20 -139 -20h-7q-80 1 -158 24v138z" />
<glyph unicode="&#xc8;" horiz-adv-x="896" d="M123 0v1658h722v-234h-385v-439h299v-236h-299v-519h389v-230h-726zM139 2212h317l123 -411h-186z" />
<glyph unicode="&#xc9;" horiz-adv-x="896" d="M123 0v1658h722v-234h-385v-439h299v-236h-299v-519h389v-230h-726zM393 1801l124 411h315l-253 -411h-186z" />
<glyph unicode="&#xca;" horiz-adv-x="896" d="M123 0v1658h722v-234h-385v-439h299v-236h-299v-519h389v-230h-726zM163 1801l189 382h265l193 -382h-228l-96 241l-96 -241h-227z" />
<glyph unicode="&#xcb;" horiz-adv-x="896" d="M123 0v1658h722v-234h-385v-439h299v-236h-299v-519h389v-230h-726zM145 1801v286h261v-286h-261zM565 1801v286h261v-286h-261z" />
<glyph unicode="&#xcc;" horiz-adv-x="591" d="M-50 2212h317l123 -411h-186zM129 0v1658h335v-1658h-335z" />
<glyph unicode="&#xcd;" horiz-adv-x="591" d="M129 0v1658h335v-1658h-335zM203 1801l124 411h315l-253 -411h-186z" />
<glyph unicode="&#xce;" horiz-adv-x="591" d="M-27 1801l189 382h265l193 -382h-228l-96 241l-96 -241h-227zM129 0v1658h335v-1658h-335z" />
<glyph unicode="&#xcf;" horiz-adv-x="591" d="M-44 1801v286h261v-286h-261zM129 0v1658h335v-1658h-335zM376 1801v286h261v-286h-261z" />
<glyph unicode="&#xd0;" horiz-adv-x="1122" d="M20 765v173h91v720h403q157 0 261.5 -29t167 -95t88.5 -160.5t26 -236.5v-598q0 -144 -26 -242t-88 -166.5t-165 -99.5t-256 -31h-411v765h-91zM448 235h70q35 0 62.5 4t47.5 14t34 20.5t23.5 30.5t15 37.5t8 48.5t3 55t0.5 65v665q0 59 -3 93.5t-13.5 67.5t-32 49 t-57.5 25.5t-90 9.5h-68v-482h91v-173h-91v-530z" />
<glyph unicode="&#xd1;" horiz-adv-x="1131" d="M123 0v1658h235l370 -861v861h280v-1658h-225l-372 916v-916h-288zM242 1815q0 130 37.5 200t135.5 76h13q45 0 95 -18q56 -22 102 -47t65 -27q29 -4 41.5 17t12.5 61h144v-7q0 -262 -146 -269h-7q-41 0 -94 22q-58 24 -110.5 50t-80.5 26q-54 0 -54 -84h-154z" />
<glyph unicode="&#xd2;" horiz-adv-x="1177" d="M98 525v612q0 133 25.5 230.5t82 168.5t151.5 107t230 36q263 0 377.5 -137t114.5 -405v-612q0 -268 -114.5 -407.5t-377.5 -139.5q-135 0 -230 36.5t-151.5 109t-82 170.5t-25.5 231zM242 2212h317l123 -411h-186zM443 443q0 -40 2.5 -68.5t11 -59.5t23.5 -50t42 -31.5 t65 -12.5t65.5 12.5t43 31.5t24.5 50t11.5 59.5t2.5 68.5v776q0 40 -2.5 68.5t-11.5 58.5t-24.5 48.5t-43 30.5t-65.5 12t-65 -12t-42 -30.5t-23.5 -49t-11 -58.5t-2.5 -68v-776z" />
<glyph unicode="&#xd3;" horiz-adv-x="1177" d="M98 525v612q0 133 25.5 230.5t82 168.5t151.5 107t230 36q263 0 377.5 -137t114.5 -405v-612q0 -268 -114.5 -407.5t-377.5 -139.5q-135 0 -230 36.5t-151.5 109t-82 170.5t-25.5 231zM443 443q0 -40 2.5 -68.5t11 -59.5t23.5 -50t42 -31.5t65 -12.5t65.5 12.5t43 31.5 t24.5 50t11.5 59.5t2.5 68.5v776q0 40 -2.5 68.5t-11.5 58.5t-24.5 48.5t-43 30.5t-65.5 12t-65 -12t-42 -30.5t-23.5 -49t-11 -58.5t-2.5 -68v-776zM495 1801l124 411h315l-253 -411h-186z" />
<glyph unicode="&#xd4;" horiz-adv-x="1177" d="M98 525v612q0 133 25.5 230.5t82 168.5t151.5 107t230 36q263 0 377.5 -137t114.5 -405v-612q0 -268 -114.5 -407.5t-377.5 -139.5q-135 0 -230 36.5t-151.5 109t-82 170.5t-25.5 231zM265 1801l189 382h265l193 -382h-228l-96 241l-96 -241h-227zM443 443 q0 -40 2.5 -68.5t11 -59.5t23.5 -50t42 -31.5t65 -12.5t65.5 12.5t43 31.5t24.5 50t11.5 59.5t2.5 68.5v776q0 40 -2.5 68.5t-11.5 58.5t-24.5 48.5t-43 30.5t-65.5 12t-65 -12t-42 -30.5t-23.5 -49t-11 -58.5t-2.5 -68v-776z" />
<glyph unicode="&#xd5;" horiz-adv-x="1177" d="M98 525v612q0 133 25.5 230.5t82 168.5t151.5 107t230 36q263 0 377.5 -137t114.5 -405v-612q0 -268 -114.5 -407.5t-377.5 -139.5q-135 0 -230 36.5t-151.5 109t-82 170.5t-25.5 231zM265 1815q0 130 37.5 200t135.5 76h13q45 0 95 -18q56 -22 102 -47t65 -27 q29 -4 41.5 17t12.5 61h144v-7q0 -262 -146 -269h-7q-41 0 -94 22q-58 24 -110.5 50t-80.5 26q-54 0 -54 -84h-154zM443 443q0 -40 2.5 -68.5t11 -59.5t23.5 -50t42 -31.5t65 -12.5t65.5 12.5t43 31.5t24.5 50t11.5 59.5t2.5 68.5v776q0 40 -2.5 68.5t-11.5 58.5t-24.5 48.5 t-43 30.5t-65.5 12t-65 -12t-42 -30.5t-23.5 -49t-11 -58.5t-2.5 -68v-776z" />
<glyph unicode="&#xd6;" horiz-adv-x="1177" d="M98 525v612q0 133 25.5 230.5t82 168.5t151.5 107t230 36q263 0 377.5 -137t114.5 -405v-612q0 -268 -114.5 -407.5t-377.5 -139.5q-135 0 -230 36.5t-151.5 109t-82 170.5t-25.5 231zM248 1801v286h261v-286h-261zM443 443q0 -40 2.5 -68.5t11 -59.5t23.5 -50t42 -31.5 t65 -12.5t65.5 12.5t43 31.5t24.5 50t11.5 59.5t2.5 68.5v776q0 40 -2.5 68.5t-11.5 58.5t-24.5 48.5t-43 30.5t-65.5 12t-65 -12t-42 -30.5t-23.5 -49t-11 -58.5t-2.5 -68v-776zM668 1801v286h261v-286h-261z" />
<glyph unicode="&#xd7;" horiz-adv-x="944" d="M109 623l220 220l-220 219l144 144l219 -219l220 219l143 -143l-220 -220l220 -220l-142 -143l-221 219l-219 -219z" />
<glyph unicode="&#xd8;" horiz-adv-x="1155" d="M98 525v612q0 133 25.5 230.5t82 168.5t151.5 107t230 36q127 0 220 -33l55 161l82 -29l-58 -169q68 -43 111.5 -112t62.5 -157.5t19 -202.5v-612q0 -268 -114.5 -407.5t-377.5 -139.5q-147 0 -248 44l-67 -195l-82 31l72 210q-164 126 -164 457zM443 592l268 777 q-10 22 -26 36.5t-40.5 23t-57.5 8.5q-38 0 -65 -12t-42 -30.5t-23.5 -49t-11 -58.5t-2.5 -68v-627zM450 343q6 -38 20.5 -63.5t43.5 -42t73 -16.5q38 0 65.5 12.5t43 31.5t24.5 50t11.5 59.5t2.5 68.5v725z" />
<glyph unicode="&#xd9;" horiz-adv-x="1180" d="M111 537v1121h331v-1164q0 -47 2.5 -80.5t11 -71.5t24 -61.5t43.5 -39t67 -15.5t67.5 15.5t43.5 39t24 61.5t11 71t2 81v1164h331v-1121q0 -140 -22 -238.5t-75 -173t-147.5 -111t-234.5 -36.5q-139 0 -233.5 36.5t-148 111t-75.5 173t-22 238.5zM243 2212h317l123 -411 h-186z" />
<glyph unicode="&#xda;" horiz-adv-x="1180" d="M111 537v1121h331v-1164q0 -47 2.5 -80.5t11 -71.5t24 -61.5t43.5 -39t67 -15.5t67.5 15.5t43.5 39t24 61.5t11 71t2 81v1164h331v-1121q0 -140 -22 -238.5t-75 -173t-147.5 -111t-234.5 -36.5q-139 0 -233.5 36.5t-148 111t-75.5 173t-22 238.5zM497 1801l124 411h315 l-253 -411h-186z" />
<glyph unicode="&#xdb;" horiz-adv-x="1180" d="M111 537v1121h331v-1164q0 -47 2.5 -80.5t11 -71.5t24 -61.5t43.5 -39t67 -15.5t67.5 15.5t43.5 39t24 61.5t11 71t2 81v1164h331v-1121q0 -140 -22 -238.5t-75 -173t-147.5 -111t-234.5 -36.5q-139 0 -233.5 36.5t-148 111t-75.5 173t-22 238.5zM267 1801l189 382h265 l193 -382h-228l-96 241l-96 -241h-227z" />
<glyph unicode="&#xdc;" horiz-adv-x="1180" d="M111 537v1121h331v-1164q0 -47 2.5 -80.5t11 -71.5t24 -61.5t43.5 -39t67 -15.5t67.5 15.5t43.5 39t24 61.5t11 71t2 81v1164h331v-1121q0 -140 -22 -238.5t-75 -173t-147.5 -111t-234.5 -36.5q-139 0 -233.5 36.5t-148 111t-75.5 173t-22 238.5zM249 1801v286h261v-286 h-261zM669 1801v286h261v-286h-261z" />
<glyph unicode="&#xdd;" horiz-adv-x="1007" d="M18 1658h316l179 -586l167 586h309l-323 -1001v-657h-323v657zM411 1801l124 411h315l-253 -411h-186z" />
<glyph unicode="&#xde;" horiz-adv-x="1117" d="M111 0v1658h337v-220h176q236 0 350 -113.5t114 -354.5q0 -141 -29.5 -236t-92 -151.5t-151 -81t-216.5 -25.5h-151v-476h-337zM448 722h115q116 0 164.5 52t48.5 184q0 123 -44.5 176.5t-152.5 53.5h-131v-466z" />
<glyph unicode="&#xdf;" horiz-adv-x="1100" d="M100 0v1233q0 72 14 136t45 121.5t77 99t115.5 66t154.5 24.5q224 0 333 -114t109 -329q0 -129 -55.5 -218.5t-175.5 -142.5q147 -41 230 -151t83 -260q0 -254 -132 -373t-388 -119v240q117 0 168 65q45 57 45 182q0 17 -1 35q-4 103 -58.5 167t-141.5 64l-2 242 q79 0 118 70.5t39 194.5q0 224 -141 224q-49 0 -78 -30q-29 -31 -39 -77q-9 -42 -9 -103v-12v-1235h-310z" />
<glyph unicode="&#xe0;" horiz-adv-x="954" d="M76 266q0 46 9 88t22 75t37 63.5t45 53t55.5 45.5t59.5 37.5t65 32.5t63.5 27.5t65 25.5t60.5 23v109q0 64 -16.5 95.5t-63.5 31.5q-79 0 -83 -111l-6 -81l-293 12q0 20 3 41q13 190 115 279.5t291 89.5q175 0 263.5 -96t88.5 -263v-547q0 -136 22 -297h-277 q-25 131 -29 170q-24 -81 -82.5 -135.5t-148.5 -54.5q-80 1 -142.5 44t-93 107t-30.5 135zM130 1736h317l123 -411h-186zM364 335q0 -60 25 -95.5t68 -35.5q27 0 55.5 20t45.5 44v324q-83 -43 -138.5 -112.5t-55.5 -144.5z" />
<glyph unicode="&#xe1;" horiz-adv-x="954" d="M76 266q0 46 9 88t22 75t37 63.5t45 53t55.5 45.5t59.5 37.5t65 32.5t63.5 27.5t65 25.5t60.5 23v109q0 64 -16.5 95.5t-63.5 31.5q-79 0 -83 -111l-6 -81l-293 12q0 20 3 41q13 190 115 279.5t291 89.5q175 0 263.5 -96t88.5 -263v-547q0 -136 22 -297h-277 q-25 131 -29 170q-24 -81 -82.5 -135.5t-148.5 -54.5q-80 1 -142.5 44t-93 107t-30.5 135zM364 335q0 -60 25 -95.5t68 -35.5q27 0 55.5 20t45.5 44v324q-83 -43 -138.5 -112.5t-55.5 -144.5zM385 1325l124 411h315l-253 -411h-186z" />
<glyph unicode="&#xe2;" horiz-adv-x="954" d="M76 266q0 46 9 88t22 75t37 63.5t45 53t55.5 45.5t59.5 37.5t65 32.5t63.5 27.5t65 25.5t60.5 23v109q0 64 -16.5 95.5t-63.5 31.5q-79 0 -83 -111l-6 -81l-293 12q0 20 3 41q13 190 115 279.5t291 89.5q175 0 263.5 -96t88.5 -263v-547q0 -136 22 -297h-277 q-25 131 -29 170q-24 -81 -82.5 -135.5t-148.5 -54.5q-80 1 -142.5 44t-93 107t-30.5 135zM154 1325l189 382h265l193 -382h-228l-96 241l-96 -241h-227zM364 335q0 -60 25 -95.5t68 -35.5q27 0 55.5 20t45.5 44v324q-83 -43 -138.5 -112.5t-55.5 -144.5z" />
<glyph unicode="&#xe3;" horiz-adv-x="954" d="M76 266q0 46 9 88t22 75t37 63.5t45 53t55.5 45.5t59.5 37.5t65 32.5t63.5 27.5t65 25.5t60.5 23v109q0 64 -16.5 95.5t-63.5 31.5q-79 0 -83 -111l-6 -81l-293 12q0 20 3 41q13 190 115 279.5t291 89.5q175 0 263.5 -96t88.5 -263v-547q0 -136 22 -297h-277 q-25 131 -29 170q-24 -81 -82.5 -135.5t-148.5 -54.5q-80 1 -142.5 44t-93 107t-30.5 135zM154 1339q0 130 37.5 200t135.5 76h13q45 0 95 -18q56 -22 102 -47t65 -27q29 -4 41.5 17t12.5 61h144v-7q0 -262 -146 -269h-7q-41 0 -94 22q-58 24 -110.5 50t-80.5 26 q-54 0 -54 -84h-154zM364 335q0 -60 25 -95.5t68 -35.5q27 0 55.5 20t45.5 44v324q-83 -43 -138.5 -112.5t-55.5 -144.5z" />
<glyph unicode="&#xe4;" horiz-adv-x="954" d="M76 266q0 46 9 88t22 75t37 63.5t45 53t55.5 45.5t59.5 37.5t65 32.5t63.5 27.5t65 25.5t60.5 23v109q0 64 -16.5 95.5t-63.5 31.5q-79 0 -83 -111l-6 -81l-293 12q0 20 3 41q13 190 115 279.5t291 89.5q175 0 263.5 -96t88.5 -263v-547q0 -136 22 -297h-277 q-25 131 -29 170q-24 -81 -82.5 -135.5t-148.5 -54.5q-80 1 -142.5 44t-93 107t-30.5 135zM137 1325v286h261v-286h-261zM364 335q0 -60 25 -95.5t68 -35.5q27 0 55.5 20t45.5 44v324q-83 -43 -138.5 -112.5t-55.5 -144.5zM557 1325v286h261v-286h-261z" />
<glyph unicode="&#xe5;" horiz-adv-x="954" d="M76 266q0 46 9 88t22 75t37 63.5t45 53t55.5 45.5t59.5 37.5t65 32.5t63.5 27.5t65 25.5t60.5 23v109q0 64 -16.5 95.5t-63.5 31.5q-79 0 -83 -111l-6 -81l-293 12q0 20 3 41q13 190 115 279.5t291 89.5q175 0 263.5 -96t88.5 -263v-547q0 -136 22 -297h-277 q-25 131 -29 170q-24 -81 -82.5 -135.5t-148.5 -54.5q-80 1 -142.5 44t-93 107t-30.5 135zM238 1555q0 107 67 168t171 61q105 0 173 -61t68 -168t-68 -168.5t-173 -61.5q-104 0 -171 61.5t-67 168.5zM364 335q0 -60 25 -95.5t68 -35.5q27 0 55.5 20t45.5 44v324 q-83 -43 -138.5 -112.5t-55.5 -144.5zM370 1555q0 -48 28 -79.5t78 -31.5t78 31.5t28 79.5t-28 79.5t-78 31.5t-78 -31.5t-28 -79.5z" />
<glyph unicode="&#xe6;" horiz-adv-x="1365" d="M68 273q0 71 18 129.5t46.5 98t71.5 70.5t87 49t98 31q57 15 156 35v151q0 66 -20 98.5t-65 32.5q-46 0 -67 -38t-21 -124h-301v8q1 193 93 301q94 110 278 110q92 0 158 -42t85 -110q28 66 97 108.5t159 42.5q167 0 257 -95.5t90 -235.5q0 -55 -19.5 -98.5t-49 -72 t-76 -51.5t-88 -35.5t-97.5 -24.5q-28 -7 -116 -22v-157v-17v-39t1 -36.5t3 -36.5t5.5 -31.5t9.5 -28.5t14 -20t19.5 -14.5t26.5 -4.5q24 0 39.5 11t22 35.5t8 46t1.5 59.5v58h290v-82q0 -170 -87.5 -262t-255.5 -92q-95 0 -174 54t-97 144q-42 -94 -126 -148 q-78 -50 -172 -50h-14q-122 4 -205 84.5t-83 210.5zM349 317q0 -48 23 -85t65 -37q48 0 78.5 43t30.5 131l-1 173q-37 -10 -69 -27q-62 -35 -94.5 -90t-32.5 -108zM841 734q22 3 56 12.5t43 18.5q43 16 63.5 43t20.5 80q0 58 -22 91t-64 33q-46 0 -71.5 -41t-25.5 -108v-129 z" />
<glyph unicode="&#xe7;" horiz-adv-x="932" d="M83 398v389q0 200 98 308t296 108q382 0 382 -360v-112h-295v119q0 77 -20 107.5t-65 30.5q-48 0 -67 -36t-19 -130v-464q0 -93 20.5 -127t66.5 -34t65 32t19 102v142h295v-129q0 -179 -97 -271.5t-285 -92.5q-197 0 -295.5 109t-98.5 309zM337 -388q32 -9 72 -13 q25 -2 49 -2q15 1 30 1q39 2 65.5 17.5t26.5 42.5q0 30 -16.5 52t-46.5 35.5t-58.5 20.5t-64.5 12v222h123v-131q111 -6 189.5 -60t80.5 -139v-7q0 -70 -39 -120q-41 -52 -107 -73q-63 -20 -139 -20h-7q-80 1 -158 24v138z" />
<glyph unicode="&#xe8;" horiz-adv-x="940" d="M83 400v383q0 203 100 311.5t296 108.5q201 0 291.5 -108.5t90.5 -322.5v-198h-471v-194q0 -88 18 -132.5t71 -44.5q92 0 92 133v110h289v-96q0 -180 -98 -275t-282 -95q-199 0 -298 108.5t-99 311.5zM125 1736h317l123 -411h-186zM390 723h181v116q0 76 -22.5 109 t-70.5 33t-68 -37.5t-20 -131.5v-89z" />
<glyph unicode="&#xe9;" horiz-adv-x="940" d="M83 400v383q0 203 100 311.5t296 108.5q201 0 291.5 -108.5t90.5 -322.5v-198h-471v-194q0 -88 18 -132.5t71 -44.5q92 0 92 133v110h289v-96q0 -180 -98 -275t-282 -95q-199 0 -298 108.5t-99 311.5zM379 1325l124 411h315l-253 -411h-186zM390 723h181v116 q0 76 -22.5 109t-70.5 33t-68 -37.5t-20 -131.5v-89z" />
<glyph unicode="&#xea;" horiz-adv-x="940" d="M83 400v383q0 203 100 311.5t296 108.5q201 0 291.5 -108.5t90.5 -322.5v-198h-471v-194q0 -88 18 -132.5t71 -44.5q92 0 92 133v110h289v-96q0 -180 -98 -275t-282 -95q-199 0 -298 108.5t-99 311.5zM149 1325l189 382h265l193 -382h-228l-96 241l-96 -241h-227z M390 723h181v116q0 76 -22.5 109t-70.5 33t-68 -37.5t-20 -131.5v-89z" />
<glyph unicode="&#xeb;" horiz-adv-x="940" d="M83 400v383q0 203 100 311.5t296 108.5q201 0 291.5 -108.5t90.5 -322.5v-198h-471v-194q0 -88 18 -132.5t71 -44.5q92 0 92 133v110h289v-96q0 -180 -98 -275t-282 -95q-199 0 -298 108.5t-99 311.5zM131 1325v286h261v-286h-261zM390 723h181v116q0 76 -22.5 109 t-70.5 33t-68 -37.5t-20 -131.5v-89zM551 1325v286h261v-286h-261z" />
<glyph unicode="&#xec;" horiz-adv-x="548" d="M-70 1736h317l123 -411h-186zM122 0v1184h309v-1184h-309z" />
<glyph unicode="&#xed;" horiz-adv-x="548" d="M122 0v1184h309v-1184h-309zM183 1325l124 411h315l-253 -411h-186z" />
<glyph unicode="&#xee;" horiz-adv-x="548" d="M-47 1325l189 382h265l193 -382h-228l-96 241l-96 -241h-227zM122 0v1184h309v-1184h-309z" />
<glyph unicode="&#xef;" horiz-adv-x="548" d="M-64 1325v286h261v-286h-261zM122 0v1184h309v-1184h-309zM356 1325v286h261v-286h-261z" />
<glyph unicode="&#xf0;" horiz-adv-x="1043" d="M108 440v288q0 201 93.5 325t257.5 124q94 0 167 -48q-6 170 -55 237l-197 -90l-28 94l169 78q-62 70 -271 70l15 194q352 0 481 -149l200 91l27 -96l-166 -75q53 -91 94.5 -249.5t41.5 -355.5v-425q0 -479 -423 -479q-406 0 -406 466zM411 435q1 -15 1 -29 q0 -42 2.5 -76.5t9 -61t18 -44t30 -27t45.5 -9.5q65 0 88 46.5t23 137.5v557q-2 1 -10.5 7t-15.5 10t-17.5 9t-23 7.5t-26.5 2.5q-74 0 -98 -78.5t-24 -293.5q0 -34 -1 -96q-1 -33 -1 -62z" />
<glyph unicode="&#xf1;" horiz-adv-x="1008" d="M106 0v1184h309v-117q143 136 288 136q103 0 155 -75.5t52 -190.5v-937h-310v882q0 49 -15 73t-56 23q-48 0 -114 -47v-931h-309zM185 1339q0 130 37.5 200t135.5 76h13q45 0 95 -18q56 -22 102 -47t65 -27q29 -4 41.5 17t12.5 61h144v-7q0 -262 -146 -269h-7 q-41 0 -94 22q-58 24 -110.5 50t-80.5 26q-54 0 -54 -84h-154z" />
<glyph unicode="&#xf2;" horiz-adv-x="962" d="M83 381v422q0 193 102 296.5t294 103.5q193 0 296.5 -103.5t103.5 -296.5v-422q0 -193 -103.5 -297t-296.5 -104q-192 0 -294 103.5t-102 297.5zM134 1736h317l123 -411h-186zM389 359q0 -81 18.5 -124t72.5 -43q55 0 74 42.5t19 124.5v465q0 83 -19 125.5t-74 42.5 q-54 0 -72.5 -43.5t-18.5 -124.5v-465z" />
<glyph unicode="&#xf3;" horiz-adv-x="962" d="M83 381v422q0 193 102 296.5t294 103.5q193 0 296.5 -103.5t103.5 -296.5v-422q0 -193 -103.5 -297t-296.5 -104q-192 0 -294 103.5t-102 297.5zM388 1325l124 411h315l-253 -411h-186zM389 359q0 -81 18.5 -124t72.5 -43q55 0 74 42.5t19 124.5v465q0 83 -19 125.5 t-74 42.5q-54 0 -72.5 -43.5t-18.5 -124.5v-465z" />
<glyph unicode="&#xf4;" horiz-adv-x="962" d="M83 381v422q0 193 102 296.5t294 103.5q193 0 296.5 -103.5t103.5 -296.5v-422q0 -193 -103.5 -297t-296.5 -104q-192 0 -294 103.5t-102 297.5zM157 1325l189 382h265l193 -382h-228l-96 241l-96 -241h-227zM389 359q0 -81 18.5 -124t72.5 -43q55 0 74 42.5t19 124.5 v465q0 83 -19 125.5t-74 42.5q-54 0 -72.5 -43.5t-18.5 -124.5v-465z" />
<glyph unicode="&#xf5;" horiz-adv-x="962" d="M83 381v422q0 193 102 296.5t294 103.5q193 0 296.5 -103.5t103.5 -296.5v-422q0 -193 -103.5 -297t-296.5 -104q-192 0 -294 103.5t-102 297.5zM158 1339q0 130 37.5 200t135.5 76h13q45 0 95 -18q56 -22 102 -47t65 -27q29 -4 41.5 17t12.5 61h144v-7q0 -262 -146 -269 h-7q-41 0 -94 22q-58 24 -110.5 50t-80.5 26q-54 0 -54 -84h-154zM389 359q0 -81 18.5 -124t72.5 -43q55 0 74 42.5t19 124.5v465q0 83 -19 125.5t-74 42.5q-54 0 -72.5 -43.5t-18.5 -124.5v-465z" />
<glyph unicode="&#xf6;" horiz-adv-x="962" d="M83 381v422q0 193 102 296.5t294 103.5q193 0 296.5 -103.5t103.5 -296.5v-422q0 -193 -103.5 -297t-296.5 -104q-192 0 -294 103.5t-102 297.5zM141 1325v286h261v-286h-261zM389 359q0 -81 18.5 -124t72.5 -43q55 0 74 42.5t19 124.5v465q0 83 -19 125.5t-74 42.5 q-54 0 -72.5 -43.5t-18.5 -124.5v-465zM561 1325v286h261v-286h-261z" />
<glyph unicode="&#xf7;" horiz-adv-x="875" d="M61 764v177h753v-177h-753zM344 354v250h201v-250h-201zM344 1084v250h201v-250h-201z" />
<glyph unicode="&#xf8;" horiz-adv-x="953" d="M83 381v422q0 193 102 296.5t294 103.5q99 0 175 -28l79 205l80 -31l-83 -212q149 -101 149 -334v-422q0 -193 -103.5 -297t-296.5 -104q-108 0 -188 34l-80 -204l-74 30l83 214q-137 102 -137 327zM389 491l171 443q-20 58 -80 58q-54 0 -72.5 -43.5t-18.5 -124.5v-333z M394 279q15 -87 86 -87q55 0 74 42.5t19 124.5v376z" />
<glyph unicode="&#xf9;" horiz-adv-x="1001" d="M96 247v937h309v-889q1 -49 17 -73t54 -24h3q46 1 106 42v944h310v-1184h-310v110q-137 -129 -282 -129q-103 0 -155 75.5t-52 190.5zM148 1736h317l123 -411h-186z" />
<glyph unicode="&#xfa;" horiz-adv-x="1001" d="M96 247v937h309v-889q1 -49 17 -73t54 -24h3q46 1 106 42v944h310v-1184h-310v110q-137 -129 -282 -129q-103 0 -155 75.5t-52 190.5zM403 1325l124 411h315l-253 -411h-186z" />
<glyph unicode="&#xfb;" horiz-adv-x="1001" d="M96 247v937h309v-889q1 -49 17 -73t54 -24h3q46 1 106 42v944h310v-1184h-310v110q-137 -129 -282 -129q-103 0 -155 75.5t-52 190.5zM172 1325l189 382h265l193 -382h-228l-96 241l-96 -241h-227z" />
<glyph unicode="&#xfc;" horiz-adv-x="1001" d="M96 247v937h309v-889q1 -49 17 -73t54 -24h3q46 1 106 42v944h310v-1184h-310v110q-137 -129 -282 -129q-103 0 -155 75.5t-52 190.5zM155 1325v286h261v-286h-261zM575 1325v286h261v-286h-261z" />
<glyph unicode="&#xfd;" horiz-adv-x="888" d="M9 1184h296l147 -725l120 725h296l-280 -1247q-58 -268 -411 -268h-10h-41v218q116 0 158 23q34 19 35 72q0 12 -2 25q-7 51 -42 181q-18 76 -133 498t-133 498zM345 1325l124 411h315l-253 -411h-186z" />
<glyph unicode="&#xfe;" horiz-adv-x="992" d="M99 -390v2048h309v-563q116 108 241 108h7q71 -1 123 -35.5t80 -90.5t41 -117t13 -129v-453q0 -178 -67.5 -288t-201.5 -110q-116 0 -236 108v-478h-309zM408 223q54 -33 105 -33h2q49 0 69 46q20 48 19 129v485q0 154 -88 154h-6q-44 -1 -101 -42v-739z" />
<glyph unicode="&#xff;" horiz-adv-x="888" d="M9 1184h296l147 -725l120 725h296l-280 -1247q-58 -268 -411 -268h-10h-41v218q116 0 158 23q34 19 35 72q0 12 -2 25q-7 51 -42 181q-18 76 -133 498t-133 498zM98 1325v286h261v-286h-261zM518 1325v286h261v-286h-261z" />
<glyph unicode="&#x152;" horiz-adv-x="1459" d="M98 554v521q0 134 26 236.5t82.5 181t154.5 120t234 41.5h808v-233h-360v-447h274v-236h-274v-508h363v-230h-803q-139 0 -238 37t-157 110.5t-84 172.5t-26 234zM437 511q0 -39 1 -65.5t5 -57.5t11 -51.5t19 -41.5t30 -33t43.5 -19t58.5 -7h101v1179h-103 q-34 0 -60.5 -9t-44 -22t-29.5 -38.5t-18.5 -46.5t-9.5 -58.5t-3.5 -62t-0.5 -69.5v-598z" />
<glyph unicode="&#x153;" horiz-adv-x="1441" d="M93 371v474q0 185 95 282t273 97q87 0 164.5 -39t105.5 -107q29 68 106.5 107t162.5 39q100 0 170.5 -31t110 -91t57 -138t17.5 -182v-207h-457v-167q0 -38 1 -63t5.5 -58.5t12.5 -53.5t24 -35t38 -16h3q44 0 61 31q18 32 18 104v135h294v-134q0 -168 -90 -256 q-87 -86 -253 -86h-11q-103 1 -174 38.5t-101 104.5q-79 -142 -281 -142q-164 0 -258 101.5t-94 292.5zM399 365q0 -87 18 -135t67 -48q51 0 72 44t21 138v492q0 81 -19.5 123t-69.5 42q-49 0 -69 -42t-20 -123v-491zM898 737h165v123q0 69 -20 114.5t-63 45.5 q-42 0 -62 -44.5t-20 -115.5v-123z" />
<glyph unicode="&#x178;" horiz-adv-x="1007" d="M18 1658h316l179 -586l167 586h309l-323 -1001v-657h-323v657zM163 1801v286h261v-286h-261zM583 1801v286h261v-286h-261z" />
<glyph unicode="&#x2c6;" horiz-adv-x="799" d="M83 1262l189 396h265l193 -396h-228l-96 255l-96 -255h-227z" />
<glyph unicode="&#x2dc;" horiz-adv-x="876" d="M121 1396q0 130 37.5 200t135.5 76h13q45 0 95 -18q56 -22 102 -47t65 -27q29 -4 41.5 17t12.5 61h144v-7q0 -262 -146 -269h-7q-41 0 -94 22q-58 24 -110.5 50t-80.5 26q-54 0 -54 -84h-154z" />
<glyph unicode="&#x2000;" horiz-adv-x="1106" />
<glyph unicode="&#x2001;" horiz-adv-x="2212" />
<glyph unicode="&#x2002;" horiz-adv-x="1106" />
<glyph unicode="&#x2003;" horiz-adv-x="2212" />
<glyph unicode="&#x2004;" horiz-adv-x="737" />
<glyph unicode="&#x2005;" horiz-adv-x="553" />
<glyph unicode="&#x2006;" horiz-adv-x="368" />
<glyph unicode="&#x2007;" horiz-adv-x="368" />
<glyph unicode="&#x2008;" horiz-adv-x="276" />
<glyph unicode="&#x2009;" horiz-adv-x="442" />
<glyph unicode="&#x200a;" horiz-adv-x="122" />
<glyph unicode="&#x2010;" horiz-adv-x="760" d="M123 583v206h514v-206h-514z" />
<glyph unicode="&#x2011;" horiz-adv-x="760" d="M123 583v206h514v-206h-514z" />
<glyph unicode="&#x2012;" horiz-adv-x="760" d="M123 583v206h514v-206h-514z" />
<glyph unicode="&#x2013;" horiz-adv-x="1024" d="M1 575v217h1022v-217h-1022z" />
<glyph unicode="&#x2014;" horiz-adv-x="2047" d="M1 644v212h2045v-212h-2045z" />
<glyph unicode="&#x2018;" horiz-adv-x="688" d="M113 1113q0 184 2 221q6 186 58.5 271.5t183.5 85.5l29 -102q-72 0 -97.5 -48.5t-25.5 -149.5h137v-278h-287z" />
<glyph unicode="&#x2019;" horiz-adv-x="465" d="M125 1379v279h286q0 -184 -2 -221q-5 -185 -57.5 -271t-184.5 -86l-28 102q71 0 96.5 48.5t25.5 148.5h-136z" />
<glyph unicode="&#x201a;" horiz-adv-x="572" d="M163 62v278h286q0 -184 -2 -221q-6 -186 -58.5 -271.5t-183.5 -85.5l-29 102q72 0 97.5 48.5t25.5 149.5h-136z" />
<glyph unicode="&#x201c;" horiz-adv-x="970" d="M113 1113q0 184 2 221q6 186 58.5 271.5t183.5 85.5l29 -102q-72 0 -97.5 -48.5t-25.5 -149.5h137v-278h-287zM554 1113q0 184 2 221q6 186 58.5 271.5t183.5 85.5l29 -102q-72 0 -97.5 -48.5t-25.5 -149.5h137v-278h-287z" />
<glyph unicode="&#x201d;" horiz-adv-x="970" d="M155 1379v279h286q0 -185 -2 -222q-6 -185 -58.5 -270.5t-183.5 -85.5l-28 101q71 0 96.5 48.5t25.5 149.5h-136zM570 1379v279h286q0 -185 -2 -222q-5 -184 -57.5 -270t-184.5 -86l-28 101q71 0 96.5 48.5t25.5 149.5h-136z" />
<glyph unicode="&#x201e;" horiz-adv-x="974" d="M157 64v278h286q0 -184 -2 -221q-6 -186 -58.5 -271.5t-183.5 -85.5l-29 102q72 0 97.5 48.5t25.5 149.5h-136zM598 64v278h286q0 -184 -2 -221q-6 -186 -58.5 -271.5t-183.5 -85.5l-29 102q72 0 97.5 48.5t25.5 149.5h-136z" />
<glyph unicode="&#x2022;" horiz-adv-x="928" d="M127 771q0 164 97 257t238 93t239 -93.5t98 -256.5q0 -162 -97.5 -254t-239.5 -92q-141 0 -238 92t-97 254z" />
<glyph unicode="&#x2026;" horiz-adv-x="1303" d="M62 0v298h297v-298h-297zM500 0v298h297v-298h-297zM944 1v297h296v-297h-296z" />
<glyph unicode="&#x202f;" horiz-adv-x="442" />
<glyph unicode="&#x2039;" horiz-adv-x="571" d="M68 503v160l421 458v-317l-224 -219l224 -222v-317z" />
<glyph unicode="&#x203a;" horiz-adv-x="570" d="M91 101v316l229 222l-229 220v317l421 -479v-117z" />
<glyph unicode="&#x205f;" horiz-adv-x="553" />
<glyph unicode="&#x20ac;" horiz-adv-x="1114" d="M5 637v121h107v138h-107v122h107v102q0 135 24 234t79 174t150.5 113t232.5 38q130 0 221.5 -33.5t144 -98.5t76 -149.5t23.5 -197.5v-98h-329v110v39t-1 36t-3.5 35.5t-7 30.5t-11 29t-16.5 22t-23.5 18.5t-32 10t-40.5 4.5q-39 0 -66.5 -13.5t-42.5 -33.5t-23 -54.5 t-10 -64t-2 -74.5v-179h204v-122h-204v-138h204v-121h-204v-181q0 -121 30.5 -178t113.5 -57q32 0 56 8t38.5 26.5t23 36t12 49.5t4.5 54t1 61v83h329v-61q0 -115 -22.5 -201.5t-73.5 -156t-144 -106t-225 -36.5q-136 0 -232 39.5t-151 115.5t-79 174t-24 228v102h-107z" />
<glyph unicode="&#x2122;" horiz-adv-x="1711" d="M121 1478v180h573v-180h-177v-797h-211v797h-185zM779 681v977h220l173 -610l181 610h217v-977h-176v556l-170 -556h-95l-175 560v-560h-175z" />
<glyph unicode="&#x25fc;" horiz-adv-x="1185" d="M0 0v1185h1185v-1185h-1185z" />
<glyph unicode="&#xfb01;" horiz-adv-x="1104" d="M32 970v214h120v74q0 177 69.5 266t241.5 89q68 0 137 -11v-216q-33 5 -54 5q-45 0 -65 -25t-20 -87v-95h535v-1184h-307v970h-228v-970h-309v970h-120zM710 1378v235h287v-235h-287z" />
<glyph unicode="&#xfb02;" horiz-adv-x="1119" d="M27 963v221h120v74q0 46 2.5 78.5t12 76.5t27.5 75t51.5 63.5t80 52.5t117 33t159.5 13q180 0 424 -48v-1602h-309v1432q-40 5 -84 5q-40 0 -70 -5.5t-48 -18.5t-29.5 -26.5t-16.5 -37t-6.5 -42t-1.5 -48.5v-75h139v-221h-139v-963h-309v963h-120z" />
<glyph unicode="&#xfb03;" horiz-adv-x="1615" d="M27 971v213h120v74q0 71 6 120.5t24.5 97t52 75.5t90.5 45t137 17q44 0 140 -11v-230q-63 9 -67 9q-40 0 -57 -25.5t-17 -79.5v-92h221v74q0 71 6 120.5t24.5 97t52 75.5t90.5 45t137 17q47 0 143 -11v-230q-60 9 -68 9q-41 0 -58.5 -26t-17.5 -79v-92h528v-1184h-309 v971h-219v-971h-309v971h-221v-971h-309v971h-120zM1225 1378v235h290v-235h-290z" />
<glyph unicode="&#xfb04;" horiz-adv-x="1589" d="M36 970v214h120v74q0 71 6 120.5t24.5 97t52 75.5t90.5 45t137 17q60 0 156 -11v-230q-70 10 -73 10q-84 0 -84 -106v-92h157v-214h-157v-970h-309v970h-120zM521 970v214h120v74q0 71 6 120.5t24.5 97t52 75.5t90.5 45t137 17q60 0 156 -11v-230q-70 10 -73 10 q-84 0 -84 -106v-92h157v-214h-157v-970h-309v970h-120zM1154 1378v235h311v-235h-311zM1155 0v1184h309v-1184h-309z" />
</font>
</defs>
</svg>
