<?xml version="1.0" standalone="no"?>
<!DOCTYPE svg PUBLIC "-//W3C//DTD SVG 1.1//EN" "http://www.w3.org/Graphics/SVG/1.1/DTD/svg11.dtd" >
<svg xmlns="http://www.w3.org/2000/svg" xmlns:xlink="http://www.w3.org/1999/xlink" version="1.1">
<metadata></metadata>
<defs>
<font id="oswaldextralight" horiz-adv-x="777" >
<font-face units-per-em="2048" ascent="1638" descent="-410" />
<missing-glyph horiz-adv-x="388" />
<glyph horiz-adv-x="0" />
<glyph unicode="&#xd;" horiz-adv-x="682" />
<glyph unicode=" "  horiz-adv-x="388" />
<glyph unicode="&#x09;" horiz-adv-x="388" />
<glyph unicode="&#xa0;" horiz-adv-x="388" />
<glyph unicode="!" horiz-adv-x="404" d="M139 0v151h123v-151h-123zM141 1658h124l-44 -1302h-39z" />
<glyph unicode="&#x22;" horiz-adv-x="699" d="M162 1188v470h112l-52 -470h-60zM432 1188v470h111l-52 -470h-59z" />
<glyph unicode="#" horiz-adv-x="928" d="M96 599v79h143l56 344h-162v79h175l89 557h103l-89 -557h214l89 557h103l-89 -557h117v-79h-129l-57 -344h148v-79h-160l-96 -599h-103l96 599h-214l-96 -599h-103l95 599h-130zM342 678h214l56 344h-214z" />
<glyph unicode="$" horiz-adv-x="923" d="M85 409l98 31q9 -71 21.5 -123t35.5 -100.5t55 -79t80.5 -48.5t111.5 -18q265 0 265 267q0 102 -51.5 186t-164.5 196l-303 302q-144 144 -144 315q0 156 91 244t246 95v194h61v-194q162 -8 250 -104t101 -311l-94 -22q-16 180 -78.5 264t-200.5 84h-10 q-121 -2 -193 -61.5t-72 -180.5q0 -65 28 -124.5t94 -126.5l299 -295q115 -114 180.5 -223.5t65.5 -231.5q0 -166 -86.5 -258t-235.5 -105v-173h-59v171q-356 6 -391 430z" />
<glyph unicode="%" horiz-adv-x="1302" d="M87 1134v291q0 274 209 274q208 0 208 -271v-296q0 -277 -208 -277q-209 0 -209 279zM186 1128q0 -92 25 -140t85 -48q110 0 110 188v302q0 184 -110 184q-60 0 -85 -48t-25 -137v-301zM320 0l567 1680h99l-565 -1680h-101zM798 266v291q0 274 209 274t209 -271v-296 q0 -277 -209 -277t-209 279zM897 260q0 -92 25 -140t85 -48q110 0 110 188v302q0 184 -110 184t-110 -185v-301z" />
<glyph unicode="&#x26;" horiz-adv-x="1232" d="M117 358q0 117 62.5 234.5t215.5 268.5q-117 189 -159.5 283t-42.5 193q0 163 93.5 251.5t255.5 88.5q155 0 244 -77.5t89 -211.5q0 -119 -93 -249.5t-276 -290.5l361 -570q65 82 111 214t49 227h99q0 -113 -54.5 -260t-144.5 -251q54 -69 100.5 -94t104.5 -25v-101 q-25 0 -45 4q-123 14 -225 149q-64 -71 -154 -117t-197 -46q-128 0 -219 53.5t-133 138t-42 188.5zM226 357q0 -42 9 -81t30.5 -77t53.5 -66.5t82 -45.5t112 -17q82 0 151.5 33.5t140.5 107.5l-364 571q-119 -126 -167 -224.5t-48 -200.5zM299 1340q0 -89 37.5 -179.5 t129.5 -244.5q141 132 222 247.5t81 228.5q0 93 -62 143.5t-168 50.5q-118 0 -179 -69t-61 -177z" />
<glyph unicode="'" horiz-adv-x="487" d="M162 1188v470h112l-52 -470h-60z" />
<glyph unicode="(" horiz-adv-x="545" d="M167 683q0 128 1 202t5 181.5t12.5 169.5t23 140t38 122t56 86.5t77.5 62t102 22.5v-79q-30 -4 -55 -17.5t-44.5 -39t-35 -52t-26.5 -72.5t-19 -83t-13 -100t-8 -109t-4 -123.5t-1.5 -129t-0.5 -140.5v-41v-54q0 -109 0.5 -172.5t3 -154.5t8.5 -144t15.5 -120t25 -105.5 t36.5 -76t51 -56.5t67 -24v-78q-57 5 -102 26t-77.5 64.5t-56 87.5t-38 121.5t-23 138.5t-12.5 167t-5 179.5t-1 200.5z" />
<glyph unicode=")" horiz-adv-x="522" d="M63 -224q30 4 55 17.5t44.5 39t35 52t26.5 72.5t19 83.5t13 100.5t8 108.5t4 123.5t1.5 129.5t0.5 140.5v41v41q0 112 -0.5 175t-3 156.5t-8 146.5t-15 121.5t-25 107t-37 77t-51 57.5t-67.5 24v79q57 -3 102 -22.5t77.5 -62t56 -86.5t38 -121.5t23 -140t12.5 -169.5 t5 -181t1 -202q0 -127 -1 -200.5t-5 -179.5t-12.5 -167.5t-23 -139t-38 -121.5t-56 -87t-77.5 -64.5t-102 -26.5v78z" />
<glyph unicode="*" horiz-adv-x="730" d="M60 1405l29 71l256 -123l-13 304h87l-16 -304l253 123l29 -71l-263 -107l188 -249l-69 -41l-169 261l-167 -261l-69 44l188 246z" />
<glyph unicode="+" horiz-adv-x="745" d="M46 810v82h283v313h85v-313h285v-82h-285v-318h-85v318h-283z" />
<glyph unicode="," horiz-adv-x="363" d="M113 -173q51 38 68.5 74t17.5 99h-74v216h132v-193q0 -96 -25 -148t-91 -95z" />
<glyph unicode="-" horiz-adv-x="580" d="M79 653v90h423v-90h-423z" />
<glyph unicode="." horiz-adv-x="363" d="M135 0v213h122v-213h-122z" />
<glyph unicode="/" horiz-adv-x="674" d="M44 0l488 1658h97l-487 -1658h-98z" />
<glyph unicode="0" horiz-adv-x="1009" d="M118 466v725q0 112 19.5 197.5t63 152t120 101.5t183.5 35t184 -35t120.5 -101.5t63 -152t19.5 -197.5v-725q0 -113 -18 -197t-60 -152t-119.5 -103.5t-189.5 -35.5q-89 0 -156.5 24t-110.5 66t-70 104.5t-38 133.5t-11 160zM230 448q0 -88 13.5 -155.5t44.5 -121 t85 -81.5t131 -28q149 0 211.5 101.5t62.5 284.5v761q0 183 -62.5 283.5t-211.5 100.5q-148 0 -211 -101t-63 -283v-761z" />
<glyph unicode="1" horiz-adv-x="825" d="M189 1372v94q58 16 132 69.5t122 122.5h93v-1658h-109v1510q-32 -47 -106 -83.5t-132 -54.5z" />
<glyph unicode="2" horiz-adv-x="1001" d="M111 0v82l461 701q98 149 129 211q68 138 68 281q0 146 -66 228t-187 82q-86 0 -144 -26.5t-89 -78.5t-43.5 -115t-13.5 -150v-28h-107v34q0 232 94.5 344t298.5 112q177 0 271 -109.5t94 -307.5q0 -70 -16 -137.5t-51 -137.5t-62.5 -116t-77.5 -121l-434 -655h608v-93 h-733z" />
<glyph unicode="3" horiz-adv-x="994" d="M139 1264v27q0 184 87 285t284 101q93 0 163.5 -31t113 -87t64 -128.5t21.5 -161.5q0 -181 -64.5 -282t-171.5 -122q43 -11 82 -38t75 -74.5t57.5 -127.5t21.5 -182q0 -217 -93 -341t-291 -124q-348 0 -348 390v31h102v-32q1 -149 60 -225t186 -76q61 0 107.5 17.5 t85 58.5t59 116t20.5 182q0 376 -266 380h-48v95h47q144 1 205.5 85t61.5 270q0 320 -249 320q-137 0 -202.5 -70.5t-66.5 -231.5v-24h-103z" />
<glyph unicode="4" horiz-adv-x="1009" d="M115 509v105l494 1044h127v-1047h191v-102h-191v-509h-109v509h-512zM230 611h397v889z" />
<glyph unicode="5" horiz-adv-x="1000" d="M165 406h107q0 -177 58.5 -258t190.5 -81q142 0 199 102.5t57 337.5q0 172 -29 271.5t-82 138t-141 38.5q-142 0 -234 -139h-89v842h603l-3 -94h-507l-4 -644q86 120 262 120q171 0 250.5 -130.5t79.5 -391.5q0 -277 -89 -407t-279 -130q-182 0 -266 105.5t-84 319.5z " />
<glyph unicode="6" horiz-adv-x="1008" d="M150 483v724q0 470 367 470q182 0 266.5 -91t86.5 -282v-38h-105q0 179 -56 250t-185 71q-59 0 -104 -17t-83 -56t-58 -111t-20 -175v-350q52 34 127.5 61t154.5 27q83 0 141.5 -16.5t101.5 -51.5t68 -95t36.5 -142.5t11.5 -198.5q0 -239 -90.5 -361.5t-291.5 -122.5 q-192 0 -280 125t-88 380zM259 485q0 -121 16 -202.5t50.5 -127.5t80.5 -65.5t112 -19.5q69 0 116.5 17t83.5 59t53 116.5t17 185.5q0 102 -6 167t-22 120t-46.5 84t-77.5 44.5t-118 15.5q-66 0 -141.5 -27.5t-117.5 -56.5v-310z" />
<glyph unicode="7" horiz-adv-x="946" d="M155 1568v90h649v-54l-343 -1604h-106l337 1568h-537z" />
<glyph unicode="8" horiz-adv-x="1001" d="M122 432q0 68 9.5 125t22.5 97t37 74t42.5 53.5t50 38.5t48.5 27t48 21q-114 34 -179 134.5t-65 264.5q0 90 19 161.5t60 129t113.5 88.5t172.5 31q99 0 171.5 -32t113.5 -90t60 -130.5t19 -162.5q0 -163 -64.5 -261t-179.5 -133q31 -13 48 -21t48 -27.5t50 -39t43 -53.5 t37 -73.5t22.5 -96.5t9.5 -125q0 -455 -378 -455q-379 0 -379 455zM230 434q0 -197 70 -282.5t201 -85.5t200 85.5t69 282.5q0 177 -63.5 273.5t-205.5 113.5q-143 -17 -207 -113.5t-64 -273.5zM244 1263q0 -161 59.5 -249.5t197.5 -97.5q138 9 197.5 97.5t59.5 249.5 q0 166 -63.5 244.5t-193.5 78.5q-131 0 -194 -78.5t-63 -244.5z" />
<glyph unicode="9" horiz-adv-x="1008" d="M124 1193q0 238 92.5 361t293.5 123q192 0 278.5 -125t86.5 -380v-724q0 -229 -85 -349.5t-274 -120.5q-183 0 -271.5 92t-89.5 282v37h105q0 -181 57 -251t202 -70q59 0 102 16.5t77 56.5t51 111t17 175v349q-40 -34 -111.5 -60.5t-170.5 -26.5q-203 0 -281.5 110 t-78.5 394zM237 1207q0 -102 6 -167t22 -120t46.5 -84t77.5 -44.5t118 -15.5q153 0 259 84v310q0 160 -30 252.5t-83.5 127.5t-142.5 35q-137 0 -205 -85.5t-68 -292.5z" />
<glyph unicode=":" horiz-adv-x="392" d="M154 155v210h120v-210h-120zM154 877v211h120v-211h-120z" />
<glyph unicode=";" horiz-adv-x="417" d="M138 13q53 35 69.5 67t16.5 95h-71v198h130v-175q0 -97 -24.5 -148t-92.5 -84zM153 896v213h121v-213h-121z" />
<glyph unicode="&#x3c;" horiz-adv-x="732" d="M59 577v106l556 437v-117l-470 -373l470 -358v-115z" />
<glyph unicode="=" horiz-adv-x="802" d="M100 590v92h601v-92h-601zM100 923v91h601v-91h-601z" />
<glyph unicode="&#x3e;" horiz-adv-x="732" d="M117 157v116l471 374l-471 358v115l557 -421v-105z" />
<glyph unicode="?" horiz-adv-x="955" d="M122 1390q0 138 99.5 213.5t251.5 75.5q78 0 145.5 -27t120 -79t82.5 -136.5t30 -192.5q0 -194 -93.5 -336t-292.5 -278v-220h-95v251q203 135 290 273.5t87 310.5q0 167 -79.5 253t-195.5 86q-111 0 -179 -52.5t-68 -148.5q0 -36 8 -69l16 -73l-97 -24l-18 75 q-12 52 -12 98zM366 1v149h107v-149h-107z" />
<glyph unicode="@" horiz-adv-x="1649" d="M120 680q0 195 40.5 357t111 275t168 191t211 115.5t240.5 38.5h10q337 0 502 -191.5t165 -573.5q0 -54 -1 -82q-6 -131 -37 -231.5t-73 -157.5t-96 -93.5t-98 -48t-86 -11.5q-64 0 -114.5 45.5t-50.5 124.5q0 13 1 20q-35 -87 -98 -143.5t-147 -58.5h-9 q-120 0 -192.5 92.5t-72.5 261.5q0 137 40.5 257t106.5 200t149.5 126t169.5 46q83 0 150 -52l17 42h82l-94 -686q-7 -58 -7 -89q0 -54 19.5 -81.5t69.5 -27.5q30 0 61.5 10.5t69.5 41.5t68 80t52.5 134t27.5 194q2 33 2 95q0 187 -40.5 319.5t-118.5 208.5t-179.5 109.5 t-236.5 33.5h-15q-142 -2 -263 -61.5t-211 -169.5t-141 -279t-51 -380q0 -145 22.5 -263t60 -199.5t93 -143.5t113.5 -98t130.5 -58t136 -29.5t136.5 -7.5q179 0 379 51l28 -80q-255 -56 -414 -56q-787 0 -787 883zM601 608q0 -143 48.5 -205.5t120.5 -62.5h10q74 2 135 64 t100 172l76 541q-52 37 -120 37q-67 0 -132.5 -38t-118.5 -105.5t-86 -173t-33 -229.5z" />
<glyph unicode="A" horiz-adv-x="959" d="M66 0l348 1658h128l351 -1658h-112l-86 458h-430l-89 -458h-110zM281 541h398l-200 982z" />
<glyph unicode="B" horiz-adv-x="1000" d="M153 0v1658h342q89 0 157 -21.5t110.5 -57.5t69 -89.5t37 -112.5t10.5 -132q0 -56 -8.5 -106.5t-28.5 -102.5t-60.5 -90t-97.5 -52q69 -20 117 -66t71.5 -107t33 -118.5t9.5 -119.5q0 -68 -5.5 -123t-19.5 -112.5t-40.5 -100t-66.5 -77t-100 -52.5t-138 -18h-392zM265 88 h266q158 0 216.5 91.5t58.5 302.5q0 361 -260 361h-281v-755zM265 931h279q67 0 113.5 24.5t71.5 69.5t35.5 98t10.5 122q0 60 -6.5 105t-26 88.5t-53 70.5t-88.5 43.5t-131 16.5h-205v-638z" />
<glyph unicode="C" horiz-adv-x="1001" d="M118 478v703q0 90 11.5 162t39.5 136t73.5 106.5t116 67t164.5 24.5q106 0 180.5 -32.5t117 -96t61.5 -146t19 -192.5v-84h-106v85q0 190 -59 282.5t-213 92.5q-88 0 -147 -27.5t-90 -82.5t-43 -121.5t-12 -160.5v-734q0 -77 8 -135t28 -107.5t53 -81t84 -49t119 -17.5 q81 0 135.5 26t83.5 78t41 116.5t12 155.5v100h106v-82q0 -89 -10.5 -159.5t-37 -133t-68.5 -104t-108.5 -65.5t-153.5 -24q-96 0 -168 26t-116.5 69.5t-72 109t-38 136t-10.5 159.5z" />
<glyph unicode="D" horiz-adv-x="1059" d="M153 0v1658h364q120 0 204.5 -36t131.5 -103t67.5 -149.5t20.5 -187.5v-688q0 -113 -20.5 -199t-66.5 -154.5t-128.5 -104.5t-199.5 -36h-373zM265 88h256q78 0 134.5 22.5t89.5 58.5t52 93t25 113t6 131v667q0 77 -8 135t-28.5 109t-55.5 83t-90 50.5t-130 18.5h-251 v-1481z" />
<glyph unicode="E" horiz-adv-x="804" d="M152 0v1658h574v-89h-462v-665h379v-87h-379v-729h467v-88h-579z" />
<glyph unicode="F" horiz-adv-x="784" d="M153 0v1658h571v-88h-459v-666h397v-87h-397v-817h-112z" />
<glyph unicode="G" horiz-adv-x="1045" d="M118 481v704q0 92 11 164t39.5 135t73.5 104.5t115.5 65t164.5 23.5q207 0 295 -121t88 -352v-58h-106v65q0 192 -60.5 283.5t-215.5 91.5q-72 0 -124 -19.5t-84 -52.5t-51 -85t-26 -108.5t-7 -131.5v-722q0 -96 13 -165t45 -123.5t90.5 -81.5t145.5 -27q80 0 135.5 26 t86 79t43.5 121.5t13 163.5v244h-264v86h369v-790h-72l-17 186q-65 -209 -302 -209q-93 0 -163 25t-114.5 68t-72 108t-38.5 138t-11 165z" />
<glyph unicode="H" horiz-adv-x="1109" d="M152 0v1658h112v-747h581v747h112v-1658h-112v826h-581v-826h-112z" />
<glyph unicode="I" horiz-adv-x="422" d="M156 0v1658h111v-1658h-111z" />
<glyph unicode="J" horiz-adv-x="543" d="M16 -5q64 0 104.5 4t71.5 19t46.5 33.5t25.5 58.5t12 82t2 116v1350h112v-1364q0 -72 -4.5 -121t-16 -96t-33 -76t-56.5 -51.5t-85.5 -32t-120.5 -9.5h-58v87z" />
<glyph unicode="K" horiz-adv-x="942" d="M152 0v1658h112v-930l482 930h110l-351 -701l436 -957h-112l-404 889l-161 -295v-594h-112z" />
<glyph unicode="L" horiz-adv-x="764" d="M153 0v1658h112v-1570h501v-88h-613z" />
<glyph unicode="M" horiz-adv-x="1294" d="M133 0l49 1658h110l352 -1496l355 1496h115l48 -1658h-97l-41 1391l-338 -1391h-81l-334 1388l-41 -1388h-97z" />
<glyph unicode="N" horiz-adv-x="1055" d="M153 0v1658h89l562 -1400v1400h99v-1658h-88l-563 1403v-1403h-99z" />
<glyph unicode="O" horiz-adv-x="1056" d="M118 472v724q0 88 12 158.5t41.5 132t76 102.5t117 64.5t163.5 23.5q115 0 196 -35t127 -101t66.5 -150.5t20.5 -194.5v-727q0 -89 -11.5 -160t-40 -134.5t-74.5 -105.5t-117.5 -66.5t-166.5 -24.5t-167 24.5t-117.5 67t-74 106.5t-40 135.5t-11.5 160.5zM231 447 q0 -90 13 -155t45.5 -117t92 -78.5t146.5 -26.5t146.5 26.5t91.5 78.5t45.5 117t13.5 155v765q0 90 -13 154.5t-45.5 116t-92 77.5t-146.5 26t-146.5 -26t-92 -77.5t-45.5 -116t-13 -154.5v-765z" />
<glyph unicode="P" horiz-adv-x="994" d="M153 0v1658h389q109 0 186 -31.5t119.5 -91t61.5 -134t19 -171.5q0 -69 -11 -130t-39 -118.5t-70.5 -99t-109.5 -66t-153 -24.5h-280v-792h-112zM265 879h255q153 0 223.5 80.5t70.5 270.5q0 197 -65 269.5t-227 72.5h-257v-693z" />
<glyph unicode="Q" horiz-adv-x="1072" d="M118 472v724q0 110 21.5 195t69 150.5t129.5 100.5t197 35t197.5 -35t129.5 -101t68.5 -150.5t21.5 -194.5v-727q0 -190 -62 -311.5t-208 -160.5q46 -59 108.5 -126t98.5 -91l-10 -99q-104 50 -284 300q-29 -3 -60 -3q-95 0 -167.5 24.5t-119.5 67t-76.5 106t-41.5 135.5 t-12 161zM231 447q0 -89 14.5 -154.5t48 -117.5t94 -78.5t147.5 -26.5t147.5 26.5t94 78.5t48 117.5t14.5 154.5v765q0 183 -67.5 278.5t-236.5 95.5q-87 0 -147.5 -26t-94 -77t-48 -116.5t-14.5 -154.5v-765z" />
<glyph unicode="R" horiz-adv-x="1041" d="M153 0v1658h403q86 0 150.5 -21t104.5 -56.5t65 -89t34.5 -111.5t9.5 -130q0 -60 -6 -110t-22.5 -99.5t-43 -85.5t-71 -62.5t-102.5 -35.5l268 -857h-111l-259 836h-308v-836h-112zM265 921h285q78 0 130 22t80 67t39 101.5t11 138.5q0 167 -56 243.5t-205 76.5h-284 v-649z" />
<glyph unicode="S" horiz-adv-x="926" d="M85 409l98 31q9 -71 21.5 -123t35.5 -100.5t55 -79t80.5 -48.5t111.5 -18q265 0 265 267q0 102 -51.5 186t-164.5 196l-303 302q-144 144 -144 315q0 162 98.5 250.5t264.5 89.5h3q177 0 273 -95.5t110 -320.5l-94 -22q-16 180 -78.5 264t-200.5 84h-10 q-121 -2 -193 -61.5t-72 -180.5q0 -65 28 -124.5t94 -126.5l299 -295q115 -114 180.5 -223.5t65.5 -231.5q0 -180 -100.5 -272.5t-270.5 -92.5q-365 0 -401 430z" />
<glyph unicode="T" horiz-adv-x="779" d="M-14 1569v89h807v-89h-344v-1569h-112v1569h-351z" />
<glyph unicode="U" horiz-adv-x="1092" d="M134 389v1269h109v-1271q0 -73 14 -127.5t47.5 -99t94 -67.5t147.5 -23q303 0 303 317v1271h109v-1269q0 -411 -412 -411q-118 0 -200.5 30.5t-127.5 88t-64.5 128.5t-19.5 164z" />
<glyph unicode="V" horiz-adv-x="984" d="M50 1658h109l344 -1463l323 1463h108l-379 -1658h-105z" />
<glyph unicode="W" horiz-adv-x="1446" d="M69 1657l99 1l243 -1438l266 1401h108l273 -1402l222 1439h97l-270 -1658h-93l-282 1453l-277 -1453h-97z" />
<glyph unicode="X" horiz-adv-x="926" d="M30 0l366 861l-363 798h102l326 -708l317 708h111l-380 -816l387 -843h-108l-341 746l-305 -746h-112z" />
<glyph unicode="Y" horiz-adv-x="946" d="M41 1658h115l325 -995l310 995h114l-370 -1128v-530h-111v530z" />
<glyph unicode="Z" horiz-adv-x="822" d="M64 0v88l596 1482h-543v88h663v-69l-602 -1501h605v-88h-719z" />
<glyph unicode="[" horiz-adv-x="571" d="M152 -297v1955h301v-66h-191v-1821h191v-68h-301z" />
<glyph unicode="\" horiz-adv-x="674" d="M44 1658h97l488 -1658h-98z" />
<glyph unicode="]" horiz-adv-x="553" d="M100 -229h191v1820h-191v67h301v-1953h-301v66z" />
<glyph unicode="^" horiz-adv-x="748" d="M53 1076l262 582h118l262 -582h-92l-229 513l-229 -513h-92z" />
<glyph unicode="_" horiz-adv-x="666" d="M0 -95h666v-89h-666v89z" />
<glyph unicode="`" horiz-adv-x="429" d="M103 1658h110l112 -397h-57z" />
<glyph unicode="a" d="M78 240q0 79 17.5 131.5t74 106.5t144.5 104t247 124v85q0 130 -16.5 201t-51 99.5t-96.5 28.5q-39 0 -69.5 -9t-59.5 -31.5t-44.5 -69t-15.5 -113.5v-33l-106 2q0 28 1 32q4 161 78.5 233t219.5 72q148 0 208.5 -93t60.5 -308v-596q0 -169 5 -206h-93q-15 134 -18 157 q-28 -77 -95 -126.5t-153 -49.5q-107 0 -172.5 72t-65.5 187zM186 255q0 -97 45.5 -140.5t110.5 -43.5q71 0 127 47t92 119v390q-201 -104 -254 -141q-84 -58 -107 -128q-14 -42 -14 -103z" />
<glyph unicode="b" horiz-adv-x="814" d="M117 0v1658h109v-574q91 119 227 119q64 0 111.5 -23t77 -63t47.5 -103t24.5 -134.5t6.5 -165.5v-227q0 -260 -62 -383t-216 -123q-123 0 -216 117v-98h-109zM226 173q88 -107 203 -107q107 0 144.5 95.5t37.5 322.5v231q0 224 -35.5 313.5t-144.5 89.5q-105 0 -205 -110 v-835z" />
<glyph unicode="c" horiz-adv-x="768" d="M94 445v278q0 266 64.5 373t234.5 107q72 0 124.5 -19.5t83.5 -52t49.5 -83.5t25 -104t6.5 -124v-48h-102v47q0 174 -42.5 238t-143.5 64q-116 0 -153.5 -82.5t-37.5 -302.5v-307q0 -202 39.5 -284t152.5 -82q114 0 149.5 73t35.5 261v46h102v-44q0 -56 -2.5 -98 t-9.5 -88t-20 -78.5t-34.5 -63t-51.5 -49.5t-73.5 -30t-97.5 -11q-78 0 -133.5 24.5t-87 63.5t-49.5 102.5t-23.5 125t-5.5 148.5z" />
<glyph unicode="d" horiz-adv-x="808" d="M94 486v211q0 264 58.5 385t214.5 121q125 -1 215 -110v565h109v-1658h-109v90q-90 -109 -210 -109q-152 0 -215 116.5t-63 388.5zM203 477q0 -224 38.5 -317.5t146.5 -93.5q105 0 194 100v849q-101 103 -198 103q-109 0 -145 -88t-36 -307v-246z" />
<glyph unicode="e" d="M94 438v316q0 109 14 189t38.5 129.5t64 79t83.5 40.5t104 11q163 0 227 -106.5t64 -364.5l-2 -113h-484v-189q0 -209 43.5 -288t148.5 -79q30 0 52.5 4t49.5 18.5t44 40t28.5 73t11.5 113.5v88h107v-78q0 -164 -67 -252.5t-225 -88.5q-59 0 -104 12.5t-83.5 43.5t-63 82 t-38 131t-13.5 188zM203 684h378v92q0 71 -3 118t-14 94t-30.5 73.5t-53.5 43t-82 16.5q-71 0 -111 -27.5t-62 -104t-22 -215.5v-90z" />
<glyph unicode="f" horiz-adv-x="525" d="M35 1107v77h160v160q0 53 2.5 86.5t13.5 71.5t31 59.5t56.5 36t88.5 14.5q58 0 109 -14v-83q-65 12 -87 12q-66 0 -86 -39t-20 -142v-162h198v-77h-198v-1107h-108v1107h-160z" />
<glyph unicode="g" horiz-adv-x="878" d="M30 -192q0 83 62.5 156.5t149.5 118.5q-55 14 -99 38t-44 52q0 87 147 255q-155 109 -155 367q0 76 19 146.5t57.5 130t103.5 95.5t149 36q177 0 261 -158q22 40 66.5 79t93.5 59l29 12l32 -82q-53 -13 -106.5 -47t-84.5 -73q15 -38 26.5 -100t11.5 -101q0 -188 -80 -302 t-246 -114q-73 0 -126 22q-6 -10 -39 -58t-49.5 -80t-16.5 -54q0 -20 98 -41q33 -9 107.5 -23t86.5 -17q154 -34 232 -94.5t78 -169.5q0 -67 -30.5 -119t-84 -82.5t-120.5 -45.5t-145 -15q-384 0 -384 209zM124 -166q0 -147 289 -147q129 0 209.5 42.5t80.5 128.5 q0 47 -19 77.5t-76.5 58t-164.5 49.5l-130 22q-189 -108 -189 -231zM191 795q0 -44 4.5 -84.5t19.5 -89t39 -83.5t67.5 -58.5t101.5 -23.5q227 0 227 339q0 42 -5.5 82.5t-21 86.5t-39.5 80t-66 56.5t-96 22.5t-96.5 -24t-67 -59.5t-40.5 -82t-21.5 -86t-5.5 -76.5z" />
<glyph unicode="h" horiz-adv-x="802" d="M117 0v1658h109v-600q125 145 281 145q85 0 136 -62.5t51 -196.5v-944h-110v932q0 103 -31.5 144.5t-92.5 41.5q-114 0 -234 -130v-988h-109z" />
<glyph unicode="i" horiz-adv-x="388" d="M134 0v1184h109v-1184h-109zM134 1339v189h109v-189h-109z" />
<glyph unicode="j" horiz-adv-x="414" d="M-32 -226q8 -2 48 -2q41 0 70 11t44 25.5t23.5 41t10 47t1.5 52.5v1235h109v-1242q0 -137 -62.5 -198t-182.5 -61q-50 0 -61 4v87zM165 1339v189h110v-189h-110z" />
<glyph unicode="k" horiz-adv-x="785" d="M117 1v1658h109v-1093l439 618h118l-311 -453l293 -731h-109l-266 666l-164 -222v-443h-109z" />
<glyph unicode="l" horiz-adv-x="380" d="M137 0v1658h109v-1658h-109z" />
<glyph unicode="m" horiz-adv-x="1275" d="M116 0v1184h104v-125q57 69 128.5 107t149.5 38q148 0 184 -158q58 76 133 117t156 41q85 0 140.5 -61t55.5 -207v-936h-105v939q0 107 -33 147.5t-93 40.5q-124 0 -245 -139q3 -24 3 -52v-936h-105v939q0 107 -33 147.5t-93 40.5q-61 0 -124 -36.5t-119 -100.5v-990 h-104z" />
<glyph unicode="n" horiz-adv-x="801" d="M116 0v1184h109v-127q124 146 281 146q85 0 135.5 -62.5t50.5 -196.5v-944h-109v932q0 103 -31.5 144.5t-92.5 41.5q-58 0 -119 -35.5t-115 -95.5v-987h-109z" />
<glyph unicode="o" horiz-adv-x="784" d="M94 432v320q0 234 64.5 342.5t233.5 108.5q87 0 145.5 -28t92 -87.5t47 -139.5t13.5 -196v-320q0 -235 -64 -343t-234 -108t-234 108t-64 343zM203 428q0 -64 2 -107t8.5 -88.5t19.5 -73.5t33.5 -51.5t52 -34t73.5 -10.5t73.5 10.5t52 34t33.5 51.5t19.5 73.5t8.5 88.5 t2 107v328q0 77 -3 126.5t-14 99t-31 77.5t-55 45t-86 17t-86 -17t-55 -45t-31 -77.5t-14 -99t-3 -126.5v-328z" />
<glyph unicode="p" horiz-adv-x="819" d="M117 -390v1574h109v-101q93 120 227 120q80 0 133.5 -33.5t82 -101t40 -151.5t11.5 -203v-227q0 -260 -61.5 -383t-215.5 -123q-122 0 -217 117v-488h-109zM226 173q90 -107 204 -107q107 0 144.5 95.5t37.5 322.5v231q0 224 -35.5 313.5t-145.5 89.5q-105 0 -205 -110 v-835z" />
<glyph unicode="q" horiz-adv-x="812" d="M99 486v211q0 264 58.5 385t214.5 121q127 -1 216 -111v92h109v-1574h-109v481q-91 -110 -211 -110q-152 0 -215 116.5t-63 388.5zM208 477q0 -224 38.5 -317.5t146.5 -93.5q105 0 195 101v847q-99 104 -199 104q-109 0 -145 -88t-36 -307v-246z" />
<glyph unicode="r" horiz-adv-x="580" d="M132 0v1184h108v-160q50 83 128 127.5t152 44.5q1 0 9.5 -0.5t10.5 -0.5v-113q-18 6 -44 6q-166 0 -256 -153v-935h-108z" />
<glyph unicode="s" horiz-adv-x="730" d="M69 319l92 27q21 -283 228 -283q88 0 138 49.5t50 139.5q0 135 -173 281l-137 116q-91 76 -131 144t-40 154q0 121 72.5 188.5t196.5 67.5q128 0 195.5 -82t72.5 -229l-81 -24q-8 253 -182 253q-79 0 -126.5 -41t-47.5 -116q0 -70 24.5 -118t96.5 -109l141 -125 q51 -44 80.5 -73t65 -75t52.5 -98t18 -113q0 -128 -78 -200t-212 -72q-138 0 -220 90t-95 248z" />
<glyph unicode="t" horiz-adv-x="538" d="M33 1112v72h155v378h108v-378h201v-72h-201v-865q0 -101 20 -137.5t84 -36.5q31 0 87 10v-82q-51 -14 -111 -14q-48 0 -82.5 13t-55 33.5t-32 54t-15 67t-3.5 79.5v878h-155z" />
<glyph unicode="u" horiz-adv-x="808" d="M106 240v944h109v-932q0 -103 31.5 -144.5t92.5 -41.5t124.5 38.5t119.5 103.5v976h108v-1184h-108v139q-59 -74 -134 -116t-157 -42q-85 0 -135.5 62.5t-50.5 196.5z" />
<glyph unicode="v" horiz-adv-x="731" d="M39 1184h110l222 -1046l216 1046h105l-259 -1184h-122z" />
<glyph unicode="w" horiz-adv-x="1160" d="M67 1184h96l165 -1060l202 1060h106l207 -1055l154 1055h96l-189 -1184h-113l-206 1039l-199 -1039h-123z" />
<glyph unicode="x" horiz-adv-x="767" d="M41 0l289 617l-271 567h112l221 -470l219 470h112l-280 -578l285 -606h-103l-242 504l-235 -504h-107z" />
<glyph unicode="y" horiz-adv-x="767" d="M49 1184h107l234 -1081l224 1081h109l-289 -1281q-24 -105 -97 -151.5t-216 -46.5h-45v88q104 0 161.5 17t76 45t18.5 76q0 16 -1 25q-3 31 -34 164q-58 238 -248 1064z" />
<glyph unicode="z" horiz-adv-x="666" d="M66 0v79l427 1021h-382v84h494v-71l-424 -1030h416v-83h-531z" />
<glyph unicode="{" horiz-adv-x="475" d="M76 644v94q74 0 96.5 57t22.5 229v237q0 64 0.5 101t2.5 82t5 68t10 51.5t15 41t22.5 28.5t31 21.5t41 11.5t51.5 7t65 1v-82q-101 0 -119 -46t-18 -285v-269q0 -153 -24 -217t-87 -84q63 -20 87 -84t24 -217v-282q0 -238 18 -284t119 -46v-83q-38 0 -65 1t-51.5 7 t-41 11.5t-31 21.5t-22.5 28.5t-15 41t-10 51.5t-5 68t-2.5 82t-0.5 101v250q0 172 -22.5 229t-96.5 57z" />
<glyph unicode="|" horiz-adv-x="418" d="M158 -289v1947h102v-1947h-102z" />
<glyph unicode="}" horiz-adv-x="487" d="M48 -222q101 0 119 46t18 284v282q0 153 24 217t87 84q-63 20 -87 84t-24 217v269q0 239 -18 285t-119 46v82q38 0 65 -1t51.5 -7t41 -11.5t31 -21.5t22.5 -28.5t15 -41t10 -51.5t5 -68t2.5 -82t0.5 -101v-237q0 -172 22.5 -229t96.5 -57v-94q-74 0 -96.5 -57t-22.5 -229 v-250q0 -64 -0.5 -101t-2.5 -82t-5 -68t-10 -51.5t-15 -41t-22.5 -28.5t-31 -21.5t-41 -11.5t-51.5 -7t-65 -1v83z" />
<glyph unicode="~" horiz-adv-x="783" d="M83 858q102 117 182 117q40 0 137.5 -55t126.5 -55q27 0 52 15t79 58l40 -50q-107 -107 -173 -107q-41 0 -139.5 56t-129.5 56q-47 0 -135 -85z" />
<glyph unicode="&#xa1;" horiz-adv-x="404" d="M139 -415l44 1301h39l41 -1301h-124zM142 1092v151h123v-151h-123z" />
<glyph unicode="&#xa2;" horiz-adv-x="776" d="M94 445v278q0 254 57.5 361.5t208.5 117.5v207h57v-207q66 -4 114 -25t76.5 -53.5t45.5 -82.5t23 -101.5t6 -119.5v-48h-102v47q0 174 -42.5 238t-143.5 64q-116 0 -153.5 -82.5t-37.5 -302.5v-307q0 -202 39.5 -284t152.5 -82q114 0 149.5 73t35.5 261v46h102v-44 q0 -79 -5 -133.5t-21.5 -111.5t-45.5 -91.5t-80.5 -57t-123.5 -24.5v-210h-57v212q-66 6 -113 33.5t-74.5 67t-43 101t-20 120.5t-4.5 140z" />
<glyph unicode="&#xa3;" horiz-adv-x="740" d="M32 0v56l127 23v725h-127v80h127v261q0 76 2.5 131.5t10 114t21 99.5t36 78.5t54 60t76 35.5t101.5 13q61 0 105.5 -17t71.5 -44.5t43 -71.5t21.5 -89.5t6.5 -106.5v-41h-83q0 159 -32.5 223t-134.5 64q-38 0 -67.5 -10.5t-49.5 -26.5t-34 -46t-21.5 -59t-12 -76.5 t-5.5 -86t-1 -100.5v-305h289v-80h-289v-725h436v-79h-671z" />
<glyph unicode="&#xa4;" horiz-adv-x="1048" d="M42 411l163 162q-111 124 -111 293t111 293l-163 162l30 30l162 -162q121 115 289 115h4h4q168 0 289 -115l162 162l30 -30l-162 -162q110 -125 110 -293q0 -169 -111 -293l163 -162l-30 -30l-162 162q-121 -115 -289 -115h-4h-4q-168 0 -289 115l-162 -162zM159 866 q0 -157 106.5 -268.5t261.5 -111.5t261.5 111.5t106.5 268.5q0 158 -106 269t-262 111q-155 0 -261.5 -111t-106.5 -269z" />
<glyph unicode="&#xa5;" horiz-adv-x="860" d="M4 1658h115l325 -995l310 995h114l-353 -1077h196v-73h-213v-215h213v-74h-213v-219h-111v219h-217v74h217v215h-217v73h200z" />
<glyph unicode="&#xa6;" horiz-adv-x="401" d="M153 -368v857h96v-857h-96zM153 801v857h96v-857h-96z" />
<glyph unicode="&#xa7;" horiz-adv-x="787" d="M74 957q0 87 53 145t133 85q-66 63 -103 119.5t-37 120.5q0 109 74.5 178.5t201.5 69.5q61 0 110.5 -25.5t83.5 -71.5t55 -90t40 -101l-88 -28q-11 34 -21 59.5t-29 59.5t-39 56t-50.5 37.5t-65.5 15.5q-73 0 -120 -43t-47 -122q0 -89 140 -218l210 -176 q78 -69 118 -134.5t40 -149.5q0 -9 -2 -29q-6 -83 -50 -132.5t-116 -86.5q68 -80 89 -118q34 -61 35 -122v-6q0 -124 -79.5 -196.5t-208.5 -72.5q-65 0 -118.5 26t-91 71.5t-62.5 100t-41 119.5l84 28q25 -111 85 -185t147 -74q83 0 135 47t53 126v11q0 51 -34 110.5 t-145 170.5l-226 210q-113 101 -113 215zM177 960q0 -72 75 -149l249 -256q52 23 92.5 64t46.5 96q2 18 2 27q0 58 -32 110t-102 113l-186 164q-66 -20 -105.5 -63t-39.5 -106z" />
<glyph unicode="&#xa8;" horiz-adv-x="762" d="M151 1504v154h113v-154h-113zM477 1504v154h114v-154h-114z" />
<glyph unicode="&#xa9;" horiz-adv-x="1765" d="M60 843q0 129 29 250.5t93 234t158 196.5t233.5 134t309.5 50q142 0 263.5 -35t210 -97t156.5 -144t109.5 -179.5t62 -200t20.5 -209.5q0 -91 -14.5 -179.5t-46 -174.5t-78 -161.5t-114 -140t-150 -111t-189.5 -72.5t-230 -26q-122 0 -229.5 26t-190 72.5t-150 111 t-114 140.5t-78.5 162t-46.5 174t-14.5 179zM134 845q0 -124 27.5 -239.5t87 -219.5t145.5 -180.5t212.5 -121.5t278.5 -45t277.5 45t212 121.5t146 180.5t87 219.5t27.5 239.5q0 125 -27.5 240t-87 218t-146 178.5t-212 120t-277.5 44.5t-278.5 -44.5t-212.5 -120 t-145.5 -178.5t-87 -218t-27.5 -240zM525 738v241q0 117 10 199.5t32.5 144t61.5 96.5t94 52t133 17q80 0 137.5 -19t91.5 -51t53.5 -84.5t26 -107t6.5 -132.5v-56h-105v55q0 98 -11.5 159t-39.5 93.5t-63.5 43.5t-94.5 11q-131 0 -173.5 -85.5t-42.5 -322.5v-271 q0 -217 45.5 -302.5t171.5 -85.5q54 0 90 11t60 32.5t36.5 64t17 95t4.5 134.5v56h105v-53q0 -62 -2 -105.5t-9.5 -91.5t-21 -80t-37 -63t-56.5 -49t-80 -28.5t-108 -10.5q-72 0 -127 16t-90.5 49.5t-59 74.5t-35 101t-16 117t-4.5 135z" />
<glyph unicode="&#xaa;" horiz-adv-x="803" d="M145 921q0 61 16 101t66.5 81t126 77.5t214.5 92.5v78q0 144 -31 200t-108 56q-165 0 -165 -185l-90 2q6 256 255 256q132 0 183 -78.5t51 -259.5v-609h-82l-8 119q-27 -59 -87 -96t-132 -37q-95 0 -152 55t-57 147zM240 931q0 -72 39.5 -104.5t94.5 -32.5q122 0 194 133 v291q-189 -86 -238 -119q-69 -47 -84 -109q-6 -25 -6 -59z" />
<glyph unicode="&#xab;" horiz-adv-x="837" d="M84 658v43l344 425v-140l-245 -303l245 -311v-140zM379 658v43l345 425v-140l-245 -306l245 -308v-140z" />
<glyph unicode="&#xac;" horiz-adv-x="715" d="M84 812v90h570v-320h-77v230h-493z" />
<glyph unicode="&#xad;" horiz-adv-x="672" d="M117 639v85h450v-85h-450z" />
<glyph unicode="&#xae;" horiz-adv-x="1780" d="M70 839q0 106 20.5 208.5t62 200t109.5 179.5t156.5 143.5t209.5 96.5t263 35q169 0 308 -50t232.5 -133.5t157.5 -196t92.5 -234t28.5 -249.5q0 -129 -28.5 -250t-92.5 -233.5t-157 -196t-232.5 -133.5t-308.5 -50t-309 50t-233 134t-157.5 196.5t-93 233.5t-28.5 249z M147 840q0 -123 27 -237.5t86 -217t144.5 -178.5t210.5 -120.5t276 -44.5q150 0 274.5 44.5t210 120.5t144.5 178.5t86 217t27 237.5q0 124 -27 238t-86 216t-144.5 177.5t-210 119.5t-274.5 44q-151 0 -276 -44t-210.5 -119.5t-144.5 -177.5t-86 -216t-27 -238zM621 226 v1245h344q281 0 281 -314q0 -56 -10 -103.5t-32.5 -89t-63 -69.5t-96.5 -38l211 -631h-101l-202 615h-234v-615h-97zM718 908h228q62 0 102.5 16.5t61.5 51.5t28.5 77t7.5 105q0 122 -42 180.5t-149 58.5h-237v-489z" />
<glyph unicode="&#xaf;" horiz-adv-x="758" d="M209 1583v75h350v-75h-350z" />
<glyph unicode="&#xb0;" horiz-adv-x="797" d="M124 1402q0 137 80.5 205.5t194.5 68.5q53 0 100.5 -15.5t87.5 -47.5t63.5 -86t23.5 -125q0 -137 -81 -206t-194 -69q-53 0 -100.5 15.5t-87.5 47.5t-63.5 86.5t-23.5 125.5zM212 1401q0 -99 54 -149t133 -50t133 50t54 149q0 101 -54.5 151.5t-133.5 50.5t-132.5 -50.5 t-53.5 -151.5z" />
<glyph unicode="&#xb1;" horiz-adv-x="659" d="M100 0v98h478v-98h-478zM100 563v98h188v187h102v-187h188v-98h-188v-188h-102v188h-188z" />
<glyph unicode="&#xb2;" horiz-adv-x="820" d="M165 722v74l282 428q8 13 29.5 45.5t29.5 45.5t22.5 40.5t20.5 47t11 48.5t5 60q0 189 -144 189q-58 0 -96.5 -36t-53 -86t-14.5 -110h-86v23q0 146 60 217.5t188 71.5q115 0 178.5 -68t63.5 -196q0 -86 -30 -155.5t-95 -167.5l-261 -389h354v-82h-464z" />
<glyph unicode="&#xb3;" horiz-adv-x="823" d="M170 968v30h102v-35q0 -167 138 -167q72 0 115 49.5t43 153.5q0 98 -38.5 158t-103.5 60h-81v84h80q137 0 137 221q0 86 -35.5 130t-102.5 44q-77 0 -112.5 -40t-35.5 -120v-37h-103v33q0 115 61.5 181.5t187.5 66.5q118 0 177.5 -71t59.5 -191q0 -109 -40 -175t-95 -79 q141 -51 141 -258q0 -135 -65.5 -216t-191.5 -81q-238 0 -238 259z" />
<glyph unicode="&#xb4;" horiz-adv-x="422" d="M87 1261l132 397h110l-184 -397h-58z" />
<glyph unicode="&#xb5;" horiz-adv-x="835" d="M106 -353v1537h109v-932q0 -103 31.5 -144.5t92.5 -41.5t124.5 38.5t119.5 103.5v976h108v-1184h-108v139q-114 -146 -267 -155q-63 0 -100 33v-370h-110z" />
<glyph unicode="&#xb6;" horiz-adv-x="984" d="M55 1378q0 130 86.5 205t267.5 75h421v-1850h-82v1777h-254v-1777h-82v1295h-7q-165 0 -257.5 71.5t-92.5 203.5z" />
<glyph unicode="&#xb7;" horiz-adv-x="399" d="M166 697v153h112v-153h-112z" />
<glyph unicode="&#xb8;" horiz-adv-x="428" d="M54 -320q18 -1 50 -1q69 0 100 17t34 56v10q0 90 -140 111v127h60v-97q76 -10 120 -53t44 -97v-8q-6 -126 -200 -126q-32 0 -68 3v58z" />
<glyph unicode="&#xb9;" horiz-adv-x="800" d="M217 1554v72q125 43 193 142h81l1 -1047h-92l-1 926q-23 -33 -77.5 -57.5t-104.5 -35.5z" />
<glyph unicode="&#xba;" horiz-adv-x="803" d="M131 1018v363q0 144 61 221.5t209 77.5q147 0 209 -78.5t62 -220.5v-363q0 -70 -12.5 -121.5t-42 -93.5t-83.5 -63.5t-133 -21.5t-133.5 21t-83.5 63t-41 93.5t-12 122.5zM216 1020q0 -112 40.5 -172.5t143.5 -60.5t143.5 60.5t40.5 172.5v359q0 111 -40.5 171.5 t-143.5 60.5q-101 0 -142.5 -60.5t-41.5 -171.5v-359z" />
<glyph unicode="&#xbb;" horiz-adv-x="850" d="M107 232v140l250 306l-250 308v140l351 -426v-43zM404 232v140l250 303l-250 311v140l349 -426v-43z" />
<glyph unicode="&#xbc;" horiz-adv-x="1542" d="M110 1453v79q44 22 104 63t80 63h58v-1068h-89v940zM392 0l591 1658h98l-590 -1658h-99zM923 285v70l318 706h95v-703h130v-73h-130v-299h-94v299h-319zM1007 358h235v557z" />
<glyph unicode="&#xbd;" horiz-adv-x="1542" d="M123 1453v79q44 22 104 63t80 63h58v-1068h-89v940zM395 0l591 1658h98l-590 -1658h-99zM996 -1v73l249 366q7 11 28 41t29 42t22.5 38t20.5 44.5t11 45.5t5 56q0 175 -131 175q-79 0 -112 -48t-33 -147h-87v15q1 129 58 191.5t174 62.5q107 0 167.5 -63t60.5 -181 q0 -81 -34.5 -153.5t-104.5 -167.5q-5 -5 -58 -81t-106.5 -153.5t-55.5 -80.5h334v-75h-437z" />
<glyph unicode="&#xbe;" horiz-adv-x="1542" d="M68 926l97 -4q0 -149 122 -149q138 0 138 190q0 92 -36 143t-101 51v75q67 0 99 45t32 150q0 163 -118 163q-72 0 -102 -37t-30 -112l-97 -2q0 106 55.5 165.5t172.5 59.5q106 0 160.5 -66t54.5 -172t-41 -163.5t-103 -66.5q149 -36 149 -231q0 -121 -61 -193t-176 -72 q-107 0 -161 60.5t-54 165.5zM413 0l591 1658h98l-590 -1658h-99zM939 285v70l319 706h92v-703h130v-73h-130v-299h-91v299h-320zM1024 358h235v557z" />
<glyph unicode="&#xbf;" horiz-adv-x="886" d="M17 -10q0 132 44.5 240.5t126.5 196t215 177.5v220h95v-252q-203 -134 -290.5 -272.5t-87.5 -310.5q0 -167 79.5 -253t195.5 -86q112 0 180 52.5t68 148.5q0 36 -8 69l-16 73l96 24l18 -75q12 -48 12 -99q0 -138 -99.5 -213t-250.5 -75q-78 0 -145.5 27t-120 79 t-82.5 136.5t-30 192.5zM395 1084v149h107v-149h-107z" />
<glyph unicode="&#xc0;" horiz-adv-x="959" d="M66 0l348 1658h128l351 -1658h-112l-86 458h-430l-89 -458h-110zM281 541h398l-200 982zM286 2196h110l112 -397h-57z" />
<glyph unicode="&#xc1;" horiz-adv-x="959" d="M66 0l348 1658h128l351 -1658h-112l-86 458h-430l-89 -458h-110zM281 541h398l-200 982zM451 1799l132 397h110l-185 -397h-57z" />
<glyph unicode="&#xc2;" horiz-adv-x="959" d="M66 0l348 1658h128l351 -1658h-112l-86 458h-430l-89 -458h-110zM237 1799l177 367h136l173 -367h-77l-165 313l-164 -313h-80zM281 541h398l-200 982z" />
<glyph unicode="&#xc3;" horiz-adv-x="959" d="M66 0l348 1658h128l351 -1658h-112l-86 458h-430l-89 -458h-110zM237 1814q0 13 2.5 29.5t10.5 40t21 42t37.5 31.5t55.5 13q18 0 28 -2q36 -5 98 -48t83 -46q5 -1 14 -1q61 0 65 92h70q0 -23 -4.5 -46.5t-17 -53t-41.5 -48t-71 -18.5q-13 0 -20 1q-39 3 -100 46.5 t-81 46.5q-6 2 -18 2q-26 0 -41.5 -21t-15.5 -60h-75zM281 541h398l-200 982z" />
<glyph unicode="&#xc4;" horiz-adv-x="959" d="M66 0l348 1658h128l351 -1658h-112l-86 458h-430l-89 -458h-110zM259 1799v154h114v-154h-114zM281 541h398l-200 982zM586 1799v154h114v-154h-114z" />
<glyph unicode="&#xc5;" horiz-adv-x="959" d="M66 0l348 1658h128l351 -1658h-112l-86 458h-430l-89 -458h-110zM281 541h398l-200 982zM303 1839q0 86 52 130t125 44q71 0 123.5 -44t52.5 -130t-52.5 -130t-123.5 -44q-72 0 -124.5 44t-52.5 130zM372 1839q0 -56 31 -83.5t77 -27.5t77.5 27.5t31.5 83.5 q0 57 -31.5 84.5t-77.5 27.5t-77 -27.5t-31 -84.5z" />
<glyph unicode="&#xc6;" horiz-adv-x="1293" d="M-31 0l643 1658h608v-97h-458v-650h327v-89h-327v-725h458v-97h-575v458h-374l-171 -458h-131zM303 548h341v941z" />
<glyph unicode="&#xc7;" horiz-adv-x="1001" d="M118 478v703q0 90 11.5 162t39.5 136t73.5 106.5t116 67t164.5 24.5q106 0 180.5 -32.5t117 -96t61.5 -146t19 -192.5v-84h-106v85q0 190 -59 282.5t-213 92.5q-88 0 -147 -27.5t-90 -82.5t-43 -121.5t-12 -160.5v-734q0 -77 8 -135t28 -107.5t53 -81t84 -49t119 -17.5 q81 0 135.5 26t83.5 78t41 116.5t12 155.5v100h106v-82q0 -89 -10.5 -159.5t-37 -133t-68.5 -104t-108.5 -65.5t-153.5 -24q-96 0 -168 26t-116.5 69.5t-72 109t-38 136t-10.5 159.5zM414 -320q18 -1 50 -1q69 0 100 17t34 56v10q0 90 -140 111v127h60v-97q76 -10 120 -53 t44 -97v-8q-6 -126 -200 -126q-32 0 -68 3v58z" />
<glyph unicode="&#xc8;" horiz-adv-x="804" d="M152 0v1658h574v-89h-462v-665h379v-87h-379v-729h467v-88h-579zM248 2196h110l112 -397h-57z" />
<glyph unicode="&#xc9;" horiz-adv-x="804" d="M152 0v1658h574v-89h-462v-665h379v-87h-379v-729h467v-88h-579zM413 1799l132 397h110l-185 -397h-57z" />
<glyph unicode="&#xca;" horiz-adv-x="804" d="M152 0v1658h574v-89h-462v-665h379v-87h-379v-729h467v-88h-579zM199 1799l177 367h136l173 -367h-77l-165 313l-164 -313h-80z" />
<glyph unicode="&#xcb;" horiz-adv-x="804" d="M152 0v1658h574v-89h-462v-665h379v-87h-379v-729h467v-88h-579zM221 1799v154h114v-154h-114zM548 1799v154h114v-154h-114z" />
<glyph unicode="&#xcc;" horiz-adv-x="422" d="M18 2196h110l112 -397h-57zM156 0v1658h111v-1658h-111z" />
<glyph unicode="&#xcd;" horiz-adv-x="422" d="M156 0v1658h111v-1658h-111zM183 1799l132 397h110l-185 -397h-57z" />
<glyph unicode="&#xce;" horiz-adv-x="422" d="M-31 1799l177 367h136l173 -367h-77l-165 313l-164 -313h-80zM156 0v1658h111v-1658h-111z" />
<glyph unicode="&#xcf;" horiz-adv-x="422" d="M-9 1799v154h114v-154h-114zM156 0v1658h111v-1658h-111zM318 1799v154h114v-154h-114z" />
<glyph unicode="&#xd0;" horiz-adv-x="1149" d="M18 836v75h135v747h364q120 0 204.5 -36t131.5 -103t67.5 -149.5t20.5 -187.5v-688q0 -113 -20.5 -199t-66.5 -154.5t-128.5 -104.5t-199.5 -36h-373v836h-135zM265 88h256q78 0 134.5 22.5t89.5 58.5t52 93t25 113t6 131v667q0 77 -8 135t-28.5 109t-55.5 83t-90 50.5 t-130 18.5h-251v-658h191v-75h-191v-748z" />
<glyph unicode="&#xd1;" horiz-adv-x="1055" d="M153 0v1658h89l562 -1400v1400h99v-1658h-88l-563 1403v-1403h-99zM286 1814q0 13 2.5 29.5t10.5 40t21 42t37.5 31.5t55.5 13q18 0 28 -2q36 -5 98 -48t83 -46q5 -1 14 -1q61 0 65 92h70q0 -23 -4.5 -46.5t-17 -53t-41.5 -48t-71 -18.5q-13 0 -20 1q-39 3 -100 46.5 t-81 46.5q-6 2 -18 2q-26 0 -41.5 -21t-15.5 -60h-75z" />
<glyph unicode="&#xd2;" horiz-adv-x="1056" d="M118 472v724q0 88 12 158.5t41.5 132t76 102.5t117 64.5t163.5 23.5q115 0 196 -35t127 -101t66.5 -150.5t20.5 -194.5v-727q0 -89 -11.5 -160t-40 -134.5t-74.5 -105.5t-117.5 -66.5t-166.5 -24.5t-167 24.5t-117.5 67t-74 106.5t-40 135.5t-11.5 160.5zM231 447 q0 -90 13 -155t45.5 -117t92 -78.5t146.5 -26.5t146.5 26.5t91.5 78.5t45.5 117t13.5 155v765q0 90 -13 154.5t-45.5 116t-92 77.5t-146.5 26t-146.5 -26t-92 -77.5t-45.5 -116t-13 -154.5v-765zM334 2196h110l112 -397h-57z" />
<glyph unicode="&#xd3;" horiz-adv-x="1056" d="M118 472v724q0 88 12 158.5t41.5 132t76 102.5t117 64.5t163.5 23.5q115 0 196 -35t127 -101t66.5 -150.5t20.5 -194.5v-727q0 -89 -11.5 -160t-40 -134.5t-74.5 -105.5t-117.5 -66.5t-166.5 -24.5t-167 24.5t-117.5 67t-74 106.5t-40 135.5t-11.5 160.5zM231 447 q0 -90 13 -155t45.5 -117t92 -78.5t146.5 -26.5t146.5 26.5t91.5 78.5t45.5 117t13.5 155v765q0 90 -13 154.5t-45.5 116t-92 77.5t-146.5 26t-146.5 -26t-92 -77.5t-45.5 -116t-13 -154.5v-765zM499 1799l132 397h110l-185 -397h-57z" />
<glyph unicode="&#xd4;" horiz-adv-x="1056" d="M118 472v724q0 88 12 158.5t41.5 132t76 102.5t117 64.5t163.5 23.5q115 0 196 -35t127 -101t66.5 -150.5t20.5 -194.5v-727q0 -89 -11.5 -160t-40 -134.5t-74.5 -105.5t-117.5 -66.5t-166.5 -24.5t-167 24.5t-117.5 67t-74 106.5t-40 135.5t-11.5 160.5zM231 447 q0 -90 13 -155t45.5 -117t92 -78.5t146.5 -26.5t146.5 26.5t91.5 78.5t45.5 117t13.5 155v765q0 90 -13 154.5t-45.5 116t-92 77.5t-146.5 26t-146.5 -26t-92 -77.5t-45.5 -116t-13 -154.5v-765zM285 1799l177 367h136l173 -367h-77l-165 313l-164 -313h-80z" />
<glyph unicode="&#xd5;" horiz-adv-x="1056" d="M118 472v724q0 88 12 158.5t41.5 132t76 102.5t117 64.5t163.5 23.5q115 0 196 -35t127 -101t66.5 -150.5t20.5 -194.5v-727q0 -89 -11.5 -160t-40 -134.5t-74.5 -105.5t-117.5 -66.5t-166.5 -24.5t-167 24.5t-117.5 67t-74 106.5t-40 135.5t-11.5 160.5zM231 447 q0 -90 13 -155t45.5 -117t92 -78.5t146.5 -26.5t146.5 26.5t91.5 78.5t45.5 117t13.5 155v765q0 90 -13 154.5t-45.5 116t-92 77.5t-146.5 26t-146.5 -26t-92 -77.5t-45.5 -116t-13 -154.5v-765zM286 1814q0 13 2.5 29.5t10.5 40t21 42t37.5 31.5t55.5 13q18 0 28 -2 q36 -5 98 -48t83 -46q5 -1 14 -1q61 0 65 92h70q0 -23 -4.5 -46.5t-17 -53t-41.5 -48t-71 -18.5q-13 0 -20 1q-39 3 -100 46.5t-81 46.5q-6 2 -18 2q-26 0 -41.5 -21t-15.5 -60h-75z" />
<glyph unicode="&#xd6;" horiz-adv-x="1056" d="M118 472v724q0 88 12 158.5t41.5 132t76 102.5t117 64.5t163.5 23.5q115 0 196 -35t127 -101t66.5 -150.5t20.5 -194.5v-727q0 -89 -11.5 -160t-40 -134.5t-74.5 -105.5t-117.5 -66.5t-166.5 -24.5t-167 24.5t-117.5 67t-74 106.5t-40 135.5t-11.5 160.5zM231 447 q0 -90 13 -155t45.5 -117t92 -78.5t146.5 -26.5t146.5 26.5t91.5 78.5t45.5 117t13.5 155v765q0 90 -13 154.5t-45.5 116t-92 77.5t-146.5 26t-146.5 -26t-92 -77.5t-45.5 -116t-13 -154.5v-765zM307 1799v154h114v-154h-114zM634 1799v154h114v-154h-114z" />
<glyph unicode="&#xd7;" horiz-adv-x="687" d="M73 583l212 213l-212 213l58 56l213 -211l212 211l58 -56l-212 -213l212 -213l-58 -58l-212 213l-213 -213z" />
<glyph unicode="&#xd8;" horiz-adv-x="1071" d="M118 472v724q0 88 12 158.5t41.5 132t76 102.5t117 64.5t163.5 23.5q123 0 209 -41l57 199l52 -14l-62 -213q154 -111 154 -412v-727q0 -89 -11.5 -160t-40 -134.5t-74.5 -105.5t-117.5 -66.5t-166.5 -24.5q-120 0 -203 38l-61 -210l-51 15l64 222q-86 60 -122.5 168 t-36.5 261zM231 447q0 -209 77 -296l401 1390q-68 45 -181 45q-87 0 -146.5 -26t-92 -77.5t-45.5 -116t-13 -154.5v-765zM353 113q66 -43 175 -43q87 0 146.5 26.5t91.5 78.5t45.5 117t13.5 155v765q0 48 -3.5 88t-11.5 77t-22.5 68t-34.5 55z" />
<glyph unicode="&#xd9;" horiz-adv-x="1092" d="M134 389v1269h109v-1271q0 -73 14 -127.5t47.5 -99t94 -67.5t147.5 -23q303 0 303 317v1271h109v-1269q0 -411 -412 -411q-118 0 -200.5 30.5t-127.5 88t-64.5 128.5t-19.5 164zM352 2196h110l112 -397h-57z" />
<glyph unicode="&#xda;" horiz-adv-x="1092" d="M134 389v1269h109v-1271q0 -73 14 -127.5t47.5 -99t94 -67.5t147.5 -23q303 0 303 317v1271h109v-1269q0 -411 -412 -411q-118 0 -200.5 30.5t-127.5 88t-64.5 128.5t-19.5 164zM517 1799l132 397h110l-185 -397h-57z" />
<glyph unicode="&#xdb;" horiz-adv-x="1092" d="M134 389v1269h109v-1271q0 -73 14 -127.5t47.5 -99t94 -67.5t147.5 -23q303 0 303 317v1271h109v-1269q0 -411 -412 -411q-118 0 -200.5 30.5t-127.5 88t-64.5 128.5t-19.5 164zM303 1799l177 367h136l173 -367h-77l-165 313l-164 -313h-80z" />
<glyph unicode="&#xdc;" horiz-adv-x="1092" d="M134 389v1269h109v-1271q0 -73 14 -127.5t47.5 -99t94 -67.5t147.5 -23q303 0 303 317v1271h109v-1269q0 -411 -412 -411q-118 0 -200.5 30.5t-127.5 88t-64.5 128.5t-19.5 164zM325 1799v154h114v-154h-114zM652 1799v154h114v-154h-114z" />
<glyph unicode="&#xdd;" horiz-adv-x="946" d="M41 1658h115l325 -995l310 995h114l-370 -1128v-530h-111v530zM445 1799l132 397h110l-185 -397h-57z" />
<glyph unicode="&#xde;" horiz-adv-x="1034" d="M153 0v1658h112v-212h311q106 0 184 -36.5t121.5 -101t64 -143t20.5 -172.5q0 -71 -10 -134t-37.5 -128t-71 -112t-116 -76.5t-166.5 -29.5h-300v-513h-112zM265 610h283q155 0 229 90.5t74 288.5q0 360 -294 360h-292v-739z" />
<glyph unicode="&#xdf;" horiz-adv-x="958" d="M116 0v1250q0 130 21.5 218t66 138t104 71t145.5 21q161 0 252 -101t91 -298q0 -303 -199 -366q78 -17 135 -60.5t88.5 -105t46 -129.5t14.5 -146q0 -514 -547 -514v91q91 0 163 17t119 49t79.5 70.5t49 87.5t23.5 94.5t7 98.5q0 63 -9.5 117.5t-32.5 106.5t-59 89 t-93.5 59.5t-130.5 22.5l5 91q235 0 235 327q0 156 -56 234.5t-177 78.5q-59 0 -98.5 -14t-71.5 -51.5t-47 -110t-15 -184.5v-1252h-109z" />
<glyph unicode="&#xe0;" d="M78 240q0 79 17.5 131.5t74 106.5t144.5 104t247 124v85q0 130 -16.5 201t-51 99.5t-96.5 28.5q-39 0 -69.5 -9t-59.5 -31.5t-44.5 -69t-15.5 -113.5v-33l-106 2q0 28 1 32q4 161 78.5 233t219.5 72q148 0 208.5 -93t60.5 -308v-596q0 -169 5 -206h-93q-15 134 -18 157 q-28 -77 -95 -126.5t-153 -49.5q-107 0 -172.5 72t-65.5 187zM183 1722h110l112 -397h-57zM186 255q0 -97 45.5 -140.5t110.5 -43.5q71 0 127 47t92 119v390q-201 -104 -254 -141q-84 -58 -107 -128q-14 -42 -14 -103z" />
<glyph unicode="&#xe1;" d="M78 240q0 79 17.5 131.5t74 106.5t144.5 104t247 124v85q0 130 -16.5 201t-51 99.5t-96.5 28.5q-39 0 -69.5 -9t-59.5 -31.5t-44.5 -69t-15.5 -113.5v-33l-106 2q0 28 1 32q4 161 78.5 233t219.5 72q148 0 208.5 -93t60.5 -308v-596q0 -169 5 -206h-93q-15 134 -18 157 q-28 -77 -95 -126.5t-153 -49.5q-107 0 -172.5 72t-65.5 187zM186 255q0 -97 45.5 -140.5t110.5 -43.5q71 0 127 47t92 119v390q-201 -104 -254 -141q-84 -58 -107 -128q-14 -42 -14 -103zM348 1325l132 397h110l-185 -397h-57z" />
<glyph unicode="&#xe2;" d="M78 240q0 79 17.5 131.5t74 106.5t144.5 104t247 124v85q0 130 -16.5 201t-51 99.5t-96.5 28.5q-39 0 -69.5 -9t-59.5 -31.5t-44.5 -69t-15.5 -113.5v-33l-106 2q0 28 1 32q4 161 78.5 233t219.5 72q148 0 208.5 -93t60.5 -308v-596q0 -169 5 -206h-93q-15 134 -18 157 q-28 -77 -95 -126.5t-153 -49.5q-107 0 -172.5 72t-65.5 187zM133 1325l177 367h136l173 -367h-77l-165 313l-164 -313h-80zM186 255q0 -97 45.5 -140.5t110.5 -43.5q71 0 127 47t92 119v390q-201 -104 -254 -141q-84 -58 -107 -128q-14 -42 -14 -103z" />
<glyph unicode="&#xe3;" d="M78 240q0 79 17.5 131.5t74 106.5t144.5 104t247 124v85q0 130 -16.5 201t-51 99.5t-96.5 28.5q-39 0 -69.5 -9t-59.5 -31.5t-44.5 -69t-15.5 -113.5v-33l-106 2q0 28 1 32q4 161 78.5 233t219.5 72q148 0 208.5 -93t60.5 -308v-596q0 -169 5 -206h-93q-15 134 -18 157 q-28 -77 -95 -126.5t-153 -49.5q-107 0 -172.5 72t-65.5 187zM134 1340q0 13 2.5 29.5t10.5 40t21 42t37.5 31.5t55.5 13q18 0 28 -2q36 -5 98 -48t83 -46q5 -1 14 -1q61 0 65 92h70q0 -23 -4.5 -46.5t-17 -53t-41.5 -48t-71 -18.5q-13 0 -20 1q-39 3 -100 46.5t-81 46.5 q-6 2 -18 2q-26 0 -41.5 -21t-15.5 -60h-75zM186 255q0 -97 45.5 -140.5t110.5 -43.5q71 0 127 47t92 119v390q-201 -104 -254 -141q-84 -58 -107 -128q-14 -42 -14 -103z" />
<glyph unicode="&#xe4;" d="M78 240q0 79 17.5 131.5t74 106.5t144.5 104t247 124v85q0 130 -16.5 201t-51 99.5t-96.5 28.5q-39 0 -69.5 -9t-59.5 -31.5t-44.5 -69t-15.5 -113.5v-33l-106 2q0 28 1 32q4 161 78.5 233t219.5 72q148 0 208.5 -93t60.5 -308v-596q0 -169 5 -206h-93q-15 134 -18 157 q-28 -77 -95 -126.5t-153 -49.5q-107 0 -172.5 72t-65.5 187zM156 1325v154h114v-154h-114zM186 255q0 -97 45.5 -140.5t110.5 -43.5q71 0 127 47t92 119v390q-201 -104 -254 -141q-84 -58 -107 -128q-14 -42 -14 -103zM483 1325v154h114v-154h-114z" />
<glyph unicode="&#xe5;" d="M78 240q0 79 17.5 131.5t74 106.5t144.5 104t247 124v85q0 130 -16.5 201t-51 99.5t-96.5 28.5q-39 0 -69.5 -9t-59.5 -31.5t-44.5 -69t-15.5 -113.5v-33l-106 2q0 28 1 32q4 161 78.5 233t219.5 72q148 0 208.5 -93t60.5 -308v-596q0 -169 5 -206h-93q-15 134 -18 157 q-28 -77 -95 -126.5t-153 -49.5q-107 0 -172.5 72t-65.5 187zM186 255q0 -97 45.5 -140.5t110.5 -43.5q71 0 127 47t92 119v390q-201 -104 -254 -141q-84 -58 -107 -128q-14 -42 -14 -103zM200 1499q0 86 52 130t125 44q71 0 123.5 -44t52.5 -130t-52.5 -130t-123.5 -44 q-72 0 -124.5 44t-52.5 130zM269 1499q0 -56 31 -83.5t77 -27.5t77.5 27.5t31.5 83.5q0 57 -31.5 84.5t-77.5 27.5t-77 -27.5t-31 -84.5z" />
<glyph unicode="&#xe6;" horiz-adv-x="1239" d="M78 240q0 48 5.5 83.5t24 76.5t51 73t89.5 65t137 62l178 62v129q0 127 -18.5 199t-54 100.5t-95.5 28.5q-192 0 -192 -232l-103 4q0 156 77 234t221 78q90 0 148.5 -50t70.5 -144q23 102 91.5 148t158.5 46q130 0 202 -76t72 -196q0 -88 -60.5 -144.5t-179.5 -94.5 l-229 -78v-157q0 -212 44.5 -301t147.5 -89q29 0 51 4t47.5 19t42 41t27.5 74t11 113v82h108v-79q0 -79 -14 -139t-46 -106.5t-89 -70.5t-138 -24q-101 0 -172 56t-88 183q-16 -65 -47 -113.5t-70.5 -74.5t-79.5 -38.5t-81 -12.5h-10q-107 2 -172.5 73t-65.5 186zM185 250 q2 -97 48 -140.5t109 -43.5q33 0 63.5 10.5t59.5 38t50.5 69t34.5 108.5t13 152v145q-4 -1 -75 -29.5t-75 -29.5q-75 -30 -121.5 -60t-69.5 -63.5t-30 -64.5t-7 -77v-15zM672 687l210 73q92 31 125.5 70t33.5 109q0 75 -42 126t-132 51q-103 0 -149 -71.5t-46 -258.5v-99z " />
<glyph unicode="&#xe7;" horiz-adv-x="768" d="M94 445v278q0 266 64.5 373t234.5 107q72 0 124.5 -19.5t83.5 -52t49.5 -83.5t25 -104t6.5 -124v-48h-102v47q0 174 -42.5 238t-143.5 64q-116 0 -153.5 -82.5t-37.5 -302.5v-307q0 -202 39.5 -284t152.5 -82q114 0 149.5 73t35.5 261v46h102v-44q0 -56 -2.5 -98 t-9.5 -88t-20 -78.5t-34.5 -63t-51.5 -49.5t-73.5 -30t-97.5 -11q-78 0 -133.5 24.5t-87 63.5t-49.5 102.5t-23.5 125t-5.5 148.5zM314 -320q18 -1 50 -1q69 0 100 17t34 56v10q0 90 -140 111v127h60v-97q76 -10 120 -53t44 -97v-8q-6 -126 -200 -126q-32 0 -68 3v58z" />
<glyph unicode="&#xe8;" d="M94 438v316q0 109 14 189t38.5 129.5t64 79t83.5 40.5t104 11q163 0 227 -106.5t64 -364.5l-2 -113h-484v-189q0 -209 43.5 -288t148.5 -79q30 0 52.5 4t49.5 18.5t44 40t28.5 73t11.5 113.5v88h107v-78q0 -164 -67 -252.5t-225 -88.5q-59 0 -104 12.5t-83.5 43.5t-63 82 t-38 131t-13.5 188zM198 1722h110l112 -397h-57zM203 684h378v92q0 71 -3 118t-14 94t-30.5 73.5t-53.5 43t-82 16.5q-71 0 -111 -27.5t-62 -104t-22 -215.5v-90z" />
<glyph unicode="&#xe9;" d="M94 438v316q0 109 14 189t38.5 129.5t64 79t83.5 40.5t104 11q163 0 227 -106.5t64 -364.5l-2 -113h-484v-189q0 -209 43.5 -288t148.5 -79q30 0 52.5 4t49.5 18.5t44 40t28.5 73t11.5 113.5v88h107v-78q0 -164 -67 -252.5t-225 -88.5q-59 0 -104 12.5t-83.5 43.5t-63 82 t-38 131t-13.5 188zM203 684h378v92q0 71 -3 118t-14 94t-30.5 73.5t-53.5 43t-82 16.5q-71 0 -111 -27.5t-62 -104t-22 -215.5v-90zM363 1325l132 397h110l-185 -397h-57z" />
<glyph unicode="&#xea;" d="M94 438v316q0 109 14 189t38.5 129.5t64 79t83.5 40.5t104 11q163 0 227 -106.5t64 -364.5l-2 -113h-484v-189q0 -209 43.5 -288t148.5 -79q30 0 52.5 4t49.5 18.5t44 40t28.5 73t11.5 113.5v88h107v-78q0 -164 -67 -252.5t-225 -88.5q-59 0 -104 12.5t-83.5 43.5t-63 82 t-38 131t-13.5 188zM149 1325l177 367h136l173 -367h-77l-165 313l-164 -313h-80zM203 684h378v92q0 71 -3 118t-14 94t-30.5 73.5t-53.5 43t-82 16.5q-71 0 -111 -27.5t-62 -104t-22 -215.5v-90z" />
<glyph unicode="&#xeb;" d="M94 438v316q0 109 14 189t38.5 129.5t64 79t83.5 40.5t104 11q163 0 227 -106.5t64 -364.5l-2 -113h-484v-189q0 -209 43.5 -288t148.5 -79q30 0 52.5 4t49.5 18.5t44 40t28.5 73t11.5 113.5v88h107v-78q0 -164 -67 -252.5t-225 -88.5q-59 0 -104 12.5t-83.5 43.5t-63 82 t-38 131t-13.5 188zM171 1325v154h114v-154h-114zM203 684h378v92q0 71 -3 118t-14 94t-30.5 73.5t-53.5 43t-82 16.5q-71 0 -111 -27.5t-62 -104t-22 -215.5v-90zM498 1325v154h114v-154h-114z" />
<glyph unicode="&#xec;" horiz-adv-x="372" d="M-6 1722h110l112 -397h-57zM133 0v1184h109v-1184h-109z" />
<glyph unicode="&#xed;" horiz-adv-x="372" d="M133 0v1184h109v-1184h-109zM159 1325l132 397h110l-185 -397h-57z" />
<glyph unicode="&#xee;" horiz-adv-x="372" d="M-55 1325l177 367h136l173 -367h-77l-165 313l-164 -313h-80zM133 0v1184h109v-1184h-109z" />
<glyph unicode="&#xef;" horiz-adv-x="372" d="M-33 1325v154h114v-154h-114zM133 0v1184h109v-1184h-109zM294 1325v154h114v-154h-114z" />
<glyph unicode="&#xf0;" horiz-adv-x="880" d="M113 452v5v161q1 521 312 521q98 0 201 -55q-28 198 -72 280l-209 -57v68l180 48q-43 90 -131 137t-228 60l6 75q162 -9 271 -64.5t170 -178.5l165 44v-69l-137 -36q39 -92 77.5 -286t38.5 -426v-171q0 -275 -68.5 -402.5t-247.5 -127.5q-174 0 -251 122t-77 352z M219 527q0 -238 54 -349.5t171 -111.5q54 0 90.5 18.5t60 53.5t35.5 100.5t16.5 143t4.5 198.5q0 72 -8.5 238t-11.5 183q-98 41 -144 48q-19 3 -37 3q-78 0 -128 -49t-76.5 -166t-26.5 -310z" />
<glyph unicode="&#xf1;" horiz-adv-x="801" d="M116 0v1184h109v-127q124 146 281 146q85 0 135.5 -62.5t50.5 -196.5v-944h-109v932q0 103 -31.5 144.5t-92.5 41.5q-58 0 -119 -35.5t-115 -95.5v-987h-109zM162 1340q0 13 2.5 29.5t10.5 40t21 42t37.5 31.5t55.5 13q18 0 28 -2q36 -5 98 -48t83 -46q5 -1 14 -1 q61 0 65 92h70q0 -23 -4.5 -46.5t-17 -53t-41.5 -48t-71 -18.5q-13 0 -20 1q-39 3 -100 46.5t-81 46.5q-6 2 -18 2q-26 0 -41.5 -21t-15.5 -60h-75z" />
<glyph unicode="&#xf2;" horiz-adv-x="784" d="M94 432v320q0 234 64.5 342.5t233.5 108.5q87 0 145.5 -28t92 -87.5t47 -139.5t13.5 -196v-320q0 -235 -64 -343t-234 -108t-234 108t-64 343zM198 1722h110l112 -397h-57zM203 428q0 -64 2 -107t8.5 -88.5t19.5 -73.5t33.5 -51.5t52 -34t73.5 -10.5t73.5 10.5t52 34 t33.5 51.5t19.5 73.5t8.5 88.5t2 107v328q0 77 -3 126.5t-14 99t-31 77.5t-55 45t-86 17t-86 -17t-55 -45t-31 -77.5t-14 -99t-3 -126.5v-328z" />
<glyph unicode="&#xf3;" horiz-adv-x="784" d="M94 432v320q0 234 64.5 342.5t233.5 108.5q87 0 145.5 -28t92 -87.5t47 -139.5t13.5 -196v-320q0 -235 -64 -343t-234 -108t-234 108t-64 343zM203 428q0 -64 2 -107t8.5 -88.5t19.5 -73.5t33.5 -51.5t52 -34t73.5 -10.5t73.5 10.5t52 34t33.5 51.5t19.5 73.5t8.5 88.5 t2 107v328q0 77 -3 126.5t-14 99t-31 77.5t-55 45t-86 17t-86 -17t-55 -45t-31 -77.5t-14 -99t-3 -126.5v-328zM363 1325l132 397h110l-185 -397h-57z" />
<glyph unicode="&#xf4;" horiz-adv-x="784" d="M94 432v320q0 234 64.5 342.5t233.5 108.5q87 0 145.5 -28t92 -87.5t47 -139.5t13.5 -196v-320q0 -235 -64 -343t-234 -108t-234 108t-64 343zM149 1325l177 367h136l173 -367h-77l-165 313l-164 -313h-80zM203 428q0 -64 2 -107t8.5 -88.5t19.5 -73.5t33.5 -51.5t52 -34 t73.5 -10.5t73.5 10.5t52 34t33.5 51.5t19.5 73.5t8.5 88.5t2 107v328q0 77 -3 126.5t-14 99t-31 77.5t-55 45t-86 17t-86 -17t-55 -45t-31 -77.5t-14 -99t-3 -126.5v-328z" />
<glyph unicode="&#xf5;" horiz-adv-x="784" d="M94 432v320q0 234 64.5 342.5t233.5 108.5q87 0 145.5 -28t92 -87.5t47 -139.5t13.5 -196v-320q0 -235 -64 -343t-234 -108t-234 108t-64 343zM150 1340q0 13 2.5 29.5t10.5 40t21 42t37.5 31.5t55.5 13q18 0 28 -2q36 -5 98 -48t83 -46q5 -1 14 -1q61 0 65 92h70 q0 -23 -4.5 -46.5t-17 -53t-41.5 -48t-71 -18.5q-13 0 -20 1q-39 3 -100 46.5t-81 46.5q-6 2 -18 2q-26 0 -41.5 -21t-15.5 -60h-75zM203 428q0 -64 2 -107t8.5 -88.5t19.5 -73.5t33.5 -51.5t52 -34t73.5 -10.5t73.5 10.5t52 34t33.5 51.5t19.5 73.5t8.5 88.5t2 107v328 q0 77 -3 126.5t-14 99t-31 77.5t-55 45t-86 17t-86 -17t-55 -45t-31 -77.5t-14 -99t-3 -126.5v-328z" />
<glyph unicode="&#xf6;" horiz-adv-x="784" d="M94 432v320q0 234 64.5 342.5t233.5 108.5q87 0 145.5 -28t92 -87.5t47 -139.5t13.5 -196v-320q0 -235 -64 -343t-234 -108t-234 108t-64 343zM171 1325v154h114v-154h-114zM203 428q0 -64 2 -107t8.5 -88.5t19.5 -73.5t33.5 -51.5t52 -34t73.5 -10.5t73.5 10.5t52 34 t33.5 51.5t19.5 73.5t8.5 88.5t2 107v328q0 77 -3 126.5t-14 99t-31 77.5t-55 45t-86 17t-86 -17t-55 -45t-31 -77.5t-14 -99t-3 -126.5v-328zM498 1325v154h114v-154h-114z" />
<glyph unicode="&#xf7;" horiz-adv-x="678" d="M61 812v88h555v-88h-555zM289 431v160h101v-160h-101zM289 1097v161h101v-161h-101z" />
<glyph unicode="&#xf8;" horiz-adv-x="784" d="M94 432v320q0 234 64.5 342.5t233.5 108.5q125 0 193 -60l58 155l44 -17l-66 -178q69 -102 69 -351v-320q0 -235 -64 -343t-234 -108q-108 0 -173 44l-59 -159l-41 16l64 174q-33 36 -53 91.5t-28 124t-8 160.5zM203 428q0 -180 24 -253l319 860q-42 86 -154 86 q-51 0 -86 -17t-55 -45t-31 -77.5t-14 -99t-3 -126.5v-328zM255 121q43 -58 137 -58q42 0 73.5 10.5t52 34t33.5 51.5t19.5 73.5t8.5 88.5t2 107v328q0 139 -13 206z" />
<glyph unicode="&#xf9;" horiz-adv-x="808" d="M106 240v944h109v-932q0 -103 31.5 -144.5t92.5 -41.5t124.5 38.5t119.5 103.5v976h108v-1184h-108v139q-59 -74 -134 -116t-157 -42q-85 0 -135.5 62.5t-50.5 196.5zM205 1722h110l112 -397h-57z" />
<glyph unicode="&#xfa;" horiz-adv-x="808" d="M106 240v944h109v-932q0 -103 31.5 -144.5t92.5 -41.5t124.5 38.5t119.5 103.5v976h108v-1184h-108v139q-59 -74 -134 -116t-157 -42q-85 0 -135.5 62.5t-50.5 196.5zM370 1325l132 397h110l-185 -397h-57z" />
<glyph unicode="&#xfb;" horiz-adv-x="808" d="M106 240v944h109v-932q0 -103 31.5 -144.5t92.5 -41.5t124.5 38.5t119.5 103.5v976h108v-1184h-108v139q-59 -74 -134 -116t-157 -42q-85 0 -135.5 62.5t-50.5 196.5zM155 1325l177 367h136l173 -367h-77l-165 313l-164 -313h-80z" />
<glyph unicode="&#xfc;" horiz-adv-x="808" d="M106 240v944h109v-932q0 -103 31.5 -144.5t92.5 -41.5t124.5 38.5t119.5 103.5v976h108v-1184h-108v139q-59 -74 -134 -116t-157 -42q-85 0 -135.5 62.5t-50.5 196.5zM178 1325v154h114v-154h-114zM505 1325v154h114v-154h-114z" />
<glyph unicode="&#xfd;" horiz-adv-x="767" d="M49 1184h107l234 -1081l224 1081h109l-289 -1281q-24 -105 -97 -151.5t-216 -46.5h-45v88q104 0 161.5 17t76 45t18.5 76q0 16 -1 25q-3 31 -34 164q-58 238 -248 1064zM357 1325l132 397h110l-185 -397h-57z" />
<glyph unicode="&#xfe;" horiz-adv-x="815" d="M118 -390v2048h109v-575q91 120 227 120q64 0 111.5 -23t77 -63t47.5 -103t24.5 -134.5t6.5 -165.5v-227q0 -260 -62 -383t-216 -123q-123 0 -216 117v-488h-109zM227 173q88 -107 204 -107q106 0 143.5 95.5t37.5 322.5v231q0 90 -4 151t-15 112t-31.5 80t-52 44.5 t-77.5 15.5q-105 0 -205 -110v-835z" />
<glyph unicode="&#xff;" horiz-adv-x="767" d="M49 1184h107l234 -1081l224 1081h109l-289 -1281q-24 -105 -97 -151.5t-216 -46.5h-45v88q104 0 161.5 17t76 45t18.5 76q0 16 -1 25q-3 31 -34 164q-58 238 -248 1064zM165 1325v154h114v-154h-114zM492 1325v154h114v-154h-114z" />
<glyph unicode="&#x152;" horiz-adv-x="1270" d="M118 468v714q0 87 13.5 157.5t44.5 131t79 101t120.5 63.5t165.5 23h666v-92h-403v-655h336v-87h-336v-732h405v-92h-663q-121 0 -206.5 34.5t-133 100t-68 146.5t-20.5 187zM230 468q0 -90 14.5 -155t49 -116.5t97.5 -77t156 -25.5h146v1473h-147q-94 0 -157.5 -26.5 t-97.5 -80.5t-47.5 -121.5t-13.5 -162.5v-708z" />
<glyph unicode="&#x153;" horiz-adv-x="1284" d="M102 431v322q0 233 64.5 341.5t233.5 108.5q199 0 246 -183q54 183 251 183q161 0 226 -106t65 -362l-2 -114h-486v-164q0 -211 44 -299t148 -90h8q29 0 50 3.5t47 17.5t42.5 39t28 71.5t11.5 110.5v90h108v-88q0 -160 -66.5 -245.5t-221.5 -85.5h-7q-195 2 -245 194 q-45 -194 -247 -194q-169 0 -233.5 107.5t-64.5 342.5zM211 431q0 -77 3 -126t14 -98.5t31 -77t55 -44.5t86 -17t86.5 17t55.5 44.5t31.5 77t14.5 99t3 125.5v322q0 76 -3 125.5t-14.5 99t-31.5 77t-55.5 44.5t-86.5 17t-86 -17t-55 -44.5t-31 -77t-14 -98.5t-3 -126v-322z M700 684h379v72q0 58 -2 98.5t-8 85.5t-18.5 74t-32.5 54t-51 36.5t-72 11.5q-105 0 -150 -78t-45 -272v-82z" />
<glyph unicode="&#x178;" horiz-adv-x="946" d="M41 1658h115l325 -995l310 995h114l-370 -1128v-530h-111v530zM253 1799v154h114v-154h-114zM580 1799v154h114v-154h-114z" />
<glyph unicode="&#x2c6;" horiz-adv-x="656" d="M81 1283l177 375h136l173 -375h-77l-165 321l-164 -321h-80z" />
<glyph unicode="&#x2dc;" horiz-adv-x="743" d="M126 1507q0 13 2.5 29.5t10.5 40t21 42t37.5 31.5t55.5 13q18 0 28 -2q36 -5 98 -48t83 -46q5 -1 14 -1q61 0 65 92h70q0 -23 -4.5 -46.5t-17 -53t-41.5 -48t-71 -18.5q-13 0 -20 1q-39 3 -100 46.5t-81 46.5q-6 2 -18 2q-26 0 -41.5 -21t-15.5 -60h-75z" />
<glyph unicode="&#x2000;" horiz-adv-x="1098" />
<glyph unicode="&#x2001;" horiz-adv-x="2196" />
<glyph unicode="&#x2002;" horiz-adv-x="1098" />
<glyph unicode="&#x2003;" horiz-adv-x="2196" />
<glyph unicode="&#x2004;" horiz-adv-x="732" />
<glyph unicode="&#x2005;" horiz-adv-x="549" />
<glyph unicode="&#x2006;" horiz-adv-x="366" />
<glyph unicode="&#x2007;" horiz-adv-x="366" />
<glyph unicode="&#x2008;" horiz-adv-x="274" />
<glyph unicode="&#x2009;" horiz-adv-x="439" />
<glyph unicode="&#x200a;" horiz-adv-x="122" />
<glyph unicode="&#x2010;" horiz-adv-x="580" d="M79 653v90h423v-90h-423z" />
<glyph unicode="&#x2011;" horiz-adv-x="580" d="M79 653v90h423v-90h-423z" />
<glyph unicode="&#x2012;" horiz-adv-x="580" d="M79 653v90h423v-90h-423z" />
<glyph unicode="&#x2013;" horiz-adv-x="935" d="M122 438v97h708v-97h-708z" />
<glyph unicode="&#x2014;" horiz-adv-x="1529" d="M122 476v95h1302v-95h-1302z" />
<glyph unicode="&#x2018;" horiz-adv-x="464" d="M106 1288v154q0 114 24.5 175t93.5 94l32 -36q-52 -34 -67.5 -75.5t-15.5 -127.5h66v-184h-133z" />
<glyph unicode="&#x2019;" horiz-adv-x="313" d="M95 1271q52 33 67.5 75t15.5 128h-66v184h133v-154q0 -115 -24.5 -176t-92.5 -93z" />
<glyph unicode="&#x201a;" horiz-adv-x="572" d="M221 -190q52 33 67.5 75t15.5 128h-66v184h133v-154q0 -115 -24.5 -176t-93.5 -93z" />
<glyph unicode="&#x201c;" horiz-adv-x="681" d="M133 1288v154q0 115 24.5 175.5t92.5 93.5l33 -36q-52 -34 -67.5 -75.5t-15.5 -127.5h66v-184h-133zM403 1288v154q0 114 24.5 175t93.5 94l32 -36q-52 -34 -67.5 -75.5t-15.5 -127.5h67v-184h-134z" />
<glyph unicode="&#x201d;" horiz-adv-x="970" d="M299 1270q52 34 67.5 75.5t15.5 127.5h-66v185h133v-154q0 -115 -24.5 -176t-93.5 -93zM539 1270q52 34 67.5 75.5t15.5 127.5h-66v185h133v-154q0 -115 -24.5 -176t-93.5 -93z" />
<glyph unicode="&#x201e;" horiz-adv-x="730" d="M168 -191q52 33 67.5 75t15.5 128h-67v184h134v-154q0 -115 -24.5 -176t-93.5 -93zM441 -191q52 33 67.5 75t15.5 128h-67v184h134v-154q0 -115 -24.5 -176t-93.5 -93z" />
<glyph unicode="&#x2022;" horiz-adv-x="543" d="M117 797q0 68 40.5 113t113.5 45q74 0 115 -45t41 -113t-41 -113t-115 -45q-73 0 -113.5 45t-40.5 113z" />
<glyph unicode="&#x2026;" horiz-adv-x="1061" d="M129 0v213h122v-213h-122zM484 0v213h122v-213h-122zM838 0v213h122v-213h-122z" />
<glyph unicode="&#x202f;" horiz-adv-x="439" />
<glyph unicode="&#x2039;" horiz-adv-x="730" d="M272 658v43l365 425v-140l-265 -306l265 -308v-140z" />
<glyph unicode="&#x203a;" horiz-adv-x="677" d="M170 263v140l265 306l-265 308v140l365 -426v-43z" />
<glyph unicode="&#x205f;" horiz-adv-x="549" />
<glyph unicode="&#x20ac;" horiz-adv-x="985" d="M-20 634v66h138v304h-138v66h138v111q0 90 11.5 162t39.5 136t73.5 106.5t116 67t164.5 24.5q106 0 180.5 -32.5t117 -96t61.5 -146t19 -192.5v-71h-106v72q0 190 -59 282.5t-213 92.5q-88 0 -147 -27.5t-90 -82.5t-43 -121.5t-12 -160.5v-124h293v-66h-293v-304h293v-66 h-293v-174q0 -77 8 -135t28 -107.5t53 -81t84 -49t119 -17.5q81 0 135.5 26t83.5 78t41 116.5t12 155.5v87h106v-69q0 -89 -10.5 -159.5t-37 -133t-68.5 -104t-108.5 -65.5t-153.5 -24q-96 0 -168 26t-116.5 69.5t-72 109t-38 136t-10.5 159.5v156h-138z" />
<glyph unicode="&#x2122;" horiz-adv-x="1409" d="M52 1580v78h463v-78h-178v-816h-93v816h-192zM619 764v894h99l242 -734l246 734h97v-894h-80v717l-242 -717h-40l-241 704v-704h-81z" />
<glyph unicode="&#x25fc;" horiz-adv-x="1185" d="M0 0v1185h1185v-1185h-1185z" />
<glyph unicode="&#xfb01;" horiz-adv-x="879" d="M35 1107v77h160v160q0 66 6.5 108.5t26 82t61 58.5t105.5 19q51 0 102 -14v-83q-51 11 -86 11q-67 0 -87 -37.5t-20 -142.5v-162h431v-1184h-109v1107h-322v-1107h-108v1107h-160zM631 1339v189h103v-189h-103z" />
<glyph unicode="&#xfb02;" horiz-adv-x="910" d="M35 1107v77h160v160q0 34 1.5 58t8.5 56t19.5 54.5t35.5 46t54.5 38t79.5 24t109 9.5q111 0 272 -32v-1598h-109v1535q-93 12 -154 12q-50 0 -86 -6.5t-58.5 -22t-36 -31.5t-19.5 -44t-7.5 -49t-1.5 -57v-153h198v-77h-198v-1107h-108v1107h-160z" />
<glyph unicode="&#xfb03;" horiz-adv-x="1396" d="M35 1107v77h160v160q0 53 2.5 86.5t13.5 71.5t31 59.5t56.5 36t88.5 14.5q58 0 109 -14v-83q-65 12 -87 12q-66 0 -86 -39t-20 -142v-162h369v160q0 53 2.5 86.5t13.5 71.5t31 59.5t56.5 36t88.5 14.5q58 0 109 -14v-83q-65 12 -87 12q-66 0 -86 -39t-20 -142v-162h471 v-1184h-109v1107h-362v-1107h-108v1107h-369v-1107h-108v1107h-160zM1142 1339v189h109v-189h-109z" />
<glyph unicode="&#xfb04;" horiz-adv-x="1589" d="M35 1107v77h160v160q0 53 2.5 86.5t13.5 71.5t31 59.5t56.5 36t88.5 14.5q58 0 109 -14v-83q-65 12 -87 12q-66 0 -86 -39t-20 -142v-162h198v-77h-198v-1107h-108v1107h-160zM520 1107v77h160v160q0 53 2.5 86.5t13.5 71.5t31 59.5t56.5 36t88.5 14.5q58 0 109 -14v-83 q-65 12 -87 12q-66 0 -86 -39t-20 -142v-162h198v-77h-198v-1107h-108v1107h-160zM1178 0v1184h109v-1184h-109zM1178 1339v189h109v-189h-109z" />
</font>
</defs>
</svg>
